osu file format v14

[General]
AudioFilename: audio.mp3
AudioLeadIn: 0
PreviewTime: 105564
Countdown: 1
SampleSet: Normal
StackLeniency: 1
Mode: 1
LetterboxInBreaks: 0
WidescreenStoryboard: 1

[Editor]
DistanceSpacing: 0.4
BeatDivisor: 2
GridSize: 32
TimelineZoom: 1.5

[Metadata]
Title:The Big Black
TitleUnicode:The Big Black
Artist:The Quick Brown Fox
ArtistUnicode:The Quick Brown Fox
Creator:Zing
Version:Oni
Source:
Tags:
BeatmapID:1214994
BeatmapSetID:573555

[Difficulty]
HPDrainRate:6
CircleSize:5
OverallDifficulty:5
ApproachRate:5
SliderMultiplier:1.4
SliderTickRate:2

[Events]
//Background and Video events
0,0,"p1tchb1ack.jpg",0,0
//Break Periods
//Storyboard Layer 0 (Background)
//Storyboard Layer 1 (Fail)
//Storyboard Layer 2 (Pass)
//Storyboard Layer 3 (Foreground)
//Storyboard Sound Samples

[TimingPoints]
6980,166.527893422148,4,1,0,100,1,0
6980,-200,4,1,0,100,0,0
62933,-200,4,1,0,100,0,1
84248,-200,4,1,0,100,0,0
133541,-200,4,1,0,100,0,1
138870,-200,4,1,0,100,0,0

[HitObjects]
256,192,6980,5,4,0:0:0:0:
256,192,7146,1,0,0:0:0:0:
256,192,7313,1,12,0:0:0:0:
256,192,7479,1,8,0:0:0:0:
256,192,7562,1,8,0:0:0:0:
256,192,7646,1,0,0:0:0:0:
256,192,7812,1,0,0:0:0:0:
256,192,7979,1,8,0:0:0:0:
256,192,8145,1,8,0:0:0:0:
256,192,8312,1,0,0:0:0:0:
256,192,8395,1,0,0:0:0:0:
256,192,8478,1,0,0:0:0:0:
256,192,8645,1,8,0:0:0:0:
256,192,8811,1,8,0:0:0:0:
256,192,8895,1,8,0:0:0:0:
256,192,8978,1,0,0:0:0:0:
256,192,9144,1,8,0:0:0:0:
256,192,9228,1,8,0:0:0:0:
256,192,9311,1,0,0:0:0:0:
256,192,9477,1,0,0:0:0:0:
256,192,9644,1,0,0:0:0:0:
256,192,9727,1,0,0:0:0:0:
256,192,9810,1,0,0:0:0:0:
256,192,9977,1,8,0:0:0:0:
256,192,10144,1,8,0:0:0:0:
256,192,10227,1,8,0:0:0:0:
256,192,10310,1,0,0:0:0:0:
256,192,10477,1,8,0:0:0:0:
256,192,10643,1,0,0:0:0:0:
256,192,10810,1,8,0:0:0:0:
256,192,10976,1,0,0:0:0:0:
256,192,11059,1,0,0:0:0:0:
256,192,11143,1,8,0:0:0:0:
256,192,11309,1,0,0:0:0:0:
256,192,11392,1,0,0:0:0:0:
256,192,11476,1,8,0:0:0:0:
256,192,11642,1,0,0:0:0:0:
256,192,11726,1,0,0:0:0:0:
256,192,11809,1,8,0:0:0:0:
256,192,11975,1,8,0:0:0:0:
256,192,12059,1,0,0:0:0:0:
256,192,12142,1,8,0:0:0:0:
256,192,12308,1,4,0:0:0:0:
256,192,12475,1,0,0:0:0:0:
256,192,12641,1,4,0:0:0:0:
256,192,12808,1,8,0:0:0:0:
256,192,12891,1,8,0:0:0:0:
256,192,12975,1,0,0:0:0:0:
256,192,13141,1,8,0:0:0:0:
256,192,13308,1,0,0:0:0:0:
256,192,13474,1,8,0:0:0:0:
256,192,13641,1,0,0:0:0:0:
256,192,13724,1,0,0:0:0:0:
256,192,13807,1,0,0:0:0:0:
224,192,13974,1,8,0:0:0:0:
256,192,14140,1,8,0:0:0:0:
256,192,14223,1,8,0:0:0:0:
256,192,14307,1,0,0:0:0:0:
256,192,14473,1,8,0:0:0:0:
256,192,14557,1,8,0:0:0:0:
256,192,14640,1,0,0:0:0:0:
256,192,14806,1,0,0:0:0:0:
256,192,14973,1,4,0:0:0:0:
256,192,15306,1,8,0:0:0:0:
256,192,15472,1,8,0:0:0:0:
256,192,15639,1,4,0:0:0:0:
256,192,15972,1,8,0:0:0:0:
256,192,16139,1,8,0:0:0:0:
256,192,16305,1,4,0:0:0:0:
256,192,16472,1,8,0:0:0:0:
256,192,16638,1,4,0:0:0:0:
256,192,16805,1,8,0:0:0:0:
256,192,16971,1,4,0:0:0:0:
256,192,17138,1,4,0:0:0:0:
256,192,17304,1,0,0:0:0:0:
256,192,17387,1,0,0:0:0:0:
256,192,17471,1,0,0:0:0:0:
256,192,17637,1,4,0:0:0:0:
256,192,17804,2,0,L|320:192,4,35
256,192,18303,1,4,0:0:0:0:
256,192,18636,1,8,0:0:0:0:
256,192,18720,1,8,0:0:0:0:
256,192,18803,1,8,0:0:0:0:
256,192,18970,1,0,0:0:0:0:
256,192,19053,1,0,0:0:0:0:
256,192,19136,1,0,0:0:0:0:
256,192,19219,1,0,0:0:0:0:
256,192,19303,1,8,0:0:0:0:
256,192,19469,1,0,0:0:0:0:
256,192,19636,1,0,0:0:0:0:
256,192,19719,1,0,0:0:0:0:
256,192,19802,1,0,0:0:0:0:
256,192,19969,1,8,0:0:0:0:
256,192,20052,1,8,0:0:0:0:
256,192,20135,1,8,0:0:0:0:
256,192,20218,1,8,0:0:0:0:
256,192,20302,1,0,0:0:0:0:
256,192,20385,1,0,0:0:0:0:
256,192,20468,1,0,0:0:0:0:
256,192,20635,1,0,0:0:0:0:
256,192,20718,1,0,0:0:0:0:
256,192,20801,1,0,0:0:0:0:
256,192,20968,1,0,0:0:0:0:
256,192,21134,1,0,0:0:0:0:
256,192,21301,1,8,0:0:0:0:
256,192,21384,1,8,0:0:0:0:
256,192,21467,1,0,0:0:0:0:
256,192,21634,1,0,0:0:0:0:
256,192,21717,1,0,0:0:0:0:
256,192,21800,1,0,0:0:0:0:
256,192,21967,1,8,0:0:0:0:
256,192,22050,1,0,0:0:0:0:
256,192,22134,1,0,0:0:0:0:
256,192,22300,1,0,0:0:0:0:
256,192,22383,1,0,0:0:0:0:
256,192,22467,1,0,0:0:0:0:
256,192,22633,1,8,0:0:0:0:
256,192,22716,1,0,0:0:0:0:
256,192,22800,1,8,0:0:0:0:
256,192,22966,1,0,0:0:0:0:
256,192,23049,1,0,0:0:0:0:
256,192,23133,1,8,0:0:0:0:
256,192,23216,1,8,0:0:0:0:
256,192,23299,1,0,0:0:0:0:
256,192,23382,1,0,0:0:0:0:
256,192,23466,1,0,0:0:0:0:
256,192,23632,1,8,0:0:0:0:
256,192,23716,1,0,0:0:0:0:
256,192,23799,1,8,0:0:0:0:
256,192,23882,1,0,0:0:0:0:
256,192,23965,1,0,0:0:0:0:
256,192,24132,1,0,0:0:0:0:
256,192,24298,1,0,0:0:0:0:
256,192,24382,1,0,0:0:0:0:
256,192,24465,1,0,0:0:0:0:
256,192,24631,1,8,0:0:0:0:
256,192,24715,1,0,0:0:0:0:
256,192,24798,1,0,0:0:0:0:
256,192,24965,1,8,0:0:0:0:
256,192,25048,1,8,0:0:0:0:
256,192,25131,1,0,0:0:0:0:
256,192,25214,1,0,0:0:0:0:
256,192,25298,1,8,0:0:0:0:
256,192,25381,1,8,0:0:0:0:
256,192,25464,1,0,0:0:0:0:
256,192,25631,1,0,0:0:0:0:
256,192,25714,1,0,0:0:0:0:
256,192,25797,1,0,0:0:0:0:
256,192,25964,1,0,0:0:0:0:
256,192,26047,1,0,0:0:0:0:
256,192,26130,1,0,0:0:0:0:
256,192,26297,1,8,0:0:0:0:
256,192,26380,1,0,0:0:0:0:
256,192,26463,1,8,0:0:0:0:
256,192,26547,1,0,0:0:0:0:
256,192,26630,1,8,0:0:0:0:
256,192,26713,1,8,0:0:0:0:
256,192,26796,1,8,0:0:0:0:
256,192,26963,1,0,0:0:0:0:
256,192,27046,1,0,0:0:0:0:
256,192,27129,1,0,0:0:0:0:
256,192,27296,1,8,0:0:0:0:
256,192,27379,1,0,0:0:0:0:
256,192,27462,1,0,0:0:0:0:
256,192,27629,1,0,0:0:0:0:
256,192,27712,1,0,0:0:0:0:
256,192,27795,1,0,0:0:0:0:
256,192,27879,1,0,0:0:0:0:
256,192,27962,1,8,0:0:0:0:
256,192,28045,1,0,0:0:0:0:
256,192,28129,1,8,0:0:0:0:
256,192,28295,1,0,0:0:0:0:
256,192,28378,1,0,0:0:0:0:
256,192,28462,1,8,0:0:0:0:
256,192,28545,1,8,0:0:0:0:
256,192,28628,1,0,0:0:0:0:
256,192,28795,1,0,0:0:0:0:
256,192,28878,1,8,0:0:0:0:
256,192,28961,1,8,0:0:0:0:
256,192,29044,1,0,0:0:0:0:
256,192,29128,1,8,0:0:0:0:
256,192,29211,1,0,0:0:0:0:
256,192,29294,1,0,0:0:0:0:
256,192,29627,1,0,0:0:0:0:
256,192,29710,1,0,0:0:0:0:
256,192,29793,1,0,0:0:0:0:
256,192,29876,1,0,0:0:0:0:
256,192,29960,1,8,0:0:0:0:
256,192,30126,1,0,0:0:0:0:
256,192,30293,1,0,0:0:0:0:
256,192,30376,1,0,0:0:0:0:
256,192,30459,1,0,0:0:0:0:
256,192,30626,1,8,0:0:0:0:
256,192,30709,1,8,0:0:0:0:
256,192,30792,1,8,0:0:0:0:
256,192,30875,1,8,0:0:0:0:
256,192,30959,1,0,0:0:0:0:
256,192,31042,1,0,0:0:0:0:
256,192,31125,1,0,0:0:0:0:
256,192,31292,1,0,0:0:0:0:
256,192,31375,1,0,0:0:0:0:
256,192,31458,1,0,0:0:0:0:
256,192,31625,1,0,0:0:0:0:
256,192,31791,1,0,0:0:0:0:
256,192,31958,1,8,0:0:0:0:
256,192,32041,1,8,0:0:0:0:
256,192,32124,1,0,0:0:0:0:
256,192,32291,1,0,0:0:0:0:
256,192,32374,1,0,0:0:0:0:
256,192,32457,1,0,0:0:0:0:
256,192,32624,1,8,0:0:0:0:
256,192,32707,1,0,0:0:0:0:
256,192,32791,1,0,0:0:0:0:
256,192,32957,1,0,0:0:0:0:
256,192,33040,1,0,0:0:0:0:
256,192,33124,1,0,0:0:0:0:
256,192,33290,1,8,0:0:0:0:
256,192,33373,1,0,0:0:0:0:
256,192,33457,1,8,0:0:0:0:
256,192,33623,1,0,0:0:0:0:
256,192,33706,1,0,0:0:0:0:
256,192,33790,1,8,0:0:0:0:
256,192,33873,1,8,0:0:0:0:
256,192,33956,1,0,0:0:0:0:
256,192,34039,1,0,0:0:0:0:
256,192,34123,1,0,0:0:0:0:
256,192,34289,1,8,0:0:0:0:
256,192,34373,1,0,0:0:0:0:
256,192,34456,1,8,0:0:0:0:
256,192,34539,1,0,0:0:0:0:
256,192,34622,1,0,0:0:0:0:
256,192,34789,1,0,0:0:0:0:
256,192,34955,1,0,0:0:0:0:
256,192,35039,1,0,0:0:0:0:
256,192,35122,1,0,0:0:0:0:
256,192,35288,1,8,0:0:0:0:
256,192,35372,1,0,0:0:0:0:
256,192,35455,1,0,0:0:0:0:
256,192,35622,1,8,0:0:0:0:
256,192,35705,1,8,0:0:0:0:
256,192,35788,1,0,0:0:0:0:
256,192,35871,1,0,0:0:0:0:
256,192,35955,1,8,0:0:0:0:
256,192,36038,1,8,0:0:0:0:
256,192,36121,1,0,0:0:0:0:
256,192,36288,1,0,0:0:0:0:
256,192,36371,1,0,0:0:0:0:
256,192,36454,1,0,0:0:0:0:
256,192,36621,1,0,0:0:0:0:
256,192,36704,1,0,0:0:0:0:
256,192,36787,1,0,0:0:0:0:
256,192,36954,1,8,0:0:0:0:
256,192,37037,1,0,0:0:0:0:
256,192,37120,1,8,0:0:0:0:
256,192,37204,1,0,0:0:0:0:
256,192,37287,1,8,0:0:0:0:
256,192,37370,1,8,0:0:0:0:
256,192,37453,1,8,0:0:0:0:
256,192,37620,1,8,0:0:0:0:
256,192,37703,1,0,0:0:0:0:
256,192,37786,1,8,0:0:0:0:
256,192,37953,1,0,0:0:0:0:
256,192,38036,1,0,0:0:0:0:
256,192,38119,1,8,0:0:0:0:
256,192,38203,1,0,0:0:0:0:
256,192,38286,1,8,0:0:0:0:
256,192,38452,1,0,0:0:0:0:
256,192,38536,1,0,0:0:0:0:
256,192,38619,1,8,0:0:0:0:
256,192,38702,1,0,0:0:0:0:
256,192,38786,1,8,0:0:0:0:
256,192,38952,1,0,0:0:0:0:
256,192,39035,1,0,0:0:0:0:
256,192,39119,1,8,0:0:0:0:
256,192,39202,1,8,0:0:0:0:
256,192,39285,1,0,0:0:0:0:
256,192,39452,1,0,0:0:0:0:
256,192,39535,1,0,0:0:0:0:
256,192,39618,1,8,0:0:0:0:
256,192,39701,1,0,0:0:0:0:
256,192,39785,1,8,0:0:0:0:
256,192,39868,1,0,0:0:0:0:
256,192,39951,1,0,0:0:0:0:
256,192,40285,1,4,0:0:0:0:
256,192,40452,1,0,0:0:0:0:
256,192,40618,1,8,0:0:0:0:
256,192,40701,1,0,0:0:0:0:
256,192,40785,1,8,0:0:0:0:
256,192,40868,1,0,0:0:0:0:
256,192,40951,1,0,0:0:0:0:
256,192,41118,1,0,0:0:0:0:
256,192,41284,1,8,0:0:0:0:
256,192,41368,1,0,0:0:0:0:
256,192,41451,1,8,0:0:0:0:
256,192,41534,1,0,0:0:0:0:
256,192,41617,1,0,0:0:0:0:
256,192,41701,1,8,0:0:0:0:
256,192,41784,1,8,0:0:0:0:
256,192,41950,1,0,0:0:0:0:
256,192,42034,1,8,0:0:0:0:
256,192,42117,1,8,0:0:0:0:
256,192,42283,1,0,0:0:0:0:
256,192,42367,1,8,0:0:0:0:
256,192,42450,1,8,0:0:0:0:
256,192,42616,1,0,0:0:0:0:
256,192,42700,1,8,0:0:0:0:
256,192,42783,1,8,0:0:0:0:
256,192,42950,1,0,0:0:0:0:
256,192,43116,1,0,0:0:0:0:
256,192,43283,1,8,0:0:0:0:
256,192,43366,1,0,0:0:0:0:
256,192,43449,1,8,0:0:0:0:
256,192,43532,1,0,0:0:0:0:
256,192,43616,1,0,0:0:0:0:
256,192,43782,1,0,0:0:0:0:
256,192,43949,1,8,0:0:0:0:
256,192,44032,1,0,0:0:0:0:
256,192,44115,1,8,0:0:0:0:
256,192,44198,1,0,0:0:0:0:
256,192,44282,1,0,0:0:0:0:
256,192,44365,1,8,0:0:0:0:
256,192,44448,1,8,0:0:0:0:
256,192,44615,1,0,0:0:0:0:
256,192,44698,1,8,0:0:0:0:
256,192,44781,1,8,0:0:0:0:
256,192,44948,1,0,0:0:0:0:
256,192,45031,1,8,0:0:0:0:
256,192,45114,1,8,0:0:0:0:
256,192,45281,1,0,0:0:0:0:
256,192,45364,1,8,0:0:0:0:
256,192,45447,1,8,0:0:0:0:
256,192,45614,1,0,0:0:0:0:
256,192,45697,1,0,0:0:0:0:
256,192,45780,1,8,0:0:0:0:
256,192,45864,1,8,0:0:0:0:
256,192,45947,1,8,0:0:0:0:
256,192,46030,1,8,0:0:0:0:
256,192,46114,1,0,0:0:0:0:
256,192,46280,1,0,0:0:0:0:
256,192,46363,1,0,0:0:0:0:
256,192,46447,1,8,0:0:0:0:
256,192,46530,1,8,0:0:0:0:
256,192,46613,1,8,0:0:0:0:
256,192,46696,1,8,0:0:0:0:
256,192,46780,1,0,0:0:0:0:
256,192,46946,1,0,0:0:0:0:
256,192,47029,1,0,0:0:0:0:
256,192,47113,1,8,0:0:0:0:
256,192,47196,1,8,0:0:0:0:
256,192,47279,1,8,0:0:0:0:
256,192,47363,1,8,0:0:0:0:
256,192,47446,1,0,0:0:0:0:
256,192,47612,1,0,0:0:0:0:
256,192,47696,1,0,0:0:0:0:
256,192,47779,1,8,0:0:0:0:
256,192,47862,1,8,0:0:0:0:
256,192,47945,1,8,0:0:0:0:
256,192,48029,1,8,0:0:0:0:
256,192,48112,1,0,0:0:0:0:
256,192,48278,1,0,0:0:0:0:
256,192,48362,1,0,0:0:0:0:
256,192,48445,1,8,0:0:0:0:
256,192,48611,1,8,0:0:0:0:
256,192,48695,1,8,0:0:0:0:
256,192,48778,1,0,0:0:0:0:
256,192,48861,1,0,0:0:0:0:
256,192,48945,1,0,0:0:0:0:
256,192,49028,1,0,0:0:0:0:
256,192,49111,1,8,0:0:0:0:
256,192,49278,1,8,0:0:0:0:
256,192,49361,1,0,0:0:0:0:
256,192,49444,1,8,0:0:0:0:
256,192,49527,1,0,0:0:0:0:
256,192,49611,1,0,0:0:0:0:
256,192,49694,1,0,0:0:0:0:
256,192,49777,1,8,0:0:0:0:
256,192,49944,1,0,0:0:0:0:
256,192,50027,1,0,0:0:0:0:
256,192,50110,1,8,0:0:0:0:
256,192,50277,1,0,0:0:0:0:
256,192,50360,1,0,0:0:0:0:
256,192,50443,1,8,0:0:0:0:
256,192,50610,1,0,0:0:0:0:
256,192,50693,1,0,0:0:0:0:
256,192,50776,1,8,0:0:0:0:
256,192,50943,1,4,0:0:0:0:
256,192,51276,1,12,0:0:0:0:
256,192,51609,1,0,0:0:0:0:
256,192,51776,1,0,0:0:0:0:
256,192,51942,1,8,0:0:0:0:
256,192,52026,1,0,0:0:0:0:
256,192,52109,1,8,0:0:0:0:
256,192,52192,1,0,0:0:0:0:
256,192,52275,1,0,0:0:0:0:
256,192,52359,1,8,0:0:0:0:
256,192,52442,1,8,0:0:0:0:
256,192,52608,1,0,0:0:0:0:
256,192,52692,1,8,0:0:0:0:
256,192,52775,1,8,0:0:0:0:
256,192,52941,1,0,0:0:0:0:
256,192,53025,1,8,0:0:0:0:
256,192,53108,1,8,0:0:0:0:
256,192,53274,1,0,0:0:0:0:
256,192,53358,1,8,0:0:0:0:
256,192,53441,1,8,0:0:0:0:
256,192,53608,1,0,0:0:0:0:
256,192,53774,1,0,0:0:0:0:
256,192,53941,1,8,0:0:0:0:
256,192,54024,1,0,0:0:0:0:
256,192,54107,1,8,0:0:0:0:
256,192,54190,1,0,0:0:0:0:
256,192,54274,1,0,0:0:0:0:
256,192,54440,1,0,0:0:0:0:
256,192,54607,1,8,0:0:0:0:
256,192,54690,1,0,0:0:0:0:
256,192,54773,1,8,0:0:0:0:
256,192,54856,1,0,0:0:0:0:
256,192,54940,1,0,0:0:0:0:
256,192,55023,1,8,0:0:0:0:
256,192,55106,1,8,0:0:0:0:
256,192,55273,1,0,0:0:0:0:
256,192,55356,1,8,0:0:0:0:
256,192,55439,1,8,0:0:0:0:
256,192,55606,1,0,0:0:0:0:
256,192,55689,1,8,0:0:0:0:
256,192,55772,1,8,0:0:0:0:
256,192,55939,1,0,0:0:0:0:
256,192,56022,1,8,0:0:0:0:
256,192,56105,1,8,0:0:0:0:
256,192,56272,1,4,0:0:0:0:
256,192,56605,1,8,0:0:0:0:
256,192,56688,1,8,0:0:0:0:
256,192,56772,1,0,0:0:0:0:
256,192,56938,1,0,0:0:0:0:
256,192,57021,1,0,0:0:0:0:
256,192,57105,1,8,0:0:0:0:
256,192,57188,1,8,0:0:0:0:
256,192,57271,1,8,0:0:0:0:
256,192,57354,1,8,0:0:0:0:
256,192,57438,1,0,0:0:0:0:
256,192,57604,1,4,0:0:0:0:
256,192,57937,1,8,0:0:0:0:
256,192,58021,1,8,0:0:0:0:
256,192,58104,1,0,0:0:0:0:
256,192,58270,1,0,0:0:0:0:
256,192,58354,1,0,0:0:0:0:
256,192,58437,1,8,0:0:0:0:
256,192,58520,1,8,0:0:0:0:
256,192,58603,1,8,0:0:0:0:
256,192,58687,1,8,0:0:0:0:
256,192,58770,1,0,0:0:0:0:
256,192,58936,1,4,0:0:0:0:
256,192,59269,1,8,0:0:0:0:
256,192,59353,1,8,0:0:0:0:
256,192,59436,1,0,0:0:0:0:
256,192,59519,1,0,0:0:0:0:
256,192,59603,1,0,0:0:0:0:
256,192,59686,1,0,0:0:0:0:
256,192,59769,1,8,0:0:0:0:
256,192,59936,1,12,0:0:0:0:
256,192,60102,1,12,0:0:0:0:
256,192,60268,1,4,0:0:0:0:
256,192,60435,1,8,0:0:0:0:
256,192,60602,1,0,0:0:0:0:
256,192,60685,1,0,0:0:0:0:
256,192,60768,1,8,0:0:0:0:
256,192,60935,1,0,0:0:0:0:
256,192,61018,1,0,0:0:0:0:
256,192,61101,1,8,0:0:0:0:
256,192,61268,1,0,0:0:0:0:
256,192,61351,1,0,0:0:0:0:
256,192,61434,1,8,0:0:0:0:
256,192,61601,1,4,0:0:0:0:
256,192,61934,1,8,0:0:0:0:
256,192,62267,1,4,0:0:0:0:
256,192,62600,1,0,0:0:0:0:
256,192,62683,1,0,0:0:0:0:
256,192,62766,1,0,0:0:0:0:
256,192,62933,1,0,0:0:0:0:
256,192,63016,1,0,0:0:0:0:
256,192,63099,1,0,0:0:0:0:
256,192,63183,1,0,0:0:0:0:
256,192,63266,1,0,0:0:0:0:
256,192,63349,1,0,0:0:0:0:
256,192,63432,1,0,0:0:0:0:
256,192,63516,1,0,0:0:0:0:
256,192,63599,1,0,0:0:0:0:
256,192,63682,1,0,0:0:0:0:
256,192,63766,1,0,0:0:0:0:
256,192,63932,1,8,0:0:0:0:
256,192,64015,1,0,0:0:0:0:
256,192,64099,1,8,0:0:0:0:
256,192,64265,1,0,0:0:0:0:
256,192,64348,1,0,0:0:0:0:
256,192,64432,1,0,0:0:0:0:
256,192,64515,1,0,0:0:0:0:
256,192,64598,1,0,0:0:0:0:
256,192,64681,1,0,0:0:0:0:
256,192,64765,1,0,0:0:0:0:
256,192,64848,1,0,0:0:0:0:
256,192,64931,1,0,0:0:0:0:
256,192,65014,1,0,0:0:0:0:
256,192,65098,1,0,0:0:0:0:
256,192,65264,1,0,0:0:0:0:
256,192,65348,1,8,0:0:0:0:
256,192,65431,1,8,0:0:0:0:
256,192,65597,1,0,0:0:0:0:
256,192,65681,1,0,0:0:0:0:
256,192,65764,1,0,0:0:0:0:
256,192,65847,1,0,0:0:0:0:
256,192,65930,1,0,0:0:0:0:
256,192,66014,1,0,0:0:0:0:
256,192,66097,1,0,0:0:0:0:
256,192,66180,1,0,0:0:0:0:
256,192,66263,1,0,0:0:0:0:
256,192,66347,1,0,0:0:0:0:
256,192,66430,1,0,0:0:0:0:
256,192,66596,1,8,0:0:0:0:
256,192,66680,1,8,0:0:0:0:
256,192,66763,1,8,0:0:0:0:
256,192,66846,1,8,0:0:0:0:
256,192,66930,1,0,0:0:0:0:
256,192,67096,1,8,0:0:0:0:
256,192,67179,1,8,0:0:0:0:
256,192,67263,1,0,0:0:0:0:
256,192,67429,1,0,0:0:0:0:
256,192,67512,1,0,0:0:0:0:
256,192,67596,1,8,0:0:0:0:
256,192,67679,1,0,0:0:0:0:
256,192,67762,1,8,0:0:0:0:
256,192,67845,1,0,0:0:0:0:
256,192,67929,1,0,0:0:0:0:
256,192,68095,1,0,0:0:0:0:
256,192,68262,1,0,0:0:0:0:
256,192,68345,1,8,0:0:0:0:
256,192,68512,1,8,0:0:0:0:
256,192,68595,1,0,0:0:0:0:
256,192,68678,1,0,0:0:0:0:
256,192,68761,1,0,0:0:0:0:
256,192,68845,1,0,0:0:0:0:
256,192,68928,1,8,0:0:0:0:
256,192,69011,1,8,0:0:0:0:
256,192,69094,1,0,0:0:0:0:
256,192,69261,1,8,0:0:0:0:
256,192,69344,1,8,0:0:0:0:
256,192,69427,1,0,0:0:0:0:
256,192,69511,1,0,0:0:0:0:
256,192,69594,1,0,0:0:0:0:
256,192,69677,1,8,0:0:0:0:
256,192,69844,1,8,0:0:0:0:
256,192,69927,1,0,0:0:0:0:
256,192,70010,1,0,0:0:0:0:
256,192,70094,1,0,0:0:0:0:
256,192,70177,1,0,0:0:0:0:
256,192,70260,1,8,0:0:0:0:
256,192,70343,1,8,0:0:0:0:
256,192,70427,1,8,0:0:0:0:
256,192,70593,1,8,0:0:0:0:
256,192,70676,1,0,0:0:0:0:
256,192,70760,1,8,0:0:0:0:
256,192,70926,1,0,0:0:0:0:
256,192,71009,1,0,0:0:0:0:
256,192,71093,1,0,0:0:0:0:
256,192,71176,1,8,0:0:0:0:
256,192,71259,1,0,0:0:0:0:
256,192,71343,1,0,0:0:0:0:
256,192,71426,1,0,0:0:0:0:
256,192,71509,1,0,0:0:0:0:
256,192,71592,1,0,0:0:0:0:
256,192,71676,1,0,0:0:0:0:
256,192,71759,1,0,0:0:0:0:
256,192,71925,1,8,0:0:0:0:
256,192,72009,1,0,0:0:0:0:
256,192,72092,1,8,0:0:0:0:
256,192,72175,1,0,0:0:0:0:
256,192,72258,1,0,0:0:0:0:
256,192,72342,1,0,0:0:0:0:
256,192,72425,1,8,0:0:0:0:
256,192,72508,1,8,0:0:0:0:
256,192,72591,1,0,0:0:0:0:
256,192,72758,1,8,0:0:0:0:
256,192,72841,1,0,0:0:0:0:
256,192,72925,1,8,0:0:0:0:
256,192,73008,1,8,0:0:0:0:
256,192,73091,1,0,0:0:0:0:
256,192,73174,1,0,0:0:0:0:
256,192,73258,1,0,0:0:0:0:
256,192,73591,1,0,0:0:0:0:
256,192,73674,1,0,0:0:0:0:
256,192,73757,1,0,0:0:0:0:
256,192,73841,1,0,0:0:0:0:
256,192,73924,1,0,0:0:0:0:
256,192,74007,1,0,0:0:0:0:
256,192,74090,1,0,0:0:0:0:
256,192,74174,1,0,0:0:0:0:
256,192,74257,1,0,0:0:0:0:
256,192,74340,1,0,0:0:0:0:
256,192,74424,1,0,0:0:0:0:
256,192,74590,1,8,0:0:0:0:
256,192,74673,1,0,0:0:0:0:
256,192,74757,1,8,0:0:0:0:
256,192,74923,1,8,0:0:0:0:
256,192,75006,1,8,0:0:0:0:
256,192,75090,1,0,0:0:0:0:
256,192,75173,1,0,0:0:0:0:
256,192,75256,1,0,0:0:0:0:
256,192,75339,1,0,0:0:0:0:
256,192,75423,1,0,0:0:0:0:
256,192,75506,1,0,0:0:0:0:
256,192,75589,1,0,0:0:0:0:
256,192,75672,1,0,0:0:0:0:
256,192,75756,1,0,0:0:0:0:
256,192,75922,1,8,0:0:0:0:
256,192,76006,1,0,0:0:0:0:
256,192,76089,1,0,0:0:0:0:
256,192,76255,1,0,0:0:0:0:
256,192,76339,1,0,0:0:0:0:
256,192,76422,1,0,0:0:0:0:
256,192,76505,1,0,0:0:0:0:
256,192,76588,1,0,0:0:0:0:
256,192,76672,1,0,0:0:0:0:
256,192,76755,1,0,0:0:0:0:
256,192,76838,1,0,0:0:0:0:
256,192,76921,1,0,0:0:0:0:
256,192,77005,1,0,0:0:0:0:
256,192,77088,1,0,0:0:0:0:
256,192,77254,1,8,0:0:0:0:
256,192,77338,1,8,0:0:0:0:
256,192,77421,1,8,0:0:0:0:
256,192,77504,1,8,0:0:0:0:
256,192,77588,1,0,0:0:0:0:
256,192,77754,1,8,0:0:0:0:
256,192,77837,1,8,0:0:0:0:
256,192,77921,1,0,0:0:0:0:
256,192,78087,1,0,0:0:0:0:
256,192,78170,1,0,0:0:0:0:
256,192,78254,1,8,0:0:0:0:
256,192,78337,1,0,0:0:0:0:
256,192,78420,1,8,0:0:0:0:
256,192,78503,1,0,0:0:0:0:
256,192,78587,1,0,0:0:0:0:
256,192,78753,1,0,0:0:0:0:
256,192,78920,1,0,0:0:0:0:
256,192,79003,1,8,0:0:0:0:
256,192,79170,1,8,0:0:0:0:
256,192,79253,1,0,0:0:0:0:
256,192,79336,1,0,0:0:0:0:
256,192,79419,1,0,0:0:0:0:
256,192,79503,1,0,0:0:0:0:
256,192,79586,1,8,0:0:0:0:
256,192,79669,1,8,0:0:0:0:
256,192,79752,1,0,0:0:0:0:
256,192,79919,1,8,0:0:0:0:
256,192,80002,1,8,0:0:0:0:
256,192,80085,1,0,0:0:0:0:
256,192,80169,1,0,0:0:0:0:
256,192,80252,1,0,0:0:0:0:
256,192,80335,1,8,0:0:0:0:
256,192,80502,1,8,0:0:0:0:
256,192,80585,1,0,0:0:0:0:
256,192,80668,1,0,0:0:0:0:
256,192,80752,1,0,0:0:0:0:
256,192,80835,1,0,0:0:0:0:
256,192,80918,1,8,0:0:0:0:
256,192,81001,1,8,0:0:0:0:
256,192,81085,1,8,0:0:0:0:
256,192,81251,1,8,0:0:0:0:
256,192,81334,1,0,0:0:0:0:
256,192,81418,1,8,0:0:0:0:
256,192,81584,1,0,0:0:0:0:
256,192,81667,1,0,0:0:0:0:
256,192,81751,1,0,0:0:0:0:
256,192,81834,1,8,0:0:0:0:
256,192,81917,1,0,0:0:0:0:
256,192,82001,1,0,0:0:0:0:
256,192,82084,1,0,0:0:0:0:
256,192,82167,1,0,0:0:0:0:
256,192,82250,1,0,0:0:0:0:
256,192,82334,1,0,0:0:0:0:
256,192,82417,1,0,0:0:0:0:
256,192,82583,1,8,0:0:0:0:
256,192,82667,1,0,0:0:0:0:
256,192,82750,1,8,0:0:0:0:
256,192,82833,1,0,0:0:0:0:
256,192,82916,1,0,0:0:0:0:
256,192,83000,1,0,0:0:0:0:
256,192,83083,1,8,0:0:0:0:
256,192,83166,1,8,0:0:0:0:
256,192,83249,1,0,0:0:0:0:
256,192,83416,1,8,0:0:0:0:
256,192,83499,1,0,0:0:0:0:
256,192,83583,1,8,0:0:0:0:
256,192,83666,1,8,0:0:0:0:
256,192,83749,1,0,0:0:0:0:
256,192,83832,1,0,0:0:0:0:
256,192,83916,1,0,0:0:0:0:
256,192,84248,1,4,0:0:0:0:
256,192,84415,1,0,0:0:0:0:
256,192,84581,1,8,0:0:0:0:
256,192,84664,1,0,0:0:0:0:
256,192,84748,1,8,0:0:0:0:
256,192,84831,1,0,0:0:0:0:
256,192,84914,1,0,0:0:0:0:
256,192,85081,1,0,0:0:0:0:
256,192,85247,1,8,0:0:0:0:
256,192,85331,1,0,0:0:0:0:
256,192,85414,1,8,0:0:0:0:
256,192,85497,1,0,0:0:0:0:
256,192,85580,1,0,0:0:0:0:
256,192,85664,1,8,0:0:0:0:
256,192,85747,1,8,0:0:0:0:
256,192,85913,1,0,0:0:0:0:
256,192,85997,1,8,0:0:0:0:
256,192,86080,1,8,0:0:0:0:
256,192,86246,1,0,0:0:0:0:
256,192,86330,1,8,0:0:0:0:
256,192,86413,1,8,0:0:0:0:
256,192,86579,1,0,0:0:0:0:
256,192,86663,1,8,0:0:0:0:
256,192,86746,1,8,0:0:0:0:
256,192,86913,1,0,0:0:0:0:
256,192,87079,1,0,0:0:0:0:
256,192,87246,1,8,0:0:0:0:
256,192,87329,1,0,0:0:0:0:
256,192,87412,1,8,0:0:0:0:
256,192,87495,1,0,0:0:0:0:
256,192,87579,1,0,0:0:0:0:
256,192,87745,1,0,0:0:0:0:
256,192,87912,1,8,0:0:0:0:
256,192,87995,1,0,0:0:0:0:
256,192,88078,1,8,0:0:0:0:
256,192,88161,1,0,0:0:0:0:
256,192,88245,1,0,0:0:0:0:
256,192,88328,1,8,0:0:0:0:
256,192,88411,1,8,0:0:0:0:
256,192,88578,1,0,0:0:0:0:
256,192,88661,1,8,0:0:0:0:
256,192,88744,1,8,0:0:0:0:
256,192,88911,1,0,0:0:0:0:
256,192,88994,1,8,0:0:0:0:
256,192,89077,1,8,0:0:0:0:
256,192,89244,1,0,0:0:0:0:
256,192,89327,1,8,0:0:0:0:
256,192,89410,1,8,0:0:0:0:
256,192,89577,1,0,0:0:0:0:
256,192,89660,1,0,0:0:0:0:
256,192,89743,1,8,0:0:0:0:
256,192,89827,1,8,0:0:0:0:
256,192,89910,1,8,0:0:0:0:
256,192,89993,1,8,0:0:0:0:
256,192,90077,1,0,0:0:0:0:
256,192,90243,1,0,0:0:0:0:
256,192,90326,1,0,0:0:0:0:
256,192,90410,1,8,0:0:0:0:
256,192,90493,1,8,0:0:0:0:
256,192,90576,1,8,0:0:0:0:
256,192,90659,1,8,0:0:0:0:
256,192,90743,1,0,0:0:0:0:
256,192,90909,1,0,0:0:0:0:
256,192,90992,1,0,0:0:0:0:
256,192,91076,1,8,0:0:0:0:
256,192,91159,1,8,0:0:0:0:
256,192,91242,1,8,0:0:0:0:
256,192,91326,1,8,0:0:0:0:
256,192,91409,1,0,0:0:0:0:
256,192,91575,1,0,0:0:0:0:
256,192,91659,1,0,0:0:0:0:
256,192,91742,1,8,0:0:0:0:
256,192,91825,1,8,0:0:0:0:
256,192,91908,1,8,0:0:0:0:
256,192,91992,1,8,0:0:0:0:
256,192,92075,1,0,0:0:0:0:
256,192,92241,1,0,0:0:0:0:
256,192,92325,1,0,0:0:0:0:
256,192,92408,1,8,0:0:0:0:
256,192,92574,1,8,0:0:0:0:
256,192,92658,1,8,0:0:0:0:
256,192,92741,1,0,0:0:0:0:
256,192,92824,1,0,0:0:0:0:
256,192,92908,1,0,0:0:0:0:
256,192,92991,1,0,0:0:0:0:
256,192,93074,1,8,0:0:0:0:
256,192,93241,1,8,0:0:0:0:
256,192,93324,1,0,0:0:0:0:
256,192,93407,1,8,0:0:0:0:
256,192,93490,1,0,0:0:0:0:
256,192,93574,1,0,0:0:0:0:
256,192,93657,1,0,0:0:0:0:
256,192,93740,1,8,0:0:0:0:
256,192,93907,1,0,0:0:0:0:
256,192,93990,1,0,0:0:0:0:
256,192,94073,1,8,0:0:0:0:
256,192,94240,1,0,0:0:0:0:
256,192,94323,1,0,0:0:0:0:
256,192,94406,1,8,0:0:0:0:
256,192,94573,1,0,0:0:0:0:
256,192,94656,1,0,0:0:0:0:
256,192,94739,1,8,0:0:0:0:
256,192,94906,1,4,0:0:0:0:
256,192,95239,1,12,0:0:0:0:
256,192,95572,1,0,0:0:0:0:
256,192,95739,1,0,0:0:0:0:
256,192,95905,1,8,0:0:0:0:
256,192,95989,1,0,0:0:0:0:
256,192,96072,1,8,0:0:0:0:
256,192,96155,1,0,0:0:0:0:
256,192,96238,1,0,0:0:0:0:
256,192,96322,1,8,0:0:0:0:
256,192,96405,1,8,0:0:0:0:
256,192,96571,1,0,0:0:0:0:
256,192,96655,1,8,0:0:0:0:
256,192,96738,1,8,0:0:0:0:
256,192,96904,1,0,0:0:0:0:
256,192,96988,1,8,0:0:0:0:
256,192,97071,1,8,0:0:0:0:
256,192,97237,1,0,0:0:0:0:
256,192,97321,1,8,0:0:0:0:
256,192,97404,1,8,0:0:0:0:
256,192,97571,1,0,0:0:0:0:
256,192,97737,1,0,0:0:0:0:
256,192,97904,1,8,0:0:0:0:
256,192,97987,1,0,0:0:0:0:
256,192,98070,1,8,0:0:0:0:
256,192,98153,1,0,0:0:0:0:
256,192,98237,1,0,0:0:0:0:
256,192,98403,1,0,0:0:0:0:
256,192,98570,1,8,0:0:0:0:
256,192,98653,1,0,0:0:0:0:
256,192,98736,1,8,0:0:0:0:
256,192,98819,1,0,0:0:0:0:
256,192,98903,1,0,0:0:0:0:
256,192,98986,1,8,0:0:0:0:
256,192,99069,1,8,0:0:0:0:
256,192,99236,1,0,0:0:0:0:
256,192,99319,1,8,0:0:0:0:
256,192,99402,1,8,0:0:0:0:
256,192,99569,1,0,0:0:0:0:
256,192,99652,1,8,0:0:0:0:
256,192,99735,1,8,0:0:0:0:
256,192,99902,1,0,0:0:0:0:
256,192,99985,1,8,0:0:0:0:
256,192,100068,1,8,0:0:0:0:
256,192,100235,1,4,0:0:0:0:
256,192,100568,1,8,0:0:0:0:
256,192,100651,1,8,0:0:0:0:
256,192,100735,1,0,0:0:0:0:
256,192,100901,1,0,0:0:0:0:
256,192,100984,1,0,0:0:0:0:
256,192,101068,1,8,0:0:0:0:
256,192,101151,1,8,0:0:0:0:
256,192,101234,1,8,0:0:0:0:
256,192,101317,1,8,0:0:0:0:
256,192,101401,1,0,0:0:0:0:
256,192,101567,1,4,0:0:0:0:
256,192,101900,1,8,0:0:0:0:
256,192,101984,1,8,0:0:0:0:
256,192,102067,1,0,0:0:0:0:
256,192,102233,1,0,0:0:0:0:
256,192,102317,1,0,0:0:0:0:
256,192,102400,1,8,0:0:0:0:
256,192,102483,1,8,0:0:0:0:
256,192,102566,1,8,0:0:0:0:
256,192,102650,1,8,0:0:0:0:
256,192,102733,1,0,0:0:0:0:
256,192,102899,1,4,0:0:0:0:
256,192,103232,1,8,0:0:0:0:
256,192,103316,1,8,0:0:0:0:
256,192,103399,1,0,0:0:0:0:
256,192,103482,1,0,0:0:0:0:
256,192,103566,1,0,0:0:0:0:
256,192,103649,1,0,0:0:0:0:
256,192,103732,1,8,0:0:0:0:
256,192,103899,1,12,0:0:0:0:
256,192,104065,1,12,0:0:0:0:
256,192,104231,1,4,0:0:0:0:
256,192,104398,1,8,0:0:0:0:
256,192,104565,1,0,0:0:0:0:
256,192,104648,1,0,0:0:0:0:
256,192,104731,1,8,0:0:0:0:
256,192,104898,1,0,0:0:0:0:
256,192,104981,1,0,0:0:0:0:
256,192,105064,1,8,0:0:0:0:
256,192,105231,1,0,0:0:0:0:
256,192,105314,1,0,0:0:0:0:
256,192,105397,1,8,0:0:0:0:
256,192,105564,1,4,0:0:0:0:
256,192,105730,1,0,0:0:0:0:
256,192,105897,1,12,0:0:0:0:
256,192,106063,1,8,0:0:0:0:
256,192,106146,1,8,0:0:0:0:
256,192,106230,1,0,0:0:0:0:
256,192,106396,1,0,0:0:0:0:
256,192,106563,1,8,0:0:0:0:
256,192,106729,1,8,0:0:0:0:
256,192,106896,1,0,0:0:0:0:
256,192,106979,1,0,0:0:0:0:
256,192,107062,1,0,0:0:0:0:
256,192,107229,1,8,0:0:0:0:
256,192,107395,1,8,0:0:0:0:
256,192,107479,1,8,0:0:0:0:
256,192,107562,1,0,0:0:0:0:
256,192,107728,1,8,0:0:0:0:
256,192,107812,1,8,0:0:0:0:
256,192,107895,1,0,0:0:0:0:
256,192,108061,1,0,0:0:0:0:
256,192,108228,1,0,0:0:0:0:
256,192,108311,1,0,0:0:0:0:
256,192,108394,1,0,0:0:0:0:
256,192,108561,1,8,0:0:0:0:
256,192,108728,1,8,0:0:0:0:
256,192,108811,1,8,0:0:0:0:
256,192,108894,1,0,0:0:0:0:
256,192,109061,1,8,0:0:0:0:
256,192,109227,1,0,0:0:0:0:
256,192,109394,1,8,0:0:0:0:
256,192,109560,1,0,0:0:0:0:
256,192,109643,1,0,0:0:0:0:
256,192,109727,1,8,0:0:0:0:
256,192,109893,1,0,0:0:0:0:
256,192,109976,1,0,0:0:0:0:
256,192,110060,1,8,0:0:0:0:
256,192,110226,1,0,0:0:0:0:
256,192,110310,1,0,0:0:0:0:
256,192,110393,1,8,0:0:0:0:
256,192,110559,1,8,0:0:0:0:
256,192,110643,1,0,0:0:0:0:
256,192,110726,1,8,0:0:0:0:
256,192,110892,1,4,0:0:0:0:
256,192,111059,1,0,0:0:0:0:
256,192,111225,1,4,0:0:0:0:
256,192,111392,1,8,0:0:0:0:
256,192,111475,1,8,0:0:0:0:
256,192,111559,1,0,0:0:0:0:
256,192,111725,1,8,0:0:0:0:
256,192,111892,1,0,0:0:0:0:
256,192,112058,1,8,0:0:0:0:
256,192,112225,1,0,0:0:0:0:
256,192,112308,1,0,0:0:0:0:
256,192,112391,1,0,0:0:0:0:
224,192,112558,1,8,0:0:0:0:
256,192,112724,1,8,0:0:0:0:
256,192,112807,1,8,0:0:0:0:
256,192,112891,1,0,0:0:0:0:
256,192,113057,1,8,0:0:0:0:
256,192,113141,1,8,0:0:0:0:
256,192,113224,1,0,0:0:0:0:
256,192,113390,1,0,0:0:0:0:
256,192,113557,1,4,0:0:0:0:
256,192,113890,1,8,0:0:0:0:
256,192,114056,1,8,0:0:0:0:
256,192,114223,1,4,0:0:0:0:
256,192,114556,1,8,0:0:0:0:
256,192,114723,1,8,0:0:0:0:
256,192,114889,1,4,0:0:0:0:
256,192,115056,1,8,0:0:0:0:
256,192,115222,1,4,0:0:0:0:
256,192,115389,1,8,0:0:0:0:
256,192,115555,1,4,0:0:0:0:
256,192,115722,1,4,0:0:0:0:
256,192,115888,1,0,0:0:0:0:
256,192,115971,1,0,0:0:0:0:
256,192,116055,1,0,0:0:0:0:
256,192,116221,1,4,0:0:0:0:
256,192,116388,2,0,L|320:192,4,35
256,192,116887,1,4,0:0:0:0:
256,192,117220,1,8,0:0:0:0:
256,192,117304,1,8,0:0:0:0:
256,192,117387,1,8,0:0:0:0:
256,192,117554,1,8,0:0:0:0:
256,192,117637,1,0,0:0:0:0:
256,192,117721,1,8,0:0:0:0:
256,192,117804,1,0,0:0:0:0:
256,192,117887,1,8,0:0:0:0:
256,192,118054,1,8,0:0:0:0:
256,192,118137,1,8,0:0:0:0:
256,192,118220,1,0,0:0:0:0:
256,192,118303,1,0,0:0:0:0:
256,192,118387,1,0,0:0:0:0:
256,192,118553,1,8,0:0:0:0:
256,192,118636,1,8,0:0:0:0:
256,192,118720,1,0,0:0:0:0:
256,192,118886,1,0,0:0:0:0:
256,192,118970,1,0,0:0:0:0:
256,192,119053,1,0,0:0:0:0:
256,192,119136,1,0,0:0:0:0:
256,192,119219,1,8,0:0:0:0:
256,192,119386,1,8,0:0:0:0:
256,192,119469,1,8,0:0:0:0:
256,192,119552,1,0,0:0:0:0:
256,192,119636,1,0,0:0:0:0:
256,192,119719,1,0,0:0:0:0:
256,192,119885,1,8,0:0:0:0:
256,192,119969,1,8,0:0:0:0:
256,192,120052,1,0,0:0:0:0:
256,192,120135,1,0,0:0:0:0:
256,192,120218,1,0,0:0:0:0:
256,192,120302,1,0,0:0:0:0:
256,192,120385,1,0,0:0:0:0:
256,192,120552,1,8,0:0:0:0:
256,192,120635,1,8,0:0:0:0:
256,192,120718,1,0,0:0:0:0:
256,192,120801,1,0,0:0:0:0:
256,192,120885,1,8,0:0:0:0:
256,192,120968,1,0,0:0:0:0:
256,192,121051,1,0,0:0:0:0:
256,192,121218,1,8,0:0:0:0:
256,192,121301,1,0,0:0:0:0:
256,192,121384,1,8,0:0:0:0:
256,192,121467,1,0,0:0:0:0:
256,192,121551,1,0,0:0:0:0:
256,192,121717,1,8,0:0:0:0:
256,192,121800,1,8,0:0:0:0:
256,192,121884,1,0,0:0:0:0:
256,192,121967,1,0,0:0:0:0:
256,192,122050,1,8,0:0:0:0:
256,192,122134,1,0,0:0:0:0:
256,192,122217,1,8,0:0:0:0:
256,192,122300,1,0,0:0:0:0:
256,192,122383,1,0,0:0:0:0:
256,192,122467,1,0,0:0:0:0:
256,192,122550,1,0,0:0:0:0:
256,192,122716,1,0,0:0:0:0:
256,192,122883,1,0,0:0:0:0:
256,192,122966,1,0,0:0:0:0:
256,192,123049,1,8,0:0:0:0:
256,192,123216,1,0,0:0:0:0:
256,192,123299,1,0,0:0:0:0:
256,192,123382,1,0,0:0:0:0:
256,192,123549,1,8,0:0:0:0:
256,192,123632,1,8,0:0:0:0:
256,192,123716,1,0,0:0:0:0:
256,192,123799,1,0,0:0:0:0:
256,192,123882,1,8,0:0:0:0:
256,192,123965,1,8,0:0:0:0:
256,192,124049,1,0,0:0:0:0:
256,192,124215,1,0,0:0:0:0:
256,192,124298,1,0,0:0:0:0:
256,192,124382,1,0,0:0:0:0:
256,192,124465,1,0,0:0:0:0:
256,192,124548,1,8,0:0:0:0:
256,192,124715,1,0,0:0:0:0:
256,192,124798,1,0,0:0:0:0:
256,192,124881,1,8,0:0:0:0:
256,192,124965,1,8,0:0:0:0:
256,192,125048,1,0,0:0:0:0:
256,192,125131,1,0,0:0:0:0:
256,192,125214,1,8,0:0:0:0:
256,192,125298,1,8,0:0:0:0:
256,192,125381,1,8,0:0:0:0:
256,192,125547,1,0,0:0:0:0:
256,192,125631,1,0,0:0:0:0:
256,192,125714,1,0,0:0:0:0:
256,192,125880,1,8,0:0:0:0:
256,192,126047,1,0,0:0:0:0:
256,192,126130,1,0,0:0:0:0:
256,192,126213,1,0,0:0:0:0:
256,192,126380,1,0,0:0:0:0:
256,192,126547,1,8,0:0:0:0:
256,192,126630,1,0,0:0:0:0:
256,192,126713,1,8,0:0:0:0:
256,192,126796,1,0,0:0:0:0:
256,192,126880,1,0,0:0:0:0:
256,192,126963,1,0,0:0:0:0:
256,192,127046,1,0,0:0:0:0:
256,192,127129,1,8,0:0:0:0:
256,192,127213,1,0,0:0:0:0:
256,192,127296,1,0,0:0:0:0:
256,192,127379,1,8,0:0:0:0:
256,192,127462,1,0,0:0:0:0:
256,192,127546,1,8,0:0:0:0:
256,192,127629,1,8,0:0:0:0:
256,192,127712,1,0,0:0:0:0:
256,192,127879,1,4,0:0:0:0:
256,192,128212,1,0,0:0:0:0:
256,192,128295,1,0,0:0:0:0:
256,192,128378,1,0,0:0:0:0:
256,192,128545,1,8,0:0:0:0:
256,192,128628,1,8,0:0:0:0:
256,192,128711,1,8,0:0:0:0:
256,192,128795,1,8,0:0:0:0:
256,192,128878,1,0,0:0:0:0:
256,192,129044,1,0,0:0:0:0:
256,192,129211,1,8,0:0:0:0:
256,192,129294,1,0,0:0:0:0:
256,192,129378,1,8,0:0:0:0:
256,192,129544,1,0,0:0:0:0:
256,192,129627,1,0,0:0:0:0:
256,192,129711,1,0,0:0:0:0:
256,192,129877,1,0,0:0:0:0:
256,192,129960,1,0,0:0:0:0:
256,192,130044,1,0,0:0:0:0:
256,192,130210,1,0,0:0:0:0:
256,192,130293,1,0,0:0:0:0:
256,192,130377,1,0,0:0:0:0:
256,192,130460,1,0,0:0:0:0:
256,192,130543,1,8,0:0:0:0:
256,192,130626,1,8,0:0:0:0:
256,192,130710,1,0,0:0:0:0:
256,192,130876,1,0,0:0:0:0:
256,192,130960,1,0,0:0:0:0:
256,192,131043,1,0,0:0:0:0:
256,192,131126,1,0,0:0:0:0:
256,192,131209,1,8,0:0:0:0:
256,192,131293,1,0,0:0:0:0:
256,192,131376,1,0,0:0:0:0:
256,192,131542,1,0,0:0:0:0:
256,192,131626,1,8,0:0:0:0:
256,192,131709,1,0,0:0:0:0:
256,192,131792,1,0,0:0:0:0:
256,192,131875,1,8,0:0:0:0:
256,192,131959,1,0,0:0:0:0:
256,192,132042,1,8,0:0:0:0:
256,192,132208,1,0,0:0:0:0:
256,192,132292,1,0,0:0:0:0:
256,192,132375,1,8,0:0:0:0:
256,192,132458,1,8,0:0:0:0:
256,192,132542,1,0,0:0:0:0:
256,192,132708,1,0,0:0:0:0:
256,192,132791,1,0,0:0:0:0:
256,192,132875,1,8,0:0:0:0:
256,192,132958,1,0,0:0:0:0:
256,192,133041,1,0,0:0:0:0:
256,192,133124,1,0,0:0:0:0:
256,192,133208,1,0,0:0:0:0:
256,192,133374,1,0,0:0:0:0:
256,192,133541,1,0,0:0:0:0:
256,192,133624,1,0,0:0:0:0:
256,192,133707,1,0,0:0:0:0:
256,192,133790,1,0,0:0:0:0:
256,192,133874,1,8,0:0:0:0:
256,192,133957,1,0,0:0:0:0:
256,192,134040,1,0,0:0:0:0:
256,192,134207,1,8,0:0:0:0:
256,192,134290,1,8,0:0:0:0:
256,192,134373,1,0,0:0:0:0:
256,192,134457,1,0,0:0:0:0:
256,192,134540,1,8,0:0:0:0:
256,192,134623,1,8,0:0:0:0:
256,192,134706,1,0,0:0:0:0:
256,192,134790,1,0,0:0:0:0:
256,192,134873,1,0,0:0:0:0:
256,192,134956,1,0,0:0:0:0:
256,192,135039,1,0,0:0:0:0:
256,192,135123,1,0,0:0:0:0:
256,192,135206,1,0,0:0:0:0:
256,192,135289,1,0,0:0:0:0:
256,192,135373,1,0,0:0:0:0:
256,192,135539,1,8,0:0:0:0:
256,192,135622,1,0,0:0:0:0:
256,192,135706,1,8,0:0:0:0:
256,192,135789,1,0,0:0:0:0:
256,192,135872,1,8,0:0:0:0:
256,192,135955,1,8,0:0:0:0:
256,192,136039,1,8,0:0:0:0:
256,192,136122,1,8,0:0:0:0:
256,192,136205,1,8,0:0:0:0:
256,192,136288,1,0,0:0:0:0:
256,192,136372,1,8,0:0:0:0:
256,192,136538,1,0,0:0:0:0:
256,192,136621,1,0,0:0:0:0:
256,192,136705,1,8,0:0:0:0:
256,192,136788,1,0,0:0:0:0:
256,192,136871,1,8,0:0:0:0:
256,192,136955,1,0,0:0:0:0:
256,192,137038,1,0,0:0:0:0:
256,192,137121,1,0,0:0:0:0:
256,192,137204,1,8,0:0:0:0:
256,192,137288,1,0,0:0:0:0:
256,192,137371,1,8,0:0:0:0:
256,192,137454,1,0,0:0:0:0:
256,192,137537,1,0,0:0:0:0:
256,192,137621,1,0,0:0:0:0:
256,192,137704,1,8,0:0:0:0:
256,192,137870,1,8,0:0:0:0:
256,192,137954,1,0,0:0:0:0:
256,192,138037,1,8,0:0:0:0:
256,192,138120,1,0,0:0:0:0:
256,192,138203,1,8,0:0:0:0:
256,192,138287,1,0,0:0:0:0:
256,192,138370,1,8,0:0:0:0:
256,192,138453,1,0,0:0:0:0:
256,192,138537,1,8,0:0:0:0:
256,192,138870,1,4,0:0:0:0:
256,192,139036,12,4,140202,0:0:0:0:
