osu file format v14

[General]
AudioFilename: audio.mp3
AudioLeadIn: 0
PreviewTime: 105564
Countdown: 1
SampleSet: None
StackLeniency: 1
Mode: 1
LetterboxInBreaks: 0
WidescreenStoryboard: 1

[Editor]
DistanceSpacing: 0.4
BeatDivisor: 1
GridSize: 32
TimelineZoom: 1

[Metadata]
Title:The Big Black
TitleUnicode:The Big Black
Artist:The Quick Brown Fox
ArtistUnicode:The Quick Brown Fox
Creator:Zing
Version:Futsuu
Source:
Tags:
BeatmapID:1214990
BeatmapSetID:573555

[Difficulty]
HPDrainRate:4
CircleSize:5
OverallDifficulty:2
ApproachRate:5
SliderMultiplier:1.4
SliderTickRate:1

[Events]
//Background and Video events
0,0,"p1tchb1ack.jpg",0,0
//Break Periods
//Storyboard Layer 0 (Background)
//Storyboard Layer 1 (Fail)
//Storyboard Layer 2 (Pass)
//Storyboard Layer 3 (Foreground)
//Storyboard Sound Samples

[TimingPoints]
6980,166.527893422148,4,1,0,100,1,0
6980,-400,4,1,0,100,0,0
62933,-400,4,1,0,100,0,1
84248,-400,4,1,0,100,0,0
133541,-400,4,1,0,100,0,1
138870,-400,4,1,0,100,0,0

[HitObjects]
256,192,6980,5,4,0:0:0:0:
256,192,7313,1,8,0:0:0:0:
256,192,7646,1,0,0:0:0:0:
256,192,8312,1,0,0:0:0:0:
256,192,8645,1,8,0:0:0:0:
256,192,8978,1,8,0:0:0:0:
256,192,9644,1,0,0:0:0:0:
256,192,9977,1,8,0:0:0:0:
256,192,10310,1,0,0:0:0:0:
256,192,10976,1,8,0:0:0:0:
256,192,11309,1,0,0:0:0:0:
256,192,11642,1,8,0:0:0:0:
256,192,11975,1,8,0:0:0:0:
256,192,12308,1,4,0:0:0:0:
256,192,12641,1,4,0:0:0:0:
256,192,12975,1,8,0:0:0:0:
256,192,13641,1,0,0:0:0:0:
256,192,13974,1,8,0:0:0:0:
256,192,14307,1,0,0:0:0:0:
256,192,14973,1,4,0:0:0:0:
256,192,15306,1,8,0:0:0:0:
256,192,15639,1,4,0:0:0:0:
256,192,15972,1,8,0:0:0:0:
256,192,16305,1,0,0:0:0:0:
256,192,16638,1,0,0:0:0:0:
256,192,16971,1,0,0:0:0:0:
256,192,17138,1,8,0:0:0:0:
256,192,17304,1,0,0:0:0:0:
256,192,17637,1,0,0:0:0:0:
256,192,18303,1,0,0:0:0:0:
256,192,18636,1,8,0:0:0:0:
256,192,18970,1,0,0:0:0:0:
256,192,19303,1,8,0:0:0:0:
256,192,19636,1,0,0:0:0:0:
256,192,19802,1,0,0:0:0:0:
256,192,19969,1,8,0:0:0:0:
256,192,20302,1,0,0:0:0:0:
256,192,20635,1,8,0:0:0:0:
256,192,20968,1,0,0:0:0:0:
256,192,21301,1,8,0:0:0:0:
256,192,21467,1,0,0:0:0:0:
256,192,21634,1,0,0:0:0:0:
256,192,21967,1,8,0:0:0:0:
256,192,22300,1,0,0:0:0:0:
256,192,22633,1,8,0:0:0:0:
256,192,22800,1,0,0:0:0:0:
256,192,22966,1,0,0:0:0:0:
256,192,23133,1,8,0:0:0:0:
256,192,23299,1,0,0:0:0:0:
256,192,23632,1,8,0:0:0:0:
256,192,23965,1,0,0:0:0:0:
256,192,24298,1,0,0:0:0:0:
256,192,24631,1,0,0:0:0:0:
256,192,24965,1,8,0:0:0:0:
256,192,25131,1,0,0:0:0:0:
256,192,25298,1,8,0:0:0:0:
256,192,25631,1,0,0:0:0:0:
256,192,25964,1,0,0:0:0:0:
256,192,26297,1,8,0:0:0:0:
256,192,26463,1,0,0:0:0:0:
256,192,26630,1,8,0:0:0:0:
256,192,26963,1,0,0:0:0:0:
256,192,27296,1,0,0:0:0:0:
256,192,27629,1,0,0:0:0:0:
256,192,27962,1,8,0:0:0:0:
256,192,28295,1,0,0:0:0:0:
256,192,28462,1,8,0:0:0:0:
256,192,28628,1,0,0:0:0:0:
256,192,28961,1,8,0:0:0:0:
256,192,29128,1,8,0:0:0:0:
256,192,29294,1,0,0:0:0:0:
256,192,29627,1,0,0:0:0:0:
256,192,29960,1,8,0:0:0:0:
256,192,30293,1,0,0:0:0:0:
256,192,30459,1,0,0:0:0:0:
256,192,30626,1,8,0:0:0:0:
256,192,30959,1,0,0:0:0:0:
256,192,31292,1,8,0:0:0:0:
256,192,31625,1,0,0:0:0:0:
256,192,31958,1,8,0:0:0:0:
256,192,32124,1,0,0:0:0:0:
256,192,32291,1,0,0:0:0:0:
256,192,32624,1,8,0:0:0:0:
256,192,32957,1,0,0:0:0:0:
256,192,33290,1,8,0:0:0:0:
256,192,33457,1,0,0:0:0:0:
256,192,33623,1,0,0:0:0:0:
256,192,33790,1,8,0:0:0:0:
256,192,33956,1,0,0:0:0:0:
256,192,34289,1,8,0:0:0:0:
256,192,34622,1,0,0:0:0:0:
256,192,34955,1,0,0:0:0:0:
256,192,35288,1,0,0:0:0:0:
256,192,35622,1,8,0:0:0:0:
256,192,35788,1,0,0:0:0:0:
256,192,35955,1,8,0:0:0:0:
256,192,36288,1,0,0:0:0:0:
256,192,36621,1,0,0:0:0:0:
256,192,36954,1,8,0:0:0:0:
256,192,37120,1,0,0:0:0:0:
256,192,37287,1,8,0:0:0:0:
256,192,37620,1,8,0:0:0:0:
256,192,37787,1,8,0:0:0:0:
256,192,37953,1,0,0:0:0:0:
256,192,38120,1,8,0:0:0:0:
256,192,38286,1,8,0:0:0:0:
256,192,38619,1,8,0:0:0:0:
256,192,38952,1,0,0:0:0:0:
256,192,39119,1,8,0:0:0:0:
256,192,39285,1,0,0:0:0:0:
256,192,39618,1,8,0:0:0:0:
256,192,39785,1,8,0:0:0:0:
256,192,39951,1,0,0:0:0:0:
256,192,40285,1,4,0:0:0:0:
256,192,40951,1,8,0:0:0:0:
256,192,41284,1,8,0:0:0:0:
256,192,41617,1,0,0:0:0:0:
256,192,42283,1,0,0:0:0:0:
256,192,42616,1,8,0:0:0:0:
256,192,42950,1,0,0:0:0:0:
256,192,43616,1,0,0:0:0:0:
256,192,43949,1,8,0:0:0:0:
256,192,44282,1,0,0:0:0:0:
256,192,44615,1,8,0:0:0:0:
256,192,44948,1,8,0:0:0:0:
256,192,45614,1,0,0:0:0:0:
256,192,46280,1,8,0:0:0:0:
256,192,46613,1,8,0:0:0:0:
256,192,46946,1,0,0:0:0:0:
256,192,47612,1,8,0:0:0:0:
256,192,47945,1,8,0:0:0:0:
256,192,48278,1,0,0:0:0:0:
256,192,48611,1,8,0:0:0:0:
256,192,48945,1,0,0:0:0:0:
256,192,49278,1,8,0:0:0:0:
256,192,49611,1,0,0:0:0:0:
256,192,49944,1,8,0:0:0:0:
256,192,50277,1,0,0:0:0:0:
256,192,50610,1,8,0:0:0:0:
256,192,50943,1,4,0:0:0:0:
256,192,51276,1,4,0:0:0:0:
256,192,51942,1,8,0:0:0:0:
256,192,52275,1,0,0:0:0:0:
256,192,52608,1,8,0:0:0:0:
256,192,53274,1,8,0:0:0:0:
256,192,53607,1,0,0:0:0:0:
256,192,53940,1,8,0:0:0:0:
256,192,54606,1,8,0:0:0:0:
256,192,54940,1,0,0:0:0:0:
256,192,55273,1,0,0:0:0:0:
256,192,55606,1,8,0:0:0:0:
256,192,55939,1,0,0:0:0:0:
256,192,56272,1,12,0:0:0:0:
256,192,56938,1,0,0:0:0:0:
256,192,57271,1,8,0:0:0:0:
256,192,57604,1,12,0:0:0:0:
256,192,58270,1,0,0:0:0:0:
256,192,58603,1,8,0:0:0:0:
256,192,58936,1,12,0:0:0:0:
256,192,59269,1,0,0:0:0:0:
256,192,59602,1,0,0:0:0:0:
256,192,59935,1,12,0:0:0:0:
256,192,60268,1,8,0:0:0:0:
256,192,60601,1,0,0:0:0:0:
256,192,60935,1,0,0:0:0:0:
256,192,61268,1,0,0:0:0:0:
256,192,61601,1,4,0:0:0:0:
256,192,62267,1,4,0:0:0:0:
256,192,62600,1,4,0:0:0:0:
256,192,62933,1,0,0:0:0:0:
256,192,63099,1,0,0:0:0:0:
256,192,63266,1,0,0:0:0:0:
256,192,63599,1,0,0:0:0:0:
256,192,63766,1,8,0:0:0:0:
256,192,63932,1,0,0:0:0:0:
256,192,64099,1,8,0:0:0:0:
256,192,64265,1,0,0:0:0:0:
256,192,64431,1,0,0:0:0:0:
256,192,64598,1,0,0:0:0:0:
256,192,64931,1,0,0:0:0:0:
256,192,65098,1,0,0:0:0:0:
256,192,65264,1,8,0:0:0:0:
256,192,65431,1,8,0:0:0:0:
256,192,65597,1,0,0:0:0:0:
256,192,65763,1,0,0:0:0:0:
256,192,65930,1,0,0:0:0:0:
256,192,66263,1,0,0:0:0:0:
256,192,66430,1,8,0:0:0:0:
256,192,66596,1,8,0:0:0:0:
256,192,66763,1,8,0:0:0:0:
256,192,66930,1,0,0:0:0:0:
256,192,67263,1,0,0:0:0:0:
256,192,67429,1,0,0:0:0:0:
256,192,67596,1,8,0:0:0:0:
256,192,67929,1,0,0:0:0:0:
256,192,68095,1,0,0:0:0:0:
256,192,68262,1,8,0:0:0:0:
256,192,68428,1,8,0:0:0:0:
256,192,68595,1,8,0:0:0:0:
256,192,68928,1,8,0:0:0:0:
256,192,69094,1,0,0:0:0:0:
256,192,69261,1,8,0:0:0:0:
256,192,69594,1,8,0:0:0:0:
256,192,69761,1,8,0:0:0:0:
256,192,69927,1,8,0:0:0:0:
256,192,70094,1,0,0:0:0:0:
256,192,70260,1,8,0:0:0:0:
256,192,70593,1,8,0:0:0:0:
256,192,70760,1,8,0:0:0:0:
256,192,70926,1,0,0:0:0:0:
256,192,71093,1,0,0:0:0:0:
256,192,71259,1,0,0:0:0:0:
256,192,71426,1,8,0:0:0:0:
256,192,71592,1,8,0:0:0:0:
256,192,71759,1,8,0:0:0:0:
256,192,71925,12,0,73258,0:0:0:0:
256,192,73591,5,0,0:0:0:0:
256,192,73757,1,0,0:0:0:0:
256,192,73924,1,0,0:0:0:0:
256,192,74257,1,0,0:0:0:0:
256,192,74423,1,0,0:0:0:0:
256,192,74590,1,8,0:0:0:0:
256,192,74757,1,8,0:0:0:0:
256,192,74923,1,8,0:0:0:0:
256,192,75256,1,0,0:0:0:0:
256,192,75422,1,8,0:0:0:0:
256,192,75589,1,0,0:0:0:0:
256,192,75756,1,0,0:0:0:0:
256,192,75922,1,8,0:0:0:0:
256,192,76089,1,8,0:0:0:0:
256,192,76255,1,8,0:0:0:0:
256,192,76588,1,0,0:0:0:0:
256,192,76755,1,8,0:0:0:0:
256,192,76921,1,0,0:0:0:0:
256,192,77088,1,8,0:0:0:0:
256,192,77254,1,8,0:0:0:0:
256,192,77588,1,0,0:0:0:0:
256,192,77754,1,8,0:0:0:0:
256,192,77921,1,0,0:0:0:0:
256,192,78087,1,0,0:0:0:0:
256,192,78254,1,8,0:0:0:0:
256,192,78587,1,0,0:0:0:0:
256,192,78753,1,0,0:0:0:0:
256,192,78920,1,8,0:0:0:0:
256,192,79086,1,8,0:0:0:0:
256,192,79253,1,8,0:0:0:0:
256,192,79586,1,8,0:0:0:0:
256,192,79752,1,0,0:0:0:0:
256,192,79919,1,8,0:0:0:0:
256,192,80252,1,8,0:0:0:0:
256,192,80419,1,8,0:0:0:0:
256,192,80585,1,8,0:0:0:0:
256,192,80752,1,0,0:0:0:0:
256,192,80918,1,8,0:0:0:0:
256,192,81251,1,8,0:0:0:0:
256,192,81418,1,8,0:0:0:0:
256,192,81584,1,0,0:0:0:0:
256,192,81751,1,0,0:0:0:0:
256,192,81917,1,0,0:0:0:0:
256,192,82084,1,8,0:0:0:0:
256,192,82250,1,8,0:0:0:0:
256,192,82417,1,8,0:0:0:0:
256,192,82583,12,0,83916,0:0:0:0:
256,192,84248,5,4,0:0:0:0:
256,192,84914,1,8,0:0:0:0:
256,192,85247,1,8,0:0:0:0:
256,192,85580,1,0,0:0:0:0:
256,192,86246,1,0,0:0:0:0:
256,192,86579,1,8,0:0:0:0:
256,192,86913,1,0,0:0:0:0:
256,192,87579,1,0,0:0:0:0:
256,192,87912,1,8,0:0:0:0:
256,192,88245,1,0,0:0:0:0:
256,192,88578,1,8,0:0:0:0:
256,192,88911,1,8,0:0:0:0:
256,192,89577,1,0,0:0:0:0:
256,192,90243,1,8,0:0:0:0:
256,192,90576,1,8,0:0:0:0:
256,192,90909,1,0,0:0:0:0:
256,192,91575,1,8,0:0:0:0:
256,192,91908,1,8,0:0:0:0:
256,192,92241,1,0,0:0:0:0:
256,192,92574,1,8,0:0:0:0:
256,192,92908,1,0,0:0:0:0:
256,192,93241,1,8,0:0:0:0:
256,192,93574,1,0,0:0:0:0:
256,192,93907,1,0,0:0:0:0:
256,192,94240,1,0,0:0:0:0:
256,192,94573,1,8,0:0:0:0:
256,192,94906,1,4,0:0:0:0:
256,192,95239,1,4,0:0:0:0:
256,192,95905,1,8,0:0:0:0:
256,192,96238,1,0,0:0:0:0:
256,192,96571,1,8,0:0:0:0:
256,192,97237,1,8,0:0:0:0:
256,192,97570,1,0,0:0:0:0:
256,192,97903,1,8,0:0:0:0:
256,192,98569,1,8,0:0:0:0:
256,192,98903,1,0,0:0:0:0:
256,192,99236,1,0,0:0:0:0:
256,192,99569,1,8,0:0:0:0:
256,192,99902,1,0,0:0:0:0:
256,192,100235,1,12,0:0:0:0:
256,192,100901,1,0,0:0:0:0:
256,192,101234,1,8,0:0:0:0:
256,192,101567,1,12,0:0:0:0:
256,192,102233,1,0,0:0:0:0:
256,192,102566,1,8,0:0:0:0:
256,192,102899,1,12,0:0:0:0:
256,192,103232,1,0,0:0:0:0:
256,192,103565,1,0,0:0:0:0:
256,192,103898,1,12,0:0:0:0:
256,192,104231,1,8,0:0:0:0:
256,192,104564,1,0,0:0:0:0:
256,192,104898,1,0,0:0:0:0:
256,192,105231,1,0,0:0:0:0:
256,192,105564,1,4,0:0:0:0:
256,192,105897,1,8,0:0:0:0:
256,192,106230,1,0,0:0:0:0:
256,192,106896,1,0,0:0:0:0:
256,192,107229,1,8,0:0:0:0:
256,192,107562,1,8,0:0:0:0:
256,192,108228,1,0,0:0:0:0:
256,192,108561,1,8,0:0:0:0:
256,192,108894,1,0,0:0:0:0:
256,192,109560,1,8,0:0:0:0:
256,192,109893,1,0,0:0:0:0:
256,192,110226,1,8,0:0:0:0:
256,192,110559,1,8,0:0:0:0:
256,192,110892,1,4,0:0:0:0:
256,192,111225,1,4,0:0:0:0:
256,192,111559,1,8,0:0:0:0:
256,192,112225,1,0,0:0:0:0:
256,192,112558,1,8,0:0:0:0:
256,192,112891,1,0,0:0:0:0:
256,192,113557,1,4,0:0:0:0:
256,192,113890,1,8,0:0:0:0:
256,192,114223,1,4,0:0:0:0:
256,192,114556,1,8,0:0:0:0:
256,192,114889,1,0,0:0:0:0:
256,192,115222,1,0,0:0:0:0:
256,192,115555,1,0,0:0:0:0:
256,192,115722,1,8,0:0:0:0:
256,192,115888,1,0,0:0:0:0:
256,192,116221,1,0,0:0:0:0:
256,192,116887,1,0,0:0:0:0:
256,192,117220,1,8,0:0:0:0:
256,192,117387,1,8,0:0:0:0:
256,192,117554,1,0,0:0:0:0:
256,192,117887,1,0,0:0:0:0:
256,192,118220,1,0,0:0:0:0:
256,192,118553,1,8,0:0:0:0:
256,192,118720,1,8,0:0:0:0:
256,192,118886,1,0,0:0:0:0:
256,192,119219,1,8,0:0:0:0:
256,192,119552,1,8,0:0:0:0:
256,192,119885,1,8,0:0:0:0:
256,192,120052,1,0,0:0:0:0:
256,192,120218,1,0,0:0:0:0:
256,192,120552,1,8,0:0:0:0:
256,192,120885,1,0,0:0:0:0:
256,192,121218,1,8,0:0:0:0:
256,192,121551,1,0,0:0:0:0:
256,192,121717,1,8,0:0:0:0:
256,192,121884,1,0,0:0:0:0:
256,192,122217,1,8,0:0:0:0:
256,192,122383,1,0,0:0:0:0:
256,192,122550,1,0,0:0:0:0:
256,192,122883,1,0,0:0:0:0:
256,192,123216,1,0,0:0:0:0:
256,192,123549,1,8,0:0:0:0:
256,192,123716,1,0,0:0:0:0:
256,192,123882,1,8,0:0:0:0:
256,192,124049,1,0,0:0:0:0:
256,192,124215,1,0,0:0:0:0:
256,192,124548,1,0,0:0:0:0:
256,192,124881,1,8,0:0:0:0:
256,192,125048,1,0,0:0:0:0:
256,192,125214,1,8,0:0:0:0:
256,192,125547,1,0,0:0:0:0:
256,192,125880,1,0,0:0:0:0:
256,192,126213,1,0,0:0:0:0:
256,192,126547,1,8,0:0:0:0:
256,192,126713,1,0,0:0:0:0:
256,192,126880,1,0,0:0:0:0:
256,192,127046,1,8,0:0:0:0:
256,192,127213,1,0,0:0:0:0:
256,192,127546,1,8,0:0:0:0:
256,192,127712,1,8,0:0:0:0:
256,192,127879,1,0,0:0:0:0:
256,192,128212,1,0,0:0:0:0:
256,192,128545,1,8,0:0:0:0:
256,192,128878,1,0,0:0:0:0:
256,192,129211,1,8,0:0:0:0:
256,192,129544,1,0,0:0:0:0:
256,192,129877,1,0,0:0:0:0:
256,192,130210,1,0,0:0:0:0:
256,192,130543,1,8,0:0:0:0:
256,192,130710,1,8,0:0:0:0:
256,192,130876,1,0,0:0:0:0:
256,192,131209,1,0,0:0:0:0:
256,192,131542,1,0,0:0:0:0:
256,192,131875,1,0,0:0:0:0:
256,192,132042,1,0,0:0:0:0:
256,192,132208,1,0,0:0:0:0:
256,192,132375,1,8,0:0:0:0:
256,192,132542,1,0,0:0:0:0:
256,192,132875,1,8,0:0:0:0:
256,192,133041,1,0,0:0:0:0:
256,192,133208,1,0,0:0:0:0:
256,192,133541,1,0,0:0:0:0:
256,192,133874,1,0,0:0:0:0:
256,192,134207,1,8,0:0:0:0:
256,192,134373,1,0,0:0:0:0:
256,192,134540,1,8,0:0:0:0:
256,192,134706,1,0,0:0:0:0:
256,192,134873,1,0,0:0:0:0:
256,192,135206,1,0,0:0:0:0:
256,192,135539,1,8,0:0:0:0:
256,192,135706,1,0,0:0:0:0:
256,192,135872,1,8,0:0:0:0:
256,192,136205,1,8,0:0:0:0:
256,192,136372,1,8,0:0:0:0:
256,192,136538,1,0,0:0:0:0:
256,192,136705,1,8,0:0:0:0:
256,192,136871,1,8,0:0:0:0:
256,192,137204,1,8,0:0:0:0:
256,192,137371,1,8,0:0:0:0:
256,192,137537,1,0,0:0:0:0:
256,192,137870,1,8,0:0:0:0:
256,192,138203,1,8,0:0:0:0:
256,192,138370,1,8,0:0:0:0:
256,192,138537,1,0,0:0:0:0:
256,192,138870,12,0,140202,0:0:0:0:
