osu file format v14

[General]
AudioFilename: audio.mp3
AudioLeadIn: 0
PreviewTime: 62901
Countdown: 0
SampleSet: Normal
StackLeniency: 0.5
Mode: 0
LetterboxInBreaks: 0
WidescreenStoryboard: 1

[Editor]
DistanceSpacing: 0.8
BeatDivisor: 16
GridSize: 4
TimelineZoom: 4.499999

[Metadata]
Title:The Big Black
TitleUnicode:The Big Black
Artist:The Quick Brown Fox
ArtistUnicode:The Quick Brown Fox
Creator:Sotarks
Version:WHO'S AFRAID OF THE BIG BLACK?
Source:
Tags:chiga is 4 Kidz basensorex nymphe who kiyoshi guarden ermi modding queue electronic instrumental speedcore tqbf halley labs lapfox trax renard Speedkore speedkore4kidz tanzeem kudosu soop so0p splittercore
BeatmapID:2606014
BeatmapSetID:1253985

[Difficulty]
HPDrainRate:5.2
CircleSize:4
OverallDifficulty:9
ApproachRate:9.6
SliderMultiplier:2.22
SliderTickRate:1

[Events]
//Background and Video events
0,0,"bg.jpg",0,0
//Break Periods
2,40862,50423
2,84825,94386
//Storyboard Layer 0 (Background)
//Storyboard Layer 1 (Fail)
//Storyboard Layer 2 (Pass)
//Storyboard Layer 3 (Foreground)
//Storyboard Layer 4 (Overlay)
//Storyboard Sound Samples

[TimingPoints]
6969,333.055786844296,4,2,22,72,1,0
6969,-98.0392156862745,4,2,22,72,0,0
7302,-70.4225352112676,4,2,22,72,0,0
7635,-108.695652173913,4,2,22,72,0,0
7968,-192.307692307692,4,2,22,72,0,0
8634,-61.7283950617284,4,2,22,72,0,0
8967,-70.4225352112676,4,2,22,72,0,0
9300,-98.0392156862745,4,2,22,72,0,0
9966,-70.4225352112676,4,2,22,72,0,0
10299,-108.695652173913,4,2,22,72,0,0
10632,-192.307692307692,4,2,22,72,0,0
12297,-61.7283950617284,4,2,22,72,0,0
12630,-58.1395348837209,4,2,22,72,0,0
12964,-108.695652173913,4,2,22,72,0,0
13297,-192.307692307692,4,2,22,72,0,0
13963,-61.7283950617284,4,2,22,72,0,0
14296,-70.4225352112676,4,2,22,72,0,0
14629,-98.0392156862745,4,2,22,72,0,0
14962,-58.1395348837209,4,2,22,72,0,0
15295,-454.545454545455,4,2,22,72,0,0
15628,-58.1395348837209,4,2,22,72,0,0
15961,-454.545454545455,4,2,22,72,0,0
16294,-54.9450549450549,4,2,22,72,0,0
17293,-192.307692307692,4,2,22,72,0,0
17626,-70.4225352112676,4,2,22,72,0,0
18959,-81.9672131147541,4,3,22,82,0,0
22622,-70.4225352112676,4,3,22,82,0,0
24287,-81.9672131147541,4,3,22,82,0,0
25453,-98.0392156862745,4,3,22,82,0,0
25620,-81.9672131147541,4,3,22,82,0,0
29283,-454.545454545455,4,3,22,82,0,0
29616,-81.9672131147541,4,3,22,82,0,0
33280,-70.4225352112676,4,3,22,82,0,0
34945,-81.9672131147541,4,3,22,82,0,0
36111,-98.0392156862745,4,3,22,82,0,0
36277,-81.9672131147541,4,3,22,82,0,0
37610,-75.7575757575758,4,3,22,82,0,0
38109,-65.7894736842105,4,3,22,82,0,0
38609,-75.7575757575758,4,3,22,82,0,0
39608,-81.9672131147541,4,3,22,82,0,0
39941,-454.545454545455,4,3,22,82,0,0
40274,-70.4225352112676,4,3,22,82,0,0
50932,-47.1698113207547,4,3,22,62,0,0
51265,-833.333333333333,4,3,22,62,0,0
56261,-454.545454545455,4,3,22,62,0,0
57593,-312.5,4,3,22,62,0,0
58925,-238.095238095238,4,3,22,62,0,0
59924,-192.307692307692,4,3,22,62,0,0
60257,-238.095238095238,4,3,22,62,0,0
61590,-58.1395348837209,4,2,22,72,0,0
61923,-454.545454545455,4,2,22,72,0,0
62256,-58.1395348837209,4,2,22,72,0,0
62589,-454.545454545455,4,2,22,72,0,0
62922,-65.7894736842105,4,2,22,72,0,0
73247,-98.0392156862745,4,2,22,72,0,0
74912,-61.7283950617284,4,2,22,72,0,0
77576,-65.7894736842105,4,2,22,72,0,0
81240,-58.1395348837209,4,2,22,72,0,0
83904,-454.545454545455,4,3,22,82,0,0
84237,-70.4225352112676,4,3,22,82,0,0
94895,-47.1698113207547,4,3,22,62,0,0
95228,-833.333333333333,4,3,22,62,0,0
100224,-454.545454545455,4,3,22,62,0,0
101556,-312.5,4,3,22,62,0,0
102888,-238.095238095238,4,3,22,62,0,0
103887,-192.307692307692,4,3,22,62,0,0
104220,-238.095238095238,4,3,22,62,0,0
105553,-98.0392156862745,4,2,22,72,0,0
105886,-70.4225352112676,4,2,22,72,0,0
106219,-108.695652173913,4,2,22,72,0,0
106552,-192.307692307692,4,2,22,72,0,0
107218,-61.7283950617284,4,2,22,72,0,0
107551,-70.4225352112676,4,2,22,72,0,0
107884,-98.0392156862745,4,2,22,72,0,0
108550,-70.4225352112676,4,2,22,72,0,0
108883,-108.695652173913,4,2,22,72,0,0
109216,-192.307692307692,4,2,22,72,0,0
110881,-61.7283950617284,4,2,22,72,0,0
111214,-58.1395348837209,4,2,22,72,0,0
111548,-108.695652173913,4,2,22,72,0,0
111881,-192.307692307692,4,2,22,72,0,0
112547,-61.7283950617284,4,2,22,72,0,0
112880,-70.4225352112676,4,2,22,72,0,0
113213,-98.0392156862745,4,2,22,72,0,0
113546,-58.1395348837209,4,2,22,72,0,0
113879,-454.545454545455,4,2,22,72,0,0
114212,-58.1395348837209,4,2,22,72,0,0
114545,-454.545454545455,4,2,22,72,0,0
114878,-54.9450549450549,4,2,22,72,0,0
115877,-192.307692307692,4,2,22,72,0,0
116210,-70.4225352112676,4,2,22,72,0,0
117543,-70.4225352112676,4,1,22,92,0,0
125203,-81.9672131147541,4,1,22,92,0,0
125536,-70.4225352112676,4,1,22,92,0,0
127867,-49.5049504950495,4,1,22,92,0,0
128200,-70.4225352112676,4,1,22,92,0,0
136194,-65.7894736842105,4,1,22,92,0,0
136693,-61.7283950617284,4,1,22,92,0,0
137193,-70.4225352112676,4,1,22,92,0,0
138525,-49.5049504950495,4,1,22,92,0,0

[Colours]
Combo1 : 235,236,187
Combo2 : 202,62,115
Combo3 : 190,77,61

[HitObjects]
65,295,6969,6,0,L|140:277,1,56.61000034552,6|0,1:2|0:2,0:2:0:0:
180,170,7135,2,0,L|235:183,1,56.61000034552,0|0,0:2|0:2,0:2:0:0:
363,309,7302,6,0,B|347:234|347:234|351:231|351:231|330:122,1,157.619992063202,2|0,0:2|0:2,0:2:0:0:
259,52,7551,5,2,0:2:0:0:
259,52,7635,2,0,L|249:113,1,51.0599982859498,2|0,0:2|0:2,0:2:0:0:
423,127,7801,2,0,L|415:77,1,51.0599982859498,2|0,0:2|0:2,0:2:0:0:
275,86,7968,6,0,L|268:131,1,28.8599998238525,2|0,0:2|0:2,0:2:0:0:
401,119,8134,2,0,L|395:90,1,28.8599998238525,2|0,0:2|0:2,0:2:0:0:
271,205,8301,5,2,0:2:0:0:
262,209,8384,1,2,0:2:0:0:
199,177,8467,5,2,0:2:0:0:
190,173,8551,1,2,0:2:0:0:
131,208,8634,6,0,B|200:187|200:187|240:198|240:198|335:172,1,179.820004390137,2|0,0:2|0:2,0:2:0:0:
360,243,8884,1,2,0:2:0:0:
296,200,8967,6,0,B|240:218|240:218|200:207|200:207|137:227,1,157.619992063202,2|0,0:2|0:2,0:2:0:0:
116,305,9217,1,2,0:2:0:0:
166,243,9300,6,0,L|229:227,1,56.61000034552,2|0,0:2|0:2,0:2:0:0:
291,232,9466,2,0,L|236:245,1,56.61000034552,2|0,0:2|0:2,0:2:0:0:
379,290,9633,5,2,0:2:0:0:
381,279,9716,1,2,0:2:0:0:
418,219,9799,5,2,0:2:0:0:
416,208,9883,1,2,0:2:0:0:
361,157,9966,6,0,B|394:131|387:86|387:86|394:131|436:144,1,157.619992063202,2|0,0:2|0:2,0:2:0:0:
308,88,10216,5,2,0:2:0:0:
308,88,10299,2,0,L|240:106,1,51.0599982859498,2|0,0:2|0:2,0:2:0:0:
165,131,10466,2,0,L|115:144,1,51.0599982859498,2|0,0:2|0:2,0:2:0:0:
82,128,10632,6,0,L|129:116,1,28.8599998238525,2|0,0:2|0:2,0:2:0:0:
221,86,10799,2,0,L|268:74,1,28.8599998238525,2|0,0:2|0:2,0:2:0:0:
396,42,10965,5,2,3:2:0:0:
395,54,11048,1,0,0:2:0:0:
393,65,11132,1,0,0:2:0:0:
392,77,11215,1,0,0:2:0:0:
340,130,11298,5,2,3:2:0:0:
341,147,11381,1,0,0:2:0:0:
344,165,11465,1,0,0:2:0:0:
345,184,11548,1,0,0:2:0:0:
401,230,11631,5,2,3:2:0:0:
399,257,11715,1,0,0:2:0:0:
394,287,11798,1,0,0:2:0:0:
392,318,11881,1,0,0:2:0:0:
340,375,11964,5,2,3:2:0:0:
283,339,12048,5,2,3:2:0:0:
213,379,12131,5,2,3:2:0:0:
143,328,12214,5,2,3:2:0:0:
126,341,12297,6,0,B|153:299|203:287|248:322|248:322|239:330|239:330|281:396|382:366,1,269.730006585205,6|2,1:2|0:2,0:2:0:0:
491,306,12630,6,0,B|505:272|525:246|525:246|481:247|420:269|420:269|417:275|417:275|362:302|310:297,1,286.380004369812,6|2,1:2|0:2,0:2:0:0:
246,233,12964,6,0,B|240:223|240:223|251:171,1,51.0599982859498,4|0,0:2|0:2,0:2:0:0:
301,122,13130,2,0,B|307:112|307:112|298:73,1,51.0599982859498,2|0,0:2|0:2,0:2:0:0:
310,36,13297,6,0,L|317:77,1,28.8599998238525,2|0,0:2|0:2,0:2:0:0:
222,154,13463,2,0,L|217:182,1,28.8599998238525,2|0,0:2|0:2,0:2:0:0:
316,287,13630,5,2,0:2:0:0:
318,297,13713,1,2,0:2:0:0:
247,320,13796,5,2,0:2:0:0:
249,310,13879,1,2,0:2:0:0:
196,266,13963,6,0,B|154:240|113:271|113:271|83:335|7:318,1,179.820004390137,2|0,0:2|0:2,0:2:0:0:
33,226,14212,5,2,0:2:0:0:
39,302,14296,6,0,B|78:303|104:254|104:254|145:223|187:249,1,157.619992063202,2|0,0:2|0:2,0:2:0:0:
158,317,14546,1,2,0:2:0:0:
180,224,14629,6,0,P|148:218|108:233,1,56.61000034552,2|0,0:2|0:2,0:2:0:0:
42,283,14795,2,0,P|68:277|90:255,1,56.61000034552,2|0,0:2|0:2,0:2:0:0:
142,130,14962,6,0,B|217:116|267:186|267:186|260:191|260:191|300:272|404:275,1,286.380004369812,6|2,1:2|0:2,0:2:0:0:
428,246,15295,6,0,P|441:241|437:259,1,36.6300011178589,10|2,0:3|0:2,0:2:0:0:
354,287,15628,6,0,B|302:284|253:208|253:208|260:203|260:203|210:133|135:147,1,286.380004369812,6|2,1:2|0:2,0:2:0:0:
78,106,15961,6,0,P|65:101|69:119,1,36.6300011178589,6|0,0:3|0:2,0:2:0:0:
135,53,16294,6,0,B|269:68|269:68|275:75|275:75|448:97,1,303.030010172516,6|0,1:2|0:2,0:2:0:0:
444,116,16627,2,0,B|286:95|286:95|280:88|280:88|146:73,1,303.030010172516,6|0,1:2|0:2,0:2:0:0:
6,64,16960,6,0,B|102:83|136:268|65:262|7:206|139:153,1,303.030010172516,6|0,1:2|0:2,0:2:0:0:
211,150,17293,6,0,L|230:155,6,14.4299999119263,6|0|0|0|0|0|0,1:2|0:2|0:2|0:2|0:2|0:2|0:2,0:2:0:0:
177,229,17626,5,8,1:3:0:0:
177,229,18292,1,8,1:3:0:0:
177,229,18625,1,4,1:3:0:0:
168,298,18709,1,4,1:3:0:0:
159,367,18792,1,4,1:3:0:0:
260,139,18959,6,0,P|287:113|326:104,1,67.7099972104341,2|0,1:2|0:2,0:2:0:0:
297,255,19125,2,0,P|306:291|294:329,1,67.7099972104341,0|0,1:2|0:2,0:2:0:0:
177,229,19292,2,0,P|140:218|113:189,1,67.7099972104341,0|0,1:2|0:2,0:2:0:0:
35,107,19458,5,0,1:2:0:0:
33,121,19541,1,0,0:2:0:0:
31,135,19625,2,0,B|68:124|68:124|70:125|70:125|128:110,1,67.7099972104341,0|0,1:2|0:2,0:2:0:0:
325,122,19791,2,0,B|298:128|298:128|296:127|296:127|259:138,1,67.7099972104341,0|0,1:2|0:2,0:2:0:0:
177,229,19958,5,8,1:2:0:0:
177,181,20041,1,8,0:2:0:0:
177,134,20124,1,8,1:2:0:0:
177,86,20207,1,8,0:2:0:0:
177,39,20291,6,0,P|218:43|266:82,1,67.7099972104341,2|0,1:2|0:2,0:2:0:0:
395,151,20457,2,0,P|371:184|313:206,1,67.7099972104341,0|0,1:2|0:2,0:2:0:0:
194,291,20624,2,0,P|176:253|186:192,1,67.7099972104341,0|0,1:2|0:2,0:2:0:0:
260,138,20790,5,0,1:2:0:0:
262,152,20874,1,0,0:2:0:0:
264,166,20957,2,0,B|227:155|227:155|225:156|225:156|167:141,1,67.7099972104341,0|0,1:2|0:2,0:2:0:0:
75,77,21123,2,0,B|112:66|112:66|114:67|114:67|140:60,1,67.7099972104341,0|0,1:2|0:2,0:2:0:0:
266,12,21290,2,0,B|263:26|263:26|263:30|263:30|260:45,4,33.854998605217,8|0|0|0|0,1:2|1:2|1:2|1:2|1:2,1:2:0:0:
336,51,21540,1,0,1:0:0:0:
336,51,21623,6,0,B|352:63|352:63|358:128,1,67.7099972104341,2|0,1:2|0:2,0:2:0:0:
383,241,21789,2,0,B|367:229|367:229|361:164,1,67.7099972104341,0|0,1:2|0:2,0:2:0:0:
273,124,21956,2,0,B|285:139|285:139|274:204,1,67.7099972104341,0|0,1:2|0:2,0:2:0:0:
269,319,22123,2,0,B|256:303|256:303|267:238,1,67.7099972104341,0|0,1:2|0:2,0:2:0:0:
198,171,22289,2,0,B|205:189|205:189|178:248,1,67.7099972104341,0|0,1:2|0:2,0:2:0:0:
143,358,22456,2,0,B|135:339|135:339|162:280,1,67.7099972104341,0|0,1:2|0:2,0:2:0:0:
111,204,22622,6,0,P|82:201|95:212,1,78.8099960316012,8|0,1:2|0:2,0:2:0:0:
233,334,22789,2,0,P|255:315|238:317,1,78.8099960316012,8|0,1:2|0:2,0:2:0:0:
165,122,22955,5,2,1:2:0:0:
39,352,23122,1,8,1:2:0:0:
34,320,23205,1,8,0:2:0:0:
28,290,23288,1,8,1:2:0:0:
193,146,23455,1,8,0:2:0:0:
188,167,23538,1,8,0:2:0:0:
183,188,23621,1,8,0:2:0:0:
328,298,23788,1,8,1:2:0:0:
325,287,23871,1,8,0:2:0:0:
322,277,23954,1,8,1:3:0:0:
378,356,24121,1,4,1:3:0:0:
512,130,24287,6,0,P|476:112|440:113,1,67.7099972104341,2|0,1:2|0:2,0:2:0:0:
322,277,24454,2,0,P|350:259|369:231,1,67.7099972104341,0|0,1:2|0:2,0:2:0:0:
288,46,24620,2,0,P|289:79|304:109,1,67.7099972104341,0|0,1:2|0:2,0:2:0:0:
471,251,24787,5,0,1:2:0:0:
473,237,24870,1,0,1:2:0:0:
474,223,24954,2,0,B|437:234|437:234|435:233|435:233|377:248,1,67.7099972104341,8|0,1:2|0:2,0:2:0:0:
230,137,25120,2,0,B|267:148|267:148|269:147|269:147|295:153,1,67.7099972104341,8|0,1:2|0:2,0:2:0:0:
499,30,25287,1,8,1:2:0:0:
432,44,25370,1,8,1:2:0:0:
366,59,25453,2,0,L|371:21,2,28.30500017276,8|0|0,1:2|1:2|1:2,1:2:0:0:
412,135,25620,6,0,P|436:195|430:220,1,67.7099972104341,2|0,1:2|0:2,0:2:0:0:
490,286,25786,2,0,P|430:310|405:304,1,67.7099972104341,0|0,1:2|0:2,0:2:0:0:
337,359,25953,2,0,P|313:299|318:274,1,67.7099972104341,0|0,1:2|0:2,0:2:0:0:
249,218,26119,2,0,P|309:194|334:199,1,67.7099972104341,0|0,1:2|0:2,0:2:0:0:
211,312,26286,5,8,1:2:0:0:
177,306,26369,1,8,0:2:0:0:
144,300,26452,1,8,1:2:0:0:
110,295,26536,1,8,0:2:0:0:
77,289,26619,2,0,L|68:237,6,33.854998605217,8|0|0|0|0|0|0,1:2|1:2|1:2|1:2|1:2|1:2|1:2,1:2:0:0:
14,199,26952,6,0,P|58:174|86:175,1,67.7099972104341,2|0,1:2|0:2,0:2:0:0:
70,84,27118,2,0,P|118:97|137:117,1,67.7099972104341,0|0,1:2|0:2,0:2:0:0:
196,42,27285,2,0,P|221:86|220:113,1,67.7099972104341,0|0,1:2|0:2,0:2:0:0:
309,99,27451,2,0,P|295:147|275:166,1,67.7099972104341,0|0,1:2|0:2,0:2:0:0:
168,261,27618,6,0,L|182:188,1,67.7099972104341,0|0,1:2|0:2,0:2:0:0:
297,317,27784,2,0,L|283:244,1,67.7099972104341,0|0,1:2|0:2,0:2:0:0:
396,254,27951,2,0,L|401:217,2,33.854998605217,0|0|0,1:2|1:2|1:2,1:2:0:0:
502,286,28118,2,0,L|497:249,2,33.854998605217,0|0|0,1:2|1:2|1:2,1:2:0:0:
445,136,28284,5,10,1:2:0:0:
297,317,28451,1,8,1:2:0:0:
329,326,28534,1,8,0:2:0:0:
361,336,28617,1,8,1:2:0:0:
274,83,28784,2,0,L|189:107,1,67.7099972104341,8|0,1:2|1:2,0:2:0:0:
127,309,28950,1,8,1:2:0:0:
80,313,29033,1,8,0:2:0:0:
39,291,29117,1,8,1:2:0:0:
17,250,29200,1,8,0:2:0:0:
22,204,29283,6,0,L|68:215,1,36.6300011178589,4|0,1:3|0:2,0:2:0:0:
204,263,29616,6,0,B|197:234|197:234|198:230|198:230|188:184,1,67.7099972104341,6|0,1:2|0:2,0:2:0:0:
294,92,29783,2,0,B|322:100|322:100|325:103|325:103|370:117,1,67.7099972104341,0|0,1:2|0:2,0:2:0:0:
388,263,29949,2,0,B|366:283|366:283|362:284|362:284|327:316,1,67.7099972104341,0|0,1:2|0:2,0:2:0:0:
289,180,30116,5,0,1:2:0:0:
287,194,30199,1,0,0:2:0:0:
285,208,30282,2,0,L|375:187,1,67.7099972104341,0|0,1:2|0:2,0:2:0:0:
503,155,30449,2,0,L|437:170,1,67.7099972104341,0|0,1:2|0:2,0:2:0:0:
184,234,30615,5,8,1:2:0:0:
190,186,30699,1,8,0:2:0:0:
196,139,30782,1,8,1:2:0:0:
202,92,30865,1,8,0:2:0:0:
208,45,30949,6,0,P|258:54|292:94,1,67.7099972104341,2|0,1:2|0:2,0:2:0:0:
340,215,31115,2,0,P|325:184|324:151,1,67.7099972104341,0|0,1:2|0:2,0:2:0:0:
418,16,31282,2,0,P|399:45|370:62,1,67.7099972104341,0|0,1:2|0:2,0:2:0:0:
128,198,31448,5,0,1:2:0:0:
126,184,31531,1,0,0:2:0:0:
124,170,31615,2,0,L|214:191,1,67.7099972104341,0|0,1:2|0:2,0:2:0:0:
405,230,31781,2,0,L|339:214,1,67.7099972104341,0|0,1:2|0:2,0:2:0:0:
248,302,31948,2,0,L|243:268,4,33.854998605217,8|0|0|0|0,1:2|1:2|1:2|1:2|1:2,1:2:0:0:
162,368,32197,1,0,1:0:0:0:
162,368,32281,6,0,P|143:326|151:288,1,67.7099972104341,2|0,1:2|0:2,0:2:0:0:
331,367,32447,2,0,P|350:325|342:287,1,67.7099972104341,0|0,1:2|0:2,0:2:0:0:
68,281,32614,2,0,P|84:237|116:216,1,67.7099972104341,0|0,1:2|0:2,0:2:0:0:
425,280,32780,2,0,P|408:236|376:215,1,67.7099972104341,0|0,1:2|0:2,0:2:0:0:
60,151,32947,2,0,P|102:132|140:140,1,67.7099972104341,0|0,1:2|0:2,0:2:0:0:
433,150,33113,2,0,P|391:131|353:139,1,67.7099972104341,0|0,1:2|0:2,0:2:0:0:
231,259,33280,6,0,B|248:295|248:295|268:248,1,78.8099960316012,8|0,1:2|0:2,0:2:0:0:
264,53,33446,2,0,B|246:16|246:16|226:63,1,78.8099960316012,8|0,1:2|0:2,0:2:0:0:
355,223,33613,5,2,1:2:0:0:
128,103,33779,1,8,1:2:0:0:
122,133,33863,1,8,0:2:0:0:
117,165,33946,1,8,1:2:0:0:
366,70,34113,1,8,0:2:0:0:
362,49,34196,1,8,0:2:0:0:
358,29,34279,1,8,0:2:0:0:
210,137,34446,1,8,1:2:0:0:
208,147,34529,1,8,0:2:0:0:
206,157,34612,1,8,1:3:0:0:
177,38,34779,1,4,1:3:0:0:
349,228,34945,6,0,P|419:210|440:192,1,67.7099972104341,2|0,1:2|0:2,0:2:0:0:
258,178,35112,2,0,P|239:150|212:129,1,67.7099972104341,0|0,1:2|0:2,0:2:0:0:
248,275,35278,2,0,P|233:305|228:338,1,67.7099972104341,0|0,1:2|0:2,0:2:0:0:
167,212,35445,5,0,1:2:0:0:
169,226,35528,1,0,0:2:0:0:
171,240,35611,2,0,B|135:230|135:230|131:231|131:231|81:219,1,67.7099972104341,8|0,1:2|0:2,0:2:0:0:
28,345,35778,2,0,B|64:335|64:335|68:336|68:336|93:329,1,67.7099972104341,8|0,1:2|0:2,0:2:0:0:
61,125,35944,1,8,1:2:0:0:
40,189,36028,1,8,0:2:0:0:
23,255,36111,2,0,L|-10:244,3,28.30500017276,8|0|0|0,1:2|1:2|1:2|1:2,1:2:0:0:
105,224,36277,6,0,P|152:201|189:209,1,67.7099972104341,2|0,1:2|0:2,0:2:0:0:
180,109,36444,2,0,P|229:125|250:157,1,67.7099972104341,0|0,1:2|0:2,0:2:0:0:
310,78,36610,2,0,P|333:125|325:162,1,67.7099972104341,0|0,1:2|0:2,0:2:0:0:
423,149,36777,2,0,P|406:198|374:219,1,67.7099972104341,0|0,1:2|0:2,0:2:0:0:
276,227,36944,5,8,1:2:0:0:
273,261,37027,1,8,0:2:0:0:
271,294,37110,1,8,1:2:0:0:
268,329,37193,1,8,0:2:0:0:
265,362,37277,2,0,L|313:383,7,33.854998605217,8|0|0|0|0|0|0|0,1:2|1:2|1:2|1:2|1:2|1:2|1:2|1:2,1:2:0:0:
181,316,37610,6,0,L|166:361,2,36.6299998882141,10|0|0,1:2|0:2|0:2,0:2:0:0:
136,214,37776,2,0,L|147:248,2,36.6299998882141,8|0|0,1:2|0:2|0:2,0:2:0:0:
163,138,37943,1,4,0:3:0:0:
36,366,38109,6,0,L|19:295,2,42.1799994851074,10|0|0,1:2|0:2|0:2,0:2:0:0:
65,175,38276,2,0,L|55:216,2,42.1799994851074,8|0|0,1:2|0:2|0:2,0:2:0:0:
8,55,38442,1,4,0:3:0:0:
189,306,38609,6,0,L|174:351,2,36.6299998882141,10|0|0,1:2|0:2|0:2,0:2:0:0:
144,204,38775,2,0,L|155:238,2,36.6299998882141,8|0|0,1:2|0:2|0:2,0:2:0:0:
171,128,38942,1,4,1:3:0:0:
293,291,39108,1,8,1:2:0:0:
328,282,39192,1,8,0:2:0:0:
364,274,39275,1,8,1:2:0:0:
478,115,39441,1,8,1:2:0:0:
443,106,39525,1,8,0:2:0:0:
407,98,39608,2,0,B|415:139|415:139|414:143|414:143|423:178,1,67.7099972104341,8|0,1:2|0:2,0:2:0:0:
259,44,39774,2,0,B|251:85|251:85|252:89|252:89|243:124,1,67.7099972104341,8|0,1:2|0:2,0:2:0:0:
80,116,39941,6,0,L|88:153,1,36.6300011178589,6|0,1:3|0:2,0:2:0:0:
25,256,40274,6,0,B|106:195|196:284|196:284|189:289|189:289|279:379|365:312,1,367.779981480805,6|4,1:2|2:2,0:2:0:0:
0,130,50932,6,0,B|-20:75|25:46|25:46|23:40|23:40|79:28|142:56|152:126|152:126|147:130|147:130|172:208|270:191,1,411.810000628372,10|0,1:3|2:2,0:2:0:0:
384,226,51265,6,0,P|402:142|323:244,1,392.940009593262,6|0,0:3|2:2,0:2:0:0:
413,299,56261,6,0,P|453:310|391:323,1,183.150005589295,2|0,2:2|2:2,0:2:0:0:
320,243,57593,6,0,P|281:223|324:302,1,266.4,2|0,2:2|2:2,2:2:0:0:
399,168,58925,6,0,B|329:122|266:178|289:197|236:245|160:204,1,256.409992174988,2|0,2:2|2:2,2:2:0:0:
197,127,59924,6,0,P|220:106|206:134,1,86.5799994715576,2|0,3:2|2:2,0:2:0:0:
3,77,60257,6,0,B|137:15|48:-60|-44:-22|-19:52|93:72|90:175,1,349.649989329529,2|0,2:2|2:2,2:2:0:0:
23,264,61590,6,0,B|38:244|51:229|51:229|51:225|51:225|69:204|82:193|82:193|108:197|135:213|135:213|140:211|140:211|170:232|204:241|204:241|208:239|208:239|243:248|276:267,1,286.380004369812,6|2,1:2|0:2,0:2:0:0:
347,301,61923,6,0,P|353:313|335:311,1,36.6300011178589,10|2,0:3|0:2,0:2:0:0:
267,277,62256,6,0,B|250:267|215:258|215:258|211:260|211:260|177:251|147:230|147:230|142:232|142:232|115:216|89:212|89:212|76:223|58:244|58:244|58:248|58:248|45:263|30:283,1,286.380004369812,6|2,1:2|0:2,0:2:0:0:
47,362,62589,5,4,1:3:0:0:
114,344,62672,1,4,1:3:0:0:
181,327,62755,1,4,1:3:0:0:
446,59,62922,6,0,L|455:102,22,42.1799994851074,2|0|0|0|0|0|0|0|0|0|0|0|0|0|0|0|0|0|0|0|0|0|0,1:2|3:0|3:0|3:0|3:0|3:0|3:0|3:0|3:0|3:0|3:0|3:0|3:0|3:0|3:0|3:0|3:0|3:0|3:0|3:0|3:0|3:0|3:0,3:0:0:0:
308,46,63921,2,8,L|342:17,2,42.1799994851074,10|8|8,3:2|3:2|3:2,3:2:0:0:
362,166,64088,2,0,L|321:148,2,42.1799994851074,2|0|0,3:2|3:0|3:0,3:0:0:0:
200,97,64254,6,0,L|212:139,22,42.1799994851074,2|0|0|0|0|0|0|0|0|0|0|0|0|0|0|0|0|0|0|0|0|0|0,1:2|3:2|3:2|3:2|3:2|3:2|3:2|3:2|3:2|3:2|3:2|3:2|3:2|3:2|3:2|3:2|3:2|3:2|3:2|3:2|3:2|3:2|3:2,3:2:0:0:
68,82,65253,2,8,L|103:52,2,42.1799994851074,8|8|8,3:2|3:2|3:2,3:2:0:0:
112,203,65420,2,8,L|65:186,2,42.1799994851074,8|8|8,3:2|3:2|3:2,3:2:0:0:
229,240,65586,6,0,L|239:286,22,42.1799994851074,2|0|0|0|0|0|0|0|0|0|0|0|0|0|0|0|0|0|0|0|0|0|0,1:2|3:2|3:2|3:2|3:2|3:2|3:2|3:2|3:2|3:2|3:2|3:2|3:2|3:2|3:2|3:2|3:2|3:2|3:2|3:2|3:2|3:2|3:2,3:2:0:0:
324,174,66585,6,8,L|339:233,1,42.1799994851074,8|8,3:2|3:2,3:2:0:0:
338,165,66669,2,8,L|353:224,1,42.1799994851074,8|8,3:2|3:2,3:2:0:0:
352,156,66752,2,8,L|367:215,1,42.1799994851074,8|8,3:2|3:2,3:2:0:0:
364,148,66835,2,8,L|379:207,1,42.1799994851074,8|8,3:2|3:2,3:2:0:0:
420,110,66919,5,10,0:2:0:0:
222,28,67085,1,4,1:3:0:0:
222,28,67168,1,4,1:3:0:0:
222,28,67252,6,0,L|206:72,2,42.1799994851074,8|0|0,3:2|3:2|3:2,3:2:0:0:
84,118,67418,2,0,L|97:160,2,42.1799994851074,8|0|0,3:2|3:2|3:2,3:2:0:0:
187,196,67585,5,2,0:2:0:0:
183,210,67668,1,2,0:2:0:0:
139,268,67751,5,2,0:2:0:0:
143,282,67834,1,2,0:2:0:0:
178,343,67918,5,4,1:3:0:0:
302,113,68084,1,4,1:3:0:0:
458,346,68251,6,0,L|469:303,2,42.1799994851074,2|0|0,1:2|3:2|3:2,3:2:0:0:
370,215,68417,2,0,L|325:228,2,42.1799994851074,0|0|0,1:2|3:2|3:2,3:2:0:0:
290,354,68584,2,0,L|319:384,6,42.1799994851074,0|0|0|0|0|0|0,1:2|3:2|3:2|3:2|3:2|3:2|3:2,3:2:0:0:
138,198,68917,6,0,L|110:167,6,42.1799994851074,8|0|0|0|0|0|0,3:2|3:2|3:2|3:2|3:2|3:2|3:2,3:2:0:0:
264,116,69250,2,0,L|253:162,2,42.1799994851074,10|0|0,3:2|3:2|3:2,3:2:0:0:
130,55,69416,2,0,L|177:40,2,42.1799994851074,2|0|0,3:2|3:2|3:2,3:2:0:0:
468,83,69583,6,0,L|458:34,4,42.1799994851074,0|0|0|0|0,1:2|3:2|3:2|3:2|3:2,3:2:0:0:
403,156,69833,2,0,L|386:103,4,42.1799994851074,0|0|0|0|0,3:2|3:2|3:2|3:2|3:2,3:2:0:0:
340,236,70083,2,0,L|326:185,2,42.1799994851074,0|0|0,3:2|3:2|3:2,3:2:0:0:
174,132,70249,6,0,L|221:142,6,42.1799994851074,0|0|0|0|0|0|0,1:2|3:2|3:2|3:2|3:2|3:2|3:2,3:2:0:0:
139,271,70582,2,0,L|93:285,6,42.1799994851074,10|0|0|0|0|0|0,3:2|3:2|3:2|3:2|3:2|3:2|3:2,3:2:0:0:
1,49,70915,6,0,L|21:105,14,42.1799994851074,2|0|0|0|0|0|0|0|0|0|0|0|0|0|0,1:2|3:2|3:2|3:2|3:2|3:2|3:2|3:2|3:2|3:2|3:2|3:2|3:2|3:2|3:2,3:2:0:0:
97,13,71581,2,0,L|114:56,6,42.1799994851074,2|0|0|0|0|0|0,1:2|3:2|3:2|3:2|3:2|3:2|3:2,3:2:0:0:
42,183,71914,2,0,L|-8:200,2,42.1799994851074,8|0|0,3:2|3:2|3:2,3:2:0:0:
156,134,72081,2,0,L|195:117,2,42.1799994851074,8|0|0,3:2|3:2|3:2,3:2:0:0:
175,274,72247,6,0,L|165:323,2,42.1799994851074,0|0|0,1:2|3:2|3:2,3:2:0:0:
297,185,72414,2,8,L|306:143,1,42.1799994851074,8|8,3:2|3:2,3:2:0:0:
318,193,72497,2,8,L|327:151,1,42.1799994851074,8|8,3:2|3:2,3:2:0:0:
343,203,72580,1,8,3:2:0:0:
494,369,72747,6,0,L|484:325,2,42.1799994851074,8|0|0,3:2|3:2|3:2,3:2:0:0:
512,214,72914,2,0,L|480:243,2,42.1799994851074,10|0|0,3:3|3:2|3:2,3:2:0:0:
366,285,73080,2,0,L|406:297,2,42.1799994851074,6|0|0,3:3|3:2|3:2,3:2:0:0:
485,149,73247,6,0,P|471:92|495:141,1,169.83000103656,4|0,1:3|0:2,0:2:0:0:
387,187,73580,6,0,L|357:177,2,28.30500017276,6|0|0,1:2|3:2|3:2,3:2:0:0:
321,103,73746,2,0,L|286:90,2,28.30500017276,0|0|0,3:2|3:2|3:2,3:2:0:0:
269,227,73913,2,0,L|231:214,2,28.30500017276,0|0|0,3:2|3:2|3:2,3:2:0:0:
203,86,74079,2,0,L|167:74,2,28.30500017276,0|0|0,3:2|3:2|3:2,3:2:0:0:
161,255,74246,2,0,L|129:245,2,28.30500017276,0|0|0,3:2|3:2|3:2,3:2:0:0:
92,61,74412,2,0,L|59:52,2,28.30500017276,0|0|0,3:2|3:2|3:2,3:2:0:0:
50,289,74579,2,8,L|19:280,6,28.30500017276,10|8|8|8|8|8|8,3:2|3:2|3:2|3:2|3:2|3:2|3:2,3:2:0:0:
90,367,74912,6,0,B|136:349|182:355|182:355|180:359|180:359|219:363|269:352,1,179.820004390137,2|0,1:2|3:2,3:2:0:0:
356,366,75162,2,0,L|361:313,6,44.9550010975342,2|0|0|0|0|0|0,3:2|3:2|3:2|3:2|3:2|3:2|3:2,3:2:0:0:
297,258,75495,2,0,L|284:205,4,44.9550010975342,2|0|0|0|0,3:2|3:2|3:2|3:2|3:2,3:2:0:0:
389,179,75745,2,0,L|400:127,2,44.9550010975342,2|0|0,3:2|3:2|3:2,3:2:0:0:
331,27,75911,2,8,L|285:37,1,44.9550010975342,8|8,3:2|3:2,3:2:0:0:
325,52,75994,2,8,L|279:62,1,44.9550010975342,8|8,3:2|3:2,3:2:0:0:
319,78,76078,2,8,L|273:88,1,44.9550010975342,8|8,3:2|3:2,3:2:0:0:
309,104,76161,2,8,L|263:114,1,44.9550010975342,8|8,3:2|3:2,3:2:0:0:
300,137,76244,6,0,B|255:130|210:138|210:138|215:143|215:143|165:156|109:143,1,179.820004390137,2|0,1:2|3:2,3:2:0:0:
20,97,76494,6,0,L|33:142,8,44.9550010975342,2|0|0|0|0|0|0|0|0,3:2|3:2|3:2|3:2|3:2|3:2|3:2|3:2|3:2,3:2:0:0:
0,262,76910,2,0,L|33:226,2,44.9550010975342,2|0|0,3:2|3:2|3:2,3:2:0:0:
150,203,77077,2,0,L|104:189,2,44.9550010975342,2|0|0,3:2|3:2|3:2,3:2:0:0:
98,285,77243,6,0,B|125:345|197:336|197:336|197:322|197:322|271:317|269:222,1,269.730006585205,4|0,1:3|3:2,3:2:0:0:
343,48,77576,6,0,L|252:75,1,84.3599989702149,6|0,1:3|3:2,3:2:0:0:
138,109,77743,2,8,L|187:96,2,42.1799994851074,8|8|8,3:2|3:2|3:2,3:2:0:0:
381,119,77909,2,0,L|290:146,1,84.3599989702149,4|0,1:3|3:2,3:2:0:0:
127,205,78076,2,0,L|207:181,1,84.3599989702149,4|0,1:3|3:2,3:2:0:0:
382,200,78242,2,8,L|342:210,2,42.1799994851074,8|8|8,3:2|3:2|3:2,3:2:0:0:
171,270,78409,5,2,3:2:0:0:
248,323,78492,2,0,B|250:291|250:291|252:289|252:289|257:228|257:228|255:226|255:226|259:178|259:178|262:176|262:176|262:154,1,168.71999794043,2|0,3:2|3:2,3:2:0:0:
274,1,78742,1,4,1:3:0:0:
505,82,78909,5,2,1:2:0:0:
505,82,78992,1,0,3:2:0:0:
505,82,79075,1,0,3:2:0:0:
505,82,79158,2,0,L|460:68,4,42.1799994851074,0|0|0|0|0,3:2|3:2|3:2|3:2|3:2,3:2:0:0:
390,42,79408,2,0,L|344:21,2,42.1799994851074,0|0|0,3:2|3:2|3:2,3:2:0:0:
321,193,79575,6,0,L|230:223,1,84.3599989702149,8|0,3:2|3:2,3:2:0:0:
184,69,79741,2,0,L|255:133,1,84.3599989702149,2|0,1:2|3:2,3:2:0:0:
142,253,79908,2,0,L|162:159,1,84.3599989702149,10|0,3:2|3:2,3:2:0:0:
321,193,80074,2,0,L|230:223,1,84.3599989702149,6|0,3:3|3:2,3:2:0:0:
67,91,80241,5,2,1:2:0:0:
67,91,80324,2,0,L|115:110,4,42.1799994851074,0|0|0|0|0,3:2|3:2|3:2|3:2|3:2,3:2:0:0:
22,210,80574,2,0,L|71:195,6,42.1799994851074,0|0|0|0|0|0|0,3:2|3:2|3:2|3:2|3:2|3:2|3:2,3:2:0:0:
108,280,80907,2,8,L|115:335,1,42.1799994851074,8|8,3:2|3:2,3:2:0:0:
126,290,80990,2,8,L|133:345,1,42.1799994851074,8|8,3:2|3:2,3:2:0:0:
144,300,81073,2,8,L|151:355,1,42.1799994851074,8|8,3:2|3:2,3:2:0:0:
162,310,81157,2,8,L|169:365,1,42.1799994851074,8|8,3:2|3:2,3:2:0:0:
186,324,81240,6,0,B|239:311|239:311|237:317|237:317|308:304|308:304|305:308|305:308|401:286,1,190.920002913208,2|0,1:2|3:2,3:2:0:0:
422,228,81490,2,8,L|429:173,1,47.730000728302,8|8,3:2|3:2,3:2:0:0:
442,239,81573,2,8,L|449:184,1,47.730000728302,8|8,3:2|3:2,3:2:0:0:
462,250,81656,6,0,L|465:198,8,47.730000728302,2|0|0|0|0|0|0|0|0,3:2|3:2|3:2|3:2|3:2|3:2|3:2|3:2|3:2,3:2:0:0:
349,184,82073,2,0,L|341:124,12,47.730000728302,2|0|0|0|0|0|0|0|0|0|0|0|0,3:2|3:2|3:2|3:2|3:2|3:2|3:2|3:2|3:2|3:2|3:2|3:2|3:2,3:2:0:0:
216,238,82655,2,0,L|227:182,4,47.730000728302,2|0|0|0|0,3:2|3:2|3:2|3:2|3:2,3:2:0:0:
128,134,82905,5,2,1:2:0:0:
128,134,82988,1,0,1:2:0:0:
128,134,83072,2,8,L|75:146,2,47.730000728302,8|8|8,3:2|3:2|3:2,3:2:0:0:
67,259,83238,1,0,1:2:0:0:
67,259,83322,1,0,1:2:0:0:
67,259,83405,2,8,L|16:247,2,47.730000728302,8|8|8,3:2|3:2|3:2,3:2:0:0:
157,347,83571,2,8,L|110:367,2,47.730000728302,8|8|8,3:2|3:2|3:2,3:2:0:0:
216,301,83738,1,4,3:3:0:0:
280,336,83821,1,4,3:3:0:0:
345,306,83904,6,0,L|354:269,1,36.6300011178589,8|0,1:3|2:2,3:2:0:0:
448,193,84237,6,0,B|384:268|277:200|277:200|284:193|284:193|176:124|89:216,1,367.779981480805,6|4,1:2|2:2,0:2:0:0:
235,345,94895,6,0,B|178:356|156:307|156:307|150:308|150:308|147:251|184:193|255:194|255:194|258:200|258:200|339:187|337:88,1,411.810000628372,10|0,1:3|2:2,0:2:0:0:
202,51,95228,6,0,P|184:135|263:33,1,392.940009593262,6|0,0:3|2:2,0:2:0:0:
78,78,100224,6,0,P|38:67|100:54,1,183.150005589295,2|0,2:2|2:2,0:2:0:0:
167,186,101556,6,0,P|206:206|163:127,1,266.4,2|0,2:2|2:2,2:2:0:0:
101,261,102888,6,0,B|171:307|234:251|211:232|264:184|340:225,1,256.409992174988,2|0,2:2|2:2,2:2:0:0:
301,304,103888,6,0,P|278:325|292:297,1,86.5799994715576,2|0,3:2|2:2,0:2:0:0:
265,139,104221,6,0,B|343:264|406:167|358:80|287:114|281:228|178:237,1,349.649989329529,2|0,2:2|2:2,2:2:0:0:
95,249,105553,6,0,L|82:325,1,56.61000034552,6|0,1:2|0:2,0:2:0:0:
189,378,105720,2,0,L|179:322,1,56.61000034552,0|0,0:2|0:2,0:2:0:0:
29,354,105886,6,0,B|103:337|103:337|106:340|106:340|180:322,1,157.619992063202,2|0,0:2|0:2,0:2:0:0:
240,247,106136,5,2,0:2:0:0:
240,247,106219,2,0,P|271:249|301:271,1,51.0599982859498,2|0,0:2|0:2,0:2:0:0:
344,199,106386,2,0,P|364:222|370:259,1,51.0599982859498,2|0,0:2|0:2,0:2:0:0:
344,384,106552,6,0,P|325:348|326:334,1,28.8599998238525,2|0,0:2|0:2,0:2:0:0:
253,366,106719,2,0,P|265:327|275:317,1,28.8599998238525,2|0,0:2|0:2,0:2:0:0:
434,302,106885,5,2,0:2:0:0:
436,292,106968,1,2,0:2:0:0:
453,223,107052,5,2,0:2:0:0:
455,213,107135,1,2,0:2:0:0:
473,142,107218,6,0,P|371:98|313:156,1,179.820004390137,2|0,0:2|0:2,0:2:0:0:
281,194,107468,1,2,0:2:0:0:
329,104,107551,6,0,P|411:81|481:130,1,157.619992063202,2|0,0:2|0:2,0:2:0:0:
506,225,107801,1,2,0:2:0:0:
477,83,107884,6,0,P|439:57|416:55,1,56.61000034552,2|0,0:2|0:2,0:2:0:0:
334,75,108051,2,0,P|373:51|396:51,1,56.61000034552,2|0,0:2|0:2,0:2:0:0:
395,157,108217,5,2,0:2:0:0:
397,168,108301,1,2,0:2:0:0:
407,236,108384,5,2,0:2:0:0:
409,247,108467,1,2,0:2:0:0:
477,276,108551,6,0,B|404:291|404:291|394:305|394:305|276:331,1,157.619992063202,2|0,0:2|0:2,0:2:0:0:
238,312,108800,5,2,0:2:0:0:
238,312,108884,2,0,L|246:239,1,51.0599982859498,2|0,0:2|0:2,0:2:0:0:
261,130,109050,2,0,L|255:180,1,51.0599982859498,2|0,0:2|0:2,0:2:0:0:
158,258,109217,6,0,L|165:209,1,28.8599998238525,2|0,0:2|0:2,0:2:0:0:
174,162,109383,2,0,L|169:190,1,28.8599998238525,2|0,0:2|0:2,0:2:0:0:
83,304,109550,5,2,3:2:0:0:
77,296,109633,1,0,0:2:0:0:
75,288,109716,1,0,0:2:0:0:
75,279,109799,1,0,0:2:0:0:
23,233,109883,5,2,3:2:0:0:
25,215,109966,1,0,0:2:0:0:
31,204,110049,1,0,0:2:0:0:
43,191,110133,1,0,0:2:0:0:
21,125,110216,5,2,3:2:0:0:
44,105,110299,1,0,0:2:0:0:
63,99,110382,1,0,0:2:0:0:
92,99,110466,1,0,0:2:0:0:
117,18,110549,5,2,3:2:0:0:
180,48,110632,5,2,3:2:0:0:
248,16,110715,5,2,3:2:0:0:
311,67,110799,5,2,3:2:0:0:
326,52,110882,6,0,B|386:88|346:169|346:169|342:167|342:167|295:225|336:308,1,269.730006585205,6|2,1:2|0:2,0:2:0:0:
410,346,111215,6,0,B|424:312|444:286|444:286|400:287|339:309|339:309|336:315|336:315|281:342|229:337,1,286.380004369812,6|2,1:2|0:2,0:2:0:0:
160,365,111548,6,0,B|154:355|154:355|165:303,1,51.0599982859498,4|0,0:2|0:2,0:2:0:0:
89,282,111715,2,0,B|95:292|95:292|86:331,1,51.0599982859498,2|0,0:2|0:2,0:2:0:0:
188,234,111881,6,0,L|200:185,1,28.8599998238525,2|0,0:2|0:2,0:2:0:0:
129,178,112048,2,0,L|122:206,1,28.8599998238525,2|0,0:2|0:2,0:2:0:0:
219,125,112214,5,2,0:2:0:0:
221,115,112297,1,2,0:2:0:0:
157,88,112381,5,2,0:2:0:0:
155,98,112464,1,2,0:2:0:0:
211,42,112547,6,0,B|298:25|298:25|300:26|300:26|399:10,1,179.820004390137,2|0,0:2|0:2,0:2:0:0:
467,73,112797,5,2,0:2:0:0:
394,27,112880,2,0,B|312:40|312:40|310:39|310:39|227:54,1,157.619992063202,2|0,0:2|0:0,0:2:0:0:
186,142,113130,1,2,0:2:0:0:
234,74,113213,6,0,L|298:62,1,56.61000034552,2|0,0:2|0:2,0:2:0:0:
388,43,113380,2,0,L|332:53,1,56.61000034552,2|0,0:2|0:2,0:2:0:0:
118,46,113546,6,0,B|99:62|85:76|85:76|81:76|81:76|60:95|50:108|50:108|55:134|71:160|71:160|70:165|70:165|92:194|102:228|102:228|100:232|100:232|110:267|130:299,1,286.380004369812,6|2,1:2|0:2,0:2:0:0:
173,356,113879,6,0,P|186:361|182:343,1,36.6300011178589,10|2,0:3|0:2,0:2:0:0:
133,287,114212,2,0,B|121:270|111:235|111:235|113:231|113:231|103:197|81:168|81:168|82:163|82:163|66:137|61:111|61:111|71:98|92:79|92:79|96:79|96:79|110:65|129:49,1,286.380004369812,6|2,1:2|0:2,0:2:0:0:
197,20,114546,6,0,P|204:8|185:8,1,36.6300011178589,6|0,0:3|0:2,0:2:0:0:
160,139,114879,6,0,B|210:143|241:150|241:150|244:154|244:154|301:166|364:170|364:170|367:173|367:173|411:173|471:187,1,303.030010172516,6|0,1:2|0:2,0:2:0:0:
472,167,115212,6,0,B|426:156|382:156|382:156|379:153|379:153|316:149|259:137|259:137|256:133|256:133|225:126|175:122,1,303.030010172516,6|0,1:2|0:2,0:2:0:0:
19,128,115545,6,0,B|136:174|78:230|7:236|41:51|137:32,1,303.030010172516,6|0,1:2|0:2,0:2:0:0:
222,50,115878,6,0,L|214:24,6,14.4299999119263,6|0|0|0|0|0|0,1:2|0:2|0:2|0:2|0:2|0:2|0:2,0:2:0:0:
175,122,116211,5,8,1:3:0:0:
175,122,116877,1,8,1:3:0:0:
175,122,117210,1,4,1:3:0:0:
184,191,117293,1,4,1:3:0:0:
193,260,117376,1,4,1:3:0:0:
325,16,117543,5,6,0:3:0:0:
378,4,117626,1,0,0:2:0:0:
427,26,117710,1,0,0:2:0:0:
455,73,117793,1,0,0:2:0:0:
449,126,117876,6,0,P|403:131|360:98,1,78.8099960316012,2|0,0:2|0:2,0:2:0:0:
313,190,118043,1,0,0:2:0:0:
312,205,118126,1,0,0:2:0:0:
311,220,118209,2,0,P|274:191|267:137,1,78.8099960316012,2|0,0:2|0:2,0:2:0:0:
153,197,118376,2,0,P|147:150|180:107,1,78.8099960316012,0|0,0:2|0:2,0:2:0:0:
240,6,118542,5,10,0:2:0:0:
252,83,118625,1,8,0:2:0:0:
264,161,118709,1,10,0:2:0:0:
276,239,118792,1,8,0:2:0:0:
288,317,118875,6,0,B|247:312|247:312|244:309|244:309|186:303,1,78.8099960316012,6|0,0:3|0:2,0:2:0:0:
75,208,119042,2,0,B|116:203|116:203|119:200|119:200|152:196,1,78.8099960316012,0|0,0:2|0:2,0:2:0:0:
319,48,119208,6,0,B|331:87|331:87|329:91|329:91|347:146,1,78.8099960316012,2|0,0:2|0:2,0:2:0:0:
449,223,119375,1,0,0:2:0:0:
451,238,119458,1,0,0:2:0:0:
453,253,119541,2,0,B|463:221|463:221|461:217|461:217|473:177,1,78.8099960316012,2|0,0:2|0:2,0:2:0:0:
245,106,119708,1,0,0:2:0:0:
243,121,119791,1,0,0:2:0:0:
241,136,119874,6,8,L|204:124,6,39.4049980158006,10|8|8|8|8|8|8,0:2|0:2|0:2|0:2|0:2|0:2|0:2,0:2:0:0:
334,297,120207,5,6,0:3:0:0:
314,246,120291,1,0,0:2:0:0:
269,217,120374,1,0,0:2:0:0:
215,218,120457,1,0,0:2:0:0:
172,252,120541,6,0,P|167:301|188:339,1,78.8099960316012,2|0,0:2|0:2,0:2:0:0:
322,110,120707,1,0,0:2:0:0:
322,95,120790,1,0,0:2:0:0:
321,81,120874,2,0,P|291:56|252:48,1,78.8099960316012,2|0,0:2|0:2,0:2:0:0:
391,293,121040,2,0,P|427:279|453:249,1,78.8099960316012,0|0,0:2|0:2,0:2:0:0:
412,62,121207,6,8,L|422:113,2,39.4049980158006,10|8|8,0:2|0:2|0:2,0:2:0:0:
509,188,121373,2,8,L|501:149,2,39.4049980158006,8|8|8,0:2|0:2|0:2,0:2:0:0:
370,188,121540,5,10,0:2:0:0:
337,209,121623,1,0,0:2:0:0:
316,242,121706,1,0,0:2:0:0:
308,281,121789,1,0,0:2:0:0:
317,319,121873,5,10,0:2:0:0:
274,290,121956,1,0,0:2:0:0:
247,248,122039,1,0,0:2:0:0:
237,198,122123,1,0,0:2:0:0:
248,149,122206,5,10,0:2:0:0:
192,185,122289,1,0,0:2:0:0:
157,239,122372,1,0,0:2:0:0:
145,302,122456,1,0,0:2:0:0:
159,364,122539,5,10,0:2:0:0:
87,317,122622,1,8,0:2:0:0:
42,248,122705,1,8,0:2:0:0:
27,168,122789,1,8,0:2:0:0:
45,89,122872,6,0,B|86:98|86:98|90:102|90:102|141:113,1,78.8099960316012,6|0,0:3|0:2,0:2:0:0:
232,271,123038,2,0,B|219:230|219:230|220:225|220:225|204:175,1,78.8099960316012,0|0,0:2|0:2,0:2:0:0:
292,15,123205,2,0,B|263:46|263:46|258:47|258:47|223:86,1,78.8099960316012,0|0,0:2|0:2,0:2:0:0:
324,217,123371,1,0,0:2:0:0:
332,220,123455,1,0,0:2:0:0:
341,223,123538,5,8,0:3:0:0:
373,200,123621,1,8,0:3:0:0:
393,167,123705,1,8,0:3:0:0:
399,129,123788,1,8,0:3:0:0:
388,91,123871,5,4,0:3:0:0:
453,132,123954,1,4,0:3:0:0:
490,201,124038,1,4,0:3:0:0:
490,279,124121,1,4,0:3:0:0:
451,347,124204,6,0,P|399:320|388:277,1,78.8099960316012,6|0,0:3|0:2,0:2:0:0:
293,354,124371,2,0,P|274:297|297:259,1,78.8099960316012,0|0,0:2|0:2,0:2:0:0:
172,271,124537,2,0,P|199:218|242:207,1,78.8099960316012,0|0,0:2|0:2,0:2:0:0:
352,98,124704,1,0,0:2:0:0:
354,109,124787,1,0,0:2:0:0:
356,120,124870,5,8,0:3:0:0:
321,138,124954,1,8,0:3:0:0:
282,140,125037,1,8,0:3:0:0:
247,124,125120,1,8,0:3:0:0:
222,94,125203,2,8,L|232:48,6,33.854998605217,8|8|8|8|8|8|8,0:2|0:2|0:2|0:2|0:2|0:2|0:2,0:2:0:0:
152,7,125536,5,6,0:3:0:0:
101,25,125620,1,0,0:2:0:0:
72,70,125703,1,0,0:2:0:0:
74,125,125786,1,0,0:2:0:0:
107,166,125869,6,0,B|98:209|98:209|99:212|99:212|91:250,1,78.8099960316012,0|0,0:2|0:2,0:2:0:0:
241,333,126036,1,0,0:2:0:0:
238,344,126119,1,0,0:2:0:0:
237,354,126202,2,0,B|229:324|229:324|231:320|231:320|222:277,1,78.8099960316012,8|0,0:2|0:2,0:2:0:0:
86,180,126369,2,0,B|77:223|77:223|79:227|79:227|71:257,1,78.8099960316012,8|0,0:2|0:2,0:2:0:0:
67,369,126536,6,8,L|28:358,2,39.4049980158006,8|8|8,0:2|0:2|0:2,0:2:0:0:
190,194,126702,2,8,L|228:183,2,39.4049980158006,8|8|8,0:2|0:2|0:2,0:2:0:0:
320,306,126869,5,10,0:2:0:0:
326,275,126952,1,0,0:2:0:0:
332,244,127035,1,0,0:2:0:0:
338,213,127118,1,0,0:2:0:0:
344,182,127202,5,10,0:2:0:0:
352,227,127285,1,0,0:2:0:0:
361,273,127368,1,0,0:2:0:0:
370,319,127451,1,0,0:2:0:0:
379,365,127535,5,10,0:2:0:0:
391,303,127618,1,8,0:2:0:0:
403,241,127701,1,8,0:2:0:0:
415,180,127784,1,8,0:2:0:0:
425,119,127868,6,0,B|361:70|278:116|271:178|271:178|280:180|280:180|231:274|111:235,1,336.329993328415,12|0,0:2|0:2,0:2:0:0:
38,167,128201,5,6,0:3:0:0:
23,114,128284,1,0,0:2:0:0:
43,65,128367,1,0,0:2:0:0:
89,35,128451,1,0,0:2:0:0:
142,38,128534,6,0,P|167:77|164:135,1,78.8099960316012,2|0,0:2|0:2,0:2:0:0:
93,225,128700,1,0,0:2:0:0:
95,238,128784,1,0,0:2:0:0:
97,251,128867,2,0,P|118:209|170:183,1,78.8099960316012,10|0,0:2|0:2,0:2:0:0:
299,186,129033,2,0,P|252:188|203:156,1,78.8099960316012,0|0,0:2|0:2,0:2:0:0:
296,48,129200,5,10,0:2:0:0:
370,70,129283,1,8,0:2:0:0:
419,130,129367,1,10,0:2:0:0:
425,208,129450,1,8,0:2:0:0:
387,275,129533,6,0,B|346:271|346:271|342:268|342:268|303:263,1,78.8099960316012,6|0,0:3|0:2,0:2:0:0:
254,348,129700,2,0,B|227:316|227:316|227:311|227:311|203:280,1,78.8099960316012,0|0,0:2|0:2,0:2:0:0:
95,99,129866,6,0,P|178:115|202:149,1,78.8099960316012,2|0,0:2|0:2,0:2:0:0:
308,22,130033,1,0,0:2:0:0:
309,32,130116,1,0,0:2:0:0:
310,42,130199,6,0,P|254:105|213:109,1,78.8099960316012,10|0,0:2|0:2,0:2:0:0:
264,221,130366,1,0,0:2:0:0:
254,216,130449,1,0,0:2:0:0:
245,212,130532,6,8,P|226:190|232:154,6,39.4049980158006,10|8|8|8|8|8|8,0:2|0:2|0:2|0:2|0:2|0:2|0:2,0:2:0:0:
288,320,130865,5,6,0:3:0:0:
339,302,130949,1,0,0:2:0:0:
368,257,131032,1,0,0:2:0:0:
366,202,131115,1,0,0:2:0:0:
333,161,131198,6,0,L|235:187,1,78.8099960316012,2|0,0:2|0:2,0:2:0:0:
122,332,131365,1,0,0:2:0:0:
124,343,131448,1,0,0:2:0:0:
126,355,131531,2,0,L|152:257,1,78.8099960316012,10|0,0:2|0:2,0:2:0:0:
65,72,131698,2,0,L|136:143,1,78.8099960316012,0|0,0:2|0:2,0:2:0:0:
247,315,131864,6,8,L|257:277,2,39.4049980158006,10|8|8,0:2|0:2|0:2,0:2:0:0:
43,218,132031,2,8,L|58:279,2,39.4049980158006,8|8|8,0:2|0:2|0:2,0:2:0:0:
337,38,132197,5,10,0:2:0:0:
310,66,132281,1,0,0:2:0:0:
274,82,132364,1,0,0:2:0:0:
234,83,132447,1,0,0:2:0:0:
199,67,132531,5,10,0:2:0:0:
219,115,132614,1,0,0:2:0:0:
256,148,132697,1,0,0:2:0:0:
304,167,132780,1,0,0:2:0:0:
354,164,132864,5,10,0:2:0:0:
308,214,132947,1,0,0:2:0:0:
249,239,133030,1,0,0:2:0:0:
185,239,133113,1,0,0:2:0:0:
127,215,133197,5,10,0:2:0:0:
160,294,133280,1,8,0:2:0:0:
220,350,133363,1,8,0:2:0:0:
297,379,133446,1,8,0:2:0:0:
378,375,133530,6,0,P|378:332|343:285,1,78.8099960316012,6|0,0:3|0:2,0:2:0:0:
462,226,133696,2,0,P|431:195|373:186,1,78.8099960316012,0|0,0:2|0:2,0:2:0:0:
420,59,133863,2,0,B|376:52|348:82|348:82|351:86|351:86|328:117|249:110,1,157.619992063202,0|0,0:2|0:2,0:2:0:0:
185,64,134113,1,0,0:2:0:0:
196,48,134196,5,8,0:3:0:0:
225,73,134279,1,8,0:3:0:0:
242,108,134362,1,8,0:3:0:0:
243,147,134446,1,8,0:3:0:0:
228,183,134529,5,4,0:3:0:0:
276,158,134612,1,4,0:3:0:0:
307,113,134695,1,4,0:3:0:0:
311,59,134779,1,4,0:3:0:0:
287,9,134862,6,0,P|356:59|358:92,1,78.8099960316012,6|0,0:3|0:2,0:2:0:0:
451,12,135028,2,0,P|464:96|442:120,1,78.8099960316012,0|0,0:2|0:2,0:2:0:0:
509,241,135195,2,0,B|469:235|469:235|465:231|465:231|393:220,1,78.8099960316012,0|0,0:2|0:2,0:2:0:0:
228,183,135362,1,0,0:2:0:0:
226,171,135445,1,0,0:2:0:0:
224,159,135528,5,8,0:3:0:0:
278,159,135611,1,8,0:3:0:0:
324,189,135695,1,8,0:3:0:0:
346,238,135778,1,8,0:3:0:0:
339,292,135861,2,8,L|300:283,6,39.4049980158006,8|8|8|8|8|8|8,0:2|0:2|0:2|0:2|0:2|0:2|0:2,0:2:0:0:
44,196,136194,6,0,L|56:250,2,42.1799994851074,10|0|0,0:2|0:2|0:2,0:2:0:0:
179,94,136361,2,0,L|169:135,2,42.1799994851074,8|0|0,0:2|0:2|0:2,0:2:0:0:
332,167,136527,1,4,0:3:0:0:
28,222,136694,6,0,L|43:282,2,44.9550010975342,10|0|0,0:2|0:2|0:2,0:2:0:0:
200,75,136860,2,0,L|185:135,2,44.9550010975342,8|0|0,0:2|0:2|0:2,0:2:0:0:
359,186,137027,1,8,0:3:0:0:
130,292,137193,6,0,L|138:330,2,39.4049980158006,10|0|0,0:2|0:2|0:2,0:2:0:0:
236,203,137360,2,0,L|225:250,2,39.4049980158006,8|0|0,0:2|0:2|0:2,0:2:0:0:
361,310,137526,5,10,0:2:0:0:
390,284,137610,1,0,0:2:0:0:
401,247,137693,1,0,0:2:0:0:
389,210,137776,1,0,0:2:0:0:
359,186,137859,5,10,0:2:0:0:
322,136,137943,1,0,0:2:0:0:
329,75,138026,1,0,0:2:0:0:
376,34,138109,1,0,0:2:0:0:
437,36,138192,5,10,0:2:0:0:
480,99,138276,1,8,0:2:0:0:
453,170,138359,1,8,0:2:0:0:
379,188,138442,1,8,0:2:0:0:
322,136,138526,6,8,P|210:103|207:330,1,336.329993328415,10|0,0:3|2:2,0:2:0:0:
216,334,138859,5,6,1:2:0:0:
256,192,138886,12,4,140191,0:2:0:0:
