osu file format v14

[General]
AudioFilename: audio.mp3
AudioLeadIn: 0
PreviewTime: 62901
Countdown: 0
SampleSet: Normal
StackLeniency: 0.4
Mode: 0
LetterboxInBreaks: 0
WidescreenStoryboard: 1

[Editor]
Bookmarks: 6969,18959,29616,40607,40690,40774,40857,40940,41023,41107,41190,41273,41357,41440,41523,41606,49933,50016,50099,50182,50266,50349,50432,50516,50599,50682,50765,50849,50932,61590,67626,73580,84570,84654,84737,84820,84904,84987,85070,85153,85237,85320,85403,85486,85570,93896,93979,94063,94146,94229,94312,94396,94479,94562,94645,94729,94812,94895,100058,105553,117543
DistanceSpacing: 1.2
BeatDivisor: 8
GridSize: 16
TimelineZoom: 2.5

[Metadata]
Title:The Big Black
TitleUnicode:The Big Black
Artist:The Quick Brown Fox
ArtistUnicode:The Quick Brown Fox
Creator:Sotarks
Version:WHO'S AFRAID OF KUDOSU & ERMI'S EXTRA?
Source:
Tags:chiga is 4 Kidz basensorex nymphe who kiyoshi guarden ermi modding queue electronic instrumental speedcore tqbf halley labs lapfox trax renard Speedkore speedkore4kidz tanzeem kudosu soop so0p splittercore
BeatmapID:2668823
BeatmapSetID:1253985

[Difficulty]
HPDrainRate:4.5
CircleSize:4.2
OverallDifficulty:8.5
ApproachRate:9.3
SliderMultiplier:2.12
SliderTickRate:1

[Events]
//Background and Video events
0,0,"bg.jpg",0,0
//Break Periods
2,40862,50378
2,84825,94341
//Storyboard Layer 0 (Background)
//Storyboard Layer 1 (Fail)
//Storyboard Layer 2 (Pass)
//Storyboard Layer 3 (Foreground)
//Storyboard Layer 4 (Overlay)
//Storyboard Sound Samples

[TimingPoints]
6969,333.055786844296,4,2,22,72,1,0
6969,-83.3333333333333,4,2,22,72,0,0
7302,-83.3333333333333,4,2,22,72,0,0
12630,-71.4285714285714,4,2,22,72,0,0
12880,-83.3333333333333,4,2,22,72,0,0
15628,-71.4285714285714,4,2,22,72,0,0
15961,-83.3333333333333,4,2,22,72,0,0
18959,-90.9090909090909,4,3,22,82,0,0
19958,-76.9230769230769,4,3,22,82,0,0
20291,-90.9090909090909,4,3,22,82,0,0
25453,-76.9230769230769,4,3,22,82,0,0
25620,-90.9090909090909,4,3,22,82,0,0
26619,-62.5,4,3,22,82,0,0
26952,-90.9090909090909,4,3,22,82,0,0
29117,-125,4,3,22,82,0,0
29283,-250,4,3,22,82,0,0
29616,-90.9090909090909,4,3,22,82,0,0
30615,-76.9230769230769,4,3,22,82,0,0
30949,-90.9090909090909,4,3,22,82,0,0
36111,-76.9230769230769,4,3,22,82,0,0
36277,-90.9090909090909,4,3,22,82,0,0
37277,-62.5,4,3,22,82,0,0
37610,-90.9090909090909,4,3,22,82,0,0
39941,-270.27027027027,4,3,22,82,0,0
40274,-78.7401574803149,4,3,22,82,0,0
50932,-62.5,4,3,22,62,0,0
51265,-1000,4,3,22,62,0,0
57593,-666.666666666667,4,3,22,62,0,0
58925,-400,4,3,22,62,0,0
59924,-666.666666666667,4,3,22,62,0,0
60257,-1000,4,3,22,62,0,0
61590,-83.3333333333333,4,2,22,72,0,0
62922,-68.9655172413793,4,2,22,72,0,0
66585,-44.4444444444445,4,2,22,72,0,0
66919,-68.9655172413793,4,2,22,72,0,0
69250,-129.032258064516,4,2,22,72,0,0
69583,-68.9655172413793,4,2,22,72,0,0
70249,-133.333333333333,4,2,22,72,0,0
70582,-44.4444444444445,4,2,22,72,0,0
70915,-68.9655172413793,4,2,22,72,0,0
73247,-258.064516129032,4,2,22,72,0,0
73580,-68.9655172413793,4,2,22,72,0,0
77243,-258.064516129032,4,2,22,72,0,0
77576,-68.9655172413793,4,2,22,72,0,0
79908,-258.064516129032,4,2,22,72,0,0
80241,-68.9655172413793,4,2,22,72,0,0
82572,-44.4444444444445,4,2,22,72,0,0
82905,-68.9655172413793,4,2,22,72,0,0
83904,-64.5161290322581,4,3,22,82,0,0
84237,-78.7401574803149,4,3,22,82,0,0
94895,-62.5,4,3,22,62,0,0
95228,-1000,4,3,22,62,0,0
101556,-666.666666666667,4,3,22,62,0,0
102888,-400,4,3,22,62,0,0
103887,-666.666666666667,4,3,22,62,0,0
104220,-1000,4,3,22,62,0,0
105553,-83.3333333333333,4,2,22,72,0,0
111215,-71.4285714285714,4,2,22,72,0,0
111464,-83.3333333333333,4,2,22,72,0,0
114212,-71.4285714285714,4,2,22,72,0,0
114545,-83.3333333333333,4,2,22,72,0,0
117543,-76.9230769230769,4,1,22,92,0,0
121206,-66.6666666666667,4,1,22,92,0,0
122872,-76.9230769230769,4,1,22,92,0,0
123871,-66.6666666666667,4,1,22,92,0,0
124204,-76.9230769230769,4,1,22,92,0,0
125203,-55.5555555555556,4,1,22,92,0,0
125536,-76.9230769230769,4,1,22,92,0,0
126868,-66.6666666666667,4,1,22,92,0,0
127867,-55.5555555555556,4,1,22,92,0,0
128200,-76.9230769230769,4,1,22,92,0,0
131864,-66.6666666666667,4,1,22,92,0,0
133529,-76.9230769230769,4,1,22,92,0,0
134529,-66.6666666666667,4,1,22,92,0,0
134862,-76.9230769230769,4,1,22,92,0,0
135861,-55.5555555555556,4,1,22,92,0,0
136194,-90.9090909090909,4,1,22,92,0,0
137526,-66.6666666666667,4,1,22,92,0,0
138525,-50,4,1,22,92,0,0

[Colours]
Combo1 : 235,236,187
Combo2 : 202,62,115
Combo3 : 190,77,61

[HitObjects]
512,384,6969,5,6,1:2:0:0:
504,350,7052,1,0,0:2:0:0:
481,324,7135,1,0,0:2:0:0:
448,312,7218,1,0,0:2:0:0:
413,318,7302,6,0,B|355:325|355:325|353:330|353:330|290:338,1,127.199996118164,2|0,0:2|0:2,0:0:0:0:
227,299,7551,1,2,0:2:0:0:
218,308,7635,2,0,P|210:339|218:370,1,63.5999980590821,2|0,0:2|0:2,0:0:0:0:
218,222,7801,2,0,P|187:230|164:253,1,63.5999980590821,2|0,0:2|0:2,0:0:0:0:
109,384,7968,6,0,L|116:320,1,63.5999980590821,2|0,0:2|0:2,0:0:0:0:
39,343,8134,2,0,L|46:279,1,63.5999980590821,2|0,0:2|0:2,0:0:0:0:
68,124,8301,5,2,0:2:0:0:
90,96,8384,1,2,0:2:0:0:
122,83,8467,1,2,0:2:0:0:
157,87,8551,1,2,0:2:0:0:
185,108,8634,6,0,B|225:132|225:132|301:107,1,127.199996118164,2|0,0:2|0:2,0:0:0:0:
352,21,8884,5,2,0:2:0:0:
355,8,8967,2,0,L|234:50,1,127.199996118164,2|0,0:2|0:2,0:0:0:0:
364,158,9217,5,2,0:2:0:0:
373,166,9300,2,0,B|404:175|404:175|433:164,1,63.5999980590821,2|0,0:2|0:2,0:0:0:0:
451,87,9466,2,0,B|482:78|482:78|511:88,1,63.5999980590821,2|0,0:2|0:2,0:0:0:0:
355,8,9633,5,2,0:2:0:0:
325,18,9716,1,2,0:2:0:0:
296,29,9799,1,2,0:2:0:0:
266,39,9883,1,2,0:2:0:0:
235,50,9966,6,0,P|194:3|133:9,1,127.199996118164,2|0,0:2|0:2,0:0:0:0:
56,0,10216,1,2,0:2:0:0:
46,9,10299,2,0,L|53:72,1,63.5999980590821,2|0,0:2|0:2,0:0:0:0:
124,111,10466,2,0,L|116:174,1,63.5999980590821,2|0,0:2|0:2,0:0:0:0:
7,277,10632,6,0,P|32:258|63:253,1,63.5999980590821,2|0,0:2|0:2,0:0:0:0:
114,192,10799,2,0,P|142:204|162:229,1,63.5999980590821,2|0,0:2|0:2,0:0:0:0:
195,378,10965,5,2,3:2:0:0:
207,375,11048,1,0,0:2:0:0:
219,372,11132,1,0,0:2:0:0:
231,369,11215,1,0,0:2:0:0:
259,343,11298,5,2,3:2:0:0:
277,347,11381,1,0,0:2:0:0:
295,352,11465,1,0,0:2:0:0:
313,356,11548,1,0,0:2:0:0:
347,384,11631,5,2,3:2:0:0:
374,378,11715,1,0,0:2:0:0:
401,370,11798,1,0,0:2:0:0:
428,364,11881,1,0,0:2:0:0:
456,325,11964,6,0,L|518:339,1,63.5999980590821,2|2,3:2|3:2,0:0:0:0:
392,256,12131,2,0,L|330:270,1,63.5999980590821,2|2,3:2|3:2,0:0:0:0:
450,188,12297,5,6,1:2:0:0:
476,163,12381,1,0,0:0:0:0:
485,128,12464,1,0,0:0:0:0:
476,93,12547,1,2,0:2:0:0:
450,66,12630,6,0,B|382:37|382:37|312:63,1,148.399995471192,6|0,1:2|0:0,0:0:0:0:
282,140,12880,1,2,0:2:0:0:
294,132,12964,2,0,L|301:68,1,63.5999980590821,4|0,0:2|0:2,0:0:0:0:
225,91,13130,2,0,L|232:27,1,63.5999980590821,2|0,0:2|0:2,0:0:0:0:
102,147,13297,6,0,P|132:152|160:139,1,63.5999980590821,2|0,0:2|0:2,0:0:0:0:
151,60,13463,2,0,P|120:54|92:67,1,63.5999980590821,2|0,0:2|0:2,0:0:0:0:
8,175,13630,5,2,0:2:0:0:
15,216,13713,1,2,0:2:0:0:
22,257,13796,1,2,0:2:0:0:
29,298,13879,1,2,0:2:0:0:
35,338,13963,6,0,P|97:348|144:308,1,127.199996118164,2|0,0:2|0:2,0:0:0:0:
169,236,14212,5,2,0:2:0:0:
180,242,14296,2,0,L|195:368,1,127.199996118164,2|0,0:2|0:2,0:0:0:0:
267,296,14546,5,2,0:2:0:0:
276,287,14629,2,0,P|288:258|284:227,1,63.5999980590821,2|0,0:2|0:2,0:0:0:0:
352,188,14795,2,0,P|332:163|303:150,1,63.5999980590821,2|0,0:2|0:2,0:0:0:0:
145,96,14962,5,6,1:2:0:0:
151,60,15045,1,0,0:0:0:0:
175,33,15128,1,0,0:0:0:0:
208,22,15212,1,2,0:2:0:0:
240,29,15295,6,0,B|302:36|302:36|304:40|304:40|364:48,1,127.199996118164,10|0,0:3|0:0,0:0:0:0:
437,2,15545,5,2,0:2:0:0:
429,10,15628,2,0,B|395:50|395:50|433:137,1,148.399995471192,6|0,1:2|0:0,0:0:0:0:
512,333,15961,6,0,P|486:314|455:312,1,63.5999980590821,6|0,0:3|0:0,0:0:0:0:
403,252,16128,2,0,P|374:264|357:291,1,63.5999980590821,0|0,0:0|0:2,0:0:0:0:
262,384,16294,5,6,1:2:0:0:
250,379,16377,1,0,0:0:0:0:
238,374,16461,1,0,0:0:0:0:
226,369,16544,1,0,0:2:0:0:
186,353,16627,5,6,1:2:0:0:
204,345,16710,1,0,0:0:0:0:
222,338,16794,1,0,0:0:0:0:
240,330,16877,1,0,0:2:0:0:
284,310,16960,5,6,1:2:0:0:
257,298,17043,1,0,0:0:0:0:
230,287,17127,1,0,0:0:0:0:
203,275,17210,1,0,0:2:0:0:
176,241,17293,6,0,P|165:211|170:180,1,63.5999980590821,6|0,1:2|0:2,0:0:0:0:
106,137,17460,2,0,P|125:113|154:102,1,63.5999980590821,0|0,0:2|0:2,0:0:0:0:
64,320,17626,5,8,1:3:0:0:
448,64,18292,5,8,1:3:0:0:
0,0,18625,5,4,1:3:0:0:
8,47,18709,1,4,1:3:0:0:
16,94,18792,1,4,1:3:0:0:
297,227,18959,5,2,1:2:0:0:
296,194,19042,1,0,0:2:0:0:
279,165,19125,1,0,1:2:0:0:
248,147,19208,1,0,0:2:0:0:
213,147,19292,2,0,P|187:157|169:180,1,58.3000017791749,0|0,1:2|0:2,0:0:0:0:
93,194,19458,2,0,P|88:222|99:249,1,58.3000017791749,0|0,1:2|0:2,0:0:0:0:
130,329,19625,2,0,L|72:321,3,58.3000017791749,0|0|0|0,1:2|0:2|1:2|0:2,0:0:0:0:
196,370,19958,6,0,B|209:335|209:335|203:303,1,68.8999968460084,8|8,1:2|0:2,0:0:0:0:
297,227,20124,2,0,B|283:261|283:261|289:293,1,68.8999968460084,8|8,1:2|0:2,0:0:0:0:
323,383,20291,5,2,1:2:0:0:
357,379,20374,1,0,0:2:0:0:
391,375,20457,1,0,1:2:0:0:
426,371,20541,1,0,0:2:0:0:
460,366,20624,2,0,P|468:339|461:311,3,58.3000017791749,0|0|0|0,1:2|0:2|1:2|0:2,0:0:0:0:
463,213,20957,5,0,1:2:0:0:
429,217,21040,1,0,0:2:0:0:
395,221,21123,1,0,1:2:0:0:
360,225,21207,1,0,0:2:0:0:
325,230,21290,6,0,L|296:226,4,29.1500008895874,8|0|0|0|0,1:2|1:2|1:2|1:2|1:2,0:0:0:0:
213,147,21623,5,2,1:2:0:0:
214,114,21706,1,0,0:2:0:0:
231,85,21789,1,0,1:2:0:0:
262,67,21872,1,0,0:2:0:0:
296,67,21956,2,0,L|303:9,1,58.3000017791749,0|0,1:2|0:2,0:0:0:0:
375,70,22123,2,0,L|382:12,1,58.3000017791749,0|0,1:2|0:2,0:0:0:0:
461,15,22289,2,0,L|454:73,3,58.3000017791749,0|0|0|0,1:2|0:2|1:2|0:2,0:0:0:0:
317,143,22622,6,0,L|288:139,2,29.1500008895874,8|0|0,1:2|0:0|0:2,0:0:0:0:
202,88,22789,2,0,L|230:84,2,29.1500008895874,8|0|0,1:2|0:0|0:2,0:0:0:0:
148,197,22955,6,0,L|90:189,1,58.3000017791749,2|0,1:2|0:0,0:0:0:0:
12,109,23122,1,8,1:2:0:0:
22,103,23205,1,8,0:2:0:0:
32,97,23289,2,0,L|89:89,1,58.3000017791749,8|0,1:2|0:0,0:0:0:0:
140,32,23455,1,8,0:2:0:0:
185,288,23621,6,0,L|127:295,1,58.3000017791749,8|0,0:2|0:0,0:0:0:0:
81,202,23788,2,0,L|138:209,1,58.3000017791749,8|8,1:2|0:2,0:0:0:0:
16,337,23954,5,8,1:3:0:0:
16,337,24121,1,4,1:3:0:0:
250,349,24287,5,2,1:2:0:0:
269,319,24371,1,0,0:2:0:0:
288,289,24454,1,0,1:2:0:0:
269,259,24537,1,0,0:2:0:0:
249,228,24620,2,0,B|239:213|239:213|247:173,1,58.3000017791749,0|0,1:2|0:2,0:0:0:0:
321,146,24787,2,0,B|331:161|331:161|322:200,1,58.3000017791749,0|0,1:2|1:2,0:0:0:0:
377,300,24954,5,8,1:2:0:0:
394,303,25037,1,0,1:2:0:0:
411,305,25120,1,8,1:2:0:0:
503,193,25287,5,8,1:2:0:0:
469,199,25370,1,8,1:2:0:0:
435,203,25453,2,0,L|400:198,2,34.4499984230042,8|0|0,1:2|1:2|1:2,0:0:0:0:
423,30,25620,5,2,1:2:0:0:
457,29,25704,1,0,0:2:0:0:
487,45,25787,1,0,1:2:0:0:
506,74,25870,1,0,0:2:0:0:
508,110,25953,2,0,L|450:117,1,58.3000017791749,0|0,1:2|0:2,0:0:0:0:
365,23,26119,2,0,L|422:30,1,58.3000017791749,0|0,1:2|0:2,0:0:0:0:
321,146,26286,5,8,1:2:0:0:
274,150,26369,1,8,0:2:0:0:
227,155,26452,1,8,1:2:0:0:
180,160,26536,1,8,0:2:0:0:
133,164,26619,2,0,B|125:144|125:144|131:124,6,42.4,8|0|0|0|0|0|0,1:2|1:2|1:2|1:2|1:2|1:2|1:2,0:0:0:0:
17,79,26952,6,0,P|41:63|69:64,1,58.3000017791749,2|0,1:2|0:2,0:0:0:0:
123,10,27118,2,0,P|148:23|161:48,1,58.3000017791749,0|0,1:2|0:2,0:0:0:0:
24,206,27285,2,0,P|22:177|38:153,3,58.3000017791749,0|0|0|0,1:2|0:2|1:2|0:2,0:0:0:0:
133,276,27618,6,0,L|75:268,1,58.3000017791749,0|0,1:2|0:2,0:0:0:0:
126,361,27784,2,0,L|183:353,1,58.3000017791749,0|0,1:2|0:2,0:0:0:0:
7,357,27951,6,0,L|10:327,2,29.1500008895874,0|0|0,1:2|1:2|1:2,0:0:0:0:
133,276,28118,2,0,L|129:246,2,29.1500008895874,0|0|0,1:2|1:2|1:2,0:0:0:0:
266,341,28284,6,0,L|273:283,1,58.3000017791749,10|0,1:2|0:0,0:0:0:0:
395,153,28451,1,8,1:2:0:0:
400,198,28534,1,8,0:2:0:0:
406,244,28617,1,8,1:2:0:0:
507,379,28784,5,8,1:2:0:0:
508,367,28867,1,0,1:2:0:0:
509,356,28950,1,8,1:2:0:0:
510,344,29034,1,8,0:2:0:0:
511,333,29117,2,0,L|514:290,1,42.4,8|8,1:2|0:2,0:0:0:0:
387,148,29283,6,0,L|323:155,1,63.6,4|0,1:3|0:2,0:0:0:0:
227,129,29616,5,6,1:2:0:0:
260,118,29700,1,0,0:2:0:0:
283,91,29783,1,0,1:2:0:0:
289,56,29866,1,0,0:2:0:0:
275,22,29949,2,0,L|217:15,1,58.3000017791749,0|0,1:2|0:2,0:0:0:0:
167,76,30116,2,0,L|109:82,1,58.3000017791749,0|0,1:2|0:2,0:0:0:0:
0,15,30282,2,0,L|57:21,3,58.3000017791749,0|0|0|0,1:2|0:2|1:2|0:2,0:0:0:0:
110,147,30615,6,0,B|121:114|121:114|108:82,1,68.8999968460084,8|8,1:2|0:2,0:0:0:0:
19,155,30782,2,0,B|8:188|8:188|20:219,1,68.8999968460084,8|8,1:2|0:2,0:0:0:0:
207,310,30949,5,2,1:2:0:0:
178,290,31032,1,0,0:2:0:0:
148,271,31115,1,0,1:2:0:0:
114,279,31198,1,0,0:2:0:0:
80,288,31282,2,0,P|66:319|67:346,3,58.3000017791749,0|0|0|0,1:2|0:2|1:2|0:2,0:0:0:0:
233,241,31615,5,0,1:2:0:0:
261,221,31698,1,0,0:2:0:0:
290,203,31781,1,0,1:2:0:0:
323,211,31864,1,0,0:2:0:0:
357,220,31948,2,0,L|360:248,4,29.1500008895874,8|0|0|0|0,1:2|1:2|1:2|1:2|1:2,0:0:0:0:
270,354,32281,5,2,1:2:0:0:
304,360,32364,1,0,0:2:0:0:
338,366,32447,1,0,1:2:0:0:
372,373,32531,1,0,0:2:0:0:
406,380,32614,2,0,L|413:322,1,58.3000017791749,0|0,1:2|0:2,0:0:0:0:
483,362,32780,2,0,L|490:304,1,58.3000017791749,0|0,1:2|0:2,0:0:0:0:
442,192,32947,2,0,L|434:249,3,58.3000017791749,0|0|0|0,1:2|0:2|1:2|0:2,0:0:0:0:
363,127,33280,6,0,L|391:130,2,29.1500008895874,8|0|0,1:2|0:0|0:2,0:0:0:0:
470,68,33446,2,0,L|441:71,2,29.1500008895874,8|0|0,1:2|0:0|0:2,0:0:0:0:
320,11,33613,6,0,L|377:18,1,58.3000017791749,2|0,1:2|0:0,0:0:0:0:
231,120,33779,1,8,1:2:0:0:
241,121,33862,1,8,0:2:0:0:
252,122,33945,2,0,L|260:51,1,58.3000017791749,8|0,1:2|0:0,0:0:0:0:
209,2,34113,1,8,0:2:0:0:
77,124,34279,6,0,P|103:135|131:130,1,58.3000017791749,8|0,0:2|0:0,0:0:0:0:
141,52,34446,2,0,P|114:40|86:45,1,58.3000017791749,8|8,1:2|0:2,0:0:0:0:
192,203,34612,5,8,1:3:0:0:
192,203,34779,1,4,1:3:0:0:
12,175,34945,5,2,1:2:0:0:
16,209,35028,1,0,0:2:0:0:
20,244,35112,1,0,1:2:0:0:
24,278,35195,1,0,0:2:0:0:
29,312,35278,2,0,P|57:317|83:305,1,58.3000017791749,0|0,1:2|0:2,0:0:0:0:
151,348,35445,2,0,P|169:326|172:297,1,58.3000017791749,0|0,1:2|0:2,0:0:0:0:
273,205,35611,5,8,1:2:0:0:
270,222,35695,1,0,1:2:0:0:
267,239,35778,1,8,1:2:0:0:
383,309,35944,5,8,1:2:0:0:
377,275,36028,1,8,0:2:0:0:
371,241,36111,2,0,L|375:206,2,34.4499984230042,8|0|0,1:2|1:2|1:2,0:0:0:0:
292,384,36277,5,2,1:2:0:0:
296,348,36361,1,0,0:2:0:0:
317,320,36444,1,0,1:2:0:0:
349,305,36527,1,0,0:2:0:0:
383,309,36610,2,0,P|408:323|436:321,1,58.3000017791749,0|0,1:2|0:2,0:0:0:0:
500,230,36777,2,0,P|475:215|446:217,1,58.3000017791749,0|0,1:2|0:2,0:0:0:0:
267,239,36944,5,8,1:2:0:0:
275,193,37027,1,8,0:2:0:0:
283,147,37110,1,8,1:2:0:0:
291,101,37193,1,8,0:2:0:0:
299,55,37277,2,0,B|315:57|315:57|318:60|318:60|339:63,6,42.4,8|0|0|0|0|0|0,1:2|1:2|1:2|1:2|1:2|1:2|1:2,0:0:0:0:
202,6,37610,6,0,L|198:34,2,29.1500008895874,10|0|0,1:2|0:2|0:2,0:0:0:0:
129,61,37776,2,0,L|125:32,2,29.1500008895874,8|0|0,1:2|0:2|0:2,0:0:0:0:
210,0,37943,1,4,0:3:0:0:
35,107,38109,6,0,L|38:135,2,29.1500008895874,10|0|0,1:2|0:2|0:2,0:0:0:0:
133,172,38275,2,0,L|136:143,2,29.1500008895874,8|0|0,1:2|0:2|0:2,0:0:0:0:
26,101,38442,1,4,0:3:0:0:
190,220,38609,6,0,L|186:248,2,29.1500008895874,10|0|0,1:2|0:2|0:2,0:0:0:0:
117,275,38775,2,0,L|113:246,2,29.1500008895874,8|0|0,1:2|0:2|0:2,0:0:0:0:
198,214,38942,1,4,1:3:0:0:
102,350,39108,5,8,1:2:0:0:
90,347,39192,1,8,0:2:0:0:
78,344,39275,2,0,L|20:351,1,58.3000017791749,8|0,1:2|0:0,0:0:0:0:
206,208,39441,5,8,1:2:0:0:
218,211,39525,1,8,0:2:0:0:
230,214,39608,2,0,L|222:271,1,58.3000017791749,8|0,1:2|0:2,0:0:0:0:
300,256,39774,2,0,L|292:313,1,58.3000017791749,8|0,1:2|0:2,0:0:0:0:
375,144,39941,6,0,L|382:201,1,58.8300014362793,6|0,1:3|0:2,0:0:0:0:
291,162,40274,6,0,B|212:113|212:113|326:99|326:99|328:103|328:103|435:89,1,314.113330936839,6|4,1:2|2:2,0:0:0:0:
3,383,50932,6,0,B|-14:218|-14:218|81:207,1,254.4,10|0,1:3|0:0,0:0:0:0:
199,242,51265,6,0,B|249:234|273:184|257:122|191:88|110:132|86:210,1,307.4,6|0,0:3|0:0,0:0:0:0:
82,373,56261,6,0,L|155:363,1,74.2,2|0,2:2|0:0,0:0:0:0:
309,255,57593,6,0,L|198:241,1,111.299996603394,2|0,2:2|0:0,0:0:0:0:
44,35,58925,6,0,L|188:17,1,145.75,2|0,2:2|2:2,0:0:0:0:
204,33,59924,6,0,L|180:30,1,23.8499992721558,2|0,3:2|2:2,0:0:0:0:
263,84,60257,6,0,P|281:51|280:14,1,74.2,2|0,2:2|0:0,0:0:0:0:
74,130,61590,6,0,B|139:119|139:119|184:159|184:159|180:168|180:168|222:202|222:202|284:191,1,254.399992236328,6|10,1:2|0:3,0:0:0:0:
450,360,62256,6,0,B|518:312|518:312|431:302|431:302|430:305|430:305|349:294,1,254.399992236328,6|4,1:2|1:3,0:0:0:0:
287,336,62672,1,4,1:3:0:0:
287,343,62755,1,4,1:3:0:0:
213,157,62922,6,0,L|220:94,22,38.425001172638,2|0|0|0|0|0|0|0|0|0|0|0|0|0|0|0|0|0|0|0|0|0|0,1:2|3:0|3:0|3:0|3:0|3:0|3:0|3:0|3:0|3:0|3:0|3:0|3:0|3:0|3:0|3:0|3:0|3:0|3:0|3:0|3:0|3:0|3:0,0:0:0:0:
150,207,63921,2,0,L|157:270,1,38.425001172638,10|8,3:2|3:2,0:0:0:0:
141,214,64004,2,0,L|148:277,1,38.425001172638,8|0,3:2|0:0,0:0:0:0:
132,221,64088,2,0,L|139:284,2,38.425001172638,2|0|0,3:2|3:0|3:0,0:0:0:0:
75,311,64254,6,0,B|56:308|56:308|54:311|54:311|16:306,22,38.425001172638,2|0|0|0|0|0|0|0|0|0|0|0|0|0|0|0|0|0|0|0|0|0|0,1:2|3:2|3:2|3:2|3:2|3:2|3:2|3:2|3:2|3:2|3:2|3:2|3:2|3:2|3:2|3:2|3:2|3:2|3:2|3:2|3:2|3:2|3:2,0:2:0:0:
149,357,65253,6,0,B|167:354|167:354|169:357|169:357|207:352,1,38.425001172638,8|8,3:2|3:2,3:2:0:0:
153,363,65337,2,0,B|171:360|171:360|173:363|173:363|211:358,2,38.425001172638,8|8|8,3:2|3:2|3:2,3:2:0:0:
330,344,65586,6,0,P|328:363|327:383,22,38.425001172638,2|0|0|0|0|0|0|0|0|0|0|0|0|0|0|0|0|0|0|0|0|0|0,1:2|3:2|3:2|3:2|3:2|3:2|3:2|3:2|3:2|3:2|3:2|3:2|3:2|3:2|3:2|3:2|3:2|3:2|3:2|3:2|3:2|3:2|3:2,0:0:0:0:
394,294,66585,2,0,P|387:250|385:222,6,59.6250022745133,8|8|8|8|8|8|8,3:2|3:2|3:2|3:2|3:2|3:2|3:2,0:0:0:0:
432,154,66919,6,0,P|397:139|360:146,1,76.850002345276,10|0,0:2|0:0,0:0:0:0:
316,66,67085,2,0,P|285:88|272:123,1,76.850002345276,4|4,1:3|1:3,0:0:0:0:
188,195,67252,6,0,L|149:192,2,38.425001172638,8|0|0,3:2|3:2|3:2,0:0:0:0:
149,101,67418,2,0,L|187:103,2,38.425001172638,8|0|0,3:2|3:2|3:2,0:0:0:0:
72,202,67585,5,2,0:2:0:0:
75,225,67669,1,2,0:2:0:0:
78,249,67752,1,2,0:2:0:0:
81,272,67834,1,2,0:2:0:0:
83,295,67917,1,6,1:3:0:0:
64,107,68084,1,4,1:3:0:0:
168,335,68251,5,2,1:2:0:0:
165,358,68335,1,0,3:2:0:0:
162,382,68418,1,0,1:2:0:0:
71,296,68584,6,0,L|32:298,6,38.425001172638,0|0|0|0|0|0|0,1:2|3:2|3:2|3:2|3:2|3:2|3:2,0:0:0:0:
153,231,68917,2,0,L|149:199,4,19.212500586319,8|0|0|0|0,3:2|3:2|3:2|3:2|3:2,0:0:0:0:
257,317,69083,2,0,B|265:335|265:335|251:370,2,38.425001172638,0|0|0,3:2|3:2|3:2,3:2:0:0:
270,372,69250,6,0,B|285:335|285:335|272:296,1,82.1500006267548,10|2,3:2|3:2,0:0:0:0:
44,165,69583,6,0,B|46:146|46:146|43:144|43:144|48:106,14,38.425001172638,0|0|0|0|0|0|0|0|0|0|0|0|0|0|0,3:2|3:2|3:2|3:2|3:2|3:0|3:2|3:2|3:2|3:2|3:2|3:0|3:2|3:2|3:2,3:0:0:0:
153,231,70249,5,0,1:2:0:0:
160,236,70332,2,0,L|247:225,1,79.5000030326844,2|0,3:2|3:2,0:0:0:0:
347,292,70582,6,0,P|359:264|353:236,1,59.6250022745133,10|0,3:2|3:2,3:2:0:0:
356,295,70665,2,0,P|368:268|362:240,4,59.6250022745133,0|0|0|0|0,3:2|3:2|3:2|3:2|3:2,3:2:0:0:
304,131,70915,6,0,L|309:83,22,38.425001172638,2|0|0|0|0|0|0|0|0|0|0|0|0|0|0|0|2|0|0|0|0|0|0,3:2|3:2|3:2|3:2|3:2|3:2|3:2|3:2|3:2|3:2|3:2|3:2|3:2|3:2|3:2|3:2|3:2|3:2|3:2|3:2|3:2|3:2|3:2,3:2:0:0:
413,52,71914,6,0,L|406:-11,1,38.425001172638,8|0,3:2|3:2,0:0:0:0:
422,45,71997,2,0,L|415:-18,1,38.425001172638,0|0,3:2|0:0,0:0:0:0:
431,38,72081,2,0,L|424:-25,2,38.425001172638,8|0|0,3:2|3:2|3:2,0:0:0:0:
290,129,72247,5,0,1:2:0:0:
276,127,72331,1,0,3:2:0:0:
262,125,72414,2,0,L|224:120,2,38.425001172638,8|8|8,3:2|3:2|3:2,0:0:0:0:
174,62,72580,1,8,3:2:0:0:
159,63,72663,2,0,L|121:67,2,38.425001172638,0|0|8,0:0|0:0|3:2,0:0:0:0:
61,14,72831,1,0,3:2:0:0:
47,17,72914,2,0,L|10:26,2,38.425001172638,10|0|0,3:3|3:2|3:2,0:0:0:0:
67,123,73080,6,0,L|62:160,2,38.425001172638,6|0|0,3:3|3:2|3:2,0:0:0:0:
4,214,73247,6,0,L|11:277,1,61.6125004700661,4|0,1:3|0:0,0:0:0:0:
79,362,73580,6,0,B|94:359|94:359|96:362|96:362|115:360,22,38.425001172638,6|0|0|0|0|0|0|0|0|0|0|0|0|0|0|0|0|0|0|0|0|0|0,3:2|3:2|3:2|3:2|3:2|3:2|3:2|3:2|3:2|3:2|3:2|3:2|3:2|3:2|3:2|3:2|3:2|3:2|3:2|3:2|3:2|3:2|3:2,3:2:0:0:
172,303,74579,6,0,L|235:310,1,38.425001172638,10|8,3:2|3:2,0:0:0:0:
179,294,74662,2,0,L|242:301,1,38.425001172638,8|8,3:2|3:2,0:0:0:0:
186,285,74746,2,0,L|249:292,2,38.425001172638,8|8|8,3:2|3:2|3:2,0:0:0:0:
286,237,74912,5,2,1:2:0:0:
285,222,74995,2,0,L|280:184,20,38.425001172638,0|0|0|0|2|0|0|0|0|0|0|0|2|0|0|0|0|0|2|0|0,3:2|3:2|3:2|3:2|3:2|3:2|3:2|3:2|3:2|3:2|3:2|3:2|3:2|3:2|3:2|3:2|3:2|3:2|3:2|3:2|3:2,3:2:0:0:
224,128,75911,5,8,3:2:0:0:
225,113,75994,2,0,L|229:75,2,38.425001172638,8|8|8,3:2|3:2|3:2,0:0:0:0:
168,17,76244,6,0,B|152:19|152:19|150:16|150:16|131:18,22,38.425001172638,2|0|0|0|0|0|2|0|0|0|0|0|0|0|0|0|2|0|0|0|2|0|0,3:2|3:2|3:2|3:2|3:2|3:2|3:2|3:2|3:2|3:2|3:2|3:2|3:2|3:2|3:2|3:2|3:2|3:2|3:2|3:2|3:2|3:2|3:2,3:2:0:0:
71,76,77243,6,0,L|7:68,1,61.6125004700661,4|0,1:3|0:0,0:0:0:0:
223,143,77576,5,6,1:3:0:0:
237,141,77660,1,0,3:2:0:0:
251,139,77743,2,0,L|288:134,2,38.425001172638,8|8|8,3:2|3:2|3:2,0:0:0:0:
353,184,77909,6,0,L|350:222,2,38.425001172638,4|0|0,1:3|0:0|3:2,0:0:0:0:
424,256,78076,2,0,L|416:293,2,38.425001172638,4|0|0,1:3|0:0|3:2,0:0:0:0:
485,336,78242,2,0,L|472:372,2,38.425001172638,8|8|8,3:2|3:2|3:2,0:0:0:0:
196,315,78409,5,2,3:2:0:0:
196,315,78492,2,0,B|136:304|136:304|95:341|95:341|99:349|99:349|61:380|61:380|4:370,1,230.550007035828,2|4,3:2|1:3,0:0:0:0:
451,159,78909,5,2,1:2:0:0:
449,145,78993,1,0,3:2:0:0:
447,131,79076,2,0,L|442:93,10,38.425001172638,0|0|0|0|0|0|0|0|0|0|0,3:2|3:0|3:2|3:2|3:2|3:2|3:2|3:0|3:2|3:2|3:2,3:0:0:0:
354,181,79575,2,0,L|316:176,4,38.425001172638,8|0|0|0|2,3:2|3:0|3:2|3:0|3:2,3:0:0:0:
421,254,79908,6,0,L|426:301,1,41.0750003133774,10|6,3:2|3:3,0:0:0:0:
495,331,80241,5,2,1:2:0:0:
494,346,80324,2,0,L|489:383,12,38.425001172638,0|0|0|0|0|0|0|0|0|0|0|0|0,3:2|3:2|3:2|3:2|3:2|3:0|3:0|3:2|3:2|3:2|3:2|3:2|3:2,3:0:0:0:
398,365,80907,6,0,L|335:372,1,38.425001172638,8|8,3:2|3:2,0:0:0:0:
391,356,80990,2,0,L|328:363,1,38.425001172638,8|8,3:2|3:2,0:0:0:0:
384,347,81074,2,0,L|321:354,2,38.425001172638,8|8|8,3:2|3:2|3:2,0:0:0:0:
268,293,81240,5,2,1:2:0:0:
269,278,81323,2,0,L|273:240,2,38.425001172638,0|0|0,3:2|3:2|3:2,3:2:0:0:
130,348,81573,6,0,B|132:363|132:363|129:365|129:365|131:384,22,38.425001172638,8|8|2|0|0|0|0|0|0|0|0|0|0|0|2|0|0|0|0|0|0|0|0,3:2|3:2|3:2|3:2|3:2|3:2|3:2|3:2|3:2|3:2|3:2|3:2|3:2|3:0|3:2|3:2|3:2|3:2|3:2|3:2|3:2|3:2|3:2,3:0:0:0:
42,372,82572,6,0,P|31:343|39:315,1,59.6250022745133,0|0,3:2|3:0,0:0:0:0:
32,374,82655,2,0,P|21:346|29:318,4,59.6250022745133,2|0|0|0|0,3:2|3:2|3:2|3:2|3:2,3:2:0:0:
113,254,82905,5,2,1:2:0:0:
127,252,82989,1,0,1:2:0:0:
141,250,83072,2,0,L|178:245,2,38.425001172638,8|8|8,3:2|3:2|3:2,3:2:0:0:
229,187,83238,1,0,1:2:0:0:
244,188,83321,2,0,L|281:192,2,38.425001172638,0|0|8,3:2|3:2|3:2,3:2:0:0:
342,139,83489,1,8,3:2:0:0:
356,142,83572,2,0,L|392:151,4,38.425001172638,8|8|4|0|4,3:2|3:2|3:3|3:0|3:3,3:0:0:0:
456,96,83821,5,4,3:3:0:0:
456,96,83904,2,0,B|449:78|423:73|423:73|488:60|531:93|537:153|510:202,1,246.450001880264,8|0,1:3|2:2,0:0:0:0:
353,258,84237,6,0,B|335:232|296:240|296:240|257:247|225:296|225:296|195:343|155:350|155:350|116:359|90:338,1,314.113330936839,6|4,1:2|2:2,0:0:0:0:
48,68,94895,6,0,B|38:37|4:27|4:27|195:50,1,254.4,10|0,1:3|0:0,0:0:0:0:
300,0,95228,6,0,B|347:83|289:151|261:130|214:215|255:284,1,307.4,6|0,0:3|0:0,0:0:0:0:
254,282,100224,6,0,L|328:273,1,74.2,2|0,2:2|0:0,0:0:0:0:
230,372,101556,6,0,L|114:359,1,111.299996603394,2|0,2:2|0:0,0:0:0:0:
352,180,102889,6,0,L|496:162,1,145.75,2|0,2:2|2:2,0:0:0:0:
303,279,103888,6,0,L|279:276,1,23.8499992721558,2|0,3:2|2:2,0:0:0:0:
141,310,104221,6,0,B|120:278|120:278|132:244,1,74.2,2|0,2:2|0:0,0:0:0:0:
511,204,105553,5,6,1:2:0:0:
504,240,105636,1,0,0:2:0:0:
479,268,105719,1,0,0:2:0:0:
443,281,105802,1,0,0:2:0:0:
404,272,105886,6,0,B|374:248|374:248|285:259,1,127.199996118164,2|0,0:2|0:2,0:0:0:0:
227,311,106135,1,2,0:2:0:0:
218,321,106219,2,0,L|225:384,1,63.5999980590821,2|0,0:2|0:2,0:0:0:0:
141,310,106385,2,0,L|148:373,1,63.5999980590821,2|0,0:2|0:2,0:0:0:0:
3,283,106552,6,0,B|34:273|34:273|64:280,1,63.5999980590821,2|0,0:2|0:2,0:0:0:0:
69,360,106718,2,0,B|38:370|38:370|8:363,1,63.5999980590821,2|0,0:2|0:2,0:0:0:0:
191,238,106885,5,2,0:2:0:0:
213,207,106968,1,2,0:2:0:0:
235,176,107051,1,2,0:2:0:0:
213,145,107135,1,2,0:2:0:0:
191,114,107218,6,0,B|132:106|132:106|129:110|129:110|66:102,1,127.199996118164,2|0,0:2|0:2,0:0:0:0:
43,30,107468,5,2,0:2:0:0:
55,26,107551,2,0,B|114:34|114:34|117:30|117:30|180:38,1,127.199996118164,2|0,0:2|0:2,0:0:0:0:
268,5,107801,5,2,0:2:0:0:
277,13,107884,2,0,L|269:76,1,63.5999980590821,2|0,0:2|0:2,0:0:0:0:
346,57,108051,2,0,L|338:120,1,63.5999980590821,2|0,0:2|0:2,0:0:0:0:
498,228,108217,5,2,0:2:0:0:
475,196,108300,1,2,0:2:0:0:
439,178,108384,1,2,0:2:0:0:
399,180,108467,1,2,0:2:0:0:
364,202,108550,6,0,L|379:328,1,127.199996118164,2|0,0:2|0:2,0:0:0:0:
460,337,108800,1,2,0:2:0:0:
450,328,108883,2,0,L|386:335,1,63.5999980590821,2|0,0:2|0:2,0:0:0:0:
322,381,109050,2,0,L|258:373,1,63.5999980590821,2|0,0:2|0:2,0:0:0:0:
205,225,109216,6,0,P|226:248|229:279,1,63.5999980590821,2|0,0:2|0:2,0:0:0:0:
294,325,109383,2,0,P|284:354|259:373,1,63.5999980590821,2|0,0:2|0:2,0:0:0:0:
122,384,109549,5,2,3:2:0:0:
119,372,109632,1,0,0:2:0:0:
116,360,109716,1,0,0:2:0:0:
113,348,109799,1,0,0:2:0:0:
87,320,109882,5,2,3:2:0:0:
91,302,109965,1,0,0:2:0:0:
96,284,110049,1,0,0:2:0:0:
100,266,110132,1,0,0:2:0:0:
128,232,110215,5,2,3:2:0:0:
122,205,110299,1,0,0:2:0:0:
114,178,110382,1,0,0:2:0:0:
108,151,110465,1,0,0:2:0:0:
69,123,110548,6,0,L|83:61,1,63.5999980590821,2|2,3:2|3:2,0:0:0:0:
0,187,110715,2,0,L|14:249,1,63.5999980590821,2|2,3:2|3:2,0:0:0:0:
168,87,110882,5,6,1:2:0:0:
202,71,110965,1,0,0:0:0:0:
236,55,111048,1,0,0:0:0:0:
265,78,111131,1,2,0:2:0:0:
295,102,111215,6,0,B|286:168|286:168|282:169|282:169|273:245,1,148.399995471192,6|0,1:2|0:0,0:0:0:0:
260,324,111464,1,2,0:2:0:0:
258,336,111548,2,0,P|284:352|314:347,1,63.5999980590821,4|0,0:2|0:2,0:0:0:0:
386,384,111714,2,0,P|413:369|424:340,1,63.5999980590821,2|0,0:2|0:2,0:0:0:0:
424,158,111881,6,0,L|431:221,1,63.5999980590821,2|0,0:2|0:2,0:0:0:0:
355,207,112047,2,0,L|362:270,1,63.5999980590821,2|0,0:2|0:2,0:0:0:0:
512,257,112214,5,2,0:2:0:0:
507,218,112297,1,2,0:2:0:0:
502,179,112380,1,2,0:2:0:0:
497,140,112464,1,2,0:2:0:0:
492,102,112547,6,0,P|436:72|375:85,1,127.199996118164,2|0,0:2|0:2,0:0:0:0:
307,142,112797,5,2,0:2:0:0:
315,133,112880,2,0,B|337:98|337:98|297:21,1,127.199996118164,2|0,0:2|0:0,0:0:0:0:
210,34,113130,5,2,0:2:0:0:
222,37,113213,2,0,L|251:93,1,63.5999980590821,2|0,0:2|0:2,0:0:0:0:
141,162,113379,2,0,L|170:105,1,63.5999980590821,2|0,0:2|0:2,0:0:0:0:
0,0,113546,5,6,1:2:0:0:
37,7,113629,1,0,0:0:0:0:
65,31,113713,1,0,0:0:0:0:
77,65,113796,1,2,0:2:0:0:
70,100,113879,2,0,B|62:160|62:160|58:163|58:163|50:223,1,127.199996118164,10|0,0:3|0:0,0:0:0:0:
11,292,114129,5,2,0:2:0:0:
0,281,114212,2,0,B|70:264|70:264|137:300,1,148.399995471192,6|0,1:2|0:0,0:0:0:0:
298,343,114545,6,0,L|290:279,1,63.5999980590821,6|0,0:3|0:0,0:0:0:0:
219,318,114712,2,0,L|211:254,1,63.5999980590821,0|0,0:0|0:2,0:0:0:0:
454,96,114878,5,6,1:2:0:0:
442,101,114961,1,0,0:0:0:0:
430,106,115045,1,0,0:0:0:0:
418,111,115128,1,0,0:2:0:0:
378,127,115211,5,6,1:2:0:0:
396,135,115294,1,0,0:0:0:0:
414,142,115378,1,0,0:0:0:0:
432,150,115461,1,0,0:2:0:0:
476,170,115544,5,6,1:2:0:0:
449,182,115627,1,0,0:0:0:0:
422,193,115711,1,0,0:0:0:0:
395,205,115794,1,0,0:2:0:0:
368,239,115877,6,0,P|357:269|362:300,1,63.5999980590821,6|0,1:2|0:2,0:0:0:0:
298,343,116044,2,0,P|317:367|346:378,1,63.5999980590821,0|0,0:2|0:2,0:0:0:0:
503,158,116210,5,8,1:3:0:0:
9,226,116877,5,8,1:3:0:0:
361,29,117210,5,4,1:3:0:0:
409,35,117293,1,4,1:3:0:0:
457,41,117376,1,4,1:3:0:0:
221,184,117543,6,0,P|188:175|166:149,1,68.8999968460084,6|0,0:3|0:2,0:0:0:0:
33,149,117709,2,0,P|56:124|90:118,1,68.8999968460084,0|0,0:2|0:2,0:0:0:0:
156,3,117876,2,0,P|164:35|153:67,1,68.8999968460084,2|0,0:2|0:2,0:0:0:0:
37,232,118042,5,0,0:2:0:0:
23,229,118126,1,0,0:2:0:0:
9,226,118209,2,0,L|0:294,1,68.8999968460084,2|0,0:2|0:2,0:0:0:0:
86,367,118375,2,0,L|78:299,1,68.8999968460084,0|0,0:2|0:2,0:0:0:0:
221,184,118542,5,10,0:2:0:0:
215,233,118625,1,8,0:2:0:0:
209,282,118708,1,10,0:2:0:0:
203,331,118792,1,8,0:2:0:0:
197,380,118875,5,6,0:3:0:0:
209,374,118958,1,0,0:2:0:0:
221,368,119042,1,0,0:2:0:0:
233,362,119125,1,0,0:2:0:0:
245,356,119208,2,0,B|278:343|278:343|309:354,1,68.8999968460084,2|0,0:2|0:2,0:0:0:0:
493,357,119374,5,0,0:2:0:0:
480,352,119458,1,0,0:2:0:0:
467,348,119541,2,0,B|432:339|432:339|402:354,1,68.8999968460084,2|0,0:2|0:2,0:0:0:0:
345,227,119708,5,0,0:2:0:0:
346,239,119791,1,0,0:2:0:0:
348,252,119874,2,0,L|352:286,2,34.4499984230042,10|8|8,0:2|0:2|0:2,0:0:0:0:
334,143,120041,2,0,L|329:108,2,34.4499984230042,8|8|8,0:2|0:2|0:2,0:0:0:0:
452,150,120207,6,0,P|442:117|414:99,1,68.8999968460084,6|0,0:3|0:2,0:0:0:0:
404,23,120374,2,0,P|371:14|341:30,1,68.8999968460084,0|0,0:2|0:2,0:0:0:0:
270,1,120540,2,0,P|246:25|245:58,1,68.8999968460084,2|0,0:2|0:2,0:0:0:0:
185,219,120707,5,0,0:2:0:0:
189,205,120790,1,0,0:2:0:0:
193,191,120873,2,0,L|184:122,1,68.8999968460084,2|0,0:2|0:2,0:0:0:0:
116,163,121040,2,0,L|107:94,1,68.8999968460084,0|0,0:2|0:2,0:0:0:0:
0,261,121206,6,0,B|17:244|17:244|72:237,1,79.5000030326844,10|8,0:2|0:2,0:0:0:0:
107,94,121373,2,0,B|51:100|51:100|30:89,1,79.5000030326844,8|8,0:2|0:2,0:0:0:0:
56,315,121539,5,10,0:2:0:0:
87,351,121623,1,0,0:2:0:0:
134,354,121706,1,0,0:2:0:0:
169,322,121789,1,0,0:2:0:0:
184,325,121872,5,10,0:2:0:0:
199,328,121956,1,0,0:2:0:0:
233,369,122039,5,0,0:2:0:0:
248,366,122123,1,0,0:2:0:0:
296,384,122205,5,10,0:2:0:0:
344,349,122289,1,0,0:2:0:0:
353,290,122372,1,0,0:2:0:0:
317,241,122455,1,0,0:2:0:0:
257,231,122538,6,0,P|294:217|314:183,1,79.5000030326844,10|8,0:2|0:2,0:0:0:0:
256,38,122705,2,0,P|249:76|268:110,1,79.5000030326844,8|8,0:2|0:2,0:0:0:0:
469,105,122872,6,0,L|478:174,1,68.8999968460084,6|0,0:3|0:2,0:0:0:0:
353,108,123038,2,0,L|361:39,1,68.8999968460084,0|0,0:2|0:2,0:0:0:0:
491,106,123205,2,0,L|500:175,1,68.8999968460084,0|0,0:2|0:2,0:0:0:0:
430,350,123371,5,0,0:2:0:0:
443,346,123454,1,0,0:2:0:0:
456,342,123538,2,0,B|465:309|465:309|450:277,1,68.8999968460084,8|8,0:3|0:3,0:0:0:0:
406,211,123704,1,8,0:3:0:0:
221,328,123871,6,0,L|230:249,1,79.5000030326844,4|4,0:3|0:3,0:0:0:0:
313,183,124037,2,0,L|309:222,2,39.7500015163422,4|0|4,0:3|0:0|0:3,0:0:0:0:
128,224,124204,5,6,0:3:0:0:
129,237,124287,1,0,0:2:0:0:
130,249,124370,1,0,0:2:0:0:
131,262,124454,1,0,0:2:0:0:
132,275,124537,2,0,L|63:265,1,68.8999968460084,0|0,0:2|0:2,0:0:0:0:
2,140,124703,5,0,0:2:0:0:
1,153,124787,1,0,0:2:0:0:
1,166,124870,2,0,L|69:156,1,68.8999968460084,8|8,0:3|0:3,0:0:0:0:
131,77,125036,2,0,L|62:67,1,68.8999968460084,8|8,0:3|0:3,0:0:0:0:
0,273,125203,6,0,B|22:280|22:280|46:274,6,47.6999985443116,8|8|8|8|8|8|8,0:2|0:2|0:2|0:2|0:2|0:2|0:2,0:0:0:0:
237,167,125536,6,0,L|168:158,1,68.8999968460084,6|0,0:3|0:2,0:0:0:0:
132,275,125703,2,0,L|201:266,1,68.8999968460084,0|0,0:2|0:2,0:0:0:0:
237,383,125869,2,0,L|168:374,1,68.8999968460084,0|0,0:2|0:2,0:0:0:0:
279,236,126036,5,0,0:2:0:0:
287,226,126119,1,0,0:2:0:0:
298,217,126202,2,0,P|329:206|361:218,1,68.8999968460084,8|0,0:2|0:2,0:0:0:0:
425,171,126369,2,0,P|450:193|455:226,1,68.8999968460084,8|0,0:2|0:2,0:0:0:0:
492,352,126535,6,0,L|487:317,2,34.4499984230042,8|8|8,0:2|0:2|0:2,0:0:0:0:
403,301,126702,2,0,L|407:335,2,34.4499984230042,8|8|8,0:2|0:2|0:2,0:0:0:0:
512,144,126868,5,10,0:2:0:0:
505,96,126951,1,0,0:2:0:0:
498,48,127035,1,0,0:2:0:0:
491,0,127118,1,0,0:2:0:0:
476,5,127201,5,10,0:2:0:0:
461,11,127285,1,0,0:2:0:0:
423,46,127368,5,0,0:2:0:0:
408,40,127452,1,0,0:2:0:0:
372,9,127534,5,10,0:2:0:0:
312,0,127618,1,8,0:2:0:0:
264,35,127701,1,8,0:2:0:0:
254,94,127784,1,8,0:2:0:0:
289,142,127868,6,0,B|279:68|194:35|127:65|127:65|166:84|170:135,1,286.199991265869,12|0,0:2|0:2,0:0:0:0:
29,140,128200,6,0,B|61:123|61:123|93:130,1,68.8999968460084,6|0,0:3|0:2,0:0:0:0:
40,277,128367,2,0,B|9:257|9:257|0:225,1,68.8999968460084,0|0,0:2|0:2,0:0:0:0:
153,198,128533,2,0,B|150:233|150:233|128:258,1,68.8999968460084,2|0,0:2|0:2,0:0:0:0:
5,382,128700,5,0,0:2:0:0:
15,373,128783,1,0,0:2:0:0:
26,365,128867,2,0,L|94:373,1,68.8999968460084,10|0,0:2|0:2,0:0:0:0:
233,326,129033,2,0,L|164:334,1,68.8999968460084,0|0,0:2|0:2,0:0:0:0:
271,224,129200,6,0,L|275:258,2,34.4499984230042,10|8|8,0:2|0:2|0:2,0:0:0:0:
334,314,129366,2,0,L|402:305,1,68.8999968460084,10|8,0:2|0:2,0:0:0:0:
341,145,129533,5,6,0:3:0:0:
354,147,129616,1,0,0:2:0:0:
367,149,129699,1,0,0:2:0:0:
380,151,129782,1,0,0:2:0:0:
393,153,129866,2,0,L|401:84,1,68.8999968460084,2|0,0:2|0:2,0:0:0:0:
512,209,130032,5,0,0:2:0:0:
499,211,130115,1,0,0:2:0:0:
486,213,130199,2,0,L|477:144,1,68.8999968460084,10|0,0:2|0:2,0:0:0:0:
227,79,130365,5,0,0:2:0:0:
240,81,130448,1,0,0:2:0:0:
253,83,130532,2,0,L|288:88,2,34.4499984230042,10|8|8,0:2|0:2|0:2,0:0:0:0:
333,0,130698,2,0,L|299:5,2,34.4499984230042,8|8|8,0:2|0:2|0:2,0:0:0:0:
172,128,130865,6,0,P|153:99|154:65,1,68.8999968460084,6|0,0:3|0:2,0:0:0:0:
64,179,131031,2,0,P|93:197|127:195,1,68.8999968460084,0|0,0:2|0:2,0:0:0:0:
163,267,131198,2,0,P|147:297|117:313,1,68.8999968460084,2|0,0:2|0:2,0:0:0:0:
251,363,131364,5,0,0:2:0:0:
263,354,131448,1,0,0:2:0:0:
274,346,131531,2,0,L|265:277,1,68.8999968460084,10|0,0:2|0:2,0:0:0:0:
343,299,131698,2,0,L|334:230,1,68.8999968460084,0|0,0:2|0:2,0:0:0:0:
482,357,131864,6,0,B|464:344|464:344|407:351,1,79.5000030326844,10|8,0:2|0:2,0:0:0:0:
334,230,132031,2,0,B|348:213|348:213|405:206,1,79.5000030326844,8|8,0:2|0:2,0:0:0:0:
511,69,132197,5,10,0:2:0:0:
480,33,132281,1,0,0:2:0:0:
433,30,132364,1,0,0:2:0:0:
398,62,132447,1,0,0:2:0:0:
383,59,132530,5,10,0:2:0:0:
368,56,132614,1,0,0:2:0:0:
334,15,132697,5,0,0:2:0:0:
319,18,132781,1,0,0:2:0:0:
271,0,132863,5,10,0:2:0:0:
223,35,132947,1,0,0:2:0:0:
214,94,133030,1,0,0:2:0:0:
250,143,133113,1,0,0:2:0:0:
310,153,133196,6,0,P|273:167|253:201,1,79.5000030326844,10|8,0:2|0:2,0:0:0:0:
114,122,133363,2,0,P|107:161|127:195,1,79.5000030326844,8|8,0:2|0:2,0:0:0:0:
274,346,133529,6,0,L|265:277,1,68.8999968460084,6|0,0:3|0:2,0:0:0:0:
130,343,133696,2,0,L|138:274,1,68.8999968460084,0|0,0:2|0:2,0:0:0:0:
290,355,133862,2,0,L|281:286,1,68.8999968460084,0|0,0:2|0:0,0:0:0:0:
126,194,134029,5,0,0:2:0:0:
113,200,134112,1,0,0:2:0:0:
100,206,134195,2,0,B|65:217|65:217|34:206,1,68.8999968460084,8|8,0:3|0:3,0:0:0:0:
0,136,134362,1,8,0:3:0:0:
204,15,134529,6,0,L|213:93,1,79.5000030326844,4|4,0:3|0:3,0:0:0:0:
304,137,134695,2,0,L|299:97,2,39.7500015163422,4|0|4,0:3|0:0|0:3,0:0:0:0:
418,4,134862,5,6,0:3:0:0:
417,17,134945,1,0,0:2:0:0:
416,30,135028,1,0,0:2:0:0:
415,43,135111,1,0,0:2:0:0:
414,56,135195,2,0,P|446:67|479:60,1,68.8999968460084,0|0,0:2|0:2,0:0:0:0:
506,212,135361,5,0,0:2:0:0:
507,199,135444,1,0,0:2:0:0:
507,185,135528,2,0,P|474:173|441:180,1,68.8999968460084,8|8,0:3|0:3,0:0:0:0:
373,144,135694,2,0,P|346:165|336:198,1,68.8999968460084,8|8,0:3|0:3,0:0:0:0:
510,335,135861,6,0,B|507:316|507:316|510:314|510:314|507:290,6,47.6999985443116,8|8|8|8|8|8|8,0:2|0:2|0:2|0:2|0:2|0:2|0:2,0:0:0:0:
431,373,136194,6,0,L|403:369,2,29.1500008895874,10|0|0,0:2|0:2|0:2,0:0:0:0:
376,300,136360,2,0,L|405:296,2,29.1500008895874,8|0|0,0:2|0:2|0:2,0:0:0:0:
437,381,136527,1,4,0:3:0:0:
330,206,136693,6,0,L|302:209,2,29.1500008895874,10|0|0,0:2|0:2|0:2,0:0:0:0:
265,304,136860,2,0,L|294:307,2,29.1500008895874,8|0|0,0:2|0:2|0:2,0:0:0:0:
336,197,137026,1,8,0:3:0:0:
217,361,137193,6,0,L|189:357,2,29.1500008895874,10|0|0,0:2|0:2|0:2,0:0:0:0:
162,288,137359,2,0,L|191:284,2,29.1500008895874,8|0|0,0:2|0:2|0:2,0:0:0:0:
7,377,137526,5,10,0:2:0:0:
7,329,137609,1,0,0:2:0:0:
40,294,137693,1,0,0:2:0:0:
88,292,137776,1,0,0:2:0:0:
64,307,137859,5,10,0:2:0:0:
60,250,137942,1,0,0:2:0:0:
56,193,138026,1,0,0:2:0:0:
52,136,138109,1,0,0:2:0:0:
45,144,138192,5,10,0:2:0:0:
118,120,138275,1,8,0:2:0:0:
118,43,138359,1,8,0:2:0:0:
45,19,138442,1,8,0:2:0:0:
0,81,138525,6,0,B|154:61|154:61|159:66|159:66|313:47,1,318,10|0,0:3|2:2,0:0:0:0:
323,53,138858,5,6,1:2:0:0:
256,192,138941,12,0,140190,0:0:0:0:
