osu file format v14

[General]
AudioFilename: audio.mp3
AudioLeadIn: 0
PreviewTime: 6632
Countdown: 0
SampleSet: None
StackLeniency: 0.7
Mode: 1
LetterboxInBreaks: 0
WidescreenStoryboard: 1

[Editor]
Bookmarks: 6966,18957,26277,61591,62882,73582,84283,105558
DistanceSpacing: 0.5
BeatDivisor: 4
GridSize: 32
TimelineZoom: 3.999999

[Metadata]
Title:The Big Black
TitleUnicode:The Big Black
Artist:The Quick Brown Fox
ArtistUnicode:The Quick Brown Fox
Creator:Shirai-
Version:Oni
Source:
Tags:speedcore Renard Lapfox
BeatmapID:1634857
BeatmapSetID:620416

[Difficulty]
HPDrainRate:3
CircleSize:5
OverallDifficulty:8
ApproachRate:5
SliderMultiplier:1.40000000596046
SliderTickRate:1

[Events]
//Background and Video events
0,0,"whosafraidoffirce.jpg",0,0
//Break Periods
//Storyboard Layer 0 (Background)
//Storyboard Layer 1 (Fail)
//Storyboard Layer 2 (Pass)
//Storyboard Layer 3 (Foreground)
//Storyboard Sound Samples

[TimingPoints]
6966,166.541760346407,4,1,0,100,1,0
6966,-100,4,1,0,100,0,0
18957,-100,4,1,0,100,0,1
40274,-100,4,1,0,100,0,0
117549,-100,4,1,0,100,0,1
138867,-25,4,1,0,100,0,0

[Colours]
Combo1 : 48,176,192
Combo2 : 248,72,40

[HitObjects]
256,160,6966,5,4,0:0:0:0:
224,160,7132,1,0,0:0:0:0:
224,128,7215,1,0,0:0:0:0:
192,128,7299,1,8,0:0:0:0:
224,128,7465,1,8,0:0:0:0:
224,128,7548,1,8,0:0:0:0:
224,128,7632,1,0,0:0:0:0:
256,128,7715,1,0,0:0:0:0:
224,128,7798,1,8,0:0:0:0:
256,128,7965,1,8,0:0:0:0:
256,128,8048,1,8,0:0:0:0:
256,128,8131,1,0,0:0:0:0:
224,96,8298,1,0,0:0:0:0:
192,64,8381,1,0,0:0:0:0:
192,64,8464,1,0,0:0:0:0:
192,64,8548,1,0,0:0:0:0:
192,64,8631,1,8,0:0:0:0:
192,96,8797,1,8,0:0:0:0:
192,64,8881,1,8,0:0:0:0:
192,64,8964,1,0,0:0:0:0:
192,64,9047,1,0,0:0:0:0:
192,64,9131,1,8,0:0:0:0:
192,32,9297,1,8,0:0:0:0:
192,32,9380,1,8,0:0:0:0:
192,32,9464,1,0,0:0:0:0:
192,64,9630,1,0,0:0:0:0:
192,64,9713,1,0,0:0:0:0:
192,64,9797,1,0,0:0:0:0:
192,64,9880,1,0,0:0:0:0:
192,64,9963,1,8,0:0:0:0:
224,160,10130,1,8,0:0:0:0:
224,128,10213,1,8,0:0:0:0:
224,128,10296,1,0,0:0:0:0:
192,96,10380,1,0,0:0:0:0:
192,96,10463,1,8,0:0:0:0:
192,96,10629,1,0,0:0:0:0:
192,96,10713,1,0,0:0:0:0:
224,96,10796,1,8,0:0:0:0:
256,128,10963,1,8,0:0:0:0:
224,128,11046,1,0,0:0:0:0:
224,96,11129,1,8,0:0:0:0:
224,96,11212,1,8,0:0:0:0:
224,96,11296,1,0,0:0:0:0:
224,96,11379,1,8,0:0:0:0:
224,96,11462,1,0,0:0:0:0:
224,96,11545,1,0,0:0:0:0:
224,96,11629,1,8,0:0:0:0:
224,64,11712,1,0,0:0:0:0:
224,64,11795,1,8,0:0:0:0:
224,64,11878,1,8,0:0:0:0:
224,64,11962,1,0,0:0:0:0:
192,64,12045,1,0,0:0:0:0:
96,128,12128,1,8,0:0:0:0:
192,128,12212,1,8,0:0:0:0:
192,32,12295,1,4,0:0:0:0:
320,160,12461,1,0,0:0:0:0:
320,160,12545,1,0,0:0:0:0:
288,128,12628,1,8,0:0:0:0:
288,128,12794,1,8,0:0:0:0:
288,128,12878,1,8,0:0:0:0:
288,128,12961,1,0,0:0:0:0:
288,128,13128,1,8,0:0:0:0:
288,128,13211,1,8,0:0:0:0:
288,128,13294,1,0,0:0:0:0:
256,128,13377,1,0,0:0:0:0:
256,128,13461,1,8,0:0:0:0:
256,96,13627,1,0,0:0:0:0:
256,96,13710,1,8,0:0:0:0:
256,96,13794,1,0,0:0:0:0:
256,96,13877,1,0,0:0:0:0:
256,96,13960,1,8,0:0:0:0:
288,128,14127,1,8,0:0:0:0:
288,128,14210,1,0,0:0:0:0:
288,128,14293,1,8,0:0:0:0:
256,128,14377,1,8,0:0:0:0:
256,128,14460,1,0,0:0:0:0:
256,96,14543,1,8,0:0:0:0:
256,96,14626,1,0,0:0:0:0:
256,96,14710,1,0,0:0:0:0:
256,96,14793,1,8,0:0:0:0:
224,96,14960,1,4,0:0:0:0:
256,96,15043,1,8,0:0:0:0:
256,96,15126,1,0,0:0:0:0:
256,96,15209,1,0,0:0:0:0:
256,96,15293,1,8,0:0:0:0:
256,96,15376,1,8,0:0:0:0:
256,96,15459,1,0,0:0:0:0:
192,64,15542,1,0,0:0:0:0:
288,128,15626,1,4,0:0:0:0:
256,96,15709,1,0,0:0:0:0:
256,96,15792,1,8,0:0:0:0:
256,96,15875,1,0,0:0:0:0:
224,96,15959,1,8,0:0:0:0:
224,96,16042,1,8,0:0:0:0:
224,96,16125,1,0,0:0:0:0:
224,96,16209,1,8,0:0:0:0:
256,128,16292,1,4,0:0:0:0:
256,96,16375,1,8,0:0:0:0:
256,96,16458,1,8,0:0:0:0:
256,96,16542,1,8,0:0:0:0:
288,128,16625,1,4,0:0:0:0:
256,96,16708,1,0,0:0:0:0:
256,96,16791,1,8,0:0:0:0:
256,96,16875,1,8,0:0:0:0:
288,128,16958,1,4,0:0:0:0:
256,96,17041,1,0,0:0:0:0:
256,96,17125,1,0,0:0:0:0:
256,96,17208,1,8,0:0:0:0:
288,128,17291,1,4,0:0:0:0:
256,64,17374,1,0,0:0:0:0:
256,64,17458,1,0,0:0:0:0:
256,64,17541,1,0,0:0:0:0:
224,96,17624,1,4,0:0:0:0:
224,160,18290,1,4,0:0:0:0:
256,192,18623,1,8,0:0:0:0:
256,160,18707,1,8,0:0:0:0:
256,160,18790,1,8,0:0:0:0:
224,128,18957,1,0,0:0:0:0:
224,128,18998,1,0,0:0:0:0:
224,128,19040,1,0,0:0:0:0:
224,128,19081,1,0,0:0:0:0:
256,96,19123,1,8,0:0:0:0:
256,160,19206,1,0,0:0:0:0:
256,160,19290,1,8,0:0:0:0:
160,96,19373,1,8,0:0:0:0:
192,96,19414,1,8,0:0:0:0:
192,96,19456,1,0,0:0:0:0:
192,96,19539,1,8,0:0:0:0:
192,96,19623,1,0,0:0:0:0:
192,96,19664,1,0,0:0:0:0:
192,96,19706,1,0,0:0:0:0:
192,96,19789,1,8,0:0:0:0:
384,128,19872,1,0,0:0:0:0:
192,64,19956,1,8,0:0:0:0:
224,128,19997,1,0,0:0:0:0:
224,96,20039,1,0,0:0:0:0:
96,128,20081,1,0,0:0:0:0:
224,96,20122,1,8,0:0:0:0:
224,96,20206,1,8,0:0:0:0:
224,96,20289,1,0,0:0:0:0:
256,128,20372,1,0,0:0:0:0:
224,128,20414,1,0,0:0:0:0:
224,128,20455,1,8,0:0:0:0:
224,160,20539,1,0,0:0:0:0:
160,128,20622,1,8,0:0:0:0:
224,96,20705,1,0,0:0:0:0:
224,96,20747,1,0,0:0:0:0:
192,128,20788,1,8,0:0:0:0:
192,128,20872,1,0,0:0:0:0:
192,128,20955,1,0,0:0:0:0:
192,128,20997,1,0,0:0:0:0:
192,64,21038,1,8,0:0:0:0:
160,96,21080,1,0,0:0:0:0:
192,128,21122,1,0,0:0:0:0:
160,96,21205,1,0,0:0:0:0:
192,64,21288,1,8,0:0:0:0:
160,32,21330,1,8,0:0:0:0:
192,96,21371,1,8,0:0:0:0:
224,64,21413,1,8,0:0:0:0:
160,128,21455,1,0,0:0:0:0:
128,128,21496,1,0,0:0:0:0:
192,96,21538,1,8,0:0:0:0:
192,96,21621,1,0,0:0:0:0:
192,192,21704,1,0,0:0:0:0:
224,192,21746,1,0,0:0:0:0:
160,96,21788,1,8,0:0:0:0:
224,96,21871,1,0,0:0:0:0:
192,128,21954,1,8,0:0:0:0:
224,96,21996,1,8,0:0:0:0:
224,96,22038,1,0,0:0:0:0:
192,128,22121,1,8,0:0:0:0:
192,128,22204,1,8,0:0:0:0:
192,64,22246,1,0,0:0:0:0:
192,64,22287,1,0,0:0:0:0:
192,64,22329,1,0,0:0:0:0:
160,96,22371,1,8,0:0:0:0:
160,64,22454,1,0,0:0:0:0:
160,96,22537,1,8,0:0:0:0:
192,32,22579,1,8,0:0:0:0:
128,64,22620,1,0,0:0:0:0:
128,64,22704,1,8,0:0:0:0:
192,32,22745,1,8,0:0:0:0:
256,128,22787,1,0,0:0:0:0:
192,96,22829,1,0,0:0:0:0:
224,128,22870,1,8,0:0:0:0:
160,96,22954,1,0,0:0:0:0:
192,160,23037,1,0,0:0:0:0:
224,64,23078,1,0,0:0:0:0:
192,160,23120,1,8,0:0:0:0:
192,96,23203,1,0,0:0:0:0:
224,96,23287,1,0,0:0:0:0:
224,96,23328,1,0,0:0:0:0:
224,96,23370,1,8,0:0:0:0:
224,96,23453,1,0,0:0:0:0:
160,64,23536,1,0,0:0:0:0:
192,96,23620,1,8,0:0:0:0:
192,96,23661,1,8,0:0:0:0:
192,96,23703,1,0,0:0:0:0:
192,96,23786,1,0,0:0:0:0:
96,128,23869,1,8,0:0:0:0:
256,160,23911,1,8,0:0:0:0:
256,160,23953,1,0,0:0:0:0:
256,160,23994,1,0,0:0:0:0:
256,160,24036,1,0,0:0:0:0:
256,160,24078,1,0,0:0:0:0:
256,160,24119,1,8,0:0:0:0:
224,128,24203,1,8,0:0:0:0:
288,128,24286,1,0,0:0:0:0:
192,128,24369,1,0,0:0:0:0:
192,128,24411,1,0,0:0:0:0:
192,128,24452,1,8,0:0:0:0:
192,128,24536,1,8,0:0:0:0:
192,128,24619,1,0,0:0:0:0:
192,64,24702,1,0,0:0:0:0:
256,96,24744,1,0,0:0:0:0:
160,64,24785,1,8,0:0:0:0:
192,64,24869,1,0,0:0:0:0:
192,64,24952,1,0,0:0:0:0:
192,64,24994,1,0,0:0:0:0:
192,64,25035,1,8,0:0:0:0:
160,64,25119,1,0,0:0:0:0:
224,64,25202,1,0,0:0:0:0:
160,128,25243,1,0,0:0:0:0:
224,64,25285,1,8,0:0:0:0:
192,96,25327,1,0,0:0:0:0:
192,96,25368,1,0,0:0:0:0:
224,64,25410,1,0,0:0:0:0:
224,96,25452,1,8,0:0:0:0:
224,192,25535,1,0,0:0:0:0:
224,192,25618,1,0,0:0:0:0:
224,128,25701,1,0,0:0:0:0:
224,128,25743,1,0,0:0:0:0:
224,128,25785,1,8,0:0:0:0:
256,96,25868,1,8,0:0:0:0:
256,128,25951,1,0,0:0:0:0:
256,128,26035,1,8,0:0:0:0:
256,128,26076,1,8,0:0:0:0:
256,128,26118,1,0,0:0:0:0:
224,64,26159,1,0,0:0:0:0:
224,64,26201,1,8,0:0:0:0:
96,128,26284,1,0,0:0:0:0:
256,160,26368,1,0,0:0:0:0:
128,128,26409,1,0,0:0:0:0:
192,32,26451,1,8,0:0:0:0:
256,128,26534,1,0,0:0:0:0:
256,160,26617,1,8,0:0:0:0:
288,128,26659,1,8,0:0:0:0:
288,128,26701,1,8,0:0:0:0:
288,128,26742,1,8,0:0:0:0:
256,128,26784,1,8,0:0:0:0:
256,128,26826,1,8,0:0:0:0:
256,128,26867,1,8,0:0:0:0:
256,128,26909,1,8,0:0:0:0:
256,128,26951,1,0,0:0:0:0:
224,128,27034,1,0,0:0:0:0:
224,128,27117,1,8,0:0:0:0:
224,128,27159,1,8,0:0:0:0:
224,128,27200,1,0,0:0:0:0:
224,160,27284,1,8,0:0:0:0:
224,128,27367,1,0,0:0:0:0:
224,128,27409,1,0,0:0:0:0:
224,128,27450,1,8,0:0:0:0:
224,192,27533,1,0,0:0:0:0:
224,192,27617,1,8,0:0:0:0:
224,64,27658,1,8,0:0:0:0:
224,64,27700,1,0,0:0:0:0:
192,64,27783,1,8,0:0:0:0:
192,64,27866,1,0,0:0:0:0:
192,64,27908,1,0,0:0:0:0:
192,64,27950,1,8,0:0:0:0:
192,32,27991,1,8,0:0:0:0:
192,32,28033,1,8,0:0:0:0:
192,32,28075,1,8,0:0:0:0:
192,32,28116,1,0,0:0:0:0:
192,96,28200,1,8,0:0:0:0:
192,64,28283,1,0,0:0:0:0:
288,160,28324,1,0,0:0:0:0:
256,160,28366,1,0,0:0:0:0:
256,160,28408,1,0,0:0:0:0:
224,96,28449,1,8,0:0:0:0:
192,96,28533,1,0,0:0:0:0:
256,128,28616,1,8,0:0:0:0:
224,128,28699,1,0,0:0:0:0:
224,128,28782,1,8,0:0:0:0:
192,96,28824,1,8,0:0:0:0:
224,128,28866,1,8,0:0:0:0:
192,96,28907,1,8,0:0:0:0:
224,128,28949,1,0,0:0:0:0:
192,64,28991,1,0,0:0:0:0:
192,96,29032,1,0,0:0:0:0:
192,64,29074,1,0,0:0:0:0:
192,96,29116,1,8,0:0:0:0:
224,64,29157,1,8,0:0:0:0:
224,64,29199,1,8,0:0:0:0:
192,128,29282,1,4,0:0:0:0:
192,96,29615,1,4,0:0:0:0:
96,128,29698,1,0,0:0:0:0:
160,128,29740,1,0,0:0:0:0:
128,96,29782,1,8,0:0:0:0:
192,64,29865,1,0,0:0:0:0:
192,64,29948,1,8,0:0:0:0:
192,128,29990,1,8,0:0:0:0:
192,128,30032,1,0,0:0:0:0:
192,128,30073,1,0,0:0:0:0:
192,128,30115,1,8,0:0:0:0:
192,128,30198,1,8,0:0:0:0:
256,128,30281,1,0,0:0:0:0:
256,128,30365,1,0,0:0:0:0:
256,128,30406,1,0,0:0:0:0:
256,128,30448,1,8,0:0:0:0:
224,160,30531,1,0,0:0:0:0:
192,160,30614,1,8,0:0:0:0:
192,160,30656,1,8,0:0:0:0:
192,160,30698,1,0,0:0:0:0:
192,160,30739,1,0,0:0:0:0:
192,160,30781,1,8,0:0:0:0:
224,128,30864,1,8,0:0:0:0:
224,128,30948,1,0,0:0:0:0:
224,64,30989,1,0,0:0:0:0:
224,64,31031,1,0,0:0:0:0:
224,64,31072,1,0,0:0:0:0:
224,64,31114,1,8,0:0:0:0:
288,128,31197,1,0,0:0:0:0:
288,192,31281,1,8,0:0:0:0:
288,160,31322,1,8,0:0:0:0:
288,160,31364,1,0,0:0:0:0:
288,160,31406,1,0,0:0:0:0:
288,160,31447,1,8,0:0:0:0:
192,128,31530,1,8,0:0:0:0:
192,128,31614,1,0,0:0:0:0:
224,96,31697,1,0,0:0:0:0:
224,96,31739,1,0,0:0:0:0:
224,96,31780,1,8,0:0:0:0:
224,96,31863,1,0,0:0:0:0:
224,96,31947,1,8,0:0:0:0:
256,64,31988,1,8,0:0:0:0:
256,64,32030,1,8,0:0:0:0:
256,64,32072,1,8,0:0:0:0:
256,64,32113,1,8,0:0:0:0:
256,64,32155,1,8,0:0:0:0:
256,64,32197,1,8,0:0:0:0:
256,64,32238,1,8,0:0:0:0:
256,64,32280,1,0,0:0:0:0:
256,64,32363,1,0,0:0:0:0:
256,64,32446,1,8,0:0:0:0:
224,128,32488,1,8,0:0:0:0:
224,128,32530,1,0,0:0:0:0:
224,128,32613,1,8,0:0:0:0:
224,64,32696,1,0,0:0:0:0:
224,64,32738,1,0,0:0:0:0:
224,64,32779,1,8,0:0:0:0:
224,64,32863,1,8,0:0:0:0:
224,64,32946,1,0,0:0:0:0:
192,96,33029,1,0,0:0:0:0:
192,96,33071,1,0,0:0:0:0:
192,96,33113,1,8,0:0:0:0:
256,160,33196,1,0,0:0:0:0:
224,160,33279,1,8,0:0:0:0:
256,128,33321,1,0,0:0:0:0:
256,128,33362,1,0,0:0:0:0:
256,128,33404,1,0,0:0:0:0:
224,128,33446,1,8,0:0:0:0:
192,128,33529,1,8,0:0:0:0:
192,128,33612,1,0,0:0:0:0:
288,128,33654,1,0,0:0:0:0:
288,128,33695,1,0,0:0:0:0:
192,96,33779,1,8,0:0:0:0:
192,96,33862,1,8,0:0:0:0:
192,96,33904,1,8,0:0:0:0:
192,96,33945,1,0,0:0:0:0:
128,128,33987,1,0,0:0:0:0:
128,128,34029,1,0,0:0:0:0:
128,128,34070,1,0,0:0:0:0:
128,128,34112,1,8,0:0:0:0:
224,128,34195,1,0,0:0:0:0:
224,160,34278,1,8,0:0:0:0:
160,32,34320,1,0,0:0:0:0:
224,160,34362,1,0,0:0:0:0:
224,64,34445,1,8,0:0:0:0:
256,32,34487,1,0,0:0:0:0:
256,32,34528,1,0,0:0:0:0:
256,32,34570,1,0,0:0:0:0:
256,128,34611,1,8,0:0:0:0:
224,64,34695,1,8,0:0:0:0:
256,64,34778,1,0,0:0:0:0:
224,32,34861,1,0,0:0:0:0:
192,64,34945,1,0,0:0:0:0:
192,160,34986,1,0,0:0:0:0:
160,160,35028,1,0,0:0:0:0:
160,160,35111,1,8,0:0:0:0:
192,128,35194,1,0,0:0:0:0:
288,192,35278,1,8,0:0:0:0:
288,96,35319,1,8,0:0:0:0:
288,160,35361,1,0,0:0:0:0:
288,160,35403,1,0,0:0:0:0:
288,160,35444,1,8,0:0:0:0:
288,160,35527,1,0,0:0:0:0:
288,160,35569,1,0,0:0:0:0:
288,160,35611,1,8,0:0:0:0:
224,128,35694,1,0,0:0:0:0:
320,96,35777,1,8,0:0:0:0:
320,96,35819,1,8,0:0:0:0:
320,96,35860,1,8,0:0:0:0:
320,96,35902,1,8,0:0:0:0:
320,96,35944,1,0,0:0:0:0:
224,192,36027,1,0,0:0:0:0:
224,160,36110,1,8,0:0:0:0:
224,96,36194,1,0,0:0:0:0:
96,128,36235,1,0,0:0:0:0:
256,96,36277,1,8,0:0:0:0:
288,192,36360,1,0,0:0:0:0:
256,160,36443,1,8,0:0:0:0:
256,160,36485,1,8,0:0:0:0:
256,160,36527,1,8,0:0:0:0:
256,160,36568,1,8,0:0:0:0:
256,160,36610,1,0,0:0:0:0:
256,160,36693,1,8,0:0:0:0:
256,160,36776,1,0,0:0:0:0:
256,160,36818,1,0,0:0:0:0:
256,160,36860,1,8,0:0:0:0:
256,128,36943,1,0,0:0:0:0:
256,64,37026,1,8,0:0:0:0:
256,64,37068,1,8,0:0:0:0:
256,96,37110,1,0,0:0:0:0:
288,64,37193,1,0,0:0:0:0:
256,96,37276,1,8,0:0:0:0:
256,64,37318,1,8,0:0:0:0:
256,64,37359,1,8,0:0:0:0:
256,64,37401,1,8,0:0:0:0:
256,64,37443,1,8,0:0:0:0:
256,64,37484,1,8,0:0:0:0:
256,64,37526,1,8,0:0:0:0:
256,64,37568,1,8,0:0:0:0:
256,64,37609,1,0,0:0:0:0:
256,128,37692,1,0,0:0:0:0:
256,128,37776,1,8,0:0:0:0:
224,128,37859,1,0,0:0:0:0:
224,128,37942,1,8,0:0:0:0:
224,128,38026,1,8,0:0:0:0:
224,128,38109,1,0,0:0:0:0:
256,160,38150,1,0,0:0:0:0:
256,160,38192,1,0,0:0:0:0:
256,160,38234,1,0,0:0:0:0:
256,160,38275,1,0,0:0:0:0:
256,160,38359,1,0,0:0:0:0:
256,160,38442,1,8,0:0:0:0:
256,128,38525,1,0,0:0:0:0:
256,128,38608,1,8,0:0:0:0:
256,128,38692,1,8,0:0:0:0:
256,128,38775,1,0,0:0:0:0:
192,128,38858,1,0,0:0:0:0:
192,128,38900,1,0,0:0:0:0:
160,96,38942,1,0,0:0:0:0:
192,64,39025,1,0,0:0:0:0:
288,128,39108,1,8,0:0:0:0:
224,128,39191,1,8,0:0:0:0:
256,96,39275,1,0,0:0:0:0:
160,160,39316,1,0,0:0:0:0:
256,64,39358,1,0,0:0:0:0:
128,160,39400,1,0,0:0:0:0:
256,192,39441,1,0,0:0:0:0:
256,192,39483,1,0,0:0:0:0:
256,192,39524,1,0,0:0:0:0:
192,32,39566,1,0,0:0:0:0:
224,96,39608,1,8,0:0:0:0:
224,96,39649,1,8,0:0:0:0:
224,96,39691,1,0,0:0:0:0:
224,96,39733,1,0,0:0:0:0:
192,96,39774,1,8,0:0:0:0:
192,96,39816,1,0,0:0:0:0:
192,96,39857,1,8,0:0:0:0:
192,96,39899,1,8,0:0:0:0:
224,96,39941,1,0,0:0:0:0:
256,64,40274,1,4,0:0:0:0:
160,96,40607,1,0,0:0:0:0:
160,32,40690,1,0,0:0:0:0:
224,160,40773,1,8,0:0:0:0:
160,32,40857,1,0,0:0:0:0:
224,160,40940,1,8,0:0:0:0:
192,32,41023,1,0,0:0:0:0:
192,160,41107,1,8,0:0:0:0:
128,160,41190,1,8,0:0:0:0:
256,128,41273,1,0,0:0:0:0:
192,32,41356,1,0,0:0:0:0:
256,128,41440,1,8,0:0:0:0:
192,32,41523,1,0,0:0:0:0:
288,64,41606,1,8,0:0:0:0:
288,64,41689,1,0,0:0:0:0:
288,64,41773,1,8,0:0:0:0:
32,128,41856,1,8,0:0:0:0:
288,64,41939,1,0,0:0:0:0:
192,32,42023,1,0,0:0:0:0:
288,64,42106,1,8,0:0:0:0:
288,64,42189,1,0,0:0:0:0:
288,64,42272,1,8,0:0:0:0:
256,64,42356,1,0,0:0:0:0:
288,64,42439,1,8,0:0:0:0:
160,128,42522,1,8,0:0:0:0:
288,64,42605,1,0,0:0:0:0:
288,64,42689,1,0,0:0:0:0:
288,64,42772,1,8,0:0:0:0:
288,64,42855,1,0,0:0:0:0:
288,64,42939,1,0,0:0:0:0:
288,128,43022,1,0,0:0:0:0:
288,128,43105,1,8,0:0:0:0:
128,96,43188,1,0,0:0:0:0:
224,160,43272,1,8,0:0:0:0:
224,160,43355,1,8,0:0:0:0:
224,160,43438,1,8,0:0:0:0:
224,160,43521,1,8,0:0:0:0:
224,160,43605,1,0,0:0:0:0:
224,96,43688,1,0,0:0:0:0:
224,96,43771,1,8,0:0:0:0:
224,64,43854,1,0,0:0:0:0:
224,96,43938,1,8,0:0:0:0:
256,64,44021,1,0,0:0:0:0:
224,96,44104,1,8,0:0:0:0:
224,96,44188,1,8,0:0:0:0:
224,96,44271,1,0,0:0:0:0:
256,32,44354,1,0,0:0:0:0:
192,96,44437,1,8,0:0:0:0:
256,32,44521,1,0,0:0:0:0:
192,96,44604,1,8,0:0:0:0:
256,32,44687,1,0,0:0:0:0:
192,96,44770,1,8,0:0:0:0:
192,96,44854,1,8,0:0:0:0:
192,96,44937,1,0,0:0:0:0:
320,96,45020,1,0,0:0:0:0:
224,96,45104,1,8,0:0:0:0:
320,96,45187,1,0,0:0:0:0:
224,96,45270,1,8,0:0:0:0:
320,96,45353,1,0,0:0:0:0:
160,128,45437,1,8,0:0:0:0:
160,128,45520,1,8,0:0:0:0:
160,64,45603,1,0,0:0:0:0:
160,64,45686,1,0,0:0:0:0:
160,64,45770,1,8,0:0:0:0:
288,128,45853,1,0,0:0:0:0:
288,96,45936,1,8,0:0:0:0:
288,96,46020,1,8,0:0:0:0:
256,96,46103,1,8,0:0:0:0:
192,64,46186,1,0,0:0:0:0:
192,64,46269,1,0,0:0:0:0:
192,64,46353,1,0,0:0:0:0:
192,64,46436,1,8,0:0:0:0:
352,160,46519,1,0,0:0:0:0:
352,160,46602,1,8,0:0:0:0:
192,96,46686,1,0,0:0:0:0:
224,128,46769,1,8,0:0:0:0:
224,128,46852,1,8,0:0:0:0:
224,128,46936,1,0,0:0:0:0:
256,96,47019,1,0,0:0:0:0:
256,96,47102,1,0,0:0:0:0:
256,96,47185,1,8,0:0:0:0:
256,96,47269,1,8,0:0:0:0:
256,96,47352,1,8,0:0:0:0:
256,96,47435,1,0,0:0:0:0:
224,128,47518,1,8,0:0:0:0:
160,128,47602,1,0,0:0:0:0:
160,128,47685,1,0,0:0:0:0:
160,128,47768,1,8,0:0:0:0:
160,96,47852,1,0,0:0:0:0:
160,96,47935,1,8,0:0:0:0:
160,96,48018,1,0,0:0:0:0:
160,96,48101,1,8,0:0:0:0:
192,128,48185,1,8,0:0:0:0:
192,128,48268,1,0,0:0:0:0:
320,128,48351,1,0,0:0:0:0:
320,128,48434,1,8,0:0:0:0:
320,128,48518,1,0,0:0:0:0:
320,128,48601,1,0,0:0:0:0:
224,64,48684,1,0,0:0:0:0:
224,64,48767,1,8,0:0:0:0:
96,128,48851,1,0,0:0:0:0:
224,64,48934,1,8,0:0:0:0:
224,32,49017,1,0,0:0:0:0:
192,128,49101,1,8,0:0:0:0:
192,128,49184,1,8,0:0:0:0:
224,32,49267,1,0,0:0:0:0:
224,32,49350,1,0,0:0:0:0:
288,96,49434,1,8,0:0:0:0:
224,32,49517,1,0,0:0:0:0:
288,96,49600,1,8,0:0:0:0:
224,128,49683,1,8,0:0:0:0:
224,32,49767,1,0,0:0:0:0:
224,32,49850,1,0,0:0:0:0:
224,96,49933,1,8,0:0:0:0:
224,96,50017,1,8,0:0:0:0:
224,96,50100,1,8,0:0:0:0:
224,32,50183,1,8,0:0:0:0:
160,160,50266,1,0,0:0:0:0:
192,160,50350,1,0,0:0:0:0:
192,128,50433,1,8,0:0:0:0:
192,128,50516,1,8,0:0:0:0:
192,128,50599,1,0,0:0:0:0:
256,96,50683,1,0,0:0:0:0:
256,96,50766,1,8,0:0:0:0:
256,96,50849,1,8,0:0:0:0:
256,96,50933,1,4,0:0:0:0:
288,96,51016,1,0,0:0:0:0:
288,96,51099,1,8,0:0:0:0:
288,96,51182,1,0,0:0:0:0:
256,96,51266,1,4,0:0:0:0:
256,96,51349,1,0,0:0:0:0:
256,96,51432,1,8,0:0:0:0:
256,160,51515,1,8,0:0:0:0:
256,160,51599,1,0,0:0:0:0:
256,160,51682,1,8,0:0:0:0:
256,128,51765,1,8,0:0:0:0:
256,128,51849,1,8,0:0:0:0:
256,128,51932,1,0,0:0:0:0:
224,128,52015,1,0,0:0:0:0:
224,128,52098,1,8,0:0:0:0:
224,128,52182,1,8,0:0:0:0:
224,128,52265,1,0,0:0:0:0:
224,128,52348,1,8,0:0:0:0:
224,128,52431,1,8,0:0:0:0:
224,128,52515,1,8,0:0:0:0:
224,128,52598,1,0,0:0:0:0:
224,128,52681,1,0,0:0:0:0:
224,128,52764,1,8,0:0:0:0:
224,128,52848,1,8,0:0:0:0:
224,128,52931,1,0,0:0:0:0:
224,128,53014,1,0,0:0:0:0:
224,128,53098,1,0,0:0:0:0:
224,128,53181,1,8,0:0:0:0:
256,128,53264,1,0,0:0:0:0:
256,128,53347,1,0,0:0:0:0:
256,128,53431,1,0,0:0:0:0:
192,128,53514,1,8,0:0:0:0:
256,96,53597,1,0,0:0:0:0:
224,64,53680,1,8,0:0:0:0:
224,64,53764,1,0,0:0:0:0:
224,64,53847,1,0,0:0:0:0:
224,64,53930,1,8,0:0:0:0:
192,128,54014,1,0,0:0:0:0:
192,128,54097,1,0,0:0:0:0:
192,128,54180,1,0,0:0:0:0:
192,32,54263,1,8,0:0:0:0:
160,96,54347,1,0,0:0:0:0:
192,32,54430,1,8,0:0:0:0:
224,96,54513,1,0,0:0:0:0:
224,96,54596,1,0,0:0:0:0:
224,0,54680,1,8,0:0:0:0:
192,96,54763,1,0,0:0:0:0:
192,96,54846,1,0,0:0:0:0:
192,96,54930,1,8,0:0:0:0:
256,64,55013,1,0,0:0:0:0:
192,128,55096,1,8,0:0:0:0:
256,64,55179,1,0,0:0:0:0:
224,96,55263,1,8,0:0:0:0:
288,64,55346,1,8,0:0:0:0:
256,64,55429,1,0,0:0:0:0:
320,64,55512,1,8,0:0:0:0:
256,64,55596,1,0,0:0:0:0:
256,64,55679,1,8,0:0:0:0:
256,64,55762,1,0,0:0:0:0:
256,64,55846,1,0,0:0:0:0:
256,64,55929,1,8,0:0:0:0:
256,64,56012,1,0,0:0:0:0:
256,64,56095,1,8,0:0:0:0:
256,64,56179,1,8,0:0:0:0:
256,64,56262,1,0,0:0:0:0:
224,32,56345,1,0,0:0:0:0:
288,64,56428,1,8,0:0:0:0:
224,32,56512,1,0,0:0:0:0:
288,96,56595,1,8,0:0:0:0:
224,32,56678,1,0,0:0:0:0:
224,32,56761,1,0,0:0:0:0:
224,32,56845,1,0,0:0:0:0:
320,96,56928,1,8,0:0:0:0:
192,0,57011,1,0,0:0:0:0:
192,0,57095,1,0,0:0:0:0:
192,0,57178,1,0,0:0:0:0:
288,128,57261,1,8,0:0:0:0:
224,0,57344,1,0,0:0:0:0:
224,0,57428,1,0,0:0:0:0:
224,0,57511,1,0,0:0:0:0:
256,128,57594,1,8,0:0:0:0:
192,32,57677,1,0,0:0:0:0:
256,128,57761,1,8,0:0:0:0:
256,0,57844,1,0,0:0:0:0:
224,32,57927,1,0,0:0:0:0:
224,32,58011,1,0,0:0:0:0:
320,128,58094,1,8,0:0:0:0:
224,32,58177,1,0,0:0:0:0:
288,96,58260,1,8,0:0:0:0:
224,32,58344,1,0,0:0:0:0:
288,96,58427,1,8,0:0:0:0:
288,96,58510,1,8,0:0:0:0:
288,96,58593,1,8,0:0:0:0:
128,128,58677,1,0,0:0:0:0:
256,128,58760,1,8,0:0:0:0:
192,64,58843,1,0,0:0:0:0:
224,64,58927,1,0,0:0:0:0:
224,64,59010,1,0,0:0:0:0:
224,64,59093,1,8,0:0:0:0:
224,64,59176,1,8,0:0:0:0:
224,64,59260,1,0,0:0:0:0:
256,128,59343,1,0,0:0:0:0:
224,128,59426,1,8,0:0:0:0:
256,128,59509,1,0,0:0:0:0:
224,96,59593,1,0,0:0:0:0:
192,64,59676,1,0,0:0:0:0:
224,64,59759,1,8,0:0:0:0:
256,64,59843,1,0,0:0:0:0:
256,128,59926,1,8,0:0:0:0:
256,128,60009,1,8,0:0:0:0:
256,128,60092,1,0,0:0:0:0:
192,128,60176,1,0,0:0:0:0:
192,128,60259,1,8,0:0:0:0:
320,96,60342,1,0,0:0:0:0:
256,96,60425,1,8,0:0:0:0:
256,96,60509,1,8,0:0:0:0:
320,96,60592,1,0,0:0:0:0:
320,96,60675,1,0,0:0:0:0:
192,64,60758,1,8,0:0:0:0:
320,96,60842,1,0,0:0:0:0:
320,96,60925,1,0,0:0:0:0:
320,96,61008,1,0,0:0:0:0:
224,32,61092,1,8,0:0:0:0:
320,96,61175,1,0,0:0:0:0:
256,32,61258,1,8,0:0:0:0:
256,32,61341,1,8,0:0:0:0:
320,64,61425,1,0,0:0:0:0:
256,32,61508,1,8,0:0:0:0:
224,96,61591,1,4,0:0:0:0:
160,128,62257,1,4,0:0:0:0:
224,128,62590,1,8,0:0:0:0:
224,96,62674,1,8,0:0:0:0:
224,96,62757,1,8,0:0:0:0:
160,128,62924,1,0,0:0:0:0:
192,96,62965,1,0,0:0:0:0:
128,128,63007,1,0,0:0:0:0:
224,96,63048,1,0,0:0:0:0:
224,128,63090,1,0,0:0:0:0:
224,128,63173,1,0,0:0:0:0:
224,128,63257,1,0,0:0:0:0:
192,64,63340,1,0,0:0:0:0:
192,32,63382,1,0,0:0:0:0:
192,64,63423,1,0,0:0:0:0:
256,96,63506,1,0,0:0:0:0:
224,64,63590,1,0,0:0:0:0:
224,64,63673,1,0,0:0:0:0:
192,32,63715,1,0,0:0:0:0:
224,64,63756,1,0,0:0:0:0:
256,96,63840,1,0,0:0:0:0:
320,128,63923,1,8,0:0:0:0:
320,96,63964,1,8,0:0:0:0:
320,96,64006,1,8,0:0:0:0:
128,128,64048,1,8,0:0:0:0:
320,96,64089,1,8,0:0:0:0:
224,160,64131,1,8,0:0:0:0:
320,96,64173,1,8,0:0:0:0:
320,96,64256,1,0,0:0:0:0:
288,128,64339,1,0,0:0:0:0:
288,128,64381,1,0,0:0:0:0:
256,128,64422,1,0,0:0:0:0:
256,128,64506,1,0,0:0:0:0:
256,128,64589,1,0,0:0:0:0:
256,128,64672,1,0,0:0:0:0:
256,128,64714,1,0,0:0:0:0:
256,128,64755,1,0,0:0:0:0:
288,128,64839,1,0,0:0:0:0:
288,96,64922,1,0,0:0:0:0:
288,96,65005,1,0,0:0:0:0:
288,96,65047,1,0,0:0:0:0:
288,96,65089,1,0,0:0:0:0:
288,96,65172,1,0,0:0:0:0:
224,128,65255,1,8,0:0:0:0:
224,128,65297,1,8,0:0:0:0:
224,128,65338,1,8,0:0:0:0:
224,128,65380,1,8,0:0:0:0:
224,128,65422,1,8,0:0:0:0:
224,96,65463,1,8,0:0:0:0:
224,96,65505,1,8,0:0:0:0:
224,96,65588,1,0,0:0:0:0:
224,96,65671,1,0,0:0:0:0:
224,96,65713,1,0,0:0:0:0:
224,96,65755,1,0,0:0:0:0:
224,96,65838,1,0,0:0:0:0:
224,96,65921,1,0,0:0:0:0:
224,96,66005,1,0,0:0:0:0:
224,96,66046,1,0,0:0:0:0:
224,96,66088,1,0,0:0:0:0:
224,96,66171,1,0,0:0:0:0:
224,96,66254,1,0,0:0:0:0:
224,128,66338,1,0,0:0:0:0:
224,128,66379,1,0,0:0:0:0:
224,128,66421,1,0,0:0:0:0:
224,128,66504,1,0,0:0:0:0:
256,96,66587,1,8,0:0:0:0:
256,96,66643,1,8,0:0:0:0:
256,96,66698,1,8,0:0:0:0:
256,96,66754,1,8,0:0:0:0:
256,96,66810,1,8,0:0:0:0:
256,96,66865,1,8,0:0:0:0:
224,128,66921,1,0,0:0:0:0:
224,128,66962,1,0,0:0:0:0:
224,160,67087,1,8,0:0:0:0:
224,160,67129,1,8,0:0:0:0:
224,160,67170,1,8,0:0:0:0:
256,128,67212,1,8,0:0:0:0:
224,128,67254,1,0,0:0:0:0:
256,128,67337,1,0,0:0:0:0:
256,160,67420,1,8,0:0:0:0:
256,160,67462,1,8,0:0:0:0:
256,160,67503,1,0,0:0:0:0:
256,160,67587,1,8,0:0:0:0:
288,192,67670,1,0,0:0:0:0:
288,192,67712,1,0,0:0:0:0:
288,192,67753,1,8,0:0:0:0:
256,192,67795,1,8,0:0:0:0:
256,128,67837,1,8,0:0:0:0:
256,128,67878,1,8,0:0:0:0:
256,192,67920,1,0,0:0:0:0:
128,128,68086,1,0,0:0:0:0:
256,64,68170,1,0,0:0:0:0:
224,96,68253,1,8,0:0:0:0:
224,96,68295,1,8,0:0:0:0:
160,160,68419,1,8,0:0:0:0:
224,96,68461,1,8,0:0:0:0:
256,128,68586,1,0,0:0:0:0:
192,128,68628,1,0,0:0:0:0:
192,128,68752,1,0,0:0:0:0:
256,96,68794,1,0,0:0:0:0:
192,64,68919,1,8,0:0:0:0:
224,64,68961,1,8,0:0:0:0:
224,64,69086,1,0,0:0:0:0:
224,64,69127,1,0,0:0:0:0:
224,64,69252,1,8,0:0:0:0:
224,64,69294,1,8,0:0:0:0:
224,64,69335,1,8,0:0:0:0:
288,96,69377,1,8,0:0:0:0:
160,96,69419,1,0,0:0:0:0:
352,96,69460,1,0,0:0:0:0:
352,96,69502,1,8,0:0:0:0:
352,96,69585,1,0,0:0:0:0:
320,128,69668,1,0,0:0:0:0:
320,128,69710,1,0,0:0:0:0:
320,128,69752,1,0,0:0:0:0:
320,128,69835,1,0,0:0:0:0:
320,128,69918,1,0,0:0:0:0:
352,96,70002,1,0,0:0:0:0:
352,96,70043,1,0,0:0:0:0:
352,96,70085,1,0,0:0:0:0:
320,128,70168,1,0,0:0:0:0:
320,128,70251,1,0,0:0:0:0:
288,96,70293,1,0,0:0:0:0:
320,128,70335,1,8,0:0:0:0:
320,128,70376,1,8,0:0:0:0:
320,128,70418,1,0,0:0:0:0:
224,128,70501,1,0,0:0:0:0:
224,128,70584,1,8,0:0:0:0:
224,128,70626,1,8,0:0:0:0:
224,128,70668,1,8,0:0:0:0:
224,128,70709,1,8,0:0:0:0:
224,128,70751,1,8,0:0:0:0:
224,128,70793,1,8,0:0:0:0:
224,128,70834,1,8,0:0:0:0:
224,128,70876,1,8,0:0:0:0:
224,128,70918,1,0,0:0:0:0:
256,96,71001,1,0,0:0:0:0:
256,96,71042,1,0,0:0:0:0:
256,96,71084,1,8,0:0:0:0:
224,64,71167,1,0,0:0:0:0:
224,64,71251,1,0,0:0:0:0:
224,64,71334,1,0,0:0:0:0:
224,64,71376,1,0,0:0:0:0:
224,64,71417,1,8,0:0:0:0:
224,64,71500,1,0,0:0:0:0:
224,64,71584,1,0,0:0:0:0:
224,64,71667,1,0,0:0:0:0:
224,64,71709,1,0,0:0:0:0:
224,64,71750,1,8,0:0:0:0:
288,96,71792,1,8,0:0:0:0:
256,64,71834,1,0,0:0:0:0:
256,64,71917,1,8,0:0:0:0:
256,64,71958,1,8,0:0:0:0:
160,128,72000,1,0,0:0:0:0:
160,128,72042,1,0,0:0:0:0:
160,128,72083,1,8,0:0:0:0:
160,96,72167,1,0,0:0:0:0:
224,96,72250,1,8,0:0:0:0:
224,96,72292,1,0,0:0:0:0:
224,96,72333,1,0,0:0:0:0:
224,96,72375,1,0,0:0:0:0:
224,96,72416,1,8,0:0:0:0:
160,128,72458,1,8,0:0:0:0:
160,128,72500,1,8,0:0:0:0:
160,128,72541,1,8,0:0:0:0:
160,128,72583,1,0,0:0:0:0:
352,96,72638,1,8,0:0:0:0:
352,96,72694,1,0,0:0:0:0:
352,96,72749,1,0,0:0:0:0:
352,96,72805,1,0,0:0:0:0:
352,96,72861,1,8,0:0:0:0:
352,96,72916,1,0,0:0:0:0:
352,96,72972,1,0,0:0:0:0:
352,96,73027,1,8,0:0:0:0:
352,96,73083,1,0,0:0:0:0:
288,64,73138,1,8,0:0:0:0:
288,64,73194,1,0,0:0:0:0:
288,64,73249,1,0,0:0:0:0:
288,64,73416,1,4,0:0:0:0:
256,64,73582,1,0,0:0:0:0:
192,96,73624,1,0,0:0:0:0:
128,128,73666,1,0,0:0:0:0:
224,96,73707,1,0,0:0:0:0:
224,128,73749,1,0,0:0:0:0:
224,128,73832,1,0,0:0:0:0:
224,128,73916,1,0,0:0:0:0:
192,64,73999,1,0,0:0:0:0:
192,32,74041,1,0,0:0:0:0:
192,64,74082,1,0,0:0:0:0:
256,96,74165,1,0,0:0:0:0:
224,64,74249,1,0,0:0:0:0:
224,64,74332,1,0,0:0:0:0:
192,32,74374,1,0,0:0:0:0:
224,64,74415,1,0,0:0:0:0:
256,96,74499,1,0,0:0:0:0:
320,128,74582,1,8,0:0:0:0:
320,96,74623,1,8,0:0:0:0:
320,96,74665,1,8,0:0:0:0:
128,128,74707,1,8,0:0:0:0:
320,96,74748,1,8,0:0:0:0:
224,160,74790,1,8,0:0:0:0:
320,96,74832,1,8,0:0:0:0:
320,96,74915,1,0,0:0:0:0:
288,128,74998,1,0,0:0:0:0:
288,128,75040,1,0,0:0:0:0:
256,128,75081,1,0,0:0:0:0:
256,128,75165,1,0,0:0:0:0:
256,128,75248,1,0,0:0:0:0:
256,128,75331,1,0,0:0:0:0:
256,128,75373,1,0,0:0:0:0:
256,128,75414,1,0,0:0:0:0:
288,128,75498,1,0,0:0:0:0:
288,96,75581,1,0,0:0:0:0:
288,96,75664,1,0,0:0:0:0:
288,96,75706,1,0,0:0:0:0:
288,96,75748,1,0,0:0:0:0:
288,96,75831,1,0,0:0:0:0:
224,128,75914,1,8,0:0:0:0:
224,128,75956,1,8,0:0:0:0:
224,128,75997,1,8,0:0:0:0:
224,128,76039,1,8,0:0:0:0:
224,128,76081,1,8,0:0:0:0:
224,96,76122,1,8,0:0:0:0:
224,96,76164,1,8,0:0:0:0:
224,96,76247,1,0,0:0:0:0:
224,96,76330,1,0,0:0:0:0:
224,96,76372,1,0,0:0:0:0:
224,96,76414,1,0,0:0:0:0:
224,96,76497,1,0,0:0:0:0:
224,96,76580,1,0,0:0:0:0:
224,96,76664,1,0,0:0:0:0:
224,96,76705,1,0,0:0:0:0:
224,96,76747,1,0,0:0:0:0:
224,96,76830,1,0,0:0:0:0:
224,96,76913,1,0,0:0:0:0:
224,128,76997,1,0,0:0:0:0:
224,128,77038,1,0,0:0:0:0:
224,128,77080,1,0,0:0:0:0:
224,128,77163,1,0,0:0:0:0:
256,96,77246,1,8,0:0:0:0:
256,96,77302,1,8,0:0:0:0:
256,96,77357,1,8,0:0:0:0:
256,96,77413,1,8,0:0:0:0:
256,96,77469,1,8,0:0:0:0:
256,96,77524,1,8,0:0:0:0:
224,128,77580,1,0,0:0:0:0:
224,128,77621,1,0,0:0:0:0:
224,160,77746,1,8,0:0:0:0:
224,160,77788,1,8,0:0:0:0:
224,160,77829,1,8,0:0:0:0:
256,128,77871,1,8,0:0:0:0:
224,128,77913,1,0,0:0:0:0:
256,128,77996,1,0,0:0:0:0:
256,160,78079,1,8,0:0:0:0:
256,160,78121,1,8,0:0:0:0:
256,160,78162,1,0,0:0:0:0:
256,160,78246,1,8,0:0:0:0:
288,192,78329,1,0,0:0:0:0:
288,192,78371,1,0,0:0:0:0:
288,192,78412,1,8,0:0:0:0:
256,192,78454,1,8,0:0:0:0:
256,128,78496,1,8,0:0:0:0:
256,128,78537,1,8,0:0:0:0:
256,192,78579,1,0,0:0:0:0:
128,128,78745,1,0,0:0:0:0:
256,64,78829,1,0,0:0:0:0:
224,96,78912,1,8,0:0:0:0:
224,96,78954,1,8,0:0:0:0:
160,160,79078,1,8,0:0:0:0:
160,160,79120,1,8,0:0:0:0:
256,128,79245,1,0,0:0:0:0:
192,128,79287,1,0,0:0:0:0:
192,128,79411,1,0,0:0:0:0:
192,128,79453,1,0,0:0:0:0:
192,64,79578,1,8,0:0:0:0:
224,64,79620,1,8,0:0:0:0:
224,64,79745,1,0,0:0:0:0:
224,64,79786,1,0,0:0:0:0:
224,64,79911,1,8,0:0:0:0:
224,64,79953,1,8,0:0:0:0:
224,64,79994,1,8,0:0:0:0:
288,96,80036,1,8,0:0:0:0:
160,96,80078,1,0,0:0:0:0:
352,96,80119,1,0,0:0:0:0:
352,96,80161,1,8,0:0:0:0:
352,96,80244,1,0,0:0:0:0:
320,128,80327,1,0,0:0:0:0:
320,128,80369,1,0,0:0:0:0:
320,128,80411,1,0,0:0:0:0:
320,128,80494,1,0,0:0:0:0:
320,128,80577,1,0,0:0:0:0:
352,96,80661,1,0,0:0:0:0:
352,96,80702,1,0,0:0:0:0:
352,96,80744,1,0,0:0:0:0:
320,128,80827,1,0,0:0:0:0:
320,128,80910,1,0,0:0:0:0:
128,96,80952,1,0,0:0:0:0:
320,128,80994,1,8,0:0:0:0:
320,128,81035,1,8,0:0:0:0:
320,128,81077,1,0,0:0:0:0:
224,128,81160,1,0,0:0:0:0:
224,128,81243,1,8,0:0:0:0:
224,128,81285,1,8,0:0:0:0:
224,128,81327,1,8,0:0:0:0:
224,128,81368,1,8,0:0:0:0:
224,128,81410,1,8,0:0:0:0:
224,128,81452,1,8,0:0:0:0:
224,128,81493,1,8,0:0:0:0:
224,128,81535,1,8,0:0:0:0:
224,128,81577,1,0,0:0:0:0:
256,96,81660,1,0,0:0:0:0:
256,96,81701,1,0,0:0:0:0:
256,96,81743,1,8,0:0:0:0:
224,64,81826,1,0,0:0:0:0:
224,64,81910,1,0,0:0:0:0:
224,64,81993,1,0,0:0:0:0:
224,64,82035,1,0,0:0:0:0:
224,64,82076,1,8,0:0:0:0:
224,64,82159,1,0,0:0:0:0:
224,64,82243,1,0,0:0:0:0:
224,64,82326,1,0,0:0:0:0:
224,64,82368,1,0,0:0:0:0:
224,64,82409,1,8,0:0:0:0:
256,64,82493,1,0,0:0:0:0:
256,64,82576,1,8,0:0:0:0:
256,64,82617,1,8,0:0:0:0:
160,128,82659,1,0,0:0:0:0:
160,128,82701,1,0,0:0:0:0:
160,128,82742,1,8,0:0:0:0:
160,96,82826,1,0,0:0:0:0:
224,96,82909,1,8,0:0:0:0:
224,96,82951,1,0,0:0:0:0:
224,96,82992,1,0,0:0:0:0:
224,96,83034,1,0,0:0:0:0:
224,96,83075,1,8,0:0:0:0:
160,128,83117,1,8,0:0:0:0:
160,128,83159,1,8,0:0:0:0:
160,128,83200,1,8,0:0:0:0:
160,128,83242,1,0,0:0:0:0:
352,96,83297,1,8,0:0:0:0:
352,96,83353,1,0,0:0:0:0:
352,96,83408,1,0,0:0:0:0:
352,96,83464,1,0,0:0:0:0:
352,96,83520,1,8,0:0:0:0:
352,96,83575,1,0,0:0:0:0:
352,96,83631,1,0,0:0:0:0:
352,96,83686,1,8,0:0:0:0:
352,96,83742,1,0,0:0:0:0:
288,64,83825,1,8,0:0:0:0:
288,64,83908,1,0,0:0:0:0:
288,64,84075,1,4,0:0:0:0:
128,128,84241,1,4,0:0:0:0:
320,160,84574,1,8,0:0:0:0:
288,128,84657,1,0,0:0:0:0:
288,128,84741,1,0,0:0:0:0:
288,128,84824,1,0,0:0:0:0:
288,128,84907,1,8,0:0:0:0:
128,128,84990,1,0,0:0:0:0:
160,96,85074,1,8,0:0:0:0:
160,96,85157,1,8,0:0:0:0:
160,96,85240,1,0,0:0:0:0:
288,160,85323,1,0,0:0:0:0:
288,128,85407,1,8,0:0:0:0:
256,32,85490,1,0,0:0:0:0:
288,128,85573,1,8,0:0:0:0:
256,32,85656,1,0,0:0:0:0:
256,128,85740,1,8,0:0:0:0:
256,128,85823,1,8,0:0:0:0:
256,128,85906,1,0,0:0:0:0:
288,32,85990,1,0,0:0:0:0:
288,32,86073,1,8,0:0:0:0:
288,32,86156,1,0,0:0:0:0:
288,32,86239,1,8,0:0:0:0:
288,32,86323,1,0,0:0:0:0:
288,32,86406,1,8,0:0:0:0:
288,32,86489,1,8,0:0:0:0:
288,32,86572,1,0,0:0:0:0:
160,128,86656,1,0,0:0:0:0:
192,128,86739,1,8,0:0:0:0:
224,32,86822,1,0,0:0:0:0:
192,128,86906,1,0,0:0:0:0:
224,32,86989,1,0,0:0:0:0:
192,96,87072,1,8,0:0:0:0:
192,96,87155,1,8,0:0:0:0:
192,96,87239,1,0,0:0:0:0:
256,96,87322,1,0,0:0:0:0:
256,96,87405,1,8,0:0:0:0:
256,96,87488,1,0,0:0:0:0:
256,128,87572,1,0,0:0:0:0:
256,96,87655,1,0,0:0:0:0:
256,96,87738,1,8,0:0:0:0:
256,32,87822,1,8,0:0:0:0:
256,32,87905,1,0,0:0:0:0:
256,32,87988,1,0,0:0:0:0:
256,32,88071,1,8,0:0:0:0:
256,32,88155,1,0,0:0:0:0:
256,32,88238,1,8,0:0:0:0:
256,32,88321,1,0,0:0:0:0:
256,32,88404,1,8,0:0:0:0:
256,32,88488,1,8,0:0:0:0:
256,32,88571,1,0,0:0:0:0:
224,64,88654,1,0,0:0:0:0:
224,64,88738,1,8,0:0:0:0:
224,64,88821,1,0,0:0:0:0:
224,64,88904,1,8,0:0:0:0:
224,64,88987,1,0,0:0:0:0:
224,64,89071,1,8,0:0:0:0:
224,64,89154,1,8,0:0:0:0:
224,64,89237,1,0,0:0:0:0:
224,32,89320,1,0,0:0:0:0:
224,32,89404,1,8,0:0:0:0:
224,96,89487,1,8,0:0:0:0:
224,96,89570,1,0,0:0:0:0:
256,96,89653,1,8,0:0:0:0:
256,96,89737,1,0,0:0:0:0:
256,96,89820,1,0,0:0:0:0:
256,96,89903,1,8,0:0:0:0:
256,96,89987,1,0,0:0:0:0:
256,96,90070,1,8,0:0:0:0:
256,64,90153,1,8,0:0:0:0:
256,64,90236,1,0,0:0:0:0:
224,64,90320,1,8,0:0:0:0:
224,64,90403,1,0,0:0:0:0:
224,64,90486,1,8,0:0:0:0:
224,64,90569,1,8,0:0:0:0:
128,128,90653,1,0,0:0:0:0:
128,96,90736,1,8,0:0:0:0:
192,64,90819,1,0,0:0:0:0:
192,64,90903,1,0,0:0:0:0:
256,32,90986,1,0,0:0:0:0:
224,32,91069,1,8,0:0:0:0:
224,32,91152,1,0,0:0:0:0:
224,32,91236,1,8,0:0:0:0:
224,32,91319,1,8,0:0:0:0:
224,32,91402,1,0,0:0:0:0:
224,32,91485,1,0,0:0:0:0:
224,32,91569,1,0,0:0:0:0:
192,32,91652,1,8,0:0:0:0:
192,32,91735,1,8,0:0:0:0:
256,96,91819,1,8,0:0:0:0:
256,96,91902,1,0,0:0:0:0:
256,64,91985,1,0,0:0:0:0:
256,64,92068,1,8,0:0:0:0:
256,64,92152,1,0,0:0:0:0:
256,64,92235,1,8,0:0:0:0:
192,128,92318,1,8,0:0:0:0:
224,32,92401,1,0,0:0:0:0:
320,96,92485,1,0,0:0:0:0:
320,96,92568,1,8,0:0:0:0:
320,96,92651,1,8,0:0:0:0:
320,96,92735,1,0,0:0:0:0:
320,96,92818,1,0,0:0:0:0:
320,96,92901,1,8,0:0:0:0:
288,96,92984,1,8,0:0:0:0:
288,96,93068,1,0,0:0:0:0:
288,96,93151,1,0,0:0:0:0:
288,96,93234,1,8,0:0:0:0:
288,96,93317,1,8,0:0:0:0:
288,96,93401,1,0,0:0:0:0:
288,96,93484,1,0,0:0:0:0:
288,96,93567,1,8,0:0:0:0:
224,96,93650,1,0,0:0:0:0:
256,64,93734,1,0,0:0:0:0:
256,64,93817,1,0,0:0:0:0:
256,64,93900,1,8,0:0:0:0:
256,64,93984,1,0,0:0:0:0:
256,64,94067,1,0,0:0:0:0:
256,64,94150,1,0,0:0:0:0:
256,64,94233,1,8,0:0:0:0:
256,32,94317,1,0,0:0:0:0:
256,32,94400,1,0,0:0:0:0:
256,32,94483,1,0,0:0:0:0:
256,32,94566,1,8,0:0:0:0:
224,64,94650,1,0,0:0:0:0:
224,64,94733,1,8,0:0:0:0:
224,64,94816,1,8,0:0:0:0:
224,128,94900,1,4,0:0:0:0:
256,128,94983,1,0,0:0:0:0:
256,128,95066,1,8,0:0:0:0:
256,128,95149,1,0,0:0:0:0:
224,192,95233,1,4,0:0:0:0:
192,128,95316,1,0,0:0:0:0:
192,96,95399,1,8,0:0:0:0:
192,96,95482,1,0,0:0:0:0:
160,64,95566,1,8,0:0:0:0:
160,64,95649,1,0,0:0:0:0:
160,128,95732,1,8,0:0:0:0:
160,96,95816,1,8,0:0:0:0:
160,96,95899,1,0,0:0:0:0:
160,64,95982,1,0,0:0:0:0:
160,64,96065,1,8,0:0:0:0:
288,160,96149,1,8,0:0:0:0:
256,128,96232,1,0,0:0:0:0:
288,128,96315,1,0,0:0:0:0:
256,128,96398,1,8,0:0:0:0:
256,128,96482,1,0,0:0:0:0:
256,128,96565,1,8,0:0:0:0:
256,128,96648,1,8,0:0:0:0:
256,128,96732,1,0,0:0:0:0:
192,96,96815,1,0,0:0:0:0:
192,96,96898,1,8,0:0:0:0:
288,64,96981,1,0,0:0:0:0:
192,96,97065,1,8,0:0:0:0:
288,64,97148,1,0,0:0:0:0:
192,96,97231,1,8,0:0:0:0:
192,96,97314,1,8,0:0:0:0:
192,96,97398,1,0,0:0:0:0:
192,96,97481,1,0,0:0:0:0:
192,96,97564,1,8,0:0:0:0:
288,64,97647,1,8,0:0:0:0:
192,128,97731,1,0,0:0:0:0:
192,96,97814,1,0,0:0:0:0:
192,96,97897,1,0,0:0:0:0:
192,96,97981,1,0,0:0:0:0:
192,96,98064,1,8,0:0:0:0:
256,64,98147,1,0,0:0:0:0:
192,96,98230,1,8,0:0:0:0:
192,64,98314,1,0,0:0:0:0:
192,64,98397,1,0,0:0:0:0:
256,64,98480,1,0,0:0:0:0:
192,64,98563,1,8,0:0:0:0:
192,64,98647,1,0,0:0:0:0:
192,64,98730,1,0,0:0:0:0:
256,64,98813,1,0,0:0:0:0:
192,64,98897,1,8,0:0:0:0:
192,64,98980,1,8,0:0:0:0:
192,64,99063,1,0,0:0:0:0:
256,64,99146,1,0,0:0:0:0:
224,32,99230,1,8,0:0:0:0:
224,64,99313,1,8,0:0:0:0:
224,64,99396,1,0,0:0:0:0:
256,64,99479,1,0,0:0:0:0:
224,160,99563,1,8,0:0:0:0:
256,128,99646,1,0,0:0:0:0:
256,128,99729,1,8,0:0:0:0:
256,32,99813,1,0,0:0:0:0:
320,160,99896,1,8,0:0:0:0:
320,128,99979,1,0,0:0:0:0:
320,128,100062,1,8,0:0:0:0:
224,96,100146,1,8,0:0:0:0:
320,128,100229,1,0,0:0:0:0:
288,128,100312,1,0,0:0:0:0:
288,128,100395,1,8,0:0:0:0:
288,128,100479,1,0,0:0:0:0:
288,128,100562,1,0,0:0:0:0:
192,96,100645,1,0,0:0:0:0:
192,96,100729,1,8,0:0:0:0:
192,96,100812,1,8,0:0:0:0:
192,96,100895,1,0,0:0:0:0:
192,96,100978,1,0,0:0:0:0:
192,96,101062,1,8,0:0:0:0:
192,96,101145,1,0,0:0:0:0:
192,96,101228,1,0,0:0:0:0:
192,96,101311,1,0,0:0:0:0:
224,64,101395,1,8,0:0:0:0:
192,64,101478,1,0,0:0:0:0:
224,96,101561,1,8,0:0:0:0:
192,96,101644,1,8,0:0:0:0:
192,96,101728,1,0,0:0:0:0:
160,128,101811,1,0,0:0:0:0:
160,96,101894,1,8,0:0:0:0:
160,96,101978,1,8,0:0:0:0:
160,96,102061,1,0,0:0:0:0:
160,96,102144,1,0,0:0:0:0:
160,96,102227,1,8,0:0:0:0:
160,96,102311,1,8,0:0:0:0:
160,96,102394,1,8,0:0:0:0:
160,96,102477,1,0,0:0:0:0:
160,96,102560,1,8,0:0:0:0:
160,96,102644,1,8,0:0:0:0:
160,96,102727,1,8,0:0:0:0:
256,128,102810,1,0,0:0:0:0:
224,128,102894,1,8,0:0:0:0:
256,128,102977,1,8,0:0:0:0:
256,128,103060,1,0,0:0:0:0:
256,128,103143,1,8,0:0:0:0:
224,64,103227,1,0,0:0:0:0:
256,128,103310,1,8,0:0:0:0:
224,64,103393,1,0,0:0:0:0:
256,96,103476,1,8,0:0:0:0:
256,96,103560,1,8,0:0:0:0:
256,64,103643,1,0,0:0:0:0:
224,96,103726,1,8,0:0:0:0:
256,64,103810,1,0,0:0:0:0:
224,96,103893,1,8,0:0:0:0:
256,64,103976,1,0,0:0:0:0:
224,96,104059,1,8,0:0:0:0:
224,96,104143,1,8,0:0:0:0:
256,64,104226,1,0,0:0:0:0:
224,96,104309,1,8,0:0:0:0:
256,64,104392,1,0,0:0:0:0:
224,64,104476,1,8,0:0:0:0:
256,64,104559,1,0,0:0:0:0:
224,64,104642,1,8,0:0:0:0:
224,64,104726,1,8,0:0:0:0:
192,64,104809,1,8,0:0:0:0:
224,96,104892,1,0,0:0:0:0:
256,64,104975,1,0,0:0:0:0:
256,64,105059,1,8,0:0:0:0:
256,64,105142,1,8,0:0:0:0:
192,96,105225,1,0,0:0:0:0:
256,64,105308,1,0,0:0:0:0:
256,64,105392,1,8,0:0:0:0:
256,64,105475,1,8,0:0:0:0:
224,64,105558,1,4,0:0:0:0:
256,160,105641,1,0,0:0:0:0:
256,160,105683,1,0,0:0:0:0:
192,128,105725,1,0,0:0:0:0:
192,128,105808,1,0,0:0:0:0:
192,128,105891,1,8,0:0:0:0:
224,96,105933,1,8,0:0:0:0:
192,128,105975,1,0,0:0:0:0:
192,128,106058,1,8,0:0:0:0:
256,128,106141,1,0,0:0:0:0:
224,160,106224,1,8,0:0:0:0:
224,64,106266,1,8,0:0:0:0:
224,160,106308,1,8,0:0:0:0:
224,160,106391,1,0,0:0:0:0:
224,160,106474,1,8,0:0:0:0:
224,160,106557,1,0,0:0:0:0:
256,96,106599,1,0,0:0:0:0:
224,128,106641,1,0,0:0:0:0:
256,96,106682,1,0,0:0:0:0:
224,128,106724,1,8,0:0:0:0:
256,128,106807,1,8,0:0:0:0:
160,160,106891,1,0,0:0:0:0:
192,64,106932,1,0,0:0:0:0:
160,160,106974,1,0,0:0:0:0:
160,160,107057,1,0,0:0:0:0:
192,160,107140,1,0,0:0:0:0:
192,160,107224,1,8,0:0:0:0:
192,64,107265,1,0,0:0:0:0:
192,64,107307,1,0,0:0:0:0:
192,64,107349,1,0,0:0:0:0:
224,96,107390,1,8,0:0:0:0:
224,96,107473,1,8,0:0:0:0:
224,96,107557,1,0,0:0:0:0:
224,96,107640,1,8,0:0:0:0:
192,64,107682,1,8,0:0:0:0:
224,96,107723,1,0,0:0:0:0:
224,96,107807,1,0,0:0:0:0:
192,64,107848,1,0,0:0:0:0:
224,96,107890,1,8,0:0:0:0:
192,96,107973,1,8,0:0:0:0:
224,64,108056,1,0,0:0:0:0:
224,64,108140,1,0,0:0:0:0:
224,64,108223,1,8,0:0:0:0:
192,64,108265,1,8,0:0:0:0:
224,64,108306,1,8,0:0:0:0:
224,64,108389,1,0,0:0:0:0:
224,64,108473,1,0,0:0:0:0:
224,64,108556,1,8,0:0:0:0:
192,64,108598,1,8,0:0:0:0:
224,96,108639,1,8,0:0:0:0:
224,96,108723,1,0,0:0:0:0:
224,96,108806,1,8,0:0:0:0:
224,96,108889,1,0,0:0:0:0:
192,96,108931,1,0,0:0:0:0:
224,96,108972,1,0,0:0:0:0:
224,96,109056,1,8,0:0:0:0:
192,64,109139,1,8,0:0:0:0:
192,32,109181,1,8,0:0:0:0:
160,128,109222,1,0,0:0:0:0:
192,32,109264,1,0,0:0:0:0:
192,32,109305,1,8,0:0:0:0:
288,64,109389,1,0,0:0:0:0:
288,64,109472,1,8,0:0:0:0:
288,64,109555,1,0,0:0:0:0:
256,64,109597,1,0,0:0:0:0:
96,128,109638,1,0,0:0:0:0:
224,96,109722,1,8,0:0:0:0:
224,96,109805,1,8,0:0:0:0:
256,96,109847,1,8,0:0:0:0:
192,96,109888,1,0,0:0:0:0:
192,160,109972,1,8,0:0:0:0:
224,64,110013,1,8,0:0:0:0:
192,160,110055,1,0,0:0:0:0:
224,128,110138,1,0,0:0:0:0:
224,128,110221,1,8,0:0:0:0:
256,64,110263,1,8,0:0:0:0:
256,160,110305,1,0,0:0:0:0:
192,32,110346,1,0,0:0:0:0:
224,160,110388,1,8,0:0:0:0:
224,160,110471,1,8,0:0:0:0:
224,160,110554,1,0,0:0:0:0:
192,128,110638,1,0,0:0:0:0:
224,64,110679,1,0,0:0:0:0:
192,128,110721,1,8,0:0:0:0:
192,128,110804,1,8,0:0:0:0:
192,128,110888,1,4,0:0:0:0:
160,96,111054,1,0,0:0:0:0:
192,128,111137,1,0,0:0:0:0:
192,96,111221,1,4,0:0:0:0:
224,32,111304,1,0,0:0:0:0:
192,192,111387,1,8,0:0:0:0:
224,32,111429,1,8,0:0:0:0:
192,160,111470,1,0,0:0:0:0:
192,160,111554,1,8,0:0:0:0:
224,0,111637,1,0,0:0:0:0:
192,128,111720,1,8,0:0:0:0:
256,64,111762,1,8,0:0:0:0:
192,128,111804,1,0,0:0:0:0:
192,128,111887,1,0,0:0:0:0:
192,128,111970,1,8,0:0:0:0:
192,128,112053,1,8,0:0:0:0:
192,32,112095,1,0,0:0:0:0:
256,96,112137,1,0,0:0:0:0:
224,64,112178,1,0,0:0:0:0:
256,128,112220,1,0,0:0:0:0:
224,96,112303,1,8,0:0:0:0:
224,96,112386,1,0,0:0:0:0:
256,32,112428,1,0,0:0:0:0:
224,96,112470,1,0,0:0:0:0:
256,32,112511,1,0,0:0:0:0:
224,96,112553,1,8,0:0:0:0:
224,96,112636,1,0,0:0:0:0:
192,96,112720,1,8,0:0:0:0:
192,96,112803,1,8,0:0:0:0:
256,64,112844,1,8,0:0:0:0:
192,96,112886,1,0,0:0:0:0:
288,96,112969,1,0,0:0:0:0:
288,128,113053,1,8,0:0:0:0:
320,96,113136,1,8,0:0:0:0:
224,64,113178,1,8,0:0:0:0:
320,96,113219,1,0,0:0:0:0:
256,64,113302,1,0,0:0:0:0:
320,64,113386,1,8,0:0:0:0:
320,64,113469,1,8,0:0:0:0:
320,64,113552,1,4,0:0:0:0:
256,96,113635,1,0,0:0:0:0:
160,96,113677,1,0,0:0:0:0:
256,96,113719,1,0,0:0:0:0:
256,64,113802,1,0,0:0:0:0:
224,64,113885,1,8,0:0:0:0:
256,32,113969,1,0,0:0:0:0:
256,32,114052,1,8,0:0:0:0:
64,128,114093,1,8,0:0:0:0:
256,32,114135,1,8,0:0:0:0:
256,32,114218,1,4,0:0:0:0:
192,64,114302,1,0,0:0:0:0:
224,64,114385,1,8,0:0:0:0:
224,32,114468,1,0,0:0:0:0:
256,128,114551,1,8,0:0:0:0:
192,0,114593,1,0,0:0:0:0:
256,96,114635,1,0,0:0:0:0:
288,96,114676,1,0,0:0:0:0:
256,96,114718,1,0,0:0:0:0:
160,128,114885,1,4,0:0:0:0:
224,32,114968,1,0,0:0:0:0:
256,96,115009,1,0,0:0:0:0:
224,32,115051,1,0,0:0:0:0:
224,32,115134,1,0,0:0:0:0:
192,96,115218,1,4,0:0:0:0:
224,32,115301,1,0,0:0:0:0:
256,64,115343,1,0,0:0:0:0:
224,32,115384,1,0,0:0:0:0:
224,32,115467,1,8,0:0:0:0:
224,64,115551,1,4,0:0:0:0:
224,32,115634,1,0,0:0:0:0:
160,128,115676,1,0,0:0:0:0:
224,32,115717,1,0,0:0:0:0:
224,32,115801,1,0,0:0:0:0:
256,96,115884,1,8,0:0:0:0:
256,96,115925,1,8,0:0:0:0:
256,96,115967,1,8,0:0:0:0:
256,96,116009,1,8,0:0:0:0:
256,96,116050,1,8,0:0:0:0:
256,96,116092,1,8,0:0:0:0:
256,96,116134,1,8,0:0:0:0:
256,96,116175,1,8,0:0:0:0:
288,128,116217,1,4,0:0:0:0:
320,128,116883,1,4,0:0:0:0:
320,128,117216,1,8,0:0:0:0:
320,128,117299,1,8,0:0:0:0:
320,128,117383,1,8,0:0:0:0:
256,224,117549,1,0,0:0:0:0:
224,160,117591,1,0,0:0:0:0:
224,160,117632,1,0,0:0:0:0:
224,160,117674,1,0,0:0:0:0:
288,128,117716,1,8,0:0:0:0:
224,160,117799,1,0,0:0:0:0:
288,128,117882,1,8,0:0:0:0:
288,128,117924,1,8,0:0:0:0:
224,128,117966,1,0,0:0:0:0:
224,128,118007,1,0,0:0:0:0:
288,128,118049,1,8,0:0:0:0:
128,128,118090,1,8,0:0:0:0:
256,128,118132,1,0,0:0:0:0:
192,160,118215,1,8,0:0:0:0:
288,64,118299,1,0,0:0:0:0:
256,96,118382,1,8,0:0:0:0:
256,96,118424,1,8,0:0:0:0:
224,160,118465,1,8,0:0:0:0:
128,128,118507,1,8,0:0:0:0:
320,96,118548,1,0,0:0:0:0:
224,160,118590,1,0,0:0:0:0:
224,160,118632,1,0,0:0:0:0:
224,160,118673,1,0,0:0:0:0:
384,96,118715,1,8,0:0:0:0:
192,96,118798,1,8,0:0:0:0:
384,96,118882,1,0,0:0:0:0:
192,128,118923,1,0,0:0:0:0:
192,128,118965,1,0,0:0:0:0:
192,128,119006,1,0,0:0:0:0:
256,128,119048,1,8,0:0:0:0:
224,96,119131,1,0,0:0:0:0:
256,128,119173,1,0,0:0:0:0:
256,128,119215,1,8,0:0:0:0:
256,64,119298,1,8,0:0:0:0:
288,32,119381,1,8,0:0:0:0:
288,32,119423,1,8,0:0:0:0:
288,32,119464,1,8,0:0:0:0:
288,32,119506,1,8,0:0:0:0:
224,64,119548,1,0,0:0:0:0:
288,192,119631,1,0,0:0:0:0:
288,192,119714,1,8,0:0:0:0:
320,160,119756,1,8,0:0:0:0:
320,160,119798,1,0,0:0:0:0:
288,128,119881,1,8,0:0:0:0:
288,128,119922,1,8,0:0:0:0:
288,128,119964,1,8,0:0:0:0:
288,128,120006,1,8,0:0:0:0:
288,128,120047,1,8,0:0:0:0:
288,128,120089,1,8,0:0:0:0:
288,128,120131,1,8,0:0:0:0:
288,128,120172,1,8,0:0:0:0:
288,128,120214,1,0,0:0:0:0:
256,96,120297,1,8,0:0:0:0:
256,96,120380,1,0,0:0:0:0:
320,128,120422,1,0,0:0:0:0:
256,96,120464,1,0,0:0:0:0:
192,64,120505,1,0,0:0:0:0:
256,96,120547,1,8,0:0:0:0:
224,128,120630,1,0,0:0:0:0:
224,128,120714,1,8,0:0:0:0:
128,128,120755,1,0,0:0:0:0:
224,128,120797,1,8,0:0:0:0:
224,128,120838,1,8,0:0:0:0:
224,128,120880,1,0,0:0:0:0:
288,128,120963,1,8,0:0:0:0:
320,160,121047,1,0,0:0:0:0:
320,160,121130,1,0,0:0:0:0:
320,160,121172,1,0,0:0:0:0:
320,160,121213,1,8,0:0:0:0:
192,96,121255,1,0,0:0:0:0:
224,160,121296,1,0,0:0:0:0:
192,128,121338,1,0,0:0:0:0:
224,160,121380,1,8,0:0:0:0:
224,96,121463,1,0,0:0:0:0:
32,128,121546,1,8,0:0:0:0:
224,128,121588,1,8,0:0:0:0:
256,128,121630,1,0,0:0:0:0:
256,128,121713,1,8,0:0:0:0:
256,128,121796,1,0,0:0:0:0:
224,128,121838,1,0,0:0:0:0:
224,128,121879,1,8,0:0:0:0:
192,160,121963,1,0,0:0:0:0:
192,160,122046,1,8,0:0:0:0:
192,160,122087,1,8,0:0:0:0:
192,160,122129,1,0,0:0:0:0:
352,160,122171,1,0,0:0:0:0:
352,160,122212,1,8,0:0:0:0:
352,160,122296,1,0,0:0:0:0:
224,160,122379,1,8,0:0:0:0:
224,160,122421,1,8,0:0:0:0:
224,160,122462,1,8,0:0:0:0:
224,160,122504,1,8,0:0:0:0:
224,160,122545,1,0,0:0:0:0:
256,64,122587,1,0,0:0:0:0:
256,64,122629,1,8,0:0:0:0:
256,64,122670,1,0,0:0:0:0:
320,96,122712,1,0,0:0:0:0:
288,96,122754,1,0,0:0:0:0:
288,128,122795,1,8,0:0:0:0:
320,128,122879,1,0,0:0:0:0:
288,128,122962,1,8,0:0:0:0:
288,128,123003,1,8,0:0:0:0:
288,128,123045,1,0,0:0:0:0:
288,64,123128,1,8,0:0:0:0:
288,64,123212,1,0,0:0:0:0:
256,64,123253,1,0,0:0:0:0:
224,64,123295,1,8,0:0:0:0:
256,64,123378,1,0,0:0:0:0:
256,64,123420,1,0,0:0:0:0:
256,64,123461,1,8,0:0:0:0:
256,64,123503,1,8,0:0:0:0:
256,64,123545,1,0,0:0:0:0:
224,96,123628,1,0,0:0:0:0:
224,64,123711,1,8,0:0:0:0:
224,64,123753,1,0,0:0:0:0:
224,64,123795,1,0,0:0:0:0:
224,64,123836,1,0,0:0:0:0:
224,64,123878,1,8,0:0:0:0:
192,32,123919,1,8,0:0:0:0:
192,32,123961,1,8,0:0:0:0:
192,32,124003,1,8,0:0:0:0:
192,64,124044,1,0,0:0:0:0:
224,32,124086,1,0,0:0:0:0:
224,32,124128,1,0,0:0:0:0:
192,128,124211,1,0,0:0:0:0:
224,128,124294,1,8,0:0:0:0:
224,128,124336,1,0,0:0:0:0:
224,128,124377,1,0,0:0:0:0:
256,160,124419,1,0,0:0:0:0:
256,160,124461,1,8,0:0:0:0:
256,128,124544,1,0,0:0:0:0:
256,160,124627,1,8,0:0:0:0:
256,160,124669,1,8,0:0:0:0:
256,160,124711,1,0,0:0:0:0:
256,160,124794,1,0,0:0:0:0:
192,96,124877,1,8,0:0:0:0:
256,96,124919,1,8,0:0:0:0:
192,96,124960,1,8,0:0:0:0:
192,96,125044,1,0,0:0:0:0:
192,96,125127,1,8,0:0:0:0:
224,128,125169,1,8,0:0:0:0:
224,128,125210,1,8,0:0:0:0:
224,128,125252,1,8,0:0:0:0:
224,128,125293,1,8,0:0:0:0:
224,128,125335,1,8,0:0:0:0:
224,128,125377,1,8,0:0:0:0:
224,128,125418,1,8,0:0:0:0:
224,128,125460,1,8,0:0:0:0:
224,128,125502,1,8,0:0:0:0:
192,32,125543,1,0,0:0:0:0:
256,192,125627,1,8,0:0:0:0:
256,192,125710,1,0,0:0:0:0:
256,192,125793,1,0,0:0:0:0:
224,64,125835,1,0,0:0:0:0:
256,192,125876,1,8,0:0:0:0:
256,64,125960,1,0,0:0:0:0:
288,160,126043,1,8,0:0:0:0:
256,64,126084,1,0,0:0:0:0:
288,160,126126,1,8,0:0:0:0:
224,32,126168,1,8,0:0:0:0:
288,160,126209,1,0,0:0:0:0:
256,192,126293,1,0,0:0:0:0:
256,192,126376,1,8,0:0:0:0:
256,128,126418,1,8,0:0:0:0:
224,160,126459,1,0,0:0:0:0:
288,160,126542,1,0,0:0:0:0:
128,128,126584,1,0,0:0:0:0:
288,160,126626,1,0,0:0:0:0:
160,128,126667,1,0,0:0:0:0:
288,160,126709,1,8,0:0:0:0:
256,128,126792,1,0,0:0:0:0:
256,128,126876,1,8,0:0:0:0:
128,96,126917,1,8,0:0:0:0:
384,128,126959,1,8,0:0:0:0:
192,64,127000,1,8,0:0:0:0:
384,128,127042,1,0,0:0:0:0:
192,64,127084,1,0,0:0:0:0:
384,128,127125,1,0,0:0:0:0:
192,96,127167,1,0,0:0:0:0:
384,128,127209,1,8,0:0:0:0:
384,128,127292,1,0,0:0:0:0:
384,128,127375,1,8,0:0:0:0:
224,128,127417,1,8,0:0:0:0:
384,128,127458,1,8,0:0:0:0:
224,128,127500,1,8,0:0:0:0:
384,128,127542,1,0,0:0:0:0:
224,128,127583,1,0,0:0:0:0:
224,96,127625,1,8,0:0:0:0:
192,96,127667,1,8,0:0:0:0:
224,128,127708,1,0,0:0:0:0:
224,128,127750,1,0,0:0:0:0:
224,128,127792,1,0,0:0:0:0:
224,128,127833,1,0,0:0:0:0:
224,96,127875,1,8,0:0:0:0:
288,96,127916,1,8,0:0:0:0:
256,96,127958,1,8,0:0:0:0:
256,64,128000,1,8,0:0:0:0:
256,64,128041,1,8,0:0:0:0:
224,96,128208,1,0,0:0:0:0:
288,96,128250,1,0,0:0:0:0:
288,96,128291,1,0,0:0:0:0:
256,64,128374,1,0,0:0:0:0:
256,64,128458,1,0,0:0:0:0:
224,64,128499,1,0,0:0:0:0:
256,64,128541,1,8,0:0:0:0:
224,96,128583,1,0,0:0:0:0:
224,96,128624,1,0,0:0:0:0:
256,96,128666,1,0,0:0:0:0:
256,64,128708,1,8,0:0:0:0:
224,64,128791,1,8,0:0:0:0:
224,64,128832,1,8,0:0:0:0:
224,64,128874,1,0,0:0:0:0:
224,96,128957,1,8,0:0:0:0:
256,96,129041,1,0,0:0:0:0:
256,64,129082,1,0,0:0:0:0:
256,64,129124,1,0,0:0:0:0:
256,64,129166,1,0,0:0:0:0:
256,64,129207,1,8,0:0:0:0:
256,64,129249,1,8,0:0:0:0:
256,64,129290,1,8,0:0:0:0:
256,64,129332,1,8,0:0:0:0:
256,64,129374,1,0,0:0:0:0:
224,32,129415,1,0,0:0:0:0:
192,32,129457,1,0,0:0:0:0:
192,32,129540,1,0,0:0:0:0:
224,32,129582,1,0,0:0:0:0:
224,32,129624,1,0,0:0:0:0:
224,32,129707,1,0,0:0:0:0:
224,32,129790,1,0,0:0:0:0:
160,96,129832,1,0,0:0:0:0:
224,32,129873,1,8,0:0:0:0:
160,96,129957,1,8,0:0:0:0:
160,96,129998,1,8,0:0:0:0:
160,96,130040,1,0,0:0:0:0:
160,96,130123,1,0,0:0:0:0:
160,64,130206,1,8,0:0:0:0:
192,64,130248,1,8,0:0:0:0:
192,64,130290,1,8,0:0:0:0:
192,64,130331,1,8,0:0:0:0:
192,64,130373,1,0,0:0:0:0:
160,32,130456,1,0,0:0:0:0:
192,32,130498,1,0,0:0:0:0:
224,64,130539,1,8,0:0:0:0:
224,32,130581,1,8,0:0:0:0:
224,32,130623,1,8,0:0:0:0:
224,32,130664,1,8,0:0:0:0:
224,32,130706,1,8,0:0:0:0:
224,32,130748,1,8,0:0:0:0:
224,32,130789,1,8,0:0:0:0:
224,32,130831,1,8,0:0:0:0:
192,32,130873,1,0,0:0:0:0:
160,32,130956,1,0,0:0:0:0:
160,32,130997,1,0,0:0:0:0:
224,0,131039,1,0,0:0:0:0:
224,32,131122,1,0,0:0:0:0:
224,32,131206,1,8,0:0:0:0:
160,64,131247,1,0,0:0:0:0:
192,96,131289,1,8,0:0:0:0:
160,64,131331,1,8,0:0:0:0:
160,64,131372,1,0,0:0:0:0:
192,32,131455,1,8,0:0:0:0:
192,32,131539,1,0,0:0:0:0:
160,32,131580,1,0,0:0:0:0:
160,32,131622,1,0,0:0:0:0:
160,32,131664,1,0,0:0:0:0:
160,32,131705,1,8,0:0:0:0:
256,64,131747,1,8,0:0:0:0:
256,64,131789,1,8,0:0:0:0:
256,64,131830,1,8,0:0:0:0:
256,96,131872,1,0,0:0:0:0:
256,96,131913,1,0,0:0:0:0:
256,96,131955,1,0,0:0:0:0:
256,96,131997,1,0,0:0:0:0:
256,96,132038,1,8,0:0:0:0:
224,128,132122,1,8,0:0:0:0:
256,128,132205,1,0,0:0:0:0:
96,96,132247,1,0,0:0:0:0:
288,160,132288,1,8,0:0:0:0:
288,160,132330,1,8,0:0:0:0:
288,160,132371,1,0,0:0:0:0:
320,128,132455,1,8,0:0:0:0:
320,128,132538,1,0,0:0:0:0:
320,128,132580,1,0,0:0:0:0:
320,128,132621,1,8,0:0:0:0:
320,128,132705,1,0,0:0:0:0:
320,128,132788,1,8,0:0:0:0:
320,128,132829,1,8,0:0:0:0:
320,128,132871,1,0,0:0:0:0:
320,128,132954,1,8,0:0:0:0:
320,128,132996,1,8,0:0:0:0:
288,160,133038,1,0,0:0:0:0:
288,160,133079,1,0,0:0:0:0:
288,128,133121,1,8,0:0:0:0:
128,128,133204,1,8,0:0:0:0:
192,64,133246,1,0,0:0:0:0:
160,96,133287,1,0,0:0:0:0:
160,96,133329,1,0,0:0:0:0:
160,96,133371,1,8,0:0:0:0:
160,96,133454,1,8,0:0:0:0:
192,96,133537,1,0,0:0:0:0:
128,96,133579,1,0,0:0:0:0:
160,64,133621,1,0,0:0:0:0:
128,64,133662,1,0,0:0:0:0:
128,64,133704,1,8,0:0:0:0:
192,160,133787,1,0,0:0:0:0:
192,160,133870,1,8,0:0:0:0:
224,128,133912,1,8,0:0:0:0:
192,128,133954,1,0,0:0:0:0:
224,96,133995,1,0,0:0:0:0:
224,96,134037,1,8,0:0:0:0:
224,96,134120,1,8,0:0:0:0:
224,96,134203,1,0,0:0:0:0:
224,96,134245,1,0,0:0:0:0:
224,96,134287,1,0,0:0:0:0:
224,96,134328,1,0,0:0:0:0:
224,96,134370,1,8,0:0:0:0:
224,96,134453,1,0,0:0:0:0:
128,128,134495,1,0,0:0:0:0:
320,96,134536,1,0,0:0:0:0:
224,96,134578,1,0,0:0:0:0:
224,96,134620,1,8,0:0:0:0:
224,96,134661,1,8,0:0:0:0:
224,96,134703,1,0,0:0:0:0:
224,64,134786,1,0,0:0:0:0:
224,64,134870,1,0,0:0:0:0:
224,96,134953,1,8,0:0:0:0:
224,96,134994,1,8,0:0:0:0:
256,64,135036,1,0,0:0:0:0:
224,64,135119,1,8,0:0:0:0:
288,128,135203,1,0,0:0:0:0:
288,128,135244,1,0,0:0:0:0:
288,128,135286,1,8,0:0:0:0:
288,96,135328,1,8,0:0:0:0:
256,96,135369,1,0,0:0:0:0:
256,96,135452,1,8,0:0:0:0:
256,96,135536,1,0,0:0:0:0:
256,96,135577,1,0,0:0:0:0:
256,96,135619,1,8,0:0:0:0:
256,96,135661,1,0,0:0:0:0:
256,32,135702,1,0,0:0:0:0:
256,32,135786,1,0,0:0:0:0:
192,64,135827,1,0,0:0:0:0:
288,128,135869,1,8,0:0:0:0:
288,128,135910,1,8,0:0:0:0:
288,128,135952,1,8,0:0:0:0:
288,128,135994,1,8,0:0:0:0:
288,128,136035,1,8,0:0:0:0:
288,128,136077,1,8,0:0:0:0:
288,128,136119,1,8,0:0:0:0:
288,128,136160,1,8,0:0:0:0:
288,128,136202,1,0,0:0:0:0:
224,160,136285,1,8,0:0:0:0:
224,128,136327,1,8,0:0:0:0:
224,128,136368,1,0,0:0:0:0:
224,128,136452,1,8,0:0:0:0:
224,128,136493,1,8,0:0:0:0:
224,128,136535,1,0,0:0:0:0:
192,96,136618,1,8,0:0:0:0:
224,64,136660,1,0,0:0:0:0:
224,64,136702,1,0,0:0:0:0:
224,64,136743,1,0,0:0:0:0:
256,32,136785,1,0,0:0:0:0:
224,32,136826,1,0,0:0:0:0:
224,32,136868,1,8,0:0:0:0:
160,32,136951,1,0,0:0:0:0:
160,32,137035,1,8,0:0:0:0:
224,96,137076,1,0,0:0:0:0:
224,96,137118,1,0,0:0:0:0:
224,96,137201,1,8,0:0:0:0:
224,96,137243,1,8,0:0:0:0:
224,96,137284,1,0,0:0:0:0:
224,64,137326,1,0,0:0:0:0:
224,64,137368,1,0,0:0:0:0:
224,64,137409,1,0,0:0:0:0:
224,64,137451,1,0,0:0:0:0:
224,64,137493,1,0,0:0:0:0:
224,32,137534,1,8,0:0:0:0:
224,64,137618,1,8,0:0:0:0:
224,128,137659,1,8,0:0:0:0:
224,32,137701,1,0,0:0:0:0:
256,128,137742,1,0,0:0:0:0:
224,32,137784,1,8,0:0:0:0:
224,32,137867,1,8,0:0:0:0:
224,160,137909,1,0,0:0:0:0:
224,32,137951,1,8,0:0:0:0:
224,160,137992,1,8,0:0:0:0:
224,32,138034,1,0,0:0:0:0:
224,160,138076,1,8,0:0:0:0:
224,32,138117,1,0,0:0:0:0:
192,160,138159,1,0,0:0:0:0:
224,32,138200,1,8,0:0:0:0:
192,128,138242,1,8,0:0:0:0:
256,192,138284,1,0,0:0:0:0:
192,128,138325,1,0,0:0:0:0:
192,96,138367,1,8,0:0:0:0:
288,128,138409,1,8,0:0:0:0:
288,128,138450,1,0,0:0:0:0:
288,128,138492,1,0,0:0:0:0:
224,32,138533,1,8,0:0:0:0:
288,160,138575,1,8,0:0:0:0:
288,160,138617,1,8,0:0:0:0:
288,160,138658,1,8,0:0:0:0:
288,160,138700,1,8,0:0:0:0:
288,160,138742,1,8,0:0:0:0:
288,160,138783,1,8,0:0:0:0:
288,160,138825,1,8,0:0:0:0:
256,192,138867,12,0,140199,0:0:0:0:
