osu file format v14

[General]
AudioFilename: audio.mp3
AudioLeadIn: 0
PreviewTime: 6632
Countdown: 0
SampleSet: Normal
StackLeniency: 0.7
Mode: 1
LetterboxInBreaks: 0
WidescreenStoryboard: 1

[Editor]
Bookmarks: 6966,18957,26277,61591,62882,73582,84283,105558
DistanceSpacing: 0.5
BeatDivisor: 2
GridSize: 32
TimelineZoom: 2.5

[Metadata]
Title:The Big Black
TitleUnicode:The Big Black
Artist:The Quick Brown Fox
ArtistUnicode:The Quick Brown Fox
Creator:Shirai-
Version:Muzukashii
Source:
Tags:speedcore Renard Lapfox
BeatmapID:1307606
BeatmapSetID:620416

[Difficulty]
HPDrainRate:4
CircleSize:5
OverallDifficulty:7
ApproachRate:5
SliderMultiplier:1.40000000596046
SliderTickRate:1

[Events]
//Background and Video events
0,0,"whosafraidoffirce.jpg",0,0
//Break Periods
//Storyboard Layer 0 (Background)
//Storyboard Layer 1 (Fail)
//Storyboard Layer 2 (Pass)
//Storyboard Layer 3 (Foreground)
//Storyboard Sound Samples

[TimingPoints]
6966,166.541760346407,4,1,0,100,1,0
6966,-200,4,1,0,100,0,0
18957,-188.679245283019,4,1,0,100,0,1
40274,-200,4,1,0,100,0,0
117549,-200,4,1,0,100,0,1
138867,-200,4,1,0,100,0,0

[Colours]
Combo1 : 48,176,192
Combo2 : 248,72,40

[HitObjects]
288,160,6966,5,4,0:0:0:0:
288,192,7132,1,0,0:0:0:0:
288,192,7215,1,0,0:0:0:0:
288,192,7299,1,8,0:0:0:0:
192,96,7382,1,0,0:0:0:0:
224,160,7465,1,8,0:0:0:0:
224,160,7548,1,8,0:0:0:0:
224,160,7632,1,8,0:0:0:0:
288,160,7798,1,8,0:0:0:0:
224,256,7965,1,0,0:0:0:0:
256,256,8048,1,0,0:0:0:0:
256,256,8131,1,0,0:0:0:0:
256,160,8298,1,8,0:0:0:0:
256,288,8464,1,8,0:0:0:0:
256,288,8548,1,0,0:0:0:0:
256,288,8631,1,8,0:0:0:0:
256,288,8714,1,8,0:0:0:0:
256,288,8797,1,0,0:0:0:0:
256,256,8881,1,0,0:0:0:0:
256,256,8964,1,8,0:0:0:0:
160,128,9131,1,0,0:0:0:0:
160,128,9214,1,0,0:0:0:0:
160,128,9297,1,8,0:0:0:0:
160,128,9464,1,8,0:0:0:0:
160,128,9630,1,0,0:0:0:0:
160,96,9713,1,0,0:0:0:0:
160,96,9797,1,8,0:0:0:0:
160,96,9880,1,0,0:0:0:0:
160,96,9963,1,8,0:0:0:0:
160,96,10047,1,8,0:0:0:0:
160,96,10130,1,8,0:0:0:0:
192,128,10296,1,0,0:0:0:0:
224,160,10463,1,8,0:0:0:0:
224,160,10546,1,8,0:0:0:0:
224,160,10629,1,0,0:0:0:0:
224,128,10796,1,8,0:0:0:0:
224,160,10963,1,0,0:0:0:0:
224,160,11046,1,0,0:0:0:0:
224,96,11129,1,8,0:0:0:0:
224,96,11212,1,0,0:0:0:0:
224,96,11296,1,8,0:0:0:0:
224,96,11379,1,0,0:0:0:0:
224,96,11462,1,0,0:0:0:0:
224,96,11545,1,8,0:0:0:0:
192,96,11629,1,8,0:0:0:0:
192,96,11712,1,0,0:0:0:0:
192,96,11795,1,0,0:0:0:0:
192,96,11878,1,8,0:0:0:0:
192,96,11962,1,0,0:0:0:0:
192,96,12045,1,0,0:0:0:0:
192,96,12128,1,8,0:0:0:0:
224,160,12295,1,4,0:0:0:0:
224,160,12628,1,4,0:0:0:0:
192,128,12794,1,0,0:0:0:0:
192,128,12878,1,8,0:0:0:0:
192,128,12961,1,0,0:0:0:0:
192,128,13128,1,8,0:0:0:0:
256,128,13294,1,0,0:0:0:0:
256,128,13461,1,8,0:0:0:0:
224,64,13544,1,0,0:0:0:0:
224,64,13627,1,8,0:0:0:0:
256,96,13710,1,8,0:0:0:0:
256,96,13794,1,0,0:0:0:0:
256,160,13877,1,0,0:0:0:0:
224,160,13960,1,8,0:0:0:0:
256,96,14127,1,8,0:0:0:0:
256,96,14210,1,8,0:0:0:0:
256,96,14293,1,8,0:0:0:0:
224,64,14460,1,0,0:0:0:0:
224,64,14543,1,0,0:0:0:0:
224,64,14626,1,8,0:0:0:0:
224,64,14793,1,8,0:0:0:0:
192,128,14960,1,4,0:0:0:0:
128,96,15126,1,0,0:0:0:0:
128,96,15209,1,0,0:0:0:0:
128,96,15293,1,8,0:0:0:0:
192,64,15459,1,8,0:0:0:0:
224,160,15626,1,4,0:0:0:0:
224,96,15792,1,8,0:0:0:0:
224,96,15875,1,8,0:0:0:0:
224,96,15959,1,0,0:0:0:0:
192,128,16125,1,8,0:0:0:0:
256,160,16292,1,4,0:0:0:0:
224,128,16458,1,8,0:0:0:0:
352,64,16625,1,4,0:0:0:0:
224,128,16791,1,8,0:0:0:0:
288,128,16958,1,0,0:0:0:0:
352,64,17041,1,0,0:0:0:0:
352,64,17125,1,0,0:0:0:0:
352,64,17208,1,0,0:0:0:0:
352,64,17291,1,0,0:0:0:0:
352,64,17374,1,0,0:0:0:0:
352,64,17458,1,0,0:0:0:0:
256,64,17541,1,0,0:0:0:0:
352,224,17624,1,4,0:0:0:0:
224,192,18290,1,0,0:0:0:0:
256,192,18623,1,8,0:0:0:0:
128,160,18707,1,8,0:0:0:0:
128,160,18790,1,8,0:0:0:0:
288,160,18957,1,0,0:0:0:0:
288,160,19040,1,0,0:0:0:0:
288,160,19123,1,8,0:0:0:0:
288,160,19206,1,0,0:0:0:0:
288,160,19290,1,8,0:0:0:0:
288,160,19373,1,0,0:0:0:0:
288,160,19456,1,8,0:0:0:0:
288,160,19539,1,8,0:0:0:0:
288,160,19623,1,8,0:0:0:0:
192,96,19706,1,0,0:0:0:0:
192,96,19789,1,8,0:0:0:0:
192,96,19872,1,0,0:0:0:0:
256,96,19956,1,8,0:0:0:0:
288,32,20011,1,8,0:0:0:0:
288,32,20067,1,8,0:0:0:0:
288,32,20122,1,8,0:0:0:0:
224,32,20206,1,8,0:0:0:0:
256,64,20289,1,0,0:0:0:0:
288,128,20372,1,0,0:0:0:0:
288,128,20455,1,8,0:0:0:0:
288,128,20539,1,0,0:0:0:0:
288,128,20622,1,8,0:0:0:0:
288,128,20705,1,8,0:0:0:0:
320,128,20788,1,0,0:0:0:0:
320,128,20872,1,8,0:0:0:0:
320,128,20955,1,0,0:0:0:0:
192,96,21038,1,0,0:0:0:0:
320,96,21122,1,8,0:0:0:0:
320,96,21205,1,0,0:0:0:0:
224,128,21288,1,8,0:0:0:0:
320,96,21344,1,8,0:0:0:0:
320,96,21399,1,8,0:0:0:0:
320,96,21455,1,8,0:0:0:0:
256,64,21538,1,0,0:0:0:0:
256,64,21621,1,0,0:0:0:0:
352,128,21704,1,0,0:0:0:0:
352,128,21788,1,8,0:0:0:0:
352,128,21871,1,0,0:0:0:0:
352,128,21954,1,8,0:0:0:0:
352,128,22038,1,8,0:0:0:0:
352,128,22121,1,8,0:0:0:0:
352,128,22204,1,0,0:0:0:0:
320,128,22287,1,8,0:0:0:0:
384,128,22371,1,8,0:0:0:0:
384,128,22454,1,0,0:0:0:0:
384,64,22537,1,8,0:0:0:0:
352,64,22620,1,0,0:0:0:0:
352,64,22704,1,0,0:0:0:0:
384,192,22787,1,8,0:0:0:0:
64,128,22842,1,8,0:0:0:0:
96,160,22898,1,8,0:0:0:0:
224,128,22954,1,0,0:0:0:0:
288,128,23037,1,0,0:0:0:0:
224,128,23120,1,8,0:0:0:0:
64,160,23176,1,8,0:0:0:0:
160,96,23231,1,0,0:0:0:0:
96,128,23287,1,8,0:0:0:0:
128,128,23370,1,0,0:0:0:0:
288,96,23453,1,0,0:0:0:0:
192,96,23509,1,0,0:0:0:0:
224,128,23564,1,0,0:0:0:0:
288,96,23620,1,8,0:0:0:0:
288,128,23703,1,8,0:0:0:0:
256,96,23786,1,0,0:0:0:0:
288,64,23869,1,0,0:0:0:0:
96,160,23953,1,0,0:0:0:0:
288,128,24036,1,0,0:0:0:0:
288,128,24119,1,8,0:0:0:0:
288,128,24203,1,8,0:0:0:0:
288,128,24286,1,0,0:0:0:0:
128,160,24369,1,0,0:0:0:0:
224,160,24452,1,8,0:0:0:0:
224,160,24536,1,8,0:0:0:0:
224,160,24619,1,0,0:0:0:0:
224,160,24702,1,8,0:0:0:0:
224,160,24785,1,0,0:0:0:0:
224,160,24869,1,0,0:0:0:0:
192,160,24952,1,8,0:0:0:0:
192,96,25008,1,8,0:0:0:0:
192,96,25063,1,8,0:0:0:0:
192,160,25119,1,0,0:0:0:0:
128,160,25202,1,0,0:0:0:0:
128,160,25285,1,8,0:0:0:0:
192,96,25341,1,8,0:0:0:0:
192,96,25396,1,8,0:0:0:0:
128,160,25452,1,0,0:0:0:0:
160,128,25535,1,0,0:0:0:0:
160,128,25618,1,0,0:0:0:0:
160,160,25701,1,0,0:0:0:0:
160,128,25785,1,8,0:0:0:0:
160,128,25868,1,8,0:0:0:0:
160,128,25951,1,0,0:0:0:0:
160,128,26035,1,8,0:0:0:0:
256,128,26118,1,0,0:0:0:0:
256,128,26201,1,0,0:0:0:0:
256,128,26284,1,8,0:0:0:0:
320,96,26340,1,8,0:0:0:0:
224,128,26395,1,8,0:0:0:0:
192,96,26451,1,0,0:0:0:0:
192,96,26534,1,0,0:0:0:0:
160,128,26617,1,8,0:0:0:0:
160,128,26673,1,8,0:0:0:0:
192,96,26728,1,8,0:0:0:0:
192,96,26784,1,8,0:0:0:0:
192,96,26839,1,8,0:0:0:0:
192,96,26895,1,8,0:0:0:0:
192,96,26951,1,0,0:0:0:0:
192,160,27034,1,0,0:0:0:0:
192,160,27117,1,8,0:0:0:0:
224,160,27200,1,0,0:0:0:0:
224,160,27284,1,8,0:0:0:0:
224,160,27367,1,8,0:0:0:0:
224,160,27450,1,0,0:0:0:0:
224,160,27533,1,8,0:0:0:0:
224,160,27617,1,0,0:0:0:0:
224,160,27700,1,0,0:0:0:0:
224,160,27783,1,8,0:0:0:0:
256,160,27866,1,0,0:0:0:0:
256,160,27950,1,8,0:0:0:0:
256,160,28005,1,8,0:0:0:0:
192,128,28061,1,8,0:0:0:0:
256,160,28116,1,0,0:0:0:0:
256,160,28200,1,8,0:0:0:0:
256,160,28283,1,0,0:0:0:0:
320,160,28338,1,0,0:0:0:0:
320,160,28394,1,0,0:0:0:0:
288,128,28449,1,8,0:0:0:0:
288,96,28533,1,0,0:0:0:0:
320,128,28616,1,8,0:0:0:0:
320,96,28671,1,0,0:0:0:0:
320,96,28727,1,0,0:0:0:0:
320,128,28782,1,8,0:0:0:0:
320,96,28866,1,0,0:0:0:0:
192,96,28949,1,8,0:0:0:0:
192,96,29005,1,8,0:0:0:0:
256,160,29060,1,8,0:0:0:0:
192,128,29116,1,0,0:0:0:0:
192,128,29171,1,0,0:0:0:0:
192,128,29227,1,0,0:0:0:0:
192,128,29282,1,8,0:0:0:0:
288,160,29615,1,0,0:0:0:0:
288,160,29698,1,0,0:0:0:0:
288,160,29781,1,8,0:0:0:0:
288,160,29864,1,0,0:0:0:0:
288,160,29948,1,8,0:0:0:0:
288,160,30031,1,0,0:0:0:0:
288,160,30114,1,8,0:0:0:0:
288,160,30197,1,8,0:0:0:0:
288,160,30281,1,8,0:0:0:0:
192,96,30364,1,0,0:0:0:0:
192,96,30447,1,8,0:0:0:0:
192,96,30530,1,0,0:0:0:0:
256,96,30614,1,8,0:0:0:0:
288,32,30669,1,8,0:0:0:0:
288,32,30725,1,8,0:0:0:0:
288,32,30780,1,8,0:0:0:0:
224,32,30864,1,8,0:0:0:0:
256,64,30947,1,0,0:0:0:0:
288,128,31030,1,0,0:0:0:0:
288,128,31113,1,8,0:0:0:0:
288,128,31197,1,0,0:0:0:0:
288,128,31280,1,8,0:0:0:0:
288,128,31363,1,0,0:0:0:0:
320,128,31446,1,8,0:0:0:0:
320,128,31530,1,8,0:0:0:0:
320,128,31613,1,0,0:0:0:0:
192,96,31696,1,0,0:0:0:0:
320,96,31780,1,8,0:0:0:0:
320,96,31863,1,0,0:0:0:0:
224,128,31946,1,8,0:0:0:0:
320,96,32002,1,8,0:0:0:0:
320,96,32057,1,8,0:0:0:0:
320,96,32113,1,8,0:0:0:0:
256,64,32196,1,0,0:0:0:0:
256,64,32279,1,8,0:0:0:0:
352,128,32362,1,0,0:0:0:0:
352,128,32446,1,8,0:0:0:0:
352,128,32529,1,0,0:0:0:0:
352,128,32612,1,8,0:0:0:0:
352,128,32696,1,8,0:0:0:0:
352,128,32779,1,8,0:0:0:0:
352,128,32862,1,0,0:0:0:0:
320,128,32945,1,8,0:0:0:0:
384,128,33029,1,8,0:0:0:0:
384,128,33112,1,0,0:0:0:0:
384,64,33195,1,8,0:0:0:0:
352,64,33278,1,0,0:0:0:0:
352,64,33362,1,0,0:0:0:0:
384,192,33445,1,8,0:0:0:0:
64,128,33500,1,8,0:0:0:0:
96,160,33556,1,8,0:0:0:0:
224,128,33612,1,0,0:0:0:0:
288,128,33695,1,0,0:0:0:0:
224,128,33778,1,8,0:0:0:0:
64,160,33834,1,8,0:0:0:0:
160,96,33889,1,0,0:0:0:0:
96,128,33945,1,8,0:0:0:0:
128,128,34028,1,0,0:0:0:0:
288,96,34111,1,0,0:0:0:0:
192,96,34167,1,0,0:0:0:0:
224,128,34222,1,0,0:0:0:0:
288,96,34278,1,8,0:0:0:0:
288,128,34361,1,8,0:0:0:0:
256,96,34444,1,0,0:0:0:0:
288,64,34527,1,0,0:0:0:0:
96,160,34611,1,8,0:0:0:0:
288,128,34694,1,0,0:0:0:0:
288,128,34777,1,8,0:0:0:0:
288,128,34861,1,8,0:0:0:0:
288,128,34944,1,0,0:0:0:0:
128,160,35027,1,0,0:0:0:0:
224,160,35110,1,8,0:0:0:0:
224,160,35194,1,8,0:0:0:0:
224,160,35277,1,0,0:0:0:0:
224,160,35360,1,8,0:0:0:0:
224,160,35443,1,0,0:0:0:0:
224,160,35527,1,0,0:0:0:0:
192,160,35610,1,8,0:0:0:0:
192,96,35666,1,8,0:0:0:0:
192,96,35721,1,8,0:0:0:0:
192,160,35777,1,0,0:0:0:0:
128,160,35860,1,0,0:0:0:0:
128,160,35943,1,8,0:0:0:0:
192,96,35999,1,8,0:0:0:0:
192,96,36054,1,8,0:0:0:0:
128,160,36110,1,0,0:0:0:0:
160,128,36193,1,0,0:0:0:0:
160,128,36276,1,8,0:0:0:0:
160,160,36359,1,0,0:0:0:0:
160,128,36443,1,8,0:0:0:0:
160,128,36526,1,8,0:0:0:0:
160,128,36609,1,0,0:0:0:0:
160,128,36693,1,8,0:0:0:0:
256,128,36776,1,0,0:0:0:0:
256,128,36859,1,0,0:0:0:0:
256,128,36942,1,8,0:0:0:0:
320,96,36998,1,8,0:0:0:0:
224,128,37053,1,8,0:0:0:0:
192,96,37109,1,0,0:0:0:0:
192,96,37192,1,0,0:0:0:0:
160,128,37275,1,8,0:0:0:0:
160,128,37331,1,8,0:0:0:0:
192,96,37386,1,8,0:0:0:0:
192,96,37442,1,8,0:0:0:0:
192,96,37497,1,8,0:0:0:0:
192,96,37553,1,8,0:0:0:0:
192,96,37609,1,0,0:0:0:0:
192,160,37692,1,8,0:0:0:0:
192,160,37775,1,0,0:0:0:0:
224,160,37858,1,8,0:0:0:0:
256,96,37942,1,8,0:0:0:0:
256,96,38026,1,0,0:0:0:0:
192,160,38109,1,8,0:0:0:0:
160,128,38192,1,0,0:0:0:0:
192,160,38275,1,8,0:0:0:0:
320,128,38359,1,0,0:0:0:0:
320,128,38442,1,0,0:0:0:0:
192,128,38525,1,8,0:0:0:0:
352,160,38608,1,0,0:0:0:0:
192,128,38692,1,0,0:0:0:0:
352,160,38775,1,0,0:0:0:0:
192,128,38858,1,8,0:0:0:0:
192,128,38942,1,8,0:0:0:0:
192,128,39025,1,0,0:0:0:0:
320,192,39108,1,8,0:0:0:0:
320,192,39164,1,8,0:0:0:0:
320,192,39219,1,8,0:0:0:0:
288,160,39275,1,0,0:0:0:0:
256,192,39358,1,0,0:0:0:0:
224,160,39441,1,0,0:0:0:0:
224,160,39497,1,0,0:0:0:0:
224,160,39552,1,0,0:0:0:0:
224,160,39608,1,8,0:0:0:0:
288,192,39691,1,0,0:0:0:0:
320,192,39774,1,8,0:0:0:0:
288,192,39830,1,0,0:0:0:0:
288,192,39885,1,0,0:0:0:0:
288,192,39941,1,0,0:0:0:0:
96,160,40274,1,4,0:0:0:0:
224,160,40607,1,0,0:0:0:0:
224,160,41273,1,0,0:0:0:0:
288,128,41939,1,0,0:0:0:0:
480,160,42605,1,0,0:0:0:0:
480,160,43272,1,0,0:0:0:0:
480,160,43938,1,0,0:0:0:0:
288,128,44437,1,0,0:0:0:0:
288,128,44937,1,0,0:0:0:0:
384,96,45270,1,0,0:0:0:0:
288,256,45603,1,0,0:0:0:0:
224,224,45936,1,0,0:0:0:0:
224,224,46103,1,0,0:0:0:0:
224,224,46269,1,0,0:0:0:0:
256,192,46602,1,0,0:0:0:0:
256,192,46769,1,0,0:0:0:0:
256,192,47102,1,0,0:0:0:0:
256,96,47269,1,0,0:0:0:0:
288,96,47435,1,0,0:0:0:0:
288,96,47602,1,0,0:0:0:0:
256,64,47768,1,0,0:0:0:0:
256,64,47852,1,0,0:0:0:0:
256,64,47935,1,8,0:0:0:0:
192,96,48101,1,0,0:0:0:0:
224,96,48268,1,0,0:0:0:0:
224,96,48351,1,0,0:0:0:0:
224,96,48434,1,0,0:0:0:0:
224,96,48518,1,0,0:0:0:0:
224,96,48601,1,8,0:0:0:0:
256,96,48684,1,0,0:0:0:0:
256,96,48767,1,8,0:0:0:0:
256,96,48851,1,0,0:0:0:0:
256,96,48934,1,0,0:0:0:0:
256,96,49017,1,0,0:0:0:0:
416,96,49101,1,0,0:0:0:0:
320,128,49184,1,0,0:0:0:0:
320,128,49267,1,8,0:0:0:0:
224,96,49350,1,0,0:0:0:0:
224,96,49434,1,8,0:0:0:0:
96,128,49517,1,8,0:0:0:0:
224,96,49600,1,0,0:0:0:0:
320,160,49683,1,0,0:0:0:0:
320,160,49767,1,0,0:0:0:0:
224,64,49850,1,0,0:0:0:0:
192,64,49933,1,8,0:0:0:0:
192,64,50017,1,0,0:0:0:0:
224,64,50100,1,8,0:0:0:0:
192,160,50183,1,0,0:0:0:0:
192,160,50266,1,8,0:0:0:0:
256,160,50350,1,8,0:0:0:0:
256,160,50433,1,0,0:0:0:0:
256,160,50516,1,0,0:0:0:0:
224,160,50599,1,8,0:0:0:0:
192,224,50766,1,0,0:0:0:0:
352,160,50933,1,4,0:0:0:0:
256,128,51266,1,4,0:0:0:0:
192,160,51765,1,0,0:0:0:0:
224,192,52265,1,8,0:0:0:0:
96,128,52764,1,8,0:0:0:0:
224,64,52931,1,0,0:0:0:0:
224,64,53014,1,0,0:0:0:0:
224,64,53097,1,8,0:0:0:0:
224,64,53264,1,0,0:0:0:0:
224,96,53430,1,8,0:0:0:0:
224,160,53597,1,0,0:0:0:0:
224,0,53930,1,0,0:0:0:0:
448,128,54430,1,0,0:0:0:0:
320,160,54930,1,8,0:0:0:0:
128,128,55429,1,8,0:0:0:0:
128,128,55596,1,0,0:0:0:0:
128,128,55679,1,0,0:0:0:0:
128,128,55762,1,8,0:0:0:0:
128,128,55929,1,0,0:0:0:0:
128,128,56095,1,0,0:0:0:0:
128,128,56262,1,8,0:0:0:0:
192,96,56595,1,8,0:0:0:0:
288,128,57095,1,8,0:0:0:0:
320,96,57594,1,0,0:0:0:0:
320,96,58094,1,0,0:0:0:0:
64,160,58260,1,0,0:0:0:0:
288,160,58344,1,0,0:0:0:0:
288,160,58427,1,8,0:0:0:0:
288,160,58594,1,8,0:0:0:0:
288,128,58760,1,0,0:0:0:0:
224,160,58927,1,0,0:0:0:0:
224,96,59010,1,0,0:0:0:0:
224,96,59093,1,8,0:0:0:0:
224,96,59176,1,0,0:0:0:0:
224,96,59260,1,8,0:0:0:0:
224,96,59343,1,8,0:0:0:0:
224,96,59426,1,0,0:0:0:0:
224,96,59509,1,8,0:0:0:0:
224,96,59593,1,0,0:0:0:0:
224,96,59676,1,0,0:0:0:0:
224,96,59759,1,8,0:0:0:0:
224,96,59843,1,0,0:0:0:0:
224,96,59926,1,8,0:0:0:0:
224,96,60009,1,8,0:0:0:0:
224,96,60092,1,0,0:0:0:0:
192,32,60176,1,8,0:0:0:0:
192,32,60259,1,0,0:0:0:0:
256,64,60342,1,0,0:0:0:0:
256,64,60425,1,8,0:0:0:0:
256,64,60509,1,0,0:0:0:0:
256,64,60592,1,8,0:0:0:0:
256,64,60675,1,8,0:0:0:0:
256,64,60758,1,0,0:0:0:0:
256,64,60842,1,8,0:0:0:0:
256,64,60925,1,8,0:0:0:0:
192,160,61008,1,0,0:0:0:0:
192,160,61092,1,8,0:0:0:0:
192,160,61175,1,8,0:0:0:0:
192,64,61258,1,0,0:0:0:0:
96,128,61341,1,0,0:0:0:0:
128,128,61425,1,8,0:0:0:0:
288,128,61591,1,4,0:0:0:0:
288,160,62257,1,4,0:0:0:0:
288,128,62590,1,8,0:0:0:0:
288,128,62674,1,8,0:0:0:0:
288,128,62757,1,8,0:0:0:0:
320,160,62924,1,0,0:0:0:0:
320,160,63007,1,8,0:0:0:0:
320,160,63090,1,0,0:0:0:0:
320,160,63173,1,8,0:0:0:0:
320,160,63257,1,0,0:0:0:0:
320,160,63340,1,8,0:0:0:0:
320,160,63423,1,0,0:0:0:0:
320,160,63506,1,8,0:0:0:0:
320,192,63590,1,0,0:0:0:0:
256,192,63673,1,8,0:0:0:0:
256,192,63756,1,0,0:0:0:0:
160,192,63840,1,0,0:0:0:0:
256,192,63923,1,8,0:0:0:0:
160,160,64006,1,8,0:0:0:0:
256,224,64089,1,8,0:0:0:0:
256,224,64173,1,8,0:0:0:0:
256,192,64256,1,0,0:0:0:0:
256,192,64339,1,8,0:0:0:0:
256,192,64422,1,0,0:0:0:0:
256,192,64506,1,8,0:0:0:0:
256,192,64589,1,0,0:0:0:0:
256,192,64672,1,8,0:0:0:0:
256,192,64755,1,0,0:0:0:0:
128,128,64839,1,8,0:0:0:0:
128,128,64922,1,0,0:0:0:0:
192,64,65005,1,8,0:0:0:0:
192,64,65089,1,0,0:0:0:0:
192,64,65172,1,0,0:0:0:0:
224,64,65255,1,8,0:0:0:0:
224,64,65338,1,8,0:0:0:0:
224,64,65422,1,8,0:0:0:0:
224,64,65505,1,8,0:0:0:0:
224,64,65588,1,0,0:0:0:0:
288,128,65671,1,8,0:0:0:0:
288,128,65755,1,0,0:0:0:0:
288,128,65838,1,8,0:0:0:0:
288,128,65921,1,0,0:0:0:0:
288,128,66005,1,8,0:0:0:0:
288,128,66088,1,0,0:0:0:0:
288,128,66171,1,8,0:0:0:0:
224,128,66254,1,0,0:0:0:0:
224,128,66338,1,8,0:0:0:0:
224,128,66421,1,0,0:0:0:0:
224,128,66504,1,0,0:0:0:0:
320,96,66587,1,8,0:0:0:0:
256,96,66671,1,8,0:0:0:0:
320,64,66754,1,0,0:0:0:0:
320,64,66837,1,8,0:0:0:0:
320,32,66921,1,0,0:0:0:0:
320,32,67004,1,0,0:0:0:0:
320,32,67087,1,8,0:0:0:0:
256,160,67143,1,8,0:0:0:0:
256,128,67199,1,8,0:0:0:0:
256,160,67254,1,0,0:0:0:0:
320,128,67338,1,8,0:0:0:0:
256,128,67420,1,0,0:0:0:0:
96,128,67476,1,0,0:0:0:0:
96,128,67532,1,0,0:0:0:0:
288,160,67587,1,8,0:0:0:0:
256,192,67671,1,8,0:0:0:0:
256,128,67753,1,8,0:0:0:0:
192,128,67809,1,8,0:0:0:0:
160,128,67865,1,0,0:0:0:0:
320,128,67920,1,8,0:0:0:0:
320,128,68003,1,0,0:0:0:0:
288,128,68086,1,8,0:0:0:0:
160,128,68253,1,0,0:0:0:0:
160,128,68295,1,0,0:0:0:0:
160,128,68419,1,0,0:0:0:0:
96,160,68461,1,0,0:0:0:0:
320,128,68586,1,0,0:0:0:0:
320,96,68628,1,0,0:0:0:0:
320,128,68752,1,0,0:0:0:0:
320,96,68836,1,0,0:0:0:0:
320,128,68919,1,8,0:0:0:0:
96,128,68975,1,8,0:0:0:0:
224,128,69030,1,0,0:0:0:0:
160,96,69086,1,0,0:0:0:0:
288,64,69169,1,0,0:0:0:0:
96,128,69252,1,8,0:0:0:0:
96,128,69308,1,8,0:0:0:0:
96,128,69363,1,8,0:0:0:0:
96,128,69419,1,8,0:0:0:0:
224,128,69502,1,0,0:0:0:0:
256,160,69585,1,0,0:0:0:0:
288,160,69752,1,8,0:0:0:0:
320,128,69835,1,0,0:0:0:0:
416,192,69918,1,8,0:0:0:0:
384,160,70002,1,8,0:0:0:0:
416,192,70085,1,0,0:0:0:0:
384,160,70168,1,8,0:0:0:0:
416,224,70251,1,8,0:0:0:0:
416,224,70307,1,0,0:0:0:0:
416,224,70362,1,0,0:0:0:0:
416,224,70418,1,0,0:0:0:0:
224,160,70501,1,0,0:0:0:0:
192,96,70584,1,8,0:0:0:0:
192,96,70640,1,8,0:0:0:0:
192,96,70695,1,8,0:0:0:0:
192,96,70751,1,8,0:0:0:0:
320,128,70834,1,8,0:0:0:0:
320,256,70918,1,0,0:0:0:0:
320,256,71084,1,8,0:0:0:0:
128,192,71167,1,0,0:0:0:0:
320,256,71251,1,0,0:0:0:0:
160,128,71334,1,0,0:0:0:0:
320,256,71417,1,8,0:0:0:0:
192,128,71500,1,0,0:0:0:0:
256,288,71584,1,8,0:0:0:0:
288,128,71667,1,8,0:0:0:0:
256,256,71750,1,8,0:0:0:0:
256,256,71834,1,0,0:0:0:0:
256,256,71917,1,8,0:0:0:0:
256,192,72000,1,0,0:0:0:0:
320,192,72083,1,8,0:0:0:0:
256,192,72167,1,8,0:0:0:0:
320,192,72250,1,0,0:0:0:0:
320,192,72333,1,0,0:0:0:0:
384,96,72416,1,8,0:0:0:0:
384,96,72472,1,8,0:0:0:0:
384,96,72527,1,8,0:0:0:0:
384,96,72583,1,0,0:0:0:0:
256,256,72666,1,0,0:0:0:0:
256,192,72749,1,0,0:0:0:0:
256,192,72805,1,0,0:0:0:0:
256,192,72861,1,0,0:0:0:0:
256,192,72916,1,8,0:0:0:0:
192,160,72999,1,0,0:0:0:0:
320,320,73083,1,0,0:0:0:0:
320,320,73249,1,0,0:0:0:0:
320,160,73582,1,0,0:0:0:0:
320,160,73665,1,8,0:0:0:0:
320,160,73748,1,0,0:0:0:0:
320,160,73831,1,8,0:0:0:0:
320,160,73915,1,0,0:0:0:0:
320,160,73998,1,8,0:0:0:0:
320,160,74081,1,0,0:0:0:0:
320,160,74164,1,8,0:0:0:0:
320,192,74248,1,0,0:0:0:0:
256,192,74331,1,8,0:0:0:0:
256,192,74414,1,0,0:0:0:0:
160,192,74498,1,0,0:0:0:0:
256,192,74581,1,8,0:0:0:0:
160,160,74664,1,8,0:0:0:0:
256,224,74747,1,8,0:0:0:0:
256,224,74831,1,8,0:0:0:0:
256,192,74914,1,0,0:0:0:0:
256,192,74997,1,8,0:0:0:0:
256,192,75080,1,0,0:0:0:0:
256,192,75164,1,8,0:0:0:0:
256,192,75247,1,0,0:0:0:0:
256,192,75330,1,8,0:0:0:0:
256,192,75413,1,0,0:0:0:0:
128,128,75497,1,8,0:0:0:0:
128,128,75580,1,0,0:0:0:0:
192,64,75663,1,8,0:0:0:0:
192,64,75747,1,0,0:0:0:0:
192,64,75830,1,0,0:0:0:0:
224,64,75913,1,8,0:0:0:0:
224,64,75996,1,8,0:0:0:0:
224,64,76080,1,8,0:0:0:0:
224,64,76163,1,8,0:0:0:0:
224,64,76246,1,0,0:0:0:0:
288,128,76329,1,8,0:0:0:0:
288,128,76413,1,0,0:0:0:0:
288,128,76496,1,8,0:0:0:0:
288,128,76579,1,0,0:0:0:0:
288,128,76663,1,8,0:0:0:0:
288,128,76746,1,0,0:0:0:0:
288,128,76829,1,8,0:0:0:0:
224,128,76912,1,0,0:0:0:0:
224,128,76996,1,8,0:0:0:0:
224,128,77079,1,0,0:0:0:0:
224,128,77162,1,0,0:0:0:0:
320,96,77245,1,8,0:0:0:0:
256,96,77329,1,8,0:0:0:0:
320,64,77412,1,0,0:0:0:0:
320,64,77495,1,8,0:0:0:0:
320,32,77579,1,0,0:0:0:0:
320,32,77662,1,0,0:0:0:0:
320,32,77745,1,8,0:0:0:0:
256,160,77801,1,8,0:0:0:0:
256,128,77857,1,8,0:0:0:0:
256,160,77912,1,0,0:0:0:0:
320,128,77996,1,8,0:0:0:0:
256,128,78078,1,0,0:0:0:0:
96,128,78134,1,0,0:0:0:0:
96,128,78190,1,0,0:0:0:0:
288,160,78245,1,8,0:0:0:0:
256,192,78329,1,8,0:0:0:0:
256,128,78411,1,8,0:0:0:0:
192,128,78467,1,8,0:0:0:0:
160,128,78523,1,0,0:0:0:0:
320,128,78578,1,8,0:0:0:0:
320,128,78661,1,0,0:0:0:0:
288,128,78744,1,8,0:0:0:0:
160,128,78911,1,0,0:0:0:0:
160,128,78953,1,0,0:0:0:0:
160,128,79077,1,0,0:0:0:0:
96,160,79120,1,0,0:0:0:0:
320,128,79245,1,0,0:0:0:0:
320,96,79286,1,0,0:0:0:0:
320,128,79410,1,0,0:0:0:0:
320,96,79494,1,0,0:0:0:0:
320,128,79577,1,8,0:0:0:0:
96,128,79633,1,8,0:0:0:0:
224,128,79688,1,0,0:0:0:0:
160,96,79744,1,0,0:0:0:0:
288,64,79827,1,0,0:0:0:0:
96,128,79910,1,8,0:0:0:0:
96,128,79966,1,8,0:0:0:0:
96,128,80021,1,8,0:0:0:0:
96,128,80077,1,8,0:0:0:0:
224,128,80160,1,0,0:0:0:0:
256,160,80243,1,0,0:0:0:0:
288,160,80410,1,8,0:0:0:0:
320,128,80493,1,0,0:0:0:0:
416,192,80576,1,8,0:0:0:0:
384,160,80660,1,8,0:0:0:0:
416,192,80743,1,0,0:0:0:0:
384,160,80826,1,8,0:0:0:0:
416,224,80909,1,8,0:0:0:0:
416,224,80965,1,0,0:0:0:0:
416,224,81020,1,0,0:0:0:0:
416,224,81076,1,0,0:0:0:0:
224,160,81159,1,0,0:0:0:0:
192,96,81242,1,8,0:0:0:0:
192,96,81298,1,8,0:0:0:0:
192,96,81353,1,8,0:0:0:0:
192,96,81409,1,8,0:0:0:0:
320,128,81492,1,8,0:0:0:0:
320,256,81576,1,0,0:0:0:0:
320,256,81742,1,8,0:0:0:0:
128,192,81825,1,0,0:0:0:0:
320,256,81909,1,0,0:0:0:0:
160,128,81992,1,0,0:0:0:0:
320,256,82075,1,8,0:0:0:0:
192,128,82158,1,0,0:0:0:0:
256,288,82242,1,8,0:0:0:0:
288,128,82325,1,8,0:0:0:0:
256,256,82408,1,8,0:0:0:0:
256,256,82492,1,0,0:0:0:0:
256,256,82575,1,8,0:0:0:0:
256,192,82658,1,0,0:0:0:0:
320,192,82741,1,8,0:0:0:0:
256,192,82825,1,8,0:0:0:0:
320,192,82908,1,0,0:0:0:0:
320,192,82991,1,0,0:0:0:0:
384,96,83074,1,8,0:0:0:0:
384,96,83130,1,8,0:0:0:0:
384,96,83185,1,8,0:0:0:0:
384,96,83241,1,0,0:0:0:0:
256,256,83324,1,0,0:0:0:0:
256,192,83407,1,0,0:0:0:0:
256,192,83463,1,0,0:0:0:0:
256,192,83519,1,0,0:0:0:0:
256,192,83574,1,8,0:0:0:0:
192,160,83657,1,0,0:0:0:0:
320,320,83741,1,0,0:0:0:0:
320,320,83907,1,0,0:0:0:0:
160,128,84241,1,4,0:0:0:0:
256,96,84574,1,8,0:0:0:0:
288,96,85240,1,8,0:0:0:0:
288,96,85906,1,8,0:0:0:0:
288,96,86406,1,8,0:0:0:0:
288,96,86906,1,8,0:0:0:0:
288,64,87239,1,8,0:0:0:0:
288,128,87905,1,8,0:0:0:0:
288,128,88571,1,8,0:0:0:0:
128,128,89071,1,8,0:0:0:0:
288,256,89570,1,0,0:0:0:0:
64,128,89903,1,0,0:0:0:0:
96,128,90070,1,0,0:0:0:0:
96,128,90236,1,0,0:0:0:0:
288,128,90569,1,0,0:0:0:0:
288,128,90736,1,0,0:0:0:0:
256,160,91069,1,0,0:0:0:0:
256,128,91236,1,0,0:0:0:0:
256,128,91402,1,0,0:0:0:0:
256,128,91569,1,8,0:0:0:0:
256,128,91902,1,0,0:0:0:0:
192,160,92235,1,0,0:0:0:0:
192,192,92318,1,0,0:0:0:0:
192,192,92401,1,8,0:0:0:0:
192,192,92485,1,0,0:0:0:0:
192,192,92568,1,8,0:0:0:0:
192,192,92651,1,8,0:0:0:0:
224,160,92735,1,0,0:0:0:0:
224,160,92818,1,0,0:0:0:0:
160,96,92901,1,0,0:0:0:0:
160,96,92984,1,0,0:0:0:0:
160,96,93068,1,8,0:0:0:0:
160,96,93151,1,0,0:0:0:0:
160,96,93234,1,8,0:0:0:0:
160,96,93317,1,8,0:0:0:0:
160,96,93401,1,0,0:0:0:0:
192,128,93484,1,0,0:0:0:0:
192,128,93567,1,0,0:0:0:0:
192,128,93650,1,0,0:0:0:0:
160,128,93734,1,8,0:0:0:0:
128,128,93817,1,0,0:0:0:0:
192,128,93900,1,8,0:0:0:0:
192,192,93984,1,0,0:0:0:0:
256,128,94067,1,0,0:0:0:0:
256,128,94150,1,0,0:0:0:0:
192,160,94233,1,0,0:0:0:0:
192,160,94317,1,0,0:0:0:0:
192,160,94400,1,8,0:0:0:0:
160,160,94483,1,0,0:0:0:0:
160,160,94566,1,8,0:0:0:0:
160,160,94650,1,8,0:0:0:0:
160,160,94733,1,8,0:0:0:0:
320,128,94900,1,4,0:0:0:0:
288,128,95233,1,4,0:0:0:0:
320,192,95732,1,0,0:0:0:0:
256,96,96232,1,8,0:0:0:0:
96,160,96732,1,8,0:0:0:0:
320,64,96898,1,0,0:0:0:0:
320,64,96981,1,0,0:0:0:0:
320,64,97065,1,8,0:0:0:0:
192,96,97231,1,8,0:0:0:0:
192,64,97398,1,0,0:0:0:0:
192,64,97564,1,8,0:0:0:0:
256,64,97897,1,8,0:0:0:0:
192,64,98397,1,8,0:0:0:0:
160,96,98897,1,8,0:0:0:0:
288,96,99396,1,0,0:0:0:0:
192,64,99562,1,8,0:0:0:0:
192,64,99645,1,8,0:0:0:0:
192,64,99729,1,0,0:0:0:0:
224,64,99895,1,8,0:0:0:0:
192,128,100062,1,0,0:0:0:0:
96,96,100229,1,0,0:0:0:0:
96,96,100562,1,0,0:0:0:0:
96,96,100729,1,0,0:0:0:0:
224,96,100895,1,0,0:0:0:0:
288,128,101228,1,0,0:0:0:0:
320,96,101395,1,0,0:0:0:0:
320,96,101561,1,0,0:0:0:0:
288,128,101894,1,0,0:0:0:0:
288,128,102061,1,0,0:0:0:0:
288,96,102227,1,0,0:0:0:0:
288,96,102394,1,0,0:0:0:0:
288,96,102560,1,8,0:0:0:0:
160,160,102894,1,0,0:0:0:0:
160,96,103060,1,0,0:0:0:0:
160,96,103143,1,0,0:0:0:0:
160,96,103227,1,8,0:0:0:0:
224,160,103310,1,0,0:0:0:0:
160,96,103393,1,0,0:0:0:0:
160,96,103476,1,0,0:0:0:0:
160,96,103560,1,0,0:0:0:0:
224,224,103643,1,8,0:0:0:0:
160,96,103726,1,0,0:0:0:0:
160,96,103810,1,0,0:0:0:0:
160,96,103893,1,8,0:0:0:0:
192,192,103976,1,0,0:0:0:0:
256,96,104059,1,0,0:0:0:0:
256,96,104143,1,0,0:0:0:0:
224,96,104226,1,0,0:0:0:0:
224,128,104309,1,8,0:0:0:0:
192,32,104392,1,0,0:0:0:0:
64,128,104476,1,0,0:0:0:0:
64,128,104559,1,8,0:0:0:0:
64,128,104642,1,8,0:0:0:0:
64,128,104726,1,0,0:0:0:0:
64,128,104809,1,8,0:0:0:0:
64,128,104892,1,0,0:0:0:0:
64,128,104975,1,8,0:0:0:0:
64,128,105059,1,0,0:0:0:0:
224,160,105142,1,0,0:0:0:0:
224,160,105225,1,8,0:0:0:0:
224,160,105392,1,0,0:0:0:0:
288,160,105558,1,0,0:0:0:0:
288,160,105725,1,0,0:0:0:0:
288,160,105808,1,0,0:0:0:0:
256,128,105891,1,8,0:0:0:0:
288,224,105975,1,0,0:0:0:0:
288,224,106058,1,8,0:0:0:0:
288,224,106141,1,8,0:0:0:0:
288,224,106224,1,0,0:0:0:0:
256,128,106308,1,0,0:0:0:0:
224,192,106391,1,8,0:0:0:0:
224,192,106474,1,8,0:0:0:0:
224,192,106557,1,8,0:0:0:0:
192,96,106641,1,0,0:0:0:0:
224,192,106724,1,8,0:0:0:0:
224,160,106891,1,0,0:0:0:0:
224,160,106974,1,0,0:0:0:0:
224,160,107057,1,0,0:0:0:0:
224,160,107140,1,0,0:0:0:0:
224,160,107224,1,8,0:0:0:0:
224,160,107307,1,8,0:0:0:0:
128,128,107390,1,0,0:0:0:0:
192,96,107473,1,0,0:0:0:0:
224,96,107557,1,8,0:0:0:0:
224,96,107640,1,0,0:0:0:0:
224,96,107723,1,8,0:0:0:0:
224,96,107807,1,8,0:0:0:0:
224,96,107890,1,0,0:0:0:0:
224,96,107973,1,0,0:0:0:0:
224,96,108056,1,8,0:0:0:0:
224,96,108223,1,0,0:0:0:0:
224,96,108306,1,0,0:0:0:0:
192,96,108389,1,8,0:0:0:0:
192,128,108473,1,8,0:0:0:0:
224,128,108556,1,0,0:0:0:0:
224,128,108639,1,0,0:0:0:0:
224,128,108723,1,8,0:0:0:0:
224,128,108806,1,0,0:0:0:0:
224,128,108889,1,8,0:0:0:0:
224,192,108972,1,0,0:0:0:0:
224,192,109056,1,8,0:0:0:0:
224,192,109139,1,8,0:0:0:0:
224,192,109222,1,8,0:0:0:0:
128,128,109305,1,0,0:0:0:0:
320,192,109389,1,8,0:0:0:0:
352,128,109555,1,0,0:0:0:0:
352,128,109638,1,0,0:0:0:0:
352,128,109722,1,8,0:0:0:0:
256,192,109805,1,0,0:0:0:0:
352,128,109888,1,8,0:0:0:0:
352,128,109972,1,0,0:0:0:0:
352,128,110055,1,8,0:0:0:0:
256,96,110138,1,8,0:0:0:0:
352,128,110221,1,0,0:0:0:0:
352,128,110305,1,8,0:0:0:0:
160,160,110388,1,0,0:0:0:0:
224,96,110471,1,8,0:0:0:0:
224,96,110554,1,0,0:0:0:0:
224,128,110638,1,0,0:0:0:0:
192,96,110721,1,8,0:0:0:0:
256,160,110888,1,0,0:0:0:0:
256,96,110971,1,0,0:0:0:0:
256,96,111054,1,8,0:0:0:0:
256,96,111137,1,0,0:0:0:0:
256,96,111221,1,8,0:0:0:0:
256,96,111304,1,8,0:0:0:0:
256,96,111387,1,0,0:0:0:0:
288,128,111470,1,8,0:0:0:0:
288,96,111554,1,0,0:0:0:0:
288,160,111637,1,8,0:0:0:0:
288,128,111720,1,8,0:0:0:0:
288,128,111804,1,8,0:0:0:0:
288,128,111887,1,8,0:0:0:0:
288,128,111970,1,0,0:0:0:0:
288,128,112053,1,8,0:0:0:0:
288,128,112220,1,0,0:0:0:0:
288,128,112303,1,0,0:0:0:0:
224,192,112386,1,0,0:0:0:0:
352,96,112470,1,0,0:0:0:0:
352,96,112553,1,8,0:0:0:0:
352,96,112636,1,0,0:0:0:0:
352,96,112720,1,8,0:0:0:0:
352,96,112803,1,8,0:0:0:0:
352,96,112886,1,0,0:0:0:0:
352,96,112969,1,8,0:0:0:0:
352,96,113053,1,0,0:0:0:0:
352,96,113136,1,8,0:0:0:0:
352,96,113219,1,0,0:0:0:0:
192,96,113302,1,0,0:0:0:0:
192,128,113386,1,8,0:0:0:0:
128,128,113552,1,0,0:0:0:0:
320,128,113635,1,0,0:0:0:0:
320,128,113719,1,8,0:0:0:0:
320,128,113802,1,8,0:0:0:0:
320,128,113885,1,0,0:0:0:0:
320,128,113969,1,8,0:0:0:0:
320,128,114052,1,0,0:0:0:0:
320,128,114135,1,0,0:0:0:0:
320,128,114218,1,8,0:0:0:0:
192,96,114302,1,0,0:0:0:0:
192,96,114385,1,8,0:0:0:0:
192,96,114468,1,8,0:0:0:0:
192,96,114551,1,0,0:0:0:0:
192,96,114635,1,0,0:0:0:0:
192,96,114718,1,8,0:0:0:0:
256,96,114801,1,0,0:0:0:0:
256,96,114885,1,8,0:0:0:0:
256,96,114968,1,0,0:0:0:0:
256,96,115051,1,8,0:0:0:0:
256,96,115134,1,8,0:0:0:0:
256,96,115218,1,0,0:0:0:0:
256,96,115301,1,0,0:0:0:0:
256,96,115384,1,8,0:0:0:0:
160,96,115467,1,0,0:0:0:0:
160,96,115551,1,8,0:0:0:0:
160,96,115634,1,8,0:0:0:0:
160,96,115717,1,0,0:0:0:0:
160,128,115801,1,0,0:0:0:0:
320,64,115884,1,8,0:0:0:0:
352,128,115939,1,8,0:0:0:0:
352,128,115995,1,8,0:0:0:0:
352,128,116050,1,8,0:0:0:0:
352,128,116106,1,8,0:0:0:0:
352,128,116161,1,8,0:0:0:0:
320,64,116217,1,0,0:0:0:0:
256,64,116883,1,4,0:0:0:0:
256,160,117216,1,8,0:0:0:0:
256,160,117299,1,8,0:0:0:0:
256,160,117383,1,8,0:0:0:0:
160,256,117549,1,0,0:0:0:0:
224,96,117632,1,0,0:0:0:0:
224,96,117716,1,0,0:0:0:0:
192,128,117799,1,0,0:0:0:0:
224,96,117882,1,8,0:0:0:0:
192,128,117966,1,0,0:0:0:0:
224,96,118049,1,8,0:0:0:0:
224,96,118132,1,8,0:0:0:0:
224,96,118215,1,0,0:0:0:0:
192,128,118299,1,8,0:0:0:0:
256,96,118382,1,0,0:0:0:0:
160,96,118465,1,0,0:0:0:0:
320,96,118548,1,8,0:0:0:0:
256,96,118604,1,8,0:0:0:0:
256,96,118660,1,8,0:0:0:0:
256,96,118715,1,8,0:0:0:0:
288,64,118798,1,8,0:0:0:0:
320,128,118882,1,0,0:0:0:0:
192,96,118965,1,0,0:0:0:0:
192,128,119048,1,8,0:0:0:0:
192,128,119131,1,0,0:0:0:0:
192,128,119215,1,8,0:0:0:0:
192,128,119298,1,8,0:0:0:0:
192,128,119381,1,0,0:0:0:0:
192,128,119464,1,8,0:0:0:0:
192,128,119548,1,8,0:0:0:0:
192,96,119631,1,0,0:0:0:0:
192,96,119714,1,0,0:0:0:0:
192,96,119798,1,0,0:0:0:0:
224,96,119881,1,8,0:0:0:0:
320,32,119936,1,8,0:0:0:0:
320,32,119992,1,8,0:0:0:0:
320,32,120047,1,8,0:0:0:0:
192,160,120131,1,0,0:0:0:0:
320,32,120214,1,0,0:0:0:0:
256,128,120297,1,0,0:0:0:0:
256,128,120380,1,8,0:0:0:0:
256,128,120464,1,0,0:0:0:0:
224,128,120547,1,8,0:0:0:0:
224,128,120630,1,0,0:0:0:0:
224,128,120714,1,8,0:0:0:0:
224,128,120797,1,0,0:0:0:0:
224,128,120880,1,8,0:0:0:0:
224,128,120963,1,8,0:0:0:0:
256,192,121047,1,0,0:0:0:0:
256,192,121130,1,8,0:0:0:0:
256,96,121213,1,0,0:0:0:0:
288,64,121269,1,0,0:0:0:0:
288,64,121324,1,0,0:0:0:0:
160,96,121380,1,0,0:0:0:0:
192,224,121463,1,0,0:0:0:0:
192,96,121546,1,8,0:0:0:0:
192,224,121630,1,0,0:0:0:0:
192,96,121713,1,8,0:0:0:0:
192,96,121768,1,8,0:0:0:0:
192,96,121824,1,8,0:0:0:0:
96,128,121879,1,0,0:0:0:0:
224,224,121963,1,0,0:0:0:0:
224,128,122046,1,0,0:0:0:0:
224,128,122101,1,0,0:0:0:0:
224,128,122157,1,8,0:0:0:0:
224,128,122212,1,8,0:0:0:0:
288,192,122296,1,0,0:0:0:0:
256,128,122379,1,8,0:0:0:0:
352,96,122434,1,0,0:0:0:0:
352,96,122490,1,0,0:0:0:0:
416,96,122545,1,8,0:0:0:0:
256,96,122629,1,0,0:0:0:0:
416,96,122712,1,8,0:0:0:0:
224,192,122795,1,8,0:0:0:0:
416,96,122879,1,0,0:0:0:0:
224,160,122962,1,0,0:0:0:0:
192,96,123045,1,8,0:0:0:0:
160,96,123128,1,0,0:0:0:0:
160,96,123212,1,8,0:0:0:0:
160,96,123295,1,8,0:0:0:0:
160,96,123378,1,0,0:0:0:0:
192,160,123461,1,0,0:0:0:0:
128,128,123545,1,8,0:0:0:0:
128,128,123600,1,8,0:0:0:0:
128,128,123656,1,0,0:0:0:0:
128,128,123711,1,0,0:0:0:0:
224,96,123795,1,0,0:0:0:0:
224,128,123878,1,8,0:0:0:0:
224,128,123933,1,8,0:0:0:0:
224,128,123989,1,8,0:0:0:0:
224,128,124044,1,0,0:0:0:0:
224,96,124128,1,8,0:0:0:0:
256,96,124211,1,0,0:0:0:0:
256,96,124294,1,0,0:0:0:0:
256,96,124377,1,8,0:0:0:0:
256,96,124461,1,0,0:0:0:0:
256,96,124544,1,8,0:0:0:0:
256,96,124627,1,8,0:0:0:0:
256,96,124711,1,0,0:0:0:0:
256,96,124794,1,0,0:0:0:0:
256,96,124877,1,8,0:0:0:0:
256,96,124933,1,0,0:0:0:0:
256,96,124988,1,0,0:0:0:0:
256,96,125044,1,0,0:0:0:0:
192,128,125127,1,0,0:0:0:0:
288,96,125210,1,8,0:0:0:0:
288,96,125266,1,8,0:0:0:0:
288,96,125321,1,8,0:0:0:0:
224,96,125377,1,8,0:0:0:0:
224,96,125432,1,8,0:0:0:0:
224,96,125488,1,8,0:0:0:0:
224,96,125543,1,0,0:0:0:0:
256,128,125627,1,0,0:0:0:0:
256,128,125710,1,8,0:0:0:0:
256,128,125793,1,0,0:0:0:0:
256,128,125876,1,8,0:0:0:0:
256,128,125960,1,8,0:0:0:0:
256,128,126043,1,0,0:0:0:0:
256,128,126126,1,0,0:0:0:0:
256,128,126209,1,8,0:0:0:0:
256,128,126293,1,8,0:0:0:0:
256,128,126376,1,0,0:0:0:0:
256,128,126459,1,0,0:0:0:0:
288,192,126542,1,8,0:0:0:0:
288,192,126598,1,0,0:0:0:0:
288,192,126654,1,8,0:0:0:0:
288,192,126709,1,0,0:0:0:0:
288,224,126792,1,0,0:0:0:0:
288,160,126876,1,8,0:0:0:0:
288,224,126959,1,8,0:0:0:0:
288,160,127042,1,8,0:0:0:0:
288,160,127098,1,8,0:0:0:0:
288,160,127153,1,8,0:0:0:0:
288,160,127209,1,0,0:0:0:0:
288,192,127292,1,0,0:0:0:0:
320,160,127375,1,8,0:0:0:0:
320,192,127431,1,8,0:0:0:0:
320,192,127486,1,0,0:0:0:0:
320,192,127542,1,8,0:0:0:0:
192,128,127597,1,0,0:0:0:0:
192,128,127653,1,0,0:0:0:0:
192,128,127708,1,8,0:0:0:0:
160,160,127792,1,0,0:0:0:0:
192,160,127875,1,8,0:0:0:0:
192,160,127930,1,8,0:0:0:0:
192,160,127986,1,8,0:0:0:0:
224,32,128041,1,8,0:0:0:0:
224,128,128097,1,8,0:0:0:0:
224,128,128152,1,8,0:0:0:0:
256,96,128208,1,0,0:0:0:0:
256,96,128291,1,0,0:0:0:0:
256,96,128374,1,8,0:0:0:0:
256,96,128458,1,0,0:0:0:0:
256,96,128541,1,8,0:0:0:0:
256,96,128624,1,8,0:0:0:0:
256,96,128708,1,0,0:0:0:0:
256,96,128791,1,8,0:0:0:0:
256,96,128874,1,0,0:0:0:0:
256,96,128957,1,0,0:0:0:0:
256,96,129041,1,8,0:0:0:0:
256,96,129124,1,0,0:0:0:0:
192,128,129207,1,8,0:0:0:0:
192,128,129263,1,8,0:0:0:0:
192,128,129318,1,8,0:0:0:0:
192,128,129374,1,8,0:0:0:0:
288,64,129457,1,0,0:0:0:0:
288,64,129540,1,0,0:0:0:0:
128,160,129624,1,0,0:0:0:0:
160,128,129707,1,8,0:0:0:0:
160,128,129790,1,0,0:0:0:0:
160,128,129873,1,8,0:0:0:0:
160,128,129957,1,8,0:0:0:0:
160,128,130040,1,0,0:0:0:0:
160,128,130123,1,8,0:0:0:0:
160,128,130206,1,8,0:0:0:0:
160,128,130290,1,8,0:0:0:0:
160,128,130373,1,0,0:0:0:0:
160,128,130456,1,0,0:0:0:0:
256,64,130539,1,8,0:0:0:0:
256,64,130595,1,8,0:0:0:0:
256,64,130651,1,8,0:0:0:0:
256,64,130706,1,8,0:0:0:0:
288,128,130789,1,8,0:0:0:0:
288,128,130873,1,0,0:0:0:0:
320,96,130956,1,0,0:0:0:0:
320,96,131039,1,8,0:0:0:0:
320,96,131122,1,0,0:0:0:0:
320,96,131206,1,8,0:0:0:0:
320,96,131289,1,8,0:0:0:0:
320,96,131372,1,0,0:0:0:0:
320,128,131455,1,8,0:0:0:0:
288,160,131539,1,8,0:0:0:0:
288,160,131622,1,8,0:0:0:0:
256,160,131705,1,0,0:0:0:0:
256,128,131789,1,8,0:0:0:0:
256,128,131872,1,0,0:0:0:0:
256,128,131955,1,8,0:0:0:0:
256,128,132038,1,0,0:0:0:0:
256,128,132122,1,0,0:0:0:0:
160,96,132205,1,8,0:0:0:0:
160,96,132260,1,8,0:0:0:0:
160,96,132316,1,0,0:0:0:0:
160,96,132371,1,8,0:0:0:0:
256,96,132455,1,0,0:0:0:0:
224,128,132538,1,0,0:0:0:0:
256,96,132621,1,8,0:0:0:0:
288,128,132705,1,0,0:0:0:0:
288,128,132760,1,0,0:0:0:0:
224,128,132816,1,0,0:0:0:0:
64,128,132871,1,8,0:0:0:0:
288,224,132954,1,0,0:0:0:0:
288,224,133038,1,8,0:0:0:0:
256,192,133121,1,0,0:0:0:0:
192,128,133204,1,8,0:0:0:0:
192,128,133287,1,8,0:0:0:0:
192,128,133371,1,0,0:0:0:0:
288,96,133454,1,8,0:0:0:0:
128,160,133537,1,0,0:0:0:0:
192,160,133621,1,0,0:0:0:0:
224,128,133704,1,8,0:0:0:0:
224,128,133787,1,0,0:0:0:0:
224,128,133870,1,8,0:0:0:0:
160,128,133954,1,8,0:0:0:0:
160,128,134037,1,8,0:0:0:0:
160,128,134120,1,0,0:0:0:0:
224,192,134203,1,8,0:0:0:0:
224,192,134259,1,8,0:0:0:0:
224,192,134314,1,8,0:0:0:0:
224,192,134370,1,0,0:0:0:0:
256,192,134453,1,0,0:0:0:0:
256,128,134536,1,8,0:0:0:0:
256,128,134592,1,8,0:0:0:0:
256,128,134648,1,0,0:0:0:0:
224,128,134703,1,0,0:0:0:0:
256,192,134786,1,0,0:0:0:0:
256,160,134870,1,0,0:0:0:0:
256,160,134953,1,0,0:0:0:0:
320,160,135036,1,8,0:0:0:0:
288,160,135119,1,0,0:0:0:0:
288,160,135203,1,0,0:0:0:0:
288,160,135286,1,8,0:0:0:0:
256,160,135369,1,0,0:0:0:0:
288,160,135452,1,0,0:0:0:0:
256,96,135536,1,8,0:0:0:0:
256,96,135591,1,8,0:0:0:0:
256,96,135647,1,8,0:0:0:0:
256,96,135702,1,0,0:0:0:0:
224,160,135786,1,0,0:0:0:0:
256,128,135869,1,8,0:0:0:0:
256,128,135924,1,8,0:0:0:0:
256,128,135980,1,8,0:0:0:0:
256,128,136035,1,8,0:0:0:0:
160,192,136119,1,8,0:0:0:0:
128,224,136202,1,0,0:0:0:0:
192,128,136244,1,0,0:0:0:0:
192,128,136368,1,0,0:0:0:0:
192,128,136410,1,0,0:0:0:0:
192,128,136535,1,0,0:0:0:0:
128,128,136618,1,0,0:0:0:0:
192,32,136702,1,8,0:0:0:0:
192,32,136743,1,8,0:0:0:0:
192,32,136868,1,8,0:0:0:0:
192,32,136910,1,8,0:0:0:0:
224,64,137035,1,0,0:0:0:0:
224,32,137118,1,0,0:0:0:0:
224,96,137201,1,0,0:0:0:0:
224,96,137243,1,0,0:0:0:0:
224,96,137368,1,0,0:0:0:0:
224,96,137409,1,0,0:0:0:0:
224,192,137534,1,0,0:0:0:0:
224,192,137618,1,0,0:0:0:0:
224,96,137701,1,8,0:0:0:0:
160,128,137756,1,8,0:0:0:0:
160,128,137812,1,0,0:0:0:0:
224,128,137867,1,8,0:0:0:0:
224,128,137923,1,0,0:0:0:0:
224,128,137978,1,0,0:0:0:0:
224,128,138034,1,8,0:0:0:0:
192,160,138089,1,8,0:0:0:0:
192,128,138145,1,8,0:0:0:0:
224,128,138200,1,0,0:0:0:0:
224,128,138256,1,0,0:0:0:0:
224,128,138311,1,0,0:0:0:0:
224,128,138367,1,8,0:0:0:0:
256,128,138422,1,0,0:0:0:0:
256,128,138478,1,0,0:0:0:0:
256,128,138533,1,8,0:0:0:0:
256,96,138589,1,8,0:0:0:0:
256,64,138645,1,8,0:0:0:0:
256,64,138700,1,8,0:0:0:0:
256,192,138867,1,0,0:0:0:0:
288,128,138922,1,8,0:0:0:0:
288,128,138978,1,0,0:0:0:0:
288,128,139033,1,8,0:0:0:0:
288,128,139089,1,0,0:0:0:0:
288,128,139144,1,8,0:0:0:0:
288,128,139200,1,0,0:0:0:0:
288,128,139255,1,8,0:0:0:0:
288,128,139311,1,0,0:0:0:0:
288,128,139366,1,8,0:0:0:0:
288,128,139422,1,0,0:0:0:0:
288,128,139477,1,8,0:0:0:0:
288,128,139533,1,0,0:0:0:0:
288,128,139588,1,8,0:0:0:0:
288,128,139644,1,0,0:0:0:0:
288,128,139699,1,8,0:0:0:0:
288,128,139755,1,0,0:0:0:0:
288,128,139810,1,8,0:0:0:0:
288,128,139866,1,0,0:0:0:0:
288,128,139921,1,8,0:0:0:0:
288,128,139977,1,0,0:0:0:0:
288,128,140032,1,8,0:0:0:0:
288,128,140088,1,0,0:0:0:0:
288,128,140143,1,8,0:0:0:0:
288,128,140199,1,0,0:0:0:0:
