osu file format v14

[General]
AudioFilename: audio.mp3
AudioLeadIn: 0
PreviewTime: 4647
Countdown: 0
SampleSet: Normal
StackLeniency: 0.5
Mode: 0
LetterboxInBreaks: 0
WidescreenStoryboard: 1

[Editor]
Bookmarks: 18999,40314,50972,60924,61630,73080,73620,94935,105553
DistanceSpacing: 0.84
BeatDivisor: 4
GridSize: 4
TimelineZoom: 2.550003

[Metadata]
Title:The Big Black
TitleUnicode:The Big Black
Artist:The Quick Brown Fox
ArtistUnicode:The Quick Brown Fox
Creator:Mismagius
Version:Remastered Extreme
Source:
Tags:renard queenston speedkore 4 kidz speedcore splittercore blue dragon lapfox vulpvibe halley labs ren tqbf electronic instrumental english
BeatmapID:2824646
BeatmapSetID:867737

[Difficulty]
HPDrainRate:5
CircleSize:4
OverallDifficulty:9
ApproachRate:10
SliderMultiplier:3.59999990463257
SliderTickRate:1

[Events]
//Background and Video events
0,0,"big black remastered OFFICIAL 2020.png",0,0
//Break Periods
2,40484,50492
2,84447,94455
//Storyboard Layer 0 (Background)
//Storyboard Layer 1 (Fail)
//Storyboard Layer 2 (Pass)
//Storyboard Layer 3 (Foreground)
//Storyboard Layer 4 (Overlay)
//Storyboard Sound Samples

[TimingPoints]
6979,333.055786844296,4,2,0,80,1,0
18969,-100,4,1,0,80,0,0
40284,-100,4,2,0,80,0,0
50942,-133.333333333333,4,2,0,80,0,0
62932,-100,4,2,0,80,0,0
117553,-100,4,1,0,80,0,0

[Colours]
Combo1 : 255,231,155
Combo2 : 138,255,138
Combo3 : 183,216,255
Combo4 : 250,154,169

[HitObjects]
57,63,6979,5,4,0:0:0:0:
85,87,7062,1,0,0:0:0:0:
121,95,7145,1,2,0:0:0:0:
157,87,7228,1,0,0:0:0:0:
179,57,7312,2,0,B|211:7|301:7|333:57,1,180,2|0,0:0|0:0,0:0:0:0:
359,85,7561,1,0,0:0:0:0:
384,110,7645,6,0,B|475:110,1,89.9999976158143,2|0,0:0|0:0,0:0:0:0:
348,199,7811,2,0,B|439:199,1,89.9999976158143,0|0,0:0|0:0,0:0:0:0:
164,199,7978,2,0,B|74:199,1,89.9999976158143,2|0,0:0|0:0,0:0:0:0:
128,110,8144,2,0,B|38:110,1,89.9999976158143,0|0,0:0|0:0,0:0:0:0:
226,20,8311,5,2,0:0:0:0:
258,40,8394,1,0,0:0:0:0:
278,68,8477,1,2,0:0:0:0:
286,104,8561,1,0,0:0:0:0:
278,140,8644,2,0,B|218:316,1,180,2|2,0:0|0:0,0:0:0:0:
200,339,8894,1,0,0:0:0:0:
176,364,8977,6,0,B|88:336|88:392|0:364,1,180,2|2,0:0|0:0,0:0:0:0:
0,250,9227,1,0,0:0:0:0:
0,250,9310,2,0,B|88:278|88:222|176:250,1,180,2|0,0:0|0:0,0:0:0:0:
425,136,9643,5,2,0:0:0:0:
397,156,9726,1,0,0:0:0:0:
385,188,9809,1,2,0:0:0:0:
381,224,9893,1,0,0:0:0:0:
393,256,9976,1,2,0:0:0:0:
280,384,10143,1,2,0:0:0:0:
268,352,10226,1,0,0:0:0:0:
248,324,10309,6,0,P|200:306|138:310,1,89.9999976158143,2|0,0:0|0:0,0:0:0:0:
124,184,10476,2,0,P|142:136|138:74,1,89.9999976158143,0|0,0:0|0:0,0:0:0:0:
264,60,10642,2,0,P|312:78|374:74,1,89.9999976158143,2|0,0:0|0:0,0:0:0:0:
388,200,10809,2,0,P|370:248|374:310,1,89.9999976158143,0|0,0:0|0:0,0:0:0:0:
473,112,10975,5,0,0:0:0:0:
445,89,11058,1,0,0:0:0:0:
411,83,11142,1,2,0:0:0:0:
375,92,11225,1,0,0:0:0:0:
346,114,11308,1,0,0:0:0:0:
321,140,11391,1,0,0:0:0:0:
292,162,11475,1,2,0:0:0:0:
256,171,11558,1,0,0:0:0:0:
222,165,11641,5,0,0:0:0:0:
193,143,11725,1,0,0:0:0:0:
169,118,11808,1,2,0:0:0:0:
140,95,11891,1,0,0:0:0:0:
107,90,11974,1,2,0:0:0:0:
70,98,12058,1,0,0:0:0:0:
41,121,12141,1,2,0:0:0:0:
32,155,12224,1,0,0:0:0:0:
41,189,12307,6,0,B|117:237,1,90,4|0,0:0|0:0,0:0:0:0:
196,274,12474,2,0,B|272:226,1,90,2|0,0:0|0:0,0:0:0:0:
350,184,12640,2,0,B|335:244|398:307|458:293,1,180,4|2,0:0|0:0,0:0:0:0:
256,142,12890,1,0,0:0:0:0:
162,184,12974,2,0,B|177:244|114:307|54:293,1,180,2|0,0:0|0:0,0:0:0:0:
256,44,13307,2,0,B|256:236,1,180,2|0,0:0|0:0,0:0:0:0:
471,195,13640,6,0,B|395:147,1,90,2|0,0:0|0:0,0:0:0:0:
316,110,13807,2,0,B|240:158,1,90,2|0,0:0|0:0,0:0:0:0:
162,200,13973,2,0,B|177:140|114:77|54:91,1,180,2|2,0:0|0:0,0:0:0:0:
256,251,14223,1,0,0:0:0:0:
350,200,14307,2,0,B|335:140|398:77|458:91,1,180,2|0,0:0|0:0,0:0:0:0:
256,160,14556,1,0,0:0:0:0:
256,160,14639,2,0,B|256:340,1,180,2|0,0:0|0:0,0:0:0:0:
356,128,14972,5,4,0:0:0:0:
391,128,15055,1,0,0:0:0:0:
424,112,15138,1,0,0:0:0:0:
440,80,15222,1,0,0:0:0:0:
440,44,15305,1,2,0:0:0:0:
72,44,15471,5,2,0:0:0:0:
72,80,15555,1,0,0:0:0:0:
88,112,15638,1,4,0:0:0:0:
420,336,15804,5,0,0:0:0:0:
256,144,15971,1,2,0:0:0:0:
96,336,16138,1,0,0:0:0:0:
437,254,16304,6,0,P|394:240|350:239,1,89.9999976158143,6|0,0:0|0:0,0:0:0:0:
75,130,16471,2,0,P|117:143|162:145,1,89.9999976158143,2|0,0:0|0:0,0:0:0:0:
427,107,16637,2,0,P|387:128|355:158,1,89.9999976158143,6|0,0:0|0:0,0:0:0:0:
84,276,16804,2,0,P|124:255|156:225,1,89.9999976158143,2|0,0:0|0:0,0:0:0:0:
318,11,16970,2,0,P|304:53|303:97,1,89.9999976158143,6|0,0:0|0:0,0:0:0:0:
193,373,17137,2,0,P|207:330|209:286,1,89.9999976158143,2|0,0:0|0:0,0:0:0:0:
276,192,17303,2,0,P|252:189|228:192,6,44.9999988079071,4|0|2|0|2|0|2,0:0|0:0|0:0|0:0|0:0|0:0|0:0,0:0:0:0:
276,192,17636,5,4,1:2:0:0:
280,196,18302,1,4,1:2:0:0:
260,380,18635,5,0,1:0:0:0:
260,380,18719,1,0,1:0:0:0:
260,380,18802,1,0,1:0:0:0:
140,48,18969,5,0,0:0:0:0:
106,59,19052,1,0,0:0:0:0:
77,79,19135,1,0,0:0:0:0:
52,104,19218,1,0,0:0:0:0:
34,134,19302,1,0,0:0:0:0:
23,168,19385,1,0,0:0:0:0:
19,203,19468,1,0,0:0:0:0:
24,238,19551,1,0,0:0:0:0:
37,271,19635,1,0,0:0:0:0:
56,301,19718,1,0,0:0:0:0:
82,325,19801,1,0,0:0:0:0:
113,343,19884,1,0,0:0:0:0:
147,353,19968,6,0,P|160:311|147:257,1,89.9999976158143,2|2,1:2|1:2,0:0:0:0:
258,177,20134,2,0,P|245:135|258:81,1,89.9999976158143,2|2,1:2|1:2,0:0:0:0:
372,48,20301,5,0,0:0:0:0:
406,59,20384,1,0,0:0:0:0:
435,79,20467,1,0,0:0:0:0:
460,104,20551,1,0,0:0:0:0:
478,134,20634,1,0,0:0:0:0:
489,168,20717,1,0,0:0:0:0:
493,203,20800,1,0,0:0:0:0:
488,238,20884,1,0,0:0:0:0:
475,271,20967,1,0,0:0:0:0:
456,301,21050,1,0,0:0:0:0:
430,325,21133,1,0,0:0:0:0:
399,343,21217,1,0,0:0:0:0:
365,353,21300,6,0,P|356:330|360:305,4,44.9999988079071,2|0|2|0|2,0:2|0:0|0:2|0:0|0:2,0:0:0:0:
0,124,21633,6,0,B|96:124,1,90,0|0,0:0|0:0,0:0:0:0:
260,288,21799,2,0,B|170:288,1,90,0|0,0:0|0:0,0:0:0:0:
151,172,21966,2,0,B|241:172,1,90,0|0,0:0|0:0,0:0:0:0:
109,240,22133,2,0,B|19:240,1,89.9999976158143,0|0,0:0|0:0,0:0:0:0:
222,55,22299,6,0,B|318:55,1,90,0|0,0:0|0:0,0:0:0:0:
482,219,22465,2,0,B|392:219,1,90,0|0,0:0|0:0,0:0:0:0:
241,171,22632,6,0,B|331:171,1,89.9999976158143,2|0,0:2|0:0,0:0:0:0:
463,103,22799,2,0,B|373:103,1,90,2|0,0:2|0:0,0:0:0:0:
184,31,22965,6,0,B|170:78|117:84,1,90,2|0,0:2|0:0,0:0:0:0:
95,263,23132,2,0,B|142:278|148:330,1,90,2|0,0:2|0:0,0:0:0:0:
327,352,23298,2,0,B|342:306|394:299,1,90,2|0,0:2|0:0,0:0:0:0:
416,120,23465,2,0,B|370:106|363:53,1,90,0|0,0:0|0:0,0:0:0:0:
91,129,23631,6,0,B|114:172|82:213,1,90,2|0,0:2|0:0,0:0:0:0:
420,254,23798,2,0,B|397:211|429:170,1,90,0|0,0:0|0:0,0:0:0:0:
256,192,23964,5,0,0:0:0:0:
256,192,24131,1,0,0:0:0:0:
104,40,24297,6,0,B|16:56,1,90,0|0,0:0|0:0,0:0:0:0:
180,112,24464,2,0,B|92:128,1,90,0|0,0:0|0:0,0:0:0:0:
408,40,24630,2,0,B|496:56,1,90,0|0,0:0|0:0,0:0:0:0:
332,112,24797,2,0,B|420:128,1,90,0|0,0:0|0:0,0:0:0:0:
180,272,24964,6,0,B|91:255,1,90,2|0,0:2|0:0,0:0:0:0:
104,344,25130,2,0,B|15:327,1,90,0|0,0:0|0:0,0:0:0:0:
332,272,25297,2,0,B|420:255,1,90,2|0,0:2|0:0,0:0:0:0:
408,344,25463,2,0,B|496:327,1,90,0|0,0:0|0:0,0:0:0:0:
451,154,25630,6,0,B|363:171,1,90,0|0,0:0|0:0,0:0:0:0:
62,229,25796,2,0,B|150:212,1,90,0|0,0:0|0:0,0:0:0:0:
367,27,25963,2,0,B|317:102,1,90,0|0,0:0|0:0,0:0:0:0:
146,356,26129,2,0,B|196:281,1,90,0|0,0:0|0:0,0:0:0:0:
218,0,26296,6,0,B|235:86,1,90,2|0,0:2|0:0,0:0:0:0:
294,386,26462,2,0,B|277:298,1,90,0|0,0:0|0:0,0:0:0:0:
92,81,26629,6,0,B|145:116,6,44.9999988079071,2|2|2|2|2|2|2,0:2|0:2|0:2|0:2|0:2|0:2|0:2,0:0:0:0:
150,212,26962,6,0,B|62:229,1,90,0|0,0:0|0:0,0:0:0:0:
363,171,27128,2,0,B|451:154,1,90,0|0,0:0|0:0,0:0:0:0:
316,281,27295,2,0,B|366:356,1,90,0|0,0:0|0:0,0:0:0:0:
195,102,27461,2,0,B|145:27,1,90,0|0,0:0|0:0,0:0:0:0:
235,298,27628,6,0,B|218:386,1,90,0|0,0:0|0:0,0:0:0:0:
276,85,27794,2,0,B|293:-3,1,90,0|0,0:0|0:0,0:0:0:0:
345,131,27961,6,0,B|397:95,2,44.9999988079071,2|0|0,1:2|0:0|0:0,0:0:0:0:
166,252,28128,2,0,B|91:302,1,90,0|0,0:0|0:0,0:0:0:0:
50,116,28294,5,2,1:2:0:0:
41,81,28377,1,0,0:0:0:0:
51,46,28461,1,2,1:2:0:0:
77,22,28544,1,0,0:0:0:0:
111,14,28627,2,0,P|151:11|206:41,1,89.9999976158143,2|0,1:2|0:0,0:0:0:0:
316,353,28794,2,0,P|356:372|401:370,1,89.9999976158143,2|0,1:2|0:0,0:0:0:0:
417,131,28960,2,0,P|436:91|434:47,1,89.9999976158143,2|0,1:2|0:0,0:0:0:0:
94,252,29127,2,0,P|75:292|78:337,1,89.9999976158143,0|0,0:0|0:0,0:0:0:0:
256,192,29293,5,0,0:0:0:0:
39,44,29626,6,0,B|32:96|63:127,1,90,0|0,0:0|0:0,0:0:0:0:
4,224,29793,2,0,B|55:231|87:200,1,90,0|0,0:0|0:0,0:0:0:0:
184,256,29959,2,0,B|191:204|160:172,1,90,0|0,0:0|0:0,0:0:0:0:
219,76,30126,2,0,B|167:68|135:99,1,90,0|0,0:0|0:0,0:0:0:0:
296,308,30292,6,0,B|347:316|379:285,1,90,0|0,0:0|0:0,0:0:0:0:
423,188,30459,2,0,B|455:157|507:164,1,90,0|0,0:0|0:0,0:0:0:0:
475,344,30625,6,0,B|482:293|451:261,1,90,2|2,0:2|0:2,0:0:0:0:
327,129,30792,2,0,B|319:181|350:213,1,90,2|2,0:2|0:2,0:0:0:0:
208,328,30959,6,0,B|163:340|163:340|120:328,1,89.9999976158143,0|0,0:0|0:0,0:0:0:0:
304,328,31125,2,0,B|349:340|349:340|392:328,1,89.9999976158143,0|0,0:0|0:0,0:0:0:0:
162,255,31292,2,0,B|74:235,1,90,0|0,0:0|0:0,0:0:0:0:
328,256,31458,2,0,B|416:236,1,90,0|0,0:0|0:0,0:0:0:0:
76,115,31625,6,0,B|117:103|117:103|162:115,1,89.9999976158143,0|0,0:0|0:0,0:0:0:0:
436,115,31791,2,0,B|394:103|394:103|349:115,1,89.9999976158143,0|0,0:0|0:0,0:0:0:0:
256,339,31958,6,0,B|256:383,4,45,2|2|2|2|2,0:2|0:2|0:2|0:2|0:2,0:0:0:0:
224,96,32291,6,0,B|180:72|136:96,1,90,0|0,0:0|0:0,0:0:0:0:
160,224,32457,2,0,B|136:268|160:312,1,90,0|0,0:0|0:0,0:0:0:0:
288,288,32624,2,0,B|332:312|376:288,1,90,0|0,0:0|0:0,0:0:0:0:
352,160,32790,2,0,B|376:116|352:72,1,90,0|0,0:0|0:0,0:0:0:0:
137,94,32957,6,0,B|93:70|49:94,1,90,0|0,0:0|0:0,0:0:0:0:
375,290,33123,2,0,B|419:314|463:290,1,90,0|0,0:0|0:0,0:0:0:0:
286,6,33290,6,0,L|269:100,1,89.9999976158143,2|0,0:2|0:0,0:0:0:0:
226,378,33456,2,0,L|243:284,1,89.9999976158143,2|0,0:2|0:0,0:0:0:0:
408,81,33623,2,0,L|330:136,1,89.9999976158143,2|0,0:2|0:0,0:0:0:0:
103,302,33789,2,0,L|181:247,1,89.9999976158143,2|0,0:2|0:0,0:0:0:0:
442,221,33956,2,0,L|348:205,1,89.9999976158143,2|0,0:2|0:0,0:0:0:0:
70,162,34122,2,0,L|163:179,1,89.9999976158143,0|0,0:0|0:0,0:0:0:0:
366,344,34289,2,0,L|311:266,1,89.9999976158143,2|0,0:2|0:0,0:0:0:0:
145,39,34455,2,0,L|200:117,1,89.9999976158143,0|0,0:0|0:0,0:0:0:0:
256,192,34622,5,0,0:0:0:0:
256,192,34789,1,0,0:0:0:0:
56,352,34955,5,0,0:0:0:0:
92,352,35038,1,0,0:0:0:0:
128,352,35122,1,0,0:0:0:0:
164,352,35205,1,0,0:0:0:0:
200,352,35288,1,0,0:0:0:0:
236,352,35372,1,0,0:0:0:0:
271,352,35455,2,0,L|376:352,1,89.9999976158143,0|0,0:0|0:0,0:0:0:0:
456,32,35621,5,2,0:2:0:0:
420,32,35705,1,0,0:0:0:0:
384,32,35788,2,0,L|287:32,1,89.9999976158143,0|0,0:0|0:0,0:0:0:0:
56,32,35954,5,2,0:2:0:0:
92,32,36038,1,0,0:0:0:0:
128,32,36121,2,0,L|225:32,1,89.9999976158143,0|0,0:0|0:0,0:0:0:0:
439,184,36287,6,0,B|439:272,1,90,0|0,0:0|0:0,0:0:0:0:
361,352,36454,2,0,B|361:262,1,90,0|0,0:0|0:0,0:0:0:0:
73,184,36620,2,0,B|73:272,1,90,0|0,0:0|0:0,0:0:0:0:
151,352,36787,2,0,B|151:262,1,90,0|0,0:0|0:0,0:0:0:0:
361,122,36954,6,0,B|361:32,1,90,2|2,0:2|0:2,0:0:0:0:
151,122,37120,2,0,B|151:32,1,90,2|2,0:2|0:2,0:0:0:0:
256,300,37287,6,0,B|256:344,6,45
327,259,37620,6,0,B|366:240|413:261,1,89.9999976158143,2|2,0:2|0:2,0:0:0:0:
185,125,37786,2,0,B|146:144|99:123,1,89.9999976158143,2|0,0:2|0:0,0:0:0:0:
335,32,37953,5,0,0:0:0:0:
335,32,38036,1,0,0:0:0:0:
335,32,38119,2,0,B|374:51|421:30,1,89.9999976158143,2|2,0:2|0:2,0:0:0:0:
177,352,38286,2,0,B|138:333|91:354,1,89.9999976158143,2|0,0:2|0:0,0:0:0:0:
413,261,38452,5,0,0:0:0:0:
413,261,38536,1,0,0:0:0:0:
413,261,38619,2,0,B|452:280|499:259,1,89.9999976158143,2|2,0:2|0:2,0:0:0:0:
99,123,38785,2,0,B|60:104|13:125,1,89.9999976158143,2|0,0:2|0:0,0:0:0:0:
156,212,38952,5,0,0:0:0:0:
171,135,39035,1,0,0:0:0:0:
236,92,39118,1,2,0:2:0:0:
312,107,39202,1,0,0:0:0:0:
356,172,39285,1,0,0:0:0:0:
340,248,39368,1,0,0:0:0:0:
276,292,39451,1,2,0:2:0:0:
199,276,39535,1,0,0:0:0:0:
133,216,39618,5,2,0:2:0:0:
151,122,39701,1,0,0:0:0:0:
231,69,39784,1,2,0:2:0:0:
324,87,39868,1,0,0:0:0:0:
378,167,39951,1,0,0:0:0:0:
379,167,40284,5,4,0:0:0:0:
376,80,50942,5,4,0:0:0:0:
350,54,51025,1,0,0:0:0:0:
316,43,51108,1,0,0:0:0:0:
285,57,51192,1,0,0:0:0:0:
260,82,51275,1,6,0:0:0:0:
285,108,51358,1,0,0:0:0:0:
296,142,51441,1,0,0:0:0:0:
282,173,51525,1,0,0:0:0:0:
257,198,51608,5,0,0:0:0:0:
231,173,51691,1,0,0:0:0:0:
197,162,51775,1,0,0:0:0:0:
166,176,51858,1,0,0:0:0:0:
141,201,51941,1,2,0:0:0:0:
166,227,52024,1,0,0:0:0:0:
181,260,52108,2,0,P|163:305|144:323,1,67.5000007867814,0|0,0:0|0:0,0:0:0:0:
137,80,52274,5,0,0:0:0:0:
163,54,52357,1,0,0:0:0:0:
197,43,52440,1,0,0:0:0:0:
228,57,52524,1,0,0:0:0:0:
253,82,52607,1,2,0:0:0:0:
228,108,52690,1,0,0:0:0:0:
217,142,52773,1,0,0:0:0:0:
231,173,52857,1,0,0:0:0:0:
256,198,52940,5,0,0:0:0:0:
282,173,53023,1,0,0:0:0:0:
316,162,53107,1,0,0:0:0:0:
347,176,53190,1,0,0:0:0:0:
372,201,53273,1,2,0:0:0:0:
347,227,53356,1,0,0:0:0:0:
332,260,53440,2,0,P|349:305|368:323,1,67.5000007867814,0|0,0:0|0:0,0:0:0:0:
256,296,53606,5,0,0:0:0:0:
221,290,53690,1,0,0:0:0:0:
190,272,53773,1,0,0:0:0:0:
166,245,53856,1,0,0:0:0:0:
154,211,53939,1,2,0:0:0:0:
154,174,54023,1,0,0:0:0:0:
166,140,54106,1,0,0:0:0:0:
190,113,54189,1,0,0:0:0:0:
221,95,54272,5,0,0:0:0:0:
256,88,54356,1,0,0:0:0:0:
292,95,54439,1,0,0:0:0:0:
323,113,54522,1,0,0:0:0:0:
347,140,54605,1,2,0:0:0:0:
359,174,54689,1,0,0:0:0:0:
359,211,54772,2,0,P|349:257|325:291,1,67.5000007867814,0|0,0:0|0:0,0:0:0:0:
256,166,54939,5,0,0:0:0:0:
264,167,55022,1,0,0:0:0:0:
272,172,55105,1,0,0:0:0:0:
278,178,55188,1,0,0:0:0:0:
281,187,55272,1,2,0:0:0:0:
281,196,55355,1,0,0:0:0:0:
278,205,55438,1,0,0:0:0:0:
272,211,55521,1,0,0:0:0:0:
264,216,55605,5,0,0:0:0:0:
256,217,55688,1,0,0:0:0:0:
247,216,55771,1,0,0:0:0:0:
239,211,55854,1,0,0:0:0:0:
233,205,55938,1,2,0:0:0:0:
230,196,56021,1,0,0:0:0:0:
230,187,56104,1,0,0:0:0:0:
384,32,56271,6,0,B|476:32,1,67.5000007867814,0|0,0:0|0:0,0:0:0:0:
367,63,56437,2,0,B|459:63,1,67.5000007867814,0|0,0:0|0:0,0:0:0:0:
425,147,56604,2,0,B|517:147,1,67.5000007867814,2|0,0:0|0:0,0:0:0:0:
408,178,56770,2,0,B|500:178,1,67.5000007867814,0|0,0:0|0:0,0:0:0:0:
355,331,56937,6,0,B|263:331,1,67.5000007867814,0|0,0:0|0:0,0:0:0:0:
372,300,57103,2,0,B|280:300,1,67.5000007867814,0|0,0:0|0:0,0:0:0:0:
314,216,57270,2,0,B|222:216,1,67.5000007867814,2|0,0:0|0:0,0:0:0:0:
331,185,57436,2,0,B|239:185,1,67.5000007867814,0|0,0:0|0:0,0:0:0:0:
238,12,57603,6,0,L|222:100,1,67.5000007867814,0|0,0:0|0:0,0:0:0:0:
214,29,57770,2,0,L|198:117,1,67.5000007867814,0|0,0:0|0:0,0:0:0:0:
55,93,57936,2,0,L|71:181,1,67.5000007867814,2|0,0:0|0:0,0:0:0:0:
79,110,58103,2,0,L|95:198,1,67.5000007867814,0|0,0:0|0:0,0:0:0:0:
235,207,58269,6,0,L|219:295,1,67.5000007867814,0|0,0:0|0:0,0:0:0:0:
211,224,58436,2,0,L|195:312,1,67.5000007867814,0|0,0:0|0:0,0:0:0:0:
52,288,58602,2,0,L|68:376,1,67.5000007867814,2|0,0:0|0:0,0:0:0:0:
76,305,58769,2,0,L|92:393,1,67.5000007867814,0|0,0:0|0:0,0:0:0:0:
97,181,58935,5,0,0:0:0:0:
127,159,59018,1,0,0:0:0:0:
140,123,59102,1,0,0:0:0:0:
138,86,59185,1,0,0:0:0:0:
121,53,59268,1,2,0:0:0:0:
152,73,59352,1,0,0:0:0:0:
188,76,59435,1,0,0:0:0:0:
224,69,59518,1,0,0:0:0:0:
256,50,59601,1,0,0:0:0:0:
288,69,59685,1,0,0:0:0:0:
324,76,59768,1,0,0:0:0:0:
360,73,59851,1,0,0:0:0:0:
391,53,59935,1,2,0:0:0:0:
374,86,60018,1,0,0:0:0:0:
372,123,60101,1,0,0:0:0:0:
385,159,60185,1,0,0:0:0:0:
415,181,60267,5,0,0:0:0:0:
256,192,60351,12,2,61267,0:0:0:0:
256,192,61600,5,4,1:2:0:0:
256,192,62266,5,4,1:2:0:0:
184,79,62599,5,0,1:0:0:0:
256,95,62682,1,0,1:0:0:0:
328,79,62765,1,0,1:0:0:0:
431,334,62932,6,0,B|471:310,6,44.9999988079071,8|0|8|0|8|0|8,1:2|0:0|1:2|0:0|1:2|0:0|1:2,0:0:0:0:
412,241,63265,2,0,B|452:217,6,45,8|0|8|0|8|0|8,1:2|0:0|1:2|0:0|1:2|0:0|1:2,0:0:0:0:
393,148,63598,2,0,B|433:124,6,45,8|0|8|0|8|0|8,1:2|0:0|1:2|0:0|1:2|0:0|1:2,0:0:0:0:
328,53,63931,6,0,L|277:53,1,44.9999988079071,2|0,0:0|0:0,0:0:0:0:
267,53,64014,2,0,L|216:53,1,44.9999988079071,2|0,0:0|0:0,0:0:0:0:
206,53,64098,1,2,0:0:0:0:
81,50,64264,6,0,B|41:74,6,44.9999988079071,8|0|8|0|8|0|8,1:2|0:0|1:2|0:0|1:2|0:0|1:2,0:0:0:0:
100,143,64597,2,0,B|60:167,6,45,8|0|8|0|8|0|8,1:2|0:0|1:2|0:0|1:2|0:0|1:2,0:0:0:0:
119,236,64930,2,0,B|79:260,6,45,8|0|8|0|8|0|8,1:2|0:0|1:2|0:0|1:2|0:0|1:2,0:0:0:0:
184,331,65263,6,0,L|235:331,1,44.9999988079071,2|0,0:0|0:0,0:0:0:0:
245,331,65346,2,0,L|296:331,1,44.9999988079071,2|0,0:0|0:0,0:0:0:0:
306,331,65430,1,2,0:0:0:0:
390,246,65596,6,0,P|397:228|403:198,6,44.9999988079071,8|0|8|0|8|0|8,1:2|0:0|1:2|0:0|1:2|0:0|1:2,0:0:0:0:
310,58,65929,2,0,P|292:51|262:45,6,44.9999988079071,8|0|8|0|8|0|8,1:2|0:0|1:2|0:0|1:2|0:0|1:2,0:0:0:0:
122,138,66262,2,0,P|115:156|109:186,6,44.9999988079071,8|0|8|0|8|0|8,1:2|0:0|1:2|0:0|1:2|0:0|1:2,0:0:0:0:
202,326,66595,6,0,B|209:408,4,59.9999984105428,0|0|0|0|0,1:0|1:0|1:0|1:0|1:0,0:0:0:0:
215,300,66929,5,0,1:0:0:0:
288,277,67012,1,0,0:0:0:0:
361,254,67095,2,0,P|369:305|360:351,1,89.9999976158143,2|2,0:0|0:0,0:0:0:0:
309,198,67262,2,0,B|321:154,2,45,8|0|0,0:0|0:0|0:0,0:0:0:0:
392,109,67428,2,0,B|380:65,2,45,8|0|0,0:0|0:0|0:0,0:0:0:0:
306,19,67595,6,0,L|197:34,1,89.9999976158143,2|2,0:0|0:0,0:0:0:0:
151,130,67761,2,0,L|42:145,1,89.9999976158143,2|2,0:0|0:0,0:0:0:0:
22,253,67928,5,0,1:0:0:0:
117,0,68094,1,0,1:0:0:0:
361,254,68261,6,0,P|379:295|374:354,1,89.9999976158143,0|0,1:2|2:2,1:2:0:0:
151,253,68427,2,0,P|133:294|133:339,1,89.9999976158143,0|0,1:2|2:2,1:2:0:0:
256,339,68594,2,0,L|256:387,4,44.9999988079071,0|0|0|0|0,1:0|0:0|0:0|0:0|0:0,0:0:0:0:
388,124,68927,5,8,0:0:0:0:
124,260,69093,1,0,0:0:0:0:
336,16,69260,5,2,0:0:0:0:
176,368,69426,1,0,0:0:0:0:
388,124,69593,6,0,B|436:112,6,45,8|0|8|0|8|0|8,1:2|0:0|1:2|0:0|1:2|0:0|1:2,0:0:0:0:
388,260,69926,2,0,B|436:272,6,45,8|0|8|0|8|0|8,1:2|0:0|1:2|0:0|1:2|0:0|1:2,0:0:0:0:
124,124,70259,6,0,B|76:112,6,45,8|8|8|8|8|8|8,1:2|1:2|1:2|0:0|0:0|0:0|0:0,0:0:0:0:
124,260,70592,2,0,B|76:272,6,45,2|2|2|2|2|2|2,0:0|0:0|0:0|0:0|0:0|0:0|0:0,0:0:0:0:
256,118,70925,6,0,P|261:81|258:63,6,44.9999988079071,8|0|8|0|8|0|8,1:2|0:0|1:2|0:0|1:2|0:0|1:2,0:0:0:0:
320,229,71258,2,0,P|349:251|366:258,6,44.9999988079071,8|0|8|0|8|0|8,1:2|0:0|1:2|0:0|1:2|0:0|1:2,0:0:0:0:
191,229,71591,2,0,P|157:243|143:254,6,44.9999988079071,8|0|8|0|8|0|8,1:2|0:0|1:2|0:0|1:2|0:0|1:2,0:0:0:0:
255,294,71924,6,0,B|279:386,1,90,2|0,0:0|0:0,0:0:0:0:
320,229,72091,2,0,B|402:277,1,90,2|0,0:0|0:0,0:0:0:0:
288,99,72257,2,0,B|380:75,1,90,2|0,0:0|0:0,0:0:0:0:
108,77,72424,2,0,B|156:-5,1,90,2|0,0:0|0:0,0:0:0:0:
0,271,72590,6,0,P|-2:299|0:316,2,44.9999988079071,2|0|0,0:0|0:0|0:0,0:0:0:0:
83,220,72757,1,2,0:0:0:0:
263,339,72924,6,0,P|265:367|263:384,2,44.9999988079071,2|0|0,0:0|0:0|0:0,0:0:0:0:
170,289,73090,1,2,0:0:0:0:
170,289,73257,5,0,1:0:0:0:
471,12,73590,6,0,B|420:17,1,44.9999988079071,8|0,1:2|0:0,0:0:0:0:
461,58,73673,2,0,B|416:62,1,45,8|0,1:2|0:0,0:0:0:0:
451,105,73756,2,0,B|400:110,1,45,8|0,1:2|0:0,0:0:0:0:
441,152,73839,2,0,B|396:156,1,45,8|0,1:2|0:0,0:0:0:0:
325,97,73923,6,0,B|274:102,1,45,8|0,1:2|0:0,0:0:0:0:
315,144,74006,2,0,B|270:148,1,45,8|0,1:2|0:0,0:0:0:0:
305,191,74089,2,0,B|254:196,1,45,8|0,1:2|0:0,0:0:0:0:
295,238,74172,2,0,B|250:242,1,45,8|0,1:2|0:0,0:0:0:0:
179,182,74256,6,0,B|128:187,1,45,8|0,1:2|0:0,0:0:0:0:
169,229,74339,2,0,B|124:233,1,45,8|0,1:2|0:0,0:0:0:0:
159,276,74422,2,0,B|108:281,1,45,8|0,1:2|0:0,0:0:0:0:
149,323,74505,2,0,B|104:327,1,45,8|0,1:2|0:0,0:0:0:0:
239,340,74589,6,0,P|244:375|243:393,6,44.9999988079071,2|0|2|0|2|0|2,0:0|0:0|0:0|0:0|0:0|0:0|0:0,0:0:0:0:
98,353,74922,6,0,B|149:348,1,44.9999988079071,8|0,1:2|0:0,0:0:0:0:
108,307,75005,2,0,B|153:303,1,45,8|0,1:2|0:0,0:0:0:0:
118,260,75088,2,0,B|169:255,1,45,8|0,1:2|0:0,0:0:0:0:
128,213,75171,2,0,B|173:209,1,45,8|0,1:2|0:0,0:0:0:0:
244,268,75255,6,0,B|295:263,1,45,8|0,1:2|0:0,0:0:0:0:
254,221,75338,2,0,B|299:217,1,45,8|0,1:2|0:0,0:0:0:0:
264,174,75421,2,0,B|315:169,1,45,8|0,1:2|0:0,0:0:0:0:
274,127,75504,2,0,B|319:123,1,45,8|0,1:2|0:0,0:0:0:0:
390,183,75588,6,0,B|441:178,1,45,8|0,1:2|0:0,0:0:0:0:
400,136,75671,2,0,B|445:132,1,45,8|0,1:2|0:0,0:0:0:0:
410,89,75754,2,0,B|461:84,1,45,8|0,1:2|0:0,0:0:0:0:
420,42,75837,2,0,B|465:38,1,45,8|0,1:2|0:0,0:0:0:0:
289,44,75921,6,0,P|284:9|285:-9,6,44.9999988079071,2|0|2|0|2|0|2,0:0|0:0|0:0|0:0|0:0|0:0|0:0,0:0:0:0:
343,104,76254,6,0,B|377:70,1,45,8|0,1:2|0:0,0:0:0:0:
370,145,76337,2,0,B|415:127,1,45,8|0,1:2|0:0,0:0:0:0:
380,192,76421,2,0,B|428:192,1,45,8|0,1:2|0:0,0:0:0:0:
370,240,76504,2,0,B|414:259,1,45,8|0,1:2|0:0,0:0:0:0:
288,311,76587,6,0,B|301:357,1,45,8|0,1:2|0:0,0:0:0:0:
239,314,76670,2,0,B|232:362,1,45,8|0,1:2|0:0,0:0:0:0:
194,299,76754,2,0,B|170:340,1,45,8|0,1:2|0:0,0:0:0:0:
157,266,76837,2,0,B|118:295,1,45,8|0,1:2|0:0,0:0:0:0:
136,160,76920,6,0,B|89:148,1,45,8|0,1:2|0:0,0:0:0:0:
158,116,77003,2,0,B|120:86,1,45,8|0,1:2|0:0,0:0:0:0:
194,84,77087,2,0,B|170:43,1,45,8|0,1:2|0:0,0:0:0:0:
240,69,77170,2,0,B|235:21,1,45,8|0,1:2|0:0,0:0:0:0:
343,104,77253,6,0,P|366:83|385:52,3,59.9999984105428,2|0|0|0,0:0|0:0|0:0|0:0,0:0:0:0:
402,263,77586,5,8,0:0:0:0:
410,299,77670,1,0,0:0:0:0:
418,335,77753,1,2,0:0:0:0:
117,312,77919,5,8,0:0:0:0:
109,276,78003,1,0,0:0:0:0:
101,240,78086,1,8,0:0:0:0:
228,16,78252,5,2,0:0:0:0:
284,368,78419,2,0,B|329:382,4,44.9999988079071,8|8|8|8|8,0:0|0:0|0:0|0:0|0:0,0:0:0:0:
117,312,78752,1,0,1:0:0:0:
151,130,78919,6,0,P|133:89|138:30,1,89.9999976158143,0|0,1:2|2:2,1:2:0:0:
360,253,79085,2,0,P|378:294|378:339,1,89.9999976158143,0|0,1:2|2:2,1:2:0:0:
289,100,79252,2,0,L|302:54,2,44.9999988079071,0|0|0,1:0|0:0|0:0,0:0:0:0:
223,284,79418,2,0,L|210:330,2,44.9999988079071,0|0|0,1:0|0:0|0:0,0:0:0:0:
216,41,79585,5,8,0:0:0:0:
296,343,79751,1,0,0:0:0:0:
307,0,79918,5,2,0:0:0:0:
206,383,80084,1,0,0:0:0:0:
146,124,80251,6,0,B|101:116,6,44.9999988079071,8|0|8|0|8|0|8,1:2|0:0|1:2|0:0|1:2|0:0|1:2,0:0:0:0:
366,124,80584,2,0,B|411:116,6,44.9999988079071,8|0|8|0|8|0|8,1:2|0:0|1:2|0:0|1:2|0:0|1:2,0:0:0:0:
431,250,80917,6,0,B|476:258,4,44.9999988079071,2|2|2|2|2,0:0|0:0|0:0|0:0|0:0,0:0:0:0:
256,185,81167,1,0,0:0:0:0:
81,250,81250,2,0,B|36:258,6,44.9999988079071,2|2|2|2|2|0|2,0:0|0:0|0:0|0:0|0:0|0:0|0:0,0:0:0:0:
148,320,81583,6,0,B|134:379,1,44.9999988079071,8|0,1:2|0:0,0:0:0:0:
199,341,81666,2,0,B|185:400,1,44.9999988079071,8|0,1:2|0:0,0:0:0:0:
252,320,81750,2,0,B|238:379,1,44.9999988079071,8|0,1:2|0:0,0:0:0:0:
303,341,81833,2,0,B|289:400,1,44.9999988079071,8|0,1:2|0:0,0:0:0:0:
356,320,81916,2,0,B|342:379,1,44.9999988079071,8|0,1:2|0:0,0:0:0:0:
407,341,81999,2,0,B|393:400,1,44.9999988079071,8|0,1:2|0:0,0:0:0:0:
460,320,82083,2,0,P|471:298|472:273,10,44.9999988079071,8|0|8|0|8|0|8|0|8|0|8,1:2|0:0|1:2|0:0|1:2|0:0|1:2|0:0|1:2|0:0|1:2,0:0:0:0:
467,146,82582,5,2,1:2:0:0:
486,95,82665,1,0,0:0:0:0:
472,42,82749,1,2,1:2:0:0:
429,8,82832,1,0,0:0:0:0:
375,9,82915,1,2,1:2:0:0:
331,40,82998,1,0,0:0:0:0:
327,94,83082,1,2,1:2:0:0:
348,143,83165,1,0,0:0:0:0:
375,189,83248,5,2,1:2:0:0:
394,240,83331,1,0,0:0:0:0:
380,293,83415,1,2,1:2:0:0:
337,327,83498,1,0,0:0:0:0:
283,326,83581,1,2,1:2:0:0:
239,295,83664,1,0,0:0:0:0:
235,241,83748,1,2,1:2:0:0:
256,192,83831,1,0,0:0:0:0:
256,192,83914,5,0,1:0:0:0:
256,192,84247,5,4,1:2:0:0:
215,61,94905,6,0,P|257:67|303:61,1,89.9999976158143,0|0,1:0|0:0,0:0:0:0:
387,151,95072,2,0,P|381:193|387:239,1,89.9999976158143,0|0,0:0|0:0,0:0:0:0:
297,323,95238,2,0,P|255:317|209:323,1,89.9999976158143,2|0,1:2|0:0,0:0:0:0:
125,233,95405,2,0,P|131:191|125:145,1,89.9999976158143,0|0,0:0|0:0,0:0:0:0:
269,55,95571,6,0,P|305:77|350:89,1,89.9999976158143,0|0,0:0|0:0,0:0:0:0:
392,205,95738,2,0,P|370:241|358:286,1,89.9999976158143,0|0,0:0|0:0,0:0:0:0:
242,328,95904,2,0,P|206:306|161:294,1,89.9999976158143,2|0,0:0|0:0,0:0:0:0:
119,178,96071,2,0,P|141:142|153:97,1,89.9999976158143,0|0,0:0|0:0,0:0:0:0:
319,70,96237,6,0,P|345:104|381:132,1,89.9999976158143,0|0,0:0|0:0,0:0:0:0:
377,255,96404,2,0,P|343:281|315:317,1,89.9999976158143,0|0,0:0|0:0,0:0:0:0:
192,313,96570,2,0,P|166:279|130:251,1,89.9999976158143,2|0,0:0|0:0,0:0:0:0:
134,128,96737,2,0,P|168:102|196:66,1,89.9999976158143,0|0,0:0|0:0,0:0:0:0:
362,104,96903,6,0,P|372:146|395:186,1,89.9999976158143,0|0,0:0|0:0,0:0:0:0:
343,298,97070,2,0,P|301:308|261:331,1,89.9999976158143,0|0,0:0|0:0,0:0:0:0:
149,279,97236,2,0,P|139:237|116:197,1,89.9999976158143,2|0,0:0|0:0,0:0:0:0:
168,85,97403,2,0,P|210:75|250:52,1,89.9999976158143,0|0,0:0|0:0,0:0:0:0:
395,187,97570,6,0,P|405:233|393:274,1,89.9999976158143,0|0,0:0|0:0,0:0:0:0:
261,331,97736,2,0,P|215:341|173:329,1,89.9999976158143,0|0,0:0|0:0,0:0:0:0:
117,197,97903,2,0,P|107:151|118:109,1,89.9999976158143,2|0,0:0|0:0,0:0:0:0:
251,53,98069,2,0,P|297:43|338:54,1,89.9999976158143,0|0,0:0|0:0,0:0:0:0:
385,241,98236,6,0,P|377:287|350:322,1,89.9999976158143,0|0,0:0|0:0,0:0:0:0:
206,321,98402,2,0,P|160:313|125:286,1,89.9999976158143,0|0,0:0|0:0,0:0:0:0:
126,142,98569,2,0,P|134:96|161:61,1,89.9999976158143,2|0,0:0|0:0,0:0:0:0:
305,62,98735,2,0,P|351:70|386:97,1,89.9999976158143,0|0,0:0|0:0,0:0:0:0:
357,286,98902,6,0,P|332:326|294:347,1,89.9999976158143,0|0,0:0|0:0,0:0:0:0:
161,293,99068,2,0,P|121:268|100:230,1,89.9999976158143,0|0,0:0|0:0,0:0:0:0:
154,97,99235,2,0,P|179:57|217:36,1,89.9999976158143,2|0,0:0|0:0,0:0:0:0:
350,90,99401,2,0,P|390:115|411:153,1,89.9999976158143,0|0,0:0|0:0,0:0:0:0:
312,319,99568,6,0,P|273:345|230:350,1,89.9999976158143,0|0,0:0|0:0,0:0:0:0:
128,248,99734,2,0,P|102:209|97:166,1,89.9999976158143,0|0,0:0|0:0,0:0:0:0:
199,64,99901,2,0,P|238:38|281:33,1,89.9999976158143,2|0,0:0|0:0,0:0:0:0:
383,135,100067,2,0,P|409:174|414:217,1,89.9999976158143,0|0,0:0|0:0,0:0:0:0:
312,319,100234,5,2,0:0:0:0:
270,302,100317,1,0,0:0:0:0:
227,285,100401,1,0,0:0:0:0:
185,269,100484,1,0,0:0:0:0:
129,248,100567,5,2,0:0:0:0:
146,206,100650,1,0,0:0:0:0:
163,163,100734,1,0,0:0:0:0:
179,121,100817,1,0,0:0:0:0:
200,65,100900,5,2,0:0:0:0:
242,82,100983,1,0,0:0:0:0:
285,99,101067,1,0,0:0:0:0:
327,115,101150,1,0,0:0:0:0:
383,136,101233,5,2,0:0:0:0:
366,178,101316,1,0,0:0:0:0:
349,221,101400,2,0,L|318:305,1,89.9999976158143,0|0,0:0|0:0,0:0:0:0:
200,335,101566,5,2,0:0:0:0:
181,289,101649,1,0,0:0:0:0:
161,242,101733,1,0,0:0:0:0:
140,197,101816,1,0,0:0:0:0:
113,137,101899,5,2,0:0:0:0:
159,118,101982,1,0,0:0:0:0:
206,97,102066,1,0,0:0:0:0:
251,77,102149,1,0,0:0:0:0:
311,50,102232,5,2,0:0:0:0:
330,96,102315,1,0,0:0:0:0:
350,142,102399,1,0,0:0:0:0:
371,188,102482,1,0,0:0:0:0:
398,247,102565,5,2,0:0:0:0:
352,267,102648,1,0,0:0:0:0:
305,287,102732,2,0,L|216:328,1,89.9999976158143,0|0,0:0|0:0,0:0:0:0:
88,270,102899,6,0,P|79:209|92:169,1,89.9999976158143,2|0,0:0|0:0,0:0:0:0:
226,237,103065,2,0,P|233:281|224:325,1,89.9999976158143,0|0,0:0|0:0,0:0:0:0:
73,277,103232,2,0,P|64:216|77:176,1,89.9999976158143,2|0,0:0|0:0,0:0:0:0:
241,230,103398,2,0,P|250:291|237:331,1,89.9999976158143,0|0,0:0|0:0,0:0:0:0:
424,114,103565,6,0,P|433:175|420:215,1,89.9999976158143,2|0,0:0|0:0,0:0:0:0:
285,146,103731,2,0,P|278:102|288:59,1,89.9999976158143,0|0,0:0|0:0,0:0:0:0:
439,107,103898,2,0,P|448:168|435:208,1,89.9999976158143,2|0,0:0|0:0,0:0:0:0:
271,154,104064,2,0,P|262:93|275:53,1,89.9999976158143,0|0,0:0|0:0,0:0:0:0:
346,315,104231,6,0,L|455:294,1,89.9999976158143,2|0,0:0|0:0,0:0:0:0:
166,315,104397,2,0,L|57:294,1,89.9999976158143,0|0,0:0|0:0,0:0:0:0:
361,223,104564,2,0,L|448:164,1,89.9999976158143,2|0,0:0|0:0,0:0:0:0:
151,223,104730,2,0,L|64:164,1,89.9999976158143,0|0,0:0|0:0,0:0:0:0:
342,136,104897,2,0,L|375:47,1,89.9999976158143,2|0,0:0|0:0,0:0:0:0:
170,136,105063,2,0,L|137:47,1,89.9999976158143,0|0,0:0|0:0,0:0:0:0:
342,248,105230,2,0,L|375:337,1,89.9999976158143,2|0,0:0|0:0,0:0:0:0:
170,248,105396,2,0,L|137:337,1,89.9999976158143,0|0,0:0|0:0,0:0:0:0:
256,192,105563,5,4,0:0:0:0:
280,164,105646,1,0,0:0:0:0:
316,156,105730,1,2,0:0:0:0:
352,164,105813,1,0,0:0:0:0:
376,192,105896,2,0,B|436:192|480:120|446:57,1,180,2|2,0:0|0:0,0:0:0:0:
421,33,106146,1,0,0:0:0:0:
384,36,106229,6,0,B|344:57|298:36,1,89.9999976158143,2|0,0:0|0:0,0:0:0:0:
214,36,106396,2,0,B|168:58|128:36,1,89.9999976158143,0|0,0:0|0:0,0:0:0:0:
128,348,106562,2,0,B|168:326|214:348,1,89.9999976158143,2|0,0:0|0:0,0:0:0:0:
298,348,106729,2,0,B|344:326|384:348,1,89.9999976158143,0|0,0:0|0:0,0:0:0:0:
256,192,106895,5,2,0:0:0:0:
232,164,106978,1,0,0:0:0:0:
196,156,107062,1,2,0:0:0:0:
160,164,107145,1,0,0:0:0:0:
136,192,107228,2,0,B|76:192|32:120|65:58,1,180,2|0,0:0|0:0,0:0:0:0:
256,91,107478,1,0,0:0:0:0:
376,192,107561,2,0,B|436:192|480:120|447:58,1,180,2|0,0:0|0:0,0:0:0:0:
256,91,107811,1,0,0:0:0:0:
136,192,107894,2,0,B|76:192|32:120|65:58,1,180,2|0,0:0|0:0,0:0:0:0:
318,299,108227,5,2,0:0:0:0:
346,323,108311,1,0,0:0:0:0:
382,331,108394,1,2,0:0:0:0:
418,323,108477,1,0,0:0:0:0:
446,299,108561,1,2,0:0:0:0:
446,85,108727,1,2,0:0:0:0:
418,61,108811,1,0,0:0:0:0:
382,53,108894,6,0,L|173:120,1,179.999995231629,2|0,0:0|0:0,0:0:0:0:
130,331,109227,2,0,L|338:263,1,179.999995231629,2|0,0:0|0:0,0:0:0:0:
196,48,109560,6,0,B|168:84|169:131,1,90,0|0,0:0|0:0,0:0:0:0:
316,336,109726,2,0,B|344:300|343:253,1,90,2|0,0:0|0:0,0:0:0:0:
166,26,109893,2,0,B|138:62|139:109,1,90,0|0,0:0|0:0,0:0:0:0:
346,358,110059,2,0,B|374:322|373:275,1,90,2|0,0:0|0:0,0:0:0:0:
433,118,110226,6,0,B|388:83|331:84,1,89.9999976158143,0|0,0:0|0:0,0:0:0:0:
78,265,110392,2,0,B|123:300|180:299,1,89.9999976158143,2|0,0:0|0:0,0:0:0:0:
460,81,110559,2,0,B|415:46|358:48,1,89.9999976158143,2|0,0:0|0:0,0:0:0:0:
51,302,110725,2,0,B|96:337|153:335,1,89.9999976158143,2|0,0:0|0:0,0:0:0:0:
320,272,110892,6,0,B|240:232,1,90,4|0,0:0|0:0,0:0:0:0:
192,112,111058,2,0,B|272:152,1,90,2|0,0:0|0:0,0:0:0:0:
420,244,111225,2,0,P|344:288|326:374,1,179.999995231629,4|2,0:0|0:0,0:0:0:0:
185,374,111475,1,0,0:0:0:0:
185,374,111558,2,0,P|167:288|92:244,1,179.999995231629,2|0,0:0|0:0,0:0:0:0:
256,12,111891,2,0,L|256:200,1,179.999995231629,2|0,0:0|0:0,0:0:0:0:
190,343,112224,6,0,B|168:336|144:308|144:272,1,90,2|0,0:0|0:0,0:0:0:0:
321,343,112391,2,0,B|344:336|368:308|368:272,1,90,2|0,0:0|0:0,0:0:0:0:
118,192,112557,2,0,B|182:20,1,180,2|2,0:0|0:0,0:0:0:0:
256,61,112807,1,0,0:0:0:0:
331,23,112890,2,0,B|393:191,1,180,2|0,0:0|0:0,0:0:0:0:
368,273,113140,1,0,0:0:0:0:
302,326,113223,2,0,P|256:263|210:326,1,179.999995231629,2|0,0:0|0:0,0:0:0:0:
30,157,113556,5,4,0:0:0:0:
66,165,113640,1,0,0:0:0:0:
102,157,113723,1,2,0:0:0:0:
138,165,113806,1,0,0:0:0:0:
174,153,113889,2,0,P|209:92|157:5,1,179.999995231629,0|2,0:0|0:0,0:0:0:0:
354,5,114139,1,0,0:0:0:0:
354,5,114222,2,0,P|303:74|338:153,1,179.999995231629,4|0,0:0|0:0,0:0:0:0:
482,364,114556,1,2,0:0:0:0:
30,364,114722,1,0,0:0:0:0:
255,1,114889,5,4,0:0:0:0:
289,18,114972,1,0,0:0:0:0:
319,44,115055,1,2,0:0:0:0:
336,78,115138,1,0,0:0:0:0:
336,116,115222,1,4,0:0:0:0:
319,151,115305,1,0,0:0:0:0:
289,176,115388,1,2,0:0:0:0:
255,193,115471,1,0,0:0:0:0:
221,210,115555,1,4,0:0:0:0:
191,236,115638,1,0,0:0:0:0:
174,270,115721,1,2,0:0:0:0:
174,308,115805,1,0,0:0:0:0:
191,342,115888,2,0,P|209:362|230:372,6,44.9999988079071,2|0|2|0|2|0|2,0:0|0:0|0:0|0:0|0:0|0:0|0:0,0:0:0:0:
256,368,116221,5,4,1:2:0:0:
256,368,116887,1,4,1:2:0:0:
256,16,117220,5,0,1:0:0:0:
256,16,117303,1,0,1:0:0:0:
256,16,117386,1,0,1:0:0:0:
41,40,117553,6,0,B|41:132,1,90,0|0,0:0|0:0,0:0:0:0:
113,344,117720,2,0,B|113:254,1,90,0|0,0:0|0:0,0:0:0:0:
184,40,117886,2,0,B|184:130,1,90,0|0,0:0|0:0,0:0:0:0:
256,344,118053,2,0,B|256:254,1,90,0|0,0:0|0:0,0:0:0:0:
471,40,118219,6,0,B|471:132,1,90,0|0,0:0|0:0,0:0:0:0:
399,344,118386,2,0,B|399:254,1,90,0|0,0:0|0:0,0:0:0:0:
328,40,118552,2,0,B|328:130,1,90,2|2,0:2|0:2,0:0:0:0:
256,344,118719,2,0,B|256:254,1,90,2|2,0:2|0:2,0:0:0:0:
41,40,118885,6,0,B|41:132,1,90,0|0,0:0|0:0,0:0:0:0:
184,40,119052,2,0,B|184:130,1,90,0|0,0:0|0:0,0:0:0:0:
328,40,119218,2,0,B|328:130,1,90,0|0,0:0|0:0,0:0:0:0:
471,40,119385,2,0,B|471:132,1,90,0|0,0:0|0:0,0:0:0:0:
328,344,119551,2,0,B|328:254,1,90,0|0,0:0|0:0,0:0:0:0:
184,344,119717,2,0,B|184:254,1,90,0|0,0:0|0:0,0:0:0:0:
256,61,119884,2,0,B|256:13,4,44.9999988079071,2|0|2|0|2,0:2|0:0|0:2|0:0|0:2,0:0:0:0:
61,154,120217,6,0,B|149:171,1,90,0|0,0:0|0:0,0:0:0:0:
450,229,120383,2,0,B|362:212,1,90,0|0,0:0|0:0,0:0:0:0:
145,27,120550,2,0,B|195:102,1,90,0|0,0:0|0:0,0:0:0:0:
366,356,120716,2,0,B|316:281,1,90,0|0,0:0|0:0,0:0:0:0:
294,0,120883,2,0,B|277:86,1,90,0|0,0:0|0:0,0:0:0:0:
218,386,121049,2,0,B|235:298,1,90,0|0,0:0|0:0,0:0:0:0:
420,81,121216,2,0,P|385:113|345:131,1,89.9999976158143,0|0,0:2|0:0,0:0:0:0:
92,303,121383,2,0,P|127:271|167:253,1,89.9999976158143,2|0,0:2|0:0,0:0:0:0:
362,212,121549,6,0,B|450:229,1,90,2|0,1:2|0:0,0:0:0:0:
61,154,121715,2,0,B|149:171,1,90,0|0,0:0|0:0,0:0:0:0:
316,281,121882,2,0,B|366:356,1,90,2|0,0:2|0:0,0:0:0:0:
145,27,122049,2,0,B|195:102,1,90
235,298,122215,2,0,B|218:386,1,90,0|0,0:0|0:0,0:0:0:0:
293,0,122382,2,0,B|276:85,1,90
166,252,122548,2,0,B|91:302,1,90,0|0,0:0|0:0,0:0:0:0:
420,81,122715,2,0,B|345:131,1,90,0|0,0:0|0:0,0:0:0:0:
42,238,122882,5,0,0:0:0:0:
15,161,122965,1,0,0:0:0:0:
28,81,123048,2,0,B|64:-1,1,89.9999976158143,0|0,0:0|0:0,0:0:0:0:
98,129,123215,2,0,B|149:202|149:202|201:129,1,180,0|0,0:0|0:0,0:0:0:0:
256,67,123465,1,0,0:0:0:0:
310,127,123548,2,0,B|363:202|363:202|414:129,1,180,2|0,0:2|0:2,0:0:0:0:
484,81,123798,1,0,0:0:0:0:
484,81,123881,2,0,B|448:-1,1,89.9999976158143,2|0,0:2|0:0,0:0:0:0:
456,219,124048,2,0,B|492:301,1,89.9999976158143,0|0,0:2|0:0,0:0:0:0:
400,368,124214,5,0,0:0:0:0:
326,347,124297,1,0,0:0:0:0:
256,379,124381,1,0,0:0:0:0:
186,347,124464,1,0,0:0:0:0:
112,368,124547,2,0,B|43:360|15:280|51:232,1,180
120,192,124797,1,0,0:0:0:0:
51,152,124880,2,0,B|15:104|43:24,2,89.9999976158143,2|0|2,0:2|0:0|0:2,0:0:0:0:
123,119,125130,1,0,0:0:0:0:
166,51,125213,2,0,L|217:36,6,44.9999988079071,2|0|2|0|2|0|2,0:2|0:0|0:2|0:0|0:2|0:0|0:2,0:0:0:0:
256,128,125546,5,0,0:0:0:0:
317,74,125630,1,0,0:0:0:0:
397,80,125713,1,0,0:0:0:0:
456,134,125796,1,0,0:0:0:0:
478,211,125879,2,0,B|402:375,1,180,0|0,0:0|0:0,0:0:0:0:
256,312,126129,1,0,0:0:0:0:
110,375,126212,2,0,B|34:211,1,180,0|0,0:0|0:0,0:0:0:0:
71,139,126462,1,0,0:0:0:0:
109,66,126546,6,0,L|95:13,2,44.9999988079071,2|0|0,0:2|0:0|0:0,0:0:0:0:
403,66,126712,2,0,L|417:13,2,44.9999988079071,2|0|0,0:2|0:0|0:0,0:0:0:0:
390,316,126879,6,0,B|300:316,1,90,2|0,0:2|0:0,0:0:0:0:
122,316,127045,2,0,B|212:316,1,90,2|0,0:2|0:0,0:0:0:0:
430,236,127212,2,0,B|340:236,1,90,2|0,0:2|0:0,0:0:0:0:
82,236,127378,2,0,B|172:236,1,90,2|0,0:2|0:0,0:0:0:0:
466,152,127545,2,0,B|376:152,1,90,2|0,0:2|0:0,0:0:0:0:
46,152,127711,2,0,B|136:152,1,90,2|0,0:2|0:0,0:0:0:0:
256,128,127878,1,2,1:2:0:0:
256,128,128211,6,0,B|256:224,1,90,2|0,0:2|0:0,0:0:0:0:
192,267,128377,1,2,0:2:0:0:
256,317,128461,1,0,0:0:0:0:
320,267,128544,2,0,B|408:219|492:263,1,180,2|2,0:2|0:2,0:0:0:0:
469,341,128794,1,0,0:0:0:0:
388,335,128877,2,0,B|420:155,1,180,2|0,0:2|0:0,0:0:0:0:
473,96,129127,1,0,0:0:0:0:
436,23,129210,2,0,P|395:13|339:16,1,89.9999976158143,2|2,0:2|0:2,0:0:0:0:
164,14,129377,2,0,P|119:12|76:23,1,89.9999976158143,2|2,0:2|0:2,0:0:0:0:
216,208,129543,5,2,0:2:0:0:
189,284,129626,1,0,0:0:0:0:
233,352,129710,1,2,0:2:0:0:
309,377,129793,1,0,0:0:0:0:
379,337,129876,2,0,P|408:266|387:165,1,179.999995231629,2|2,0:2|0:2,0:0:0:0:
133,47,130126,1,0,0:0:0:0:
133,47,130209,2,0,P|104:118|125:219,1,179.999995231629,2|0,0:2|0:0,0:0:0:0:
439,54,130459,1,0,0:0:0:0:
439,54,130542,2,0,B|491:54,4,45,2|0|2|0|2,0:2|0:0|0:2|0:0|0:2,0:0:0:0:
336,360,130875,6,0,P|310:325|256:304,1,89.9999976158143,2|0,0:2|0:0,0:0:0:0:
192,336,131042,2,0,P|151:317|124:281,1,89.9999976158143,2|0,0:2|0:0,0:0:0:0:
55,239,131208,2,0,P|129:258|209:194,1,179.999995231629,2|2,0:2|0:2,0:0:0:0:
256,134,131458,1,0,0:0:0:0:
305,199,131541,2,0,P|371:255|457:239,1,179.999995231629,2|2,0:2|0:2,0:0:0:0:
472,152,131791,1,0,0:0:0:0:
455,72,131874,2,0,P|406:62|360:78,1,89.9999976158143,2|0,0:2|0:0,0:0:0:0:
143,72,132041,2,0,P|100:61|57:72,1,89.9999976158143,2|0,0:2|0:0,0:0:0:0:
263,321,132207,5,2,0:2:0:0:
338,350,132291,1,0,0:0:0:0:
418,337,132374,1,2,0:2:0:0:
481,286,132457,1,0,0:0:0:0:
510,210,132541,1,2,0:2:0:0:
497,130,132624,1,0,0:0:0:0:
446,67,132707,1,2,0:2:0:0:
371,38,132790,1,0,0:0:0:0:
291,51,132874,1,2,0:2:0:0:
228,102,132957,1,0,0:0:0:0:
199,178,133040,1,2,0:2:0:0:
212,258,133123,1,0,0:0:0:0:
263,321,133207,2,0,P|306:330|369:307,1,89.9999976158143,2|0,0:2|0:0,0:0:0:0:
228,102,133373,2,0,P|185:93|122:116,1,89.9999976158143,2|0,0:2|0:0,0:0:0:0:
92,260,133540,5,2,0:2:0:0:
151,315,133623,1,0,0:0:0:0:
212,258,133706,2,0,B|315:236,1,89.9999976158143,2|0,0:2|0:0,0:0:0:0:
379,220,133873,2,0,P|443:171|440:70,1,179.999995231629,2|2,0:2|0:2,0:0:0:0:
409,3,134123,1,0,0:0:0:0:
329,16,134206,2,0,L|309:115,1,89.9999976158143,2|0,0:2|0:0,0:0:0:0:
183,16,134372,2,0,L|203:115,1,89.9999976158143,2|0,0:2|0:0,0:0:0:0:
444,77,134539,2,0,L|424:176,1,89.9999976158143,2|0,0:2|0:2,0:0:0:0:
68,77,134705,2,0,L|88:176,1,89.9999976158143,0|0,0:0|0:0,0:0:0:0:
56,320,134872,5,2,0:2:0:0:
134,339,134955,1,0,0:0:0:0:
205,301,135038,1,2,0:2:0:0:
241,228,135122,1,0,0:0:0:0:
227,148,135205,2,0,B|415:148,1,180,2|0,0:2|0:0,0:0:0:0:
476,105,135455,1,0,0:0:0:0:
476,105,135538,2,0,P|489:152|476:191,1,89.9999976158143,2|2,0:2|0:2,0:0:0:0:
439,262,135705,2,0,P|426:309|439:348,1,89.9999976158143,2|2,0:2|0:2,0:0:0:0:
360,227,135871,2,0,B|308:227,6,45,2|0|2|0|2|0|2,0:2|0:0|0:2|0:0|0:2|0:0|0:2,0:0:0:0:
256,44,136204,6,0,B|212:32|168:44,1,90,2|2,0:2|0:2,0:0:0:0:
256,340,136371,2,0,B|300:352|344:340,1,90,2|2,0:2|0:2,0:0:0:0:
117,118,136537,1,0,1:0:0:0:
117,118,136620,1,0,0:0:0:0:
117,118,136704,2,0,B|85:150|73:194,1,90,2|2,0:2|0:2,0:0:0:0:
395,266,136870,2,0,B|427:234|439:190,1,90,2|2,0:2|0:2,0:0:0:0:
92,286,137037,1,0,0:0:0:0:
92,286,137120,1,0,0:0:0:0:
92,286,137203,2,0,B|104:330|136:362,1,90,2|2,0:2|0:2,0:0:0:0:
420,98,137370,2,0,B|408:54|376:22,1,90,2|2,0:2|0:2,0:0:0:0:
256,124,137536,5,0,0:0:0:0:
183,85,137620,1,0,0:0:0:0:
108,116,137703,1,2,0:2:0:0:
90,194,137786,1,0,0:0:0:0:
131,263,137869,1,2,0:2:0:0:
205,297,137953,1,0,0:0:0:0:
256,359,138036,1,2,0:2:0:0:
307,297,138119,1,0,0:0:0:0:
381,263,138203,1,2,0:2:0:0:
422,194,138286,1,0,0:0:0:0:
404,116,138369,1,2,0:2:0:0:
329,85,138452,1,0,0:0:0:0:
256,124,138536,1,2,0:2:0:0:
260,128,138869,5,4,1:2:0:0:
256,192,138952,12,4,140201,2:2:0:0:
