osu file format v14

[General]
AudioFilename: audio.mp3
AudioLeadIn: 0
PreviewTime: 4647
Countdown: 0
SampleSet: Normal
StackLeniency: 0.5
Mode: 0
LetterboxInBreaks: 0
WidescreenStoryboard: 1

[Editor]
Bookmarks: 18999,29616,40314,50972,61630,73620,94935,105553,117543
DistanceSpacing: 1
BeatDivisor: 4
GridSize: 4
TimelineZoom: 3.750001

[Metadata]
Title:The Big Black
TitleUnicode:The Big Black
Artist:The Quick Brown Fox
ArtistUnicode:The Quick Brown Fox
Creator:Mismagius
Version:Insane
Source:
Tags:renard queenston speedkore 4 kidz speedcore splittercore blue dragon lapfox vulpvibe halley labs ren tqbf electronic instrumental english
BeatmapID:2802273
BeatmapSetID:867737

[Difficulty]
HPDrainRate:5
CircleSize:4
OverallDifficulty:8.5
ApproachRate:9
SliderMultiplier:2.35
SliderTickRate:1

[Events]
//Background and Video events
0,0,"big black remastered OFFICIAL 2020.png",0,0
//Break Periods
2,84447,94305
//Storyboard Layer 0 (Background)
//Storyboard Layer 1 (Fail)
//Storyboard Layer 2 (Pass)
//Storyboard Layer 3 (Foreground)
//Storyboard Layer 4 (Overlay)
//Storyboard Sound Samples

[TimingPoints]
6979,333.055786844296,4,2,0,80,1,0
6979,-100,4,2,0,80,0,0
18969,-100,4,1,0,80,0,0
40284,-200,4,2,0,80,0,0
62932,-100,4,2,0,80,0,0
94905,-200,4,2,0,80,0,0
105563,-100,4,2,0,80,0,0
117553,-83.3333333333333,4,1,0,80,0,0

[Colours]
Combo1 : 255,231,155
Combo2 : 138,255,138
Combo3 : 183,216,255
Combo4 : 250,154,169

[HitObjects]
69,114,6979,5,4,0:0:0:0:
69,114,7062,1,0,0:0:0:0:
69,114,7145,1,2,0:0:0:0:
42,228,7312,2,0,P|101:229|150:198,1,117.5,2|0,0:0|0:0,0:0:0:0:
195,133,7561,1,0,0:0:0:0:
195,133,7645,2,0,B|180:177|180:177|208:249,1,117.5,2|0,0:0|0:0,0:0:0:0:
318,276,7978,2,0,B|333:232|333:232|305:160,1,117.5,2|0,0:0|0:0,0:0:0:0:
333,51,8311,5,2,0:0:0:0:
333,51,8394,1,0,0:0:0:0:
333,51,8477,1,2,0:0:0:0:
446,80,8644,2,0,L|423:212,1,117.5,2|2,0:0|0:0,0:0:0:0:
479,260,8894,1,0,0:0:0:0:
479,260,8977,2,0,P|416:279|368:253,1,117.5,2|2,0:0|0:0,0:0:0:0:
333,327,9227,1,0,0:0:0:0:
333,327,9310,2,0,P|270:308|222:334,1,117.5,2|0,0:0|0:0,0:0:0:0:
308,166,9643,5,2,0:0:0:0:
308,166,9726,1,0,0:0:0:0:
308,166,9809,1,2,0:0:0:0:
225,81,9976,2,0,L|96:92,1,117.5,2|2,0:0|0:0,0:0:0:0:
38,56,10226,1,0,0:0:0:0:
38,56,10309,2,0,P|55:113|34:164,2,117.5,2|0|2,0:0|0:0|0:0,0:0:0:0:
133,4,10809,1,0,0:0:0:0:
184,108,10975,5,0,0:0:0:0:
179,131,11058,1,0,0:0:0:0:
175,154,11142,1,2,0:0:0:0:
171,177,11225,1,0,0:0:0:0:
167,200,11308,2,0,L|157:260,3,58.75,0|0|2|0,0:0|0:0|0:0|0:0,0:0:0:0:
251,235,11641,5,0,0:0:0:0:
256,258,11724,1,0,0:0:0:0:
260,281,11808,1,2,0:0:0:0:
264,304,11891,1,0,0:0:0:0:
268,327,11974,2,0,L|278:387,3,58.75,2|0|2|0,0:0|0:0|0:0|0:0,0:0:0:0:
355,345,12307,6,0,P|411:353|465:309,1,117.5,4|2,0:0|0:0,0:0:0:0:
392,271,12557,1,0,0:0:0:0:
392,271,12640,2,0,P|344:238|288:245,1,117.5,4|2,0:0|0:0,0:0:0:0:
217,285,12890,1,0,0:0:0:0:
217,285,12974,2,0,B|236:236|236:236|212:148,2,117.5,2|0|2,0:0|0:0|0:0,0:0:0:0:
108,329,13473,1,0,0:0:0:0:
46,228,13640,5,2,0:0:0:0:
46,228,13723,1,0,0:0:0:0:
46,228,13806,1,2,0:0:0:0:
112,130,13973,2,0,L|84:5,1,117.5,2|2,0:0|0:0,0:0:0:0:
175,23,14222,1,0,0:0:0:0:
175,23,14306,2,0,L|203:148,1,117.5,2|0,0:0|0:0,0:0:0:0:
288,144,14556,1,0,0:0:0:0:
288,144,14640,2,0,L|263:30,1,117.5,2|0,0:0|0:0,0:0:0:0:
112,130,14972,6,0,P|77:129|54:144,2,58.75,4|0|0,0:0|0:0|0:0,0:0:0:0:
100,209,15222,1,0,0:0:0:0:
100,209,15305,2,0,P|162:208|217:247,1,117.5,2|2,0:0|0:0,0:0:0:0:
246,309,15555,1,0,0:0:0:0:
246,309,15638,2,0,P|308:310|363:271,2,117.5,4|0|2,0:0|0:0|0:0,0:0:0:0:
277,195,16138,1,0,0:0:0:0:
177,133,16304,5,6,0:0:0:0:
154,128,16387,1,0,0:0:0:0:
131,124,16471,1,2,0:0:0:0:
108,120,16554,1,0,0:0:0:0:
85,116,16637,2,0,L|25:106,3,58.75,6|0|2|0,0:0|0:0|0:0|0:0,0:0:0:0:
91,31,16970,5,6,0:0:0:0:
114,26,17053,1,0,0:0:0:0:
137,22,17137,1,2,0:0:0:0:
160,18,17220,1,0,0:0:0:0:
183,14,17303,2,0,L|222:7,4,29.375,4|0|2|0|2,0:0|0:0|0:0|0:0|0:0,0:0:0:0:
177,133,17636,5,4,1:2:0:0:
177,133,18302,5,4,1:2:0:0:
177,133,18635,6,0,L|116:125,2,58.75,0|0|0,1:0|1:0|1:0,0:0:0:0:
309,44,18969,5,0,0:0:0:0:
337,36,19052,1,0,0:0:0:0:
366,36,19135,1,0,0:0:0:0:
393,44,19218,1,0,0:0:0:0:
418,59,19302,2,0,P|430:94|430:123,3,58.75,0|0|0|0,0:0|0:0|0:0|0:0,0:0:0:0:
464,205,19635,1,0,0:0:0:0:
436,197,19718,1,0,0:0:0:0:
407,197,19801,1,0,0:0:0:0:
380,205,19884,1,0,0:0:0:0:
355,220,19968,6,0,B|344:248|344:248|355:285,3,58.75,2|2|2|2,1:2|1:2|1:2|1:2,0:0:0:0:
393,357,20301,5,0,0:0:0:0:
363,354,20384,1,0,0:0:0:0:
333,351,20467,1,0,0:0:0:0:
303,348,20551,1,0,0:0:0:0:
273,345,20634,2,0,L|213:356,3,58.75,0|0|0|0,0:0|0:0|0:0|0:0,0:0:0:0:
171,284,20967,2,0,L|231:273,3,58.75,0|0|0|0,0:0|0:0|0:0|0:0,0:0:0:0:
272,205,21300,6,0,B|285:166|285:166|262:89,1,117.5,2|2,0:2|0:2,0:0:0:0:
167,29,21633,5,0,0:0:0:0:
138,22,21716,1,0,0:0:0:0:
108,23,21799,1,0,0:0:0:0:
80,35,21883,1,0,0:0:0:0:
58,54,21966,2,0,P|47:104|54:125,3,58.75,0|0|0|0,0:0|0:0|0:0|0:0,0:0:0:0:
131,105,22299,2,0,P|132:134|121:161,3,58.75,0|0|0|0,0:0|0:0|0:0|0:0,0:0:0:0:
44,213,22632,6,0,L|60:286,1,58.75,2|0,0:2|0:0,0:0:0:0:
129,235,22799,2,0,L|145:308,1,58.75,2|0,0:2|0:0,0:0:0:0:
221,256,22965,1,2,0:2:0:0:
245,271,23048,1,0,0:0:0:0:
272,259,23132,1,2,0:2:0:0:
296,274,23215,1,0,0:0:0:0:
322,261,23298,2,0,L|396:244,3,58.75,2|0|0|0,0:2|0:0|0:0|0:0,0:0:0:0:
334,176,23631,2,0,L|408:159,3,58.75,2|0|0|0,0:2|0:0|0:0|0:0,0:0:0:0:
349,90,23964,6,0,P|386:78|462:115,1,117.5,0|0,0:0|0:0,0:0:0:0:
496,283,24297,5,0,0:0:0:0:
483,310,24381,1,0,0:0:0:0:
456,322,24464,1,0,0:0:0:0:
426,326,24547,1,0,0:0:0:0:
397,318,24630,2,0,P|366:316|335:332,3,58.75,0|0|0|0,0:0|0:0|0:0|0:0,0:0:0:0:
276,383,24964,5,2,0:2:0:0:
248,372,25047,1,0,0:0:0:0:
220,361,25130,2,0,P|207:328|215:295,1,58.75,0|0,0:0|0:0,0:0:0:0:
282,255,25297,1,2,0:2:0:0:
310,244,25380,1,0,0:0:0:0:
338,233,25463,2,0,P|351:200|343:167,1,58.75,0|0,0:0|0:0,0:0:0:0:
281,99,25630,6,0,P|275:65|280:38,3,58.75,0|0|0|0,0:0|0:0|0:0|0:0,0:0:0:0:
187,11,25963,2,0,P|193:45|188:72,3,58.75,0|0|0|0,0:0|0:0|0:0|0:0,0:0:0:0:
118,117,26296,5,2,0:2:0:0:
89,112,26379,1,0,0:0:0:0:
60,107,26462,1,0,0:0:0:0:
30,102,26546,1,0,0:0:0:0:
0,97,26629,2,0,L|21:231,1,117.5,2|2,0:2|0:2,0:0:0:0:
44,345,26962,5,0,0:0:0:0:
70,357,27045,1,0,0:0:0:0:
99,357,27128,1,0,0:0:0:0:
123,340,27212,1,0,0:0:0:0:
134,313,27295,2,0,P|135:289|112:256,3,58.75,0|0|0|0,0:0|0:0|0:0|0:0,0:0:0:0:
86,179,27628,5,0,0:0:0:0:
95,152,27711,1,0,0:0:0:0:
116,131,27794,1,0,0:0:0:0:
145,126,27878,1,0,0:0:0:0:
172,136,27961,6,0,B|209:154|209:154|286:132,1,117.5,2|0,1:2|1:0,0:0:0:0:
375,62,28294,6,0,L|445:75,1,58.75,2|0,1:2|0:0,0:0:0:0:
386,142,28461,2,0,L|456:155,1,58.75,2|0,1:2|0:0,0:0:0:0:
398,223,28627,2,0,L|328:236,3,58.75,2|0|2|0,1:2|0:0|1:2|0:0,0:0:0:0:
387,303,28960,2,0,L|317:316,3,58.75,2|0|0|0,1:2|0:0|0:0|0:0,0:0:0:0:
376,384,29293,5,0,0:0:0:0:
253,225,29626,5,0,0:0:0:0:
224,218,29710,1,0,0:0:0:0:
195,224,29793,1,0,0:0:0:0:
172,242,29876,1,0,0:0:0:0:
160,268,29959,2,0,P|160:310|169:332,3,58.75,0|0|0|0,0:0|0:0|0:0|0:0,0:0:0:0:
102,377,30292,1,0,0:0:0:0:
73,384,30376,1,0,0:0:0:0:
44,378,30459,1,0,0:0:0:0:
21,360,30542,1,0,0:0:0:0:
8,333,30625,6,0,B|2:303|2:303|17:269,3,58.75,2|2|2|2,0:2|0:2|0:2|0:2,0:0:0:0:
96,223,30959,5,0,0:0:0:0:
107,196,31042,1,0,0:0:0:0:
108,166,31125,1,0,0:0:0:0:
98,138,31208,1,0,0:0:0:0:
79,114,31292,2,0,P|72:74|78:45,3,58.75,0|0|0|0,0:0|0:0|0:0|0:0,0:0:0:0:
159,82,31625,2,0,P|182:48|207:32,3,58.75,0|0|0|0,0:0|0:0|0:0|0:0,0:0:0:0:
239,120,31958,6,0,B|252:159|252:159|230:232,1,117.5,2|2,0:2|0:2,0:0:0:0:
196,348,32291,5,0,0:0:0:0:
225,345,32374,1,0,0:0:0:0:
254,342,32457,1,0,0:0:0:0:
283,339,32541,1,0,0:0:0:0:
312,336,32624,2,0,L|404:328,3,58.75,0|0|0|0,0:0|0:0|0:0|0:0,0:0:0:0:
333,247,32957,2,0,L|241:255,3,58.75,0|0|0|0,0:0|0:0|0:0|0:0,0:0:0:0:
296,165,33290,6,0,P|289:124|296:105,1,58.75,2|0,0:2|0:0,0:0:0:0:
379,79,33456,2,0,P|386:120|379:139,1,58.75,2|0,0:2|0:0,0:0:0:0:
333,247,33623,1,2,0:2:0:0:
303,245,33706,1,0,0:0:0:0:
277,259,33789,1,2,0:2:0:0:
247,257,33872,1,0,0:0:0:0:
218,248,33956,2,0,L|203:319,3,58.75,2|0|0|0,0:2|0:0|0:0|0:0,0:0:0:0:
128,305,34289,2,0,L|143:376,3,58.75,2|0|0|0,0:2|0:0|0:0|0:0,0:0:0:0:
53,355,34622,6,0,P|29:297|42:243,1,117.5,0|0,0:0|0:0,0:0:0:0:
156,137,34955,5,0,0:0:0:0:
127,143,35038,1,0,0:0:0:0:
97,140,35122,1,0,0:0:0:0:
70,126,35205,1,0,0:0:0:0:
49,104,35288,2,0,P|41:71|45:42,3,58.75,0|0|0|0,0:0|0:0|0:0|0:0,0:0:0:0:
123,2,35621,5,2,0:2:0:0:
151,10,35705,1,0,0:0:0:0:
179,18,35788,2,0,L|240:8,1,58.75,0|0,0:0|0:0,0:0:0:0:
136,90,35954,1,2,0:2:0:0:
164,98,36038,1,0,0:0:0:0:
192,106,36121,2,0,L|253:96,1,58.75,0|0,0:0|0:0,0:0:0:0:
345,81,36287,6,0,P|363:131|360:153,3,58.75,0|0|0|0,0:0|0:0|0:0|0:0,0:0:0:0:
442,115,36620,2,0,P|439:168|427:187,3,58.75,0|0|0|0,0:0|0:0|0:0|0:0,0:0:0:0:
465,269,36954,5,2,0:2:0:0:
436,264,37037,1,2,0:2:0:0:
407,259,37120,1,2,0:2:0:0:
378,254,37203,1,2,0:2:0:0:
348,249,37287,2,0,L|217:272,1,117.5,2|2,1:2|1:2,0:0:0:0:
141,343,37620,6,0,B|110:360|110:360|25:335,2,117.5,2|2|0,0:2|0:2|0:0,0:0:0:0:
122,263,38036,1,0,0:0:0:0:
122,263,38119,2,0,B|153:246|153:246|238:271,2,117.5,2|2|0,0:2|0:2|0:0,0:0:0:0:
40,236,38536,1,0,0:0:0:0:
40,236,38619,2,0,B|23:195|23:195|42:116,1,117.5,2|2,0:2|0:2,0:0:0:0:
82,12,38952,5,0,0:0:0:0:
110,17,39035,1,0,0:0:0:0:
138,23,39118,1,2,0:2:0:0:
167,29,39202,1,0,0:0:0:0:
195,35,39285,2,0,L|259:24,3,58.75,0|0|2|0,0:0|0:0|0:2|0:0,0:0:0:0:
235,110,39618,2,0,L|171:121,3,58.75,2|0|2|0,0:2|0:0|0:2|0:0,0:0:0:0:
141,196,39951,5,0,0:0:0:0:
141,196,40284,6,0,P|138:232|141:245,7,29.375,4|0|0|0|2|0|0|0,0:0|0:0|0:0|0:0|0:0|0:0|0:0|0:0,0:0:0:0:
214,255,40950,2,0,P|217:219|214:206,7,29.375,0|0|0|0|2|0|0|0,0:0|0:0|0:0|0:0|0:0|0:0|0:0|0:0,0:0:0:0:
277,163,41616,6,0,L|265:124,3,29.375,0|0|0|0,0:0|0:0|0:0|0:0,0:0:0:0:
358,120,41949,2,0,L|370:81,3,29.375,2|0|0|0,0:0|0:0|0:0|0:0,0:0:0:0:
262,159,42282,6,0,L|250:120,3,29.375,0|0|0|0,0:0|0:0|0:0|0:0,0:0:0:0:
373,116,42615,2,0,L|385:77,3,29.375,2|0|0|0,0:0|0:0|0:0|0:0,0:0:0:0:
447,203,42949,6,0,P|453:229|453:244,7,29.375,0|0|0|0|2|0|0|0,0:0|0:0|0:0|0:0|0:0|0:0|0:0|0:0,0:0:0:0:
371,252,43615,2,0,P|366:278|360:292,7,29.375,0|0|0|0|2|0|0|0,0:0|0:0|0:0|0:0|0:0|0:0|0:0|0:0,0:0:0:0:
287,320,44281,6,0,L|248:332,3,29.375,0|0|0|0,0:0|0:0|0:0|0:0,0:0:0:0:
244,239,44614,2,0,L|205:227,3,29.375,2|0|0|0,0:0|0:0|0:0|0:0,0:0:0:0:
283,335,44947,6,0,L|244:347,3,29.375,0|0|0|0,0:0|0:0|0:0|0:0,0:0:0:0:
240,224,45280,2,0,L|201:212,3,29.375,2|0|0|0,0:0|0:0|0:0|0:0,0:0:0:0:
336,172,45613,6,0,P|340:148|335:131,7,29.375,0|0|0|0|2|0|0|0,0:0|0:0|0:0|0:0|0:0|0:0|0:0|0:0,0:0:0:0:
236,112,46279,6,0,P|212:108|195:113,7,29.375,0|0|0|0|2|0|0|0,0:0|0:0|0:0|0:0|0:0|0:0|0:0|0:0,0:0:0:0:
176,212,46945,6,0,P|172:236|177:253,7,29.375,0|0|0|0|2|0|0|0,0:0|0:0|0:0|0:0|0:0|0:0|0:0|0:0,0:0:0:0:
276,272,47611,6,0,P|300:276|317:271,7,29.375,0|0|0|0|2|0|0|0,0:0|0:0|0:0|0:0|0:0|0:0|0:0|0:0,0:0:0:0:
359,181,48277,5,0,0:0:0:0:
359,181,48361,1,0,0:0:0:0:
359,181,48444,1,0,0:0:0:0:
359,181,48527,1,0,0:0:0:0:
359,181,48610,2,0,L|404:170,3,29.375,2|0|0|0,0:0|0:0|0:0|0:0,0:0:0:0:
416,271,48944,5,0,0:0:0:0:
416,271,49028,1,0,0:0:0:0:
416,271,49111,1,0,0:0:0:0:
416,271,49194,1,0,0:0:0:0:
416,271,49277,2,0,L|371:260,3,29.375,2|0|0|0,0:0|0:0|0:0|0:0,0:0:0:0:
323,316,49610,5,0,0:0:0:0:
323,316,49694,1,0,0:0:0:0:
323,316,49777,1,0,0:0:0:0:
323,316,49860,1,0,0:0:0:0:
323,316,49943,2,0,L|278:327,3,29.375,2|0|0|0,0:0|0:0|0:0|0:0,0:0:0:0:
266,226,50277,5,0,0:0:0:0:
266,226,50359,1,0,0:0:0:0:
266,226,50442,1,0,0:0:0:0:
266,226,50526,1,0,0:0:0:0:
266,226,50610,2,0,L|311:237,3,29.375,2|0|0|0,0:0|0:0|0:0|0:0,0:0:0:0:
366,186,50942,6,0,P|376:156|357:89,1,88.125,4|0,0:0|0:0,0:0:0:0:
312,33,51275,6,0,L|263:25,3,29.375,6|0|0|0,0:0|0:0|0:0|0:0,0:0:0:0:
273,121,51608,5,0,0:0:0:0:
273,121,51691,1,0,0:0:0:0:
273,121,51775,1,0,0:0:0:0:
273,121,51858,1,0,0:0:0:0:
273,121,51941,2,0,L|237:130,3,29.375,2|0|0|0,0:0|0:0|0:0|0:0,0:0:0:0:
280,207,52274,6,0,P|284:234|284:246,3,29.375,0|0|0|0,0:0|0:0|0:0|0:0,0:0:0:0:
187,238,52607,2,0,P|183:265|183:277,3,29.375,2|0|0|0,0:0|0:0|0:0|0:0,0:0:0:0:
299,219,52940,6,0,P|303:246|303:258,3,29.375,0|0|0|0,0:0|0:0|0:0|0:0,0:0:0:0:
168,250,53273,2,0,P|164:277|164:289,3,29.375,2|0|0|0,0:0|0:0|0:0|0:0,0:0:0:0:
259,348,53606,5,0,0:0:0:0:
259,348,53690,1,0,0:0:0:0:
259,348,53773,1,0,0:0:0:0:
259,348,53856,1,0,0:0:0:0:
259,348,53939,2,0,L|302:339,3,29.375,2|0|0|0,0:0|0:0|0:0|0:0,0:0:0:0:
381,334,54272,5,0,0:0:0:0:
381,334,54356,1,0,0:0:0:0:
381,334,54439,1,0,0:0:0:0:
381,334,54522,1,0,0:0:0:0:
381,334,54605,2,0,L|424:343,3,29.375,2|0|0|0,0:0|0:0|0:0|0:0,0:0:0:0:
454,263,54939,6,0,P|458:236|458:224,3,29.375,0|0|0|0,0:0|0:0|0:0|0:0,0:0:0:0:
361,232,55272,2,0,P|357:205|357:193,3,29.375,2|0|0|0,0:0|0:0|0:0|0:0,0:0:0:0:
473,251,55605,6,0,P|477:224|477:212,3,29.375,0|0|0|0,0:0|0:0|0:0|0:0,0:0:0:0:
342,220,55938,2,0,P|338:193|338:181,3,29.375,2|0|0|0,0:0|0:0|0:0|0:0,0:0:0:0:
300,310,56271,5,0,0:0:0:0:
282,311,56354,1,0,0:0:0:0:
264,312,56437,1,0,0:0:0:0:
246,313,56521,1,0,0:0:0:0:
228,315,56604,2,0,L|198:318,3,29.375,2|0|0|0,0:0|0:0|0:0|0:0,0:0:0:0:
136,264,56937,5,0,0:0:0:0:
118,265,57020,1,0,0:0:0:0:
100,266,57103,1,0,0:0:0:0:
82,267,57187,1,0,0:0:0:0:
64,269,57270,2,0,L|35:272,3,29.375,2|0|0|0,0:0|0:0|0:0|0:0,0:0:0:0:
79,178,57603,5,0,0:0:0:0:
97,177,57686,1,0,0:0:0:0:
115,176,57769,1,0,0:0:0:0:
133,175,57853,1,0,0:0:0:0:
151,173,57936,2,0,L|184:170,3,29.375,2|0|0|0,0:0|0:0|0:0|0:0,0:0:0:0:
123,89,58269,5,0,0:0:0:0:
141,88,58352,1,0,0:0:0:0:
159,87,58435,1,0,0:0:0:0:
177,86,58519,1,0,0:0:0:0:
195,84,58602,2,0,L|227:82,3,29.375,2|0|0|0,0:0|0:0|0:0|0:0,0:0:0:0:
300,52,58935,6,0,P|306:70|307:87,3,29.375,0|0|0|0,0:0|0:0|0:0|0:0,0:0:0:0:
386,124,59268,6,0,P|377:141|366:153,3,29.375,2|0|0|0,0:0|0:0|0:0|0:0,0:0:0:0:
396,236,59601,6,0,P|378:242|361:243,3,29.375,0|0|0|0,0:0|0:0|0:0|0:0,0:0:0:0:
323,322,59934,6,0,P|306:313|294:302,3,29.375,2|0|0|0,0:0|0:0|0:0|0:0,0:0:0:0:
211,332,60267,6,0,P|205:314|205:297,3,29.375,0|0|0|0,0:0|0:0|0:0|0:0,0:0:0:0:
125,259,60600,6,0,P|134:242|145:230,3,29.375,2|0|0|0,0:0|0:0|0:0|0:0,0:0:0:0:
115,148,60933,6,0,P|134:141|151:141,3,29.375,0|0|0|0,0:0|0:0|0:0|0:0,0:0:0:0:
188,61,61267,6,0,P|205:70|217:81,3,29.375,2|0|0|0,0:0|0:0|0:0|0:0,0:0:0:0:
256,192,61600,5,4,1:2:0:0:
256,192,62266,5,4,1:2:0:0:
256,192,62599,6,0,L|249:235,2,29.375,0|0|0,1:0|1:0|1:0,0:0:0:0:
332,71,62932,6,0,L|324:27,6,29.375,8|0|8|0|8|0|8,1:2|0:0|1:2|0:0|1:2|0:0|1:2,0:0:0:0:
401,101,63265,2,0,L|443:116,6,29.375,8|0|8|0|8|0|8,1:2|0:0|1:2|0:0|1:2|0:0|1:2,0:0:0:0:
340,145,63598,2,0,L|305:173,6,29.375,8|0|8|0|8|0|8,1:2|0:0|1:2|0:0|1:2|0:0|1:2,0:0:0:0:
332,71,63931,6,0,B|288:60|288:60|216:89,1,117.5,2|2,0:0|0:0,0:0:0:0:
125,226,64264,6,0,L|133:270,6,29.375,8|0|8|0|8|0|8,1:2|0:0|1:2|0:0|1:2|0:0|1:2,0:0:0:0:
56,196,64597,2,0,L|13:180,6,29.375,8|0|8|0|8|0|8,1:2|0:0|1:2|0:0|1:2|0:0|1:2,0:0:0:0:
117,152,64930,2,0,L|151:123,6,29.375,8|0|8|0|8|0|8,1:2|0:0|1:2|0:0|1:2|0:0|1:2,0:0:0:0:
125,226,65263,6,0,B|169:237|169:237|241:208,1,117.5,2|2,0:0|0:0,0:0:0:0:
394,163,65596,6,0,L|386:119,6,29.375,8|0|8|0|8|0|8,1:2|0:0|1:2|0:0|1:2|0:0|1:2,0:0:0:0:
463,193,65929,2,0,L|505:208,6,29.375,8|0|8|0|8|0|8,1:2|0:0|1:2|0:0|1:2|0:0|1:2,0:0:0:0:
402,237,66262,2,0,L|367:265,6,29.375,8|0|8|0|8|0|8,1:2|0:0|1:2|0:0|1:2|0:0|1:2,0:0:0:0:
461,285,66595,6,0,P|468:307|467:338,5,39.1666666666667,0|0|0|0|0|0,1:0|1:0|1:0|1:0|1:0|1:0,0:0:0:0:
456,354,66929,2,0,B|419:366|419:366|328:340,1,117.5,0|2,1:0|0:0,0:0:0:0:
402,237,67262,2,0,B|365:225|365:225|274:251,1,117.5,8|8,0:0|0:0,0:0:0:0:
232,350,67595,6,0,L|173:335,1,58.75,2|2,0:0|0:0,0:0:0:0:
131,265,67761,2,0,L|190:250,1,58.75,2|2,0:0|0:0,0:0:0:0:
227,173,67928,2,0,P|236:133|196:67,1,117.5,0|0,1:0|1:0,0:0:0:0:
99,13,68261,6,0,B|76:24|76:24|54:1|54:1|-4:27,2,117.5,0|0|0,1:0|1:0|1:0,0:0:0:0:
200,69,68760,1,0,1:0:0:0:
303,12,68927,6,0,L|376:23,1,58.75,8|0,0:0|0:0,0:0:0:0:
443,32,69093,1,8,0:0:0:0:
490,145,69260,6,0,L|417:156,1,58.75,2|0,0:0|0:0,0:0:0:0:
350,165,69426,1,2,0:0:0:0:
324,280,69593,6,0,L|316:324,6,29.375,8|0|8|0|8|0|8,1:2|0:0|1:2|0:0|1:2|0:0|1:2,0:0:0:0:
403,316,69926,2,0,L|411:360,6,29.375,8|0|8|0|8|0|8,1:2|0:0|1:2|0:0|1:2|0:0|1:2,0:0:0:0:
476,266,70259,6,0,B|488:233|488:233|461:144,1,117.5,8|8,1:2|0:0,0:0:0:0:
366,38,70592,2,0,B|354:71|354:71|381:160,1,117.5,2|2,0:0|0:0,0:0:0:0:
257,268,70925,6,0,L|249:312,6,29.375,8|0|8|0|8|0|8,1:2|0:0|1:2|0:0|1:2|0:0|1:2,0:0:0:0:
326,238,71258,2,0,L|369:222,6,29.375,8|0|8|0|8|0|8,1:2|0:0|1:2|0:0|1:2|0:0|1:2,0:0:0:0:
265,194,71591,2,0,L|231:165,6,29.375,8|0|8|0|8|0|8,1:2|0:0|1:2|0:0|1:2|0:0|1:2,0:0:0:0:
257,268,71924,5,2,0:0:0:0:
229,278,72008,1,0,0:0:0:0:
201,288,72091,1,2,0:0:0:0:
173,298,72174,1,0,0:0:0:0:
145,308,72257,2,0,L|76:296,3,58.75,2|0|2|0,0:0|0:0|0:0|0:0,0:0:0:0:
130,214,72590,5,2,0:0:0:0:
158,204,72674,1,0,0:0:0:0:
186,194,72757,1,2,0:0:0:0:
214,184,72840,1,0,0:0:0:0:
242,174,72923,2,0,L|311:186,3,58.75,2|0|2|0,0:0|0:0|0:0|0:0,0:0:0:0:
382,202,73257,5,0,1:0:0:0:
382,202,73590,6,0,P|375:184|374:158,6,29.375,8|0|8|0|8|0|8,1:2|0:0|1:2|0:0|1:2|0:0|1:2,0:0:0:0:
451,232,73923,2,0,P|470:234|493:247,6,29.375,8|0|8|0|8|0|8,1:2|0:0|1:2|0:0|1:2|0:0|1:2,0:0:0:0:
390,276,74256,2,0,P|378:290|355:304,6,29.375,8|0|8|0|8|0|8,1:2|0:0|1:2|0:0|1:2|0:0|1:2,0:0:0:0:
382,202,74589,6,0,B|338:191|338:191|266:220,1,117.5,2|2,0:0|0:0,0:0:0:0:
179,355,74922,6,0,P|172:373|171:399,6,29.375,8|0|8|0|8|0|8,1:2|0:0|1:2|0:0|1:2|0:0|1:2,0:0:0:0:
248,325,75255,2,0,P|267:323|290:310,6,29.375,8|0|8|0|8|0|8,1:2|0:0|1:2|0:0|1:2|0:0|1:2,0:0:0:0:
187,281,75588,2,0,P|175:267|152:253,6,29.375,8|0|8|0|8|0|8,1:2|0:0|1:2|0:0|1:2|0:0|1:2,0:0:0:0:
179,355,75921,6,0,B|135:366|135:366|63:337,1,117.5,2|2,0:0|0:0,0:0:0:0:
12,177,76254,6,0,P|5:159|4:133,6,29.375,8|0|8|0|8|0|8,1:2|0:0|1:2|0:0|1:2|0:0|1:2,0:0:0:0:
81,207,76587,2,0,P|100:209|123:222,6,29.375,8|0|8|0|8|0|8,1:2|0:0|1:2|0:0|1:2|0:0|1:2,0:0:0:0:
20,251,76920,2,0,P|8:265|-15:279,6,29.375,8|0|8|0|8|0|8,1:2|0:0|1:2|0:0|1:2|0:0|1:2,0:0:0:0:
12,177,77253,6,0,P|19:155|18:124,3,39.1666666666667,2|0|0|0,0:0|0:0|0:0|0:0,0:0:0:0:
140,86,77586,6,0,L|257:64,1,117.5,8|2,0:0|0:0,0:0:0:0:
224,191,77919,2,0,L|107:213,1,117.5,8|8,0:0|0:0,0:0:0:0:
29,313,78252,6,0,P|27:350|34:374,1,58.75,2|0,0:0|0:0,0:0:0:0:
110,339,78419,2,0,B|161:323|161:323|272:383|272:383|335:363,1,235,8|0,0:0|1:0,0:0:0:0:
339,244,78919,6,0,P|332:226|331:200,2,29.375,0|0|0,1:0|0:0|0:0,0:0:0:0:
410,297,79085,2,0,P|417:315|418:341,2,29.375,0|0|0,1:0|0:0|0:0,0:0:0:0:
432,213,79252,2,0,P|425:195|424:169,2,29.375,0|0|0,1:0|0:0|0:0,0:0:0:0:
503,266,79418,2,0,P|510:284|511:310,2,29.375,0|0|0,1:0|0:0|0:0,0:0:0:0:
511,184,79585,6,0,P|516:147|509:116,2,58.75,8|0|8,0:0|0:0|0:0,0:0:0:0:
410,297,79918,6,0,P|387:267|360:250,1,58.75,2|0,0:0|0:0,0:0:0:0:
285,241,80084,1,2,0:0:0:0:
160,262,80251,6,0,P|140:259|117:246,6,29.375,8|0|8|0|8|0|8,1:2|0:0|1:2|0:0|1:2|0:0|1:2,0:0:0:0:
196,338,80584,2,0,P|177:342|151:340,6,29.375,8|0|8|0|8|0|8,1:2|0:0|1:2|0:0|1:2|0:0|1:2,0:0:0:0:
276,316,80917,6,0,B|320:305|320:305|392:334,1,117.5,2|2,0:0|0:0,0:0:0:0:
512,259,81250,2,0,B|468:270|468:270|396:241,1,117.5,2|2,0:0|0:0,0:0:0:0:
320,129,81583,6,0,P|313:111|312:85,6,29.375,8|0|8|0|8|0|8,1:2|0:0|1:2|0:0|1:2|0:0|1:2,0:0:0:0:
398,157,81916,2,0,P|417:159|460:181,1,58.75,8|8,1:2|1:2,0:0:0:0:
334,210,82083,2,0,P|321:225|299:238,10,29.375,8|0|8|0|8|0|8|0|8|0|8,1:2|0:0|1:2|0:0|1:2|0:0|1:2|0:0|1:2|0:0|1:2,0:0:0:0:
320,129,82582,5,2,1:2:0:0:
292,119,82665,1,0,0:0:0:0:
262,119,82749,1,2,1:2:0:0:
233,125,82832,1,0,0:0:0:0:
207,138,82915,2,0,P|194:177|200:203,3,58.75,2|0|2|0,1:2|0:0|1:2|0:0,0:0:0:0:
158,267,83248,5,2,1:2:0:0:
130,277,83331,1,0,0:0:0:0:
100,277,83415,1,2,1:2:0:0:
71,271,83498,1,0,0:0:0:0:
45,258,83581,2,0,P|32:219|38:193,3,58.75,2|0|2|0,1:2|0:0|1:2|0:0,0:0:0:0:
61,128,83914,5,0,1:0:0:0:
61,128,84247,5,4,1:2:0:0:
296,92,94905,6,0,L|397:79,1,88.125,0|0,1:0|0:0,0:0:0:0:
465,72,95238,6,0,P|469:51|467:39,3,29.375,2|0|0|0,1:2|0:0|0:0|0:0,0:0:0:0:
444,160,95571,5,0,0:0:0:0:
444,160,95655,1,0,0:0:0:0:
444,160,95738,1,0,0:0:0:0:
444,160,95821,1,0,0:0:0:0:
444,160,95904,2,0,L|491:166,3,29.375,2|0|0|0,0:0|0:0|0:0|0:0,0:0:0:0:
420,245,96237,6,0,P|419:272|421:285,3,29.375,0|0|0|0,0:0|0:0|0:0|0:0,0:0:0:0:
318,282,96571,2,0,P|319:309|317:322,3,29.375,2|0|0|0,0:0|0:0|0:0|0:0,0:0:0:0:
442,259,96904,6,0,P|441:286|443:299,3,29.375,0|0|0|0,0:0|0:0|0:0|0:0,0:0:0:0:
296,296,97237,2,0,P|297:323|295:336,3,29.375,2|0|0|0,0:0|0:0|0:0|0:0,0:0:0:0:
230,372,97570,5,0,0:0:0:0:
230,372,97654,1,0,0:0:0:0:
230,372,97737,1,0,0:0:0:0:
230,372,97820,1,0,0:0:0:0:
230,372,97903,2,0,L|187:363,3,29.375,2|0|0|0,0:0|0:0|0:0|0:0,0:0:0:0:
108,358,98236,5,0,0:0:0:0:
108,358,98320,1,0,0:0:0:0:
108,358,98403,1,0,0:0:0:0:
108,358,98486,1,0,0:0:0:0:
108,358,98569,2,0,L|65:367,3,29.375,2|0|0|0,0:0|0:0|0:0|0:0,0:0:0:0:
35,287,98903,6,0,P|31:260|31:248,3,29.375,0|0|0|0,0:0|0:0|0:0|0:0,0:0:0:0:
128,256,99236,2,0,P|132:229|132:217,3,29.375,2|0|0|0,0:0|0:0|0:0|0:0,0:0:0:0:
16,275,99569,6,0,P|12:248|12:236,3,29.375,0|0|0|0,0:0|0:0|0:0|0:0,0:0:0:0:
147,244,99902,2,0,P|151:217|151:205,3,29.375,2|0|0|0,0:0|0:0|0:0|0:0,0:0:0:0:
68,155,100234,5,2,0:0:0:0:
62,138,100317,1,0,0:0:0:0:
58,120,100401,1,0,0:0:0:0:
59,102,100484,1,0,0:0:0:0:
63,84,100567,2,0,L|72:48,3,29.375,2|0|0|0,0:0|0:0|0:0|0:0,0:0:0:0:
163,9,100900,5,2,0:0:0:0:
169,26,100983,1,0,0:0:0:0:
173,44,101067,1,0,0:0:0:0:
172,62,101150,1,0,0:0:0:0:
168,80,101233,2,0,L|159:116,3,29.375,2|0|0|0,0:0|0:0|0:0|0:0,0:0:0:0:
214,172,101566,5,2,0:0:0:0:
208,189,101649,1,0,0:0:0:0:
204,207,101733,1,0,0:0:0:0:
205,225,101816,1,0,0:0:0:0:
209,243,101899,2,0,L|218:279,3,29.375,2|0|0|0,0:0|0:0|0:0|0:0,0:0:0:0:
309,318,102232,5,2,0:0:0:0:
315,301,102315,1,0,0:0:0:0:
319,283,102399,1,0,0:0:0:0:
318,265,102482,1,0,0:0:0:0:
314,247,102565,2,0,L|305:211,3,29.375,2|0|0|0,0:0|0:0|0:0|0:0,0:0:0:0:
355,156,102899,6,0,P|376:153|390:153,3,29.375,2|0|0|0,0:0|0:0|0:0|0:0,0:0:0:0:
300,96,103232,6,0,P|313:79|323:69,3,29.375,2|0|0|0,0:0|0:0|0:0|0:0,0:0:0:0:
220,93,103565,6,0,P|217:72|217:58,3,29.375,2|0|0|0,0:0|0:0|0:0|0:0,0:0:0:0:
160,147,103898,6,0,P|143:134|133:124,3,29.375,2|0|0|0,0:0|0:0|0:0|0:0,0:0:0:0:
157,228,104231,6,0,P|136:231|122:231,3,29.375,2|0|0|0,0:0|0:0|0:0|0:0,0:0:0:0:
211,287,104564,6,0,P|198:304|188:314,3,29.375,2|0|0|0,0:0|0:0|0:0|0:0,0:0:0:0:
292,291,104897,6,0,P|295:312|295:326,3,29.375,2|0|0|0,0:0|0:0|0:0|0:0,0:0:0:0:
351,236,105230,6,0,P|368:249|378:259,3,29.375,2|0|0|0,0:0|0:0|0:0|0:0,0:0:0:0:
432,325,105563,5,4,0:0:0:0:
432,325,105646,1,0,0:0:0:0:
432,325,105730,1,2,0:0:0:0:
486,221,105896,2,0,P|500:162|484:104,1,117.5,2|2,0:0|0:0,0:0:0:0:
439,50,106146,1,0,0:0:0:0:
439,50,106230,2,0,B|395:35|395:35|323:63,1,117.5,2|0,0:0|0:0,0:0:0:0:
401,152,106562,2,0,B|334:177|334:177|290:162,1,117.5,2|0,0:0|0:0,0:0:0:0:
195,93,106895,5,2,0:0:0:0:
195,93,106978,1,0,0:0:0:0:
195,93,107062,1,2,0:0:0:0:
84,133,107228,2,0,L|105:260,1,117.5,2|0,0:0|0:0,0:0:0:0:
175,192,107478,1,0,0:0:0:0:
175,192,107561,2,0,L|196:319,1,117.5,2|0,0:0|0:0,0:0:0:0:
266,251,107811,1,0,0:0:0:0:
266,251,107894,2,0,L|287:378,1,117.5,2|0,0:0|0:0,0:0:0:0:
384,303,108227,5,2,0:0:0:0:
384,303,108311,1,0,0:0:0:0:
384,303,108394,1,2,0:0:0:0:
484,241,108561,2,0,P|493:196|456:132,1,117.5,2|2,0:0|0:0,0:0:0:0:
396,83,108810,1,0,0:0:0:0:
396,83,108894,2,0,P|451:81|507:32,2,117.5,2|0|2,0:0|0:0|0:0,0:0:0:0:
291,30,109393,1,0,0:0:0:0:
184,81,109560,5,0,0:0:0:0:
179,104,109643,1,0,0:0:0:0:
175,127,109727,1,2,0:0:0:0:
171,150,109810,1,0,0:0:0:0:
167,173,109893,2,0,L|157:233,3,58.75,0|0|2|0,0:0|0:0|0:0|0:0,0:0:0:0:
251,208,110226,5,0,0:0:0:0:
256,231,110309,1,0,0:0:0:0:
260,254,110393,1,2,0:0:0:0:
264,277,110476,1,0,0:0:0:0:
268,300,110559,2,0,L|278:360,3,58.75,2|0|2|0,0:0|0:0|0:0|0:0,0:0:0:0:
355,318,110892,6,0,L|490:302,1,117.5,4|2,0:0|0:0,0:0:0:0:
489,221,111142,1,0,0:0:0:0:
489,221,111225,2,0,L|354:237,1,117.5,4|2,0:0|0:0,0:0:0:0:
301,200,111475,1,0,0:0:0:0:
301,200,111558,2,0,P|279:145|293:83,2,117.5,2|0|2,0:0|0:0|0:0,0:0:0:0:
397,131,112058,1,0,0:0:0:0:
489,221,112224,5,2,0:0:0:0:
489,221,112307,1,0,0:0:0:0:
489,221,112391,1,2,0:0:0:0:
449,331,112557,2,0,B|412:344|412:344|330:322,1,117.5,2|2,0:0|0:0,0:0:0:0:
263,301,112807,1,0,0:0:0:0:
263,301,112890,2,0,B|187:280|187:280|150:293,1,117.5,2|0,0:0|0:0,0:0:0:0:
73,314,113140,1,0,0:0:0:0:
73,314,113223,2,0,P|53:258|76:197,1,117.5,2|0,0:0|0:0,0:0:0:0:
138,108,113556,6,0,P|147:74|138:48,2,58.75,4|0|2,0:0|0:0|0:0,0:0:0:0:
190,172,113806,1,0,0:0:0:0:
190,172,113889,2,0,P|252:171|307:210,1,117.5,0|2,0:0|0:0,0:0:0:0:
360,250,114139,1,0,0:0:0:0:
360,250,114222,2,0,P|422:251|477:212,2,117.5,4|0|2,0:0|0:0|0:0,0:0:0:0:
390,136,114722,1,0,0:0:0:0:
274,114,114889,5,4,0:0:0:0:
251,109,114972,1,0,0:0:0:0:
228,105,115056,1,2,0:0:0:0:
205,101,115139,1,0,0:0:0:0:
182,97,115222,2,0,L|122:87,3,58.75,4|0|2|0,0:0|0:0|0:0|0:0,0:0:0:0:
149,176,115555,5,4,0:0:0:0:
126,181,115638,1,0,0:0:0:0:
103,185,115722,1,2,0:0:0:0:
80,189,115805,1,0,0:0:0:0:
57,193,115888,2,0,L|11:200,4,29.375,2|0|2|0|2,0:0|0:0|0:0|0:0|0:0,0:0:0:0:
114,295,116221,5,4,1:2:0:0:
114,295,116887,5,4,1:2:0:0:
114,295,117220,6,0,L|102:371,2,58.75,0|0|0,1:0|1:0|1:0,0:0:0:0:
47,170,117553,5,0,0:0:0:0:
28,140,117636,1,0,0:0:0:0:
22,105,117719,1,0,0:0:0:0:
30,71,117802,1,0,0:0:0:0:
50,42,117886,1,0,0:0:0:0:
79,23,117969,1,0,0:0:0:0:
113,16,118052,1,0,0:0:0:0:
148,23,118136,1,0,0:0:0:0:
176,43,118219,2,0,P|210:60|259:57,3,70.4999978485108,0|0|0|0,0:0|0:0|0:0|0:0,0:0:0:0:
191,134,118552,6,0,B|153:129|153:129|107:144,3,70.4999978485108,2|2|2|2,0:2|0:2|0:2|0:2,0:0:0:0:
157,216,118885,5,0,0:0:0:0:
138,245,118968,1,0,0:0:0:0:
132,280,119051,1,0,0:0:0:0:
140,314,119134,1,0,0:0:0:0:
160,343,119218,1,0,0:0:0:0:
189,362,119301,1,0,0:0:0:0:
223,369,119384,1,0,0:0:0:0:
258,363,119468,1,0,0:0:0:0:
286,343,119551,2,0,P|320:326|369:329,3,70.4999978485108,0|0|0|0,0:0|0:0|0:0|0:0,0:0:0:0:
431,354,119884,6,0,L|465:343,4,35.2499989242554,2|0|2|0|2,0:2|0:0|0:2|0:0|0:2,0:0:0:0:
489,188,120217,5,0,0:0:0:0:
454,179,120301,1,0,0:0:0:0:
419,170,120384,1,0,0:0:0:0:
384,161,120467,1,0,0:0:0:0:
349,152,120551,1,0,0:0:0:0:
314,161,120634,1,0,0:0:0:0:
279,170,120717,1,0,0:0:0:0:
244,179,120800,1,0,0:0:0:0:
209,188,120884,1,0,0:0:0:0:
174,179,120967,1,0,0:0:0:0:
139,170,121050,1,0,0:0:0:0:
104,161,121133,1,0,0:0:0:0:
69,152,121217,6,0,L|-1:136,3,70.4999978485108,0|0|2|0,0:2|0:0|0:2|0:0,0:0:0:0:
53,62,121550,6,0,P|82:41|136:42,1,70.4999978485108,0|0,0:0|0:0,0:0:0:0:
203,15,121716,2,0,P|206:50|178:96,1,70.4999978485108,0|0,0:0|0:0,0:0:0:0:
168,168,121883,2,0,P|135:153|109:106,3,70.4999978485108,0|0|0|0,0:0|0:0|0:0|0:0,0:0:0:0:
193,82,122216,6,0,P|222:61|276:62,1,70.4999978485108,0|0,0:0|0:0,0:0:0:0:
343,35,122382,2,0,P|346:70|318:116,1,70.4999978485108,0|0,0:0|0:0,0:0:0:0:
308,188,122549,2,0,P|275:173|249:126,3,70.4999978485108,0|0|0|0,0:0|0:0|0:0|0:0,0:0:0:0:
332,101,122882,5,0,0:0:0:0:
363,114,122965,1,0,0:0:0:0:
387,141,123048,1,0,0:0:0:0:
400,173,123131,1,0,0:0:0:0:
398,209,123215,1,0,0:0:0:0:
385,241,123298,1,0,0:0:0:0:
360,265,123381,1,0,0:0:0:0:
326,278,123465,1,0,0:0:0:0:
292,277,123548,6,0,P|254:281|214:310,3,70.4999978485108,2|0|0|0,0:2|0:0|0:2|0:0,0:0:0:0:
167,228,123881,2,0,P|143:257|136:306,3,70.4999978485108,2|0|0|0,0:2|0:0|0:2|0:0,0:0:0:0:
226,297,124214,5,0,0:0:0:0:
257,284,124297,1,0,0:0:0:0:
281,257,124380,1,0,0:0:0:0:
294,225,124463,1,0,0:0:0:0:
292,189,124547,1,0,0:0:0:0:
279,157,124630,1,0,0:0:0:0:
254,133,124713,1,0,0:0:0:0:
220,120,124797,1,0,0:0:0:0:
186,121,124880,6,0,P|148:116|108:87,3,70.4999978485108,2|0|2|0,0:2|0:0|0:2|0:0,0:0:0:0:
175,36,125213,2,0,L|215:29,4,35.2499989242554,2|0|2|0|2,0:2|0:0|0:2|0:0|0:2,0:0:0:0:
48,204,125546,5,0,0:0:0:0:
62,236,125630,1,0,0:0:0:0:
90,257,125713,1,0,0:0:0:0:
124,261,125796,1,0,0:0:0:0:
158,256,125879,1,0,0:0:0:0:
188,238,125963,1,0,0:0:0:0:
210,210,126046,1,0,0:0:0:0:
240,192,126130,1,0,0:0:0:0:
274,187,126213,1,0,0:0:0:0:
308,191,126296,1,0,0:0:0:0:
336,212,126379,1,0,0:0:0:0:
350,244,126463,1,0,0:0:0:0:
347,279,126546,6,0,P|348:307|362:335,4,35.2499989242554,2|0|0|0|2,0:2|0:0|0:0|0:0|0:2,0:0:0:0:
466,205,126879,6,0,L|476:126,1,70.4999978485108,2|0,0:2|0:0,0:0:0:0:
400,87,127045,2,0,L|390:166,1,70.4999978485108,2|0,0:2|0:0,0:0:0:0:
316,107,127212,2,0,L|325:38,3,70.4999978485108,2|0|2|0,0:2|0:0|0:2|0:0,0:0:0:0:
233,96,127545,6,0,L|243:175,1,70.4999978485108,2|0,0:2|0:0,0:0:0:0:
167,214,127711,2,0,L|157:135,1,70.4999978485108,2|0,0:2|0:0,0:0:0:0:
83,193,127878,2,0,L|36:178,4,35.2499989242554,2|0|0|0|0,1:2|0:0|0:0|0:0|0:0,0:0:0:0:
87,335,128211,5,2,0:2:0:0:
118,349,128294,1,0,0:0:0:0:
152,352,128377,1,2,0:2:0:0:
186,345,128461,1,0,0:0:0:0:
209,318,128544,2,0,P|216:277|204:243,1,70.4999978485108,2|0,0:2|0:0,0:0:0:0:
170,166,128710,1,2,0:2:0:0:
170,166,128794,1,0,0:0:0:0:
170,166,128877,2,0,L|182:93,3,70.4999978485108,2|0|0|0,0:2|0:0|0:0|0:0,0:0:0:0:
264,72,129210,6,0,L|276:145,3,70.4999978485108,2|2|2|2,0:2|0:2|0:2|0:2,0:0:0:0:
294,226,129543,5,2,0:2:0:0:
327,237,129626,1,0,0:0:0:0:
362,237,129710,1,2,0:2:0:0:
395,225,129793,1,0,0:0:0:0:
419,199,129876,2,0,P|427:166|418:125,1,70.4999978485108,2|0,0:2|0:0,0:0:0:0:
473,269,130043,1,2,0:2:0:0:
473,269,130126,1,0,0:0:0:0:
473,269,130209,2,0,P|465:302|474:343,3,70.4999978485108,2|0|0|0,0:2|0:0|0:0|0:0,0:0:0:0:
389,351,130542,6,0,L|374:398,4,35.2499989242554,2|0|2|0|2,0:2|0:0|0:2|0:0|0:2,0:0:0:0:
311,278,130875,5,2,0:2:0:0:
277,267,130959,1,0,0:0:0:0:
241,267,131042,1,2,0:2:0:0:
209,282,131125,1,0,0:0:0:0:
185,308,131208,1,2,0:2:0:0:
161,334,131292,1,0,0:0:0:0:
129,349,131375,1,2,0:2:0:0:
93,349,131458,1,0,0:0:0:0:
59,338,131541,2,0,P|31:274|35:250,3,70.4999978485108,2|0|2|0,0:2|0:0|0:2|0:0,0:0:0:0:
116,269,131874,6,0,P|144:205|139:181,3,70.4999978485108,2|0|2|0,0:2|0:0|0:2|0:0,0:0:0:0:
107,133,132207,6,0,L|102:62,1,70.4999978485108,2|0,0:2|0:0,0:0:0:0:
181,32,132374,2,0,L|185:102,1,70.4999978485108,2|0,0:2|0:0,0:0:0:0:
267,122,132541,2,0,L|262:51,3,70.4999978485108,2|0|2|0,0:2|0:0|0:2|0:0,0:0:0:0:
349,106,132874,6,0,L|344:176,1,70.4999978485108,2|0,0:2|0:0,0:0:0:0:
423,207,133041,2,0,L|427:136,1,70.4999978485108,2|0,0:2|0:0,0:0:0:0:
509,117,133208,2,0,L|504:187,3,70.4999978485108,2|0|0|0,0:2|0:0|0:0|0:0,0:0:0:0:
496,271,133540,5,2,0:2:0:0:
485,304,133623,1,0,0:0:0:0:
457,326,133706,1,2,0:2:0:0:
422,332,133789,1,0,0:0:0:0:
388,319,133873,2,0,P|347:308|316:313,1,70.4999978485108,2|0,0:2|0:0,0:0:0:0:
326,225,134039,1,2,0:2:0:0:
326,225,134123,1,0,0:0:0:0:
326,225,134206,6,0,P|283:230|257:247,3,70.4999978485108,2|0|2|0,0:2|0:0|0:2|0:0,0:0:0:0:
254,332,134539,2,0,P|296:326|322:309,3,70.4999978485108,2|0|0|0,0:2|0:2|0:0|0:0,0:0:0:0:
393,262,134872,5,2,0:2:0:0:
408,230,134955,1,0,0:0:0:0:
404,195,135038,1,2,0:2:0:0:
383,166,135121,1,0,0:0:0:0:
350,151,135205,2,0,P|313:129|294:104,1,70.4999978485108,2|0,0:2|0:0,0:0:0:0:
373,66,135372,1,0,0:0:0:0:
373,66,135455,1,0,0:0:0:0:
373,66,135538,6,0,P|347:32|340:1,3,70.4999978485108,2|2|2|2,0:2|0:2|0:2|0:2,0:0:0:0:
430,2,135871,2,0,P|446:23|456:47,4,35.2499989242554,2|0|2|0|2,0:2|0:0|0:2|0:0|0:2,0:0:0:0:
446,116,136204,6,0,L|432:195,1,70.4999978485108,2|2,0:2|0:2,0:0:0:0:
418,266,136371,1,2,0:2:0:0:
418,266,136454,1,0,0:0:0:0:
418,266,136537,1,0,1:0:0:0:
298,169,136704,6,0,L|284:90,1,70.4999978485108,2|2,0:2|0:2,0:0:0:0:
270,19,136871,1,2,0:2:0:0:
270,19,136954,1,0,0:0:0:0:
270,19,137037,1,0,0:0:0:0:
164,116,137203,6,0,L|150:195,1,70.4999978485108,2|2,0:2|0:2,0:0:0:0:
136,266,137370,1,2,0:2:0:0:
248,343,137536,5,0,0:0:0:0:
282,353,137620,1,0,0:0:0:0:
316,343,137703,1,2,0:2:0:0:
350,353,137786,1,0,0:0:0:0:
384,343,137869,2,0,L|463:348,1,70.4999978485108,2|0,0:2|0:0,0:0:0:0:
419,264,138036,2,0,L|340:259,1,70.4999978485108,2|0,0:2|0:0,0:0:0:0:
378,179,138202,1,2,0:2:0:0:
344,169,138286,1,0,0:0:0:0:
310,179,138369,1,2,0:2:0:0:
276,169,138452,1,0,0:0:0:0:
242,179,138536,6,0,P|161:121|189:6,1,211.499993545532,2|0,0:2|2:0,0:0:0:0:
248,81,138869,5,4,1:2:0:0:
256,192,138952,12,4,140201,2:2:0:0:
