osu file format v14

[General]
AudioFilename: audio.mp3
AudioLeadIn: 0
PreviewTime: 4647
Countdown: 0
SampleSet: Normal
StackLeniency: 0.5
Mode: 0
LetterboxInBreaks: 0
WidescreenStoryboard: 1

[Editor]
Bookmarks: 18999,40314,50972,61630,73620,94935
DistanceSpacing: 0.8
BeatDivisor: 4
GridSize: 4
TimelineZoom: 2.2

[Metadata]
Title:The Big Black
TitleUnicode:The Big Black
Artist:The Quick Brown Fox
ArtistUnicode:The Quick Brown Fox
Creator:Mismagius
Version:Extra
Source:
Tags:renard queenston speedkore 4 kidz speedcore splittercore blue dragon lapfox vulpvibe halley labs ren tqbf electronic instrumental english
BeatmapID:2664875
BeatmapSetID:867737

[Difficulty]
HPDrainRate:5
CircleSize:4
OverallDifficulty:9
ApproachRate:9.4
SliderMultiplier:2.5
SliderTickRate:1

[Events]
//Background and Video events
0,0,"big black remastered OFFICIAL 2020.png",0,0
//Break Periods
2,84447,94365
//Storyboard Layer 0 (Background)
//Storyboard Layer 1 (Fail)
//Storyboard Layer 2 (Pass)
//Storyboard Layer 3 (Foreground)
//Storyboard Layer 4 (Overlay)
//Storyboard Sound Samples

[TimingPoints]
6979,333.055786844296,4,2,0,80,1,0
6979,-100,4,2,0,80,0,0
12307,-62.5,4,2,0,80,0,0
12557,-100,4,2,0,80,0,0
14972,-62.5,4,2,0,80,0,0
15305,-100,4,2,0,80,0,0
15638,-62.5,4,2,0,80,0,0
15971,-100,4,2,0,80,0,0
18969,-100,4,1,0,80,0,0
23964,-250,4,1,0,80,0,0
24297,-100,4,1,0,80,0,0
29293,-250,4,1,0,80,0,0
29626,-100,4,1,0,80,0,0
34622,-250,4,1,0,80,0,0
34955,-100,4,1,0,80,0,0
37620,-250,4,1,0,80,0,0
38952,-100,4,1,0,80,0,0
39951,-250,4,1,0,80,0,0
40284,-500,4,2,0,80,0,0
50942,-250,4,2,0,80,0,0
50954,-250,4,2,0,80,0,0
51275,-1000,4,2,0,80,0,0
57603,-500,4,2,0,80,0,0
58935,-333.333333333333,4,2,0,80,0,0
59934,-166.666666666667,4,2,0,80,0,0
60267,-333.333333333334,4,2,0,80,0,0
62599,-100,4,2,0,80,0,0
62932,-100,4,2,0,80,0,0
94905,-250,4,2,0,80,0,0
95238,-1000,4,2,0,80,0,0
101566,-500,4,2,0,80,0,0
102899,-333.333333333333,4,2,0,80,0,0
103898,-166.666666666667,4,2,0,80,0,0
104231,-333.333333333333,4,2,0,80,0,0
105563,-100,4,2,0,80,0,0
110892,-62.5,4,2,0,80,0,0
111141,-100,4,2,0,80,0,0
113556,-62.5,4,2,0,80,0,0
113889,-100,4,2,0,80,0,0
114222,-62.5,4,2,0,80,0,0
114555,-100,4,2,0,80,0,0
117553,-100,4,1,0,80,0,0
117565,-100,4,1,0,80,0,0
136204,-250,4,1,0,80,0,0
137536,-100,4,1,0,80,0,0

[Colours]
Combo1 : 255,231,155
Combo2 : 138,255,138
Combo3 : 183,216,255
Combo4 : 250,154,169

[HitObjects]
376,17,6979,6,0,P|395:42|402:73,1,62.5,4|0,0:0|0:0,0:0:0:0:
479,53,7145,2,0,P|480:84|469:113,1,62.5,2|0,0:0|0:0,0:0:0:0:
374,158,7312,2,0,L|397:305,1,125,2|0,0:0|0:0,0:0:0:0:
434,355,7561,1,0,0:0:0:0:
434,355,7645,2,0,P|367:316|304:342,1,125,2|0,0:0|0:0,0:0:0:0:
249,369,7894,1,0,0:0:0:0:
242,361,7978,2,0,L|175:354,1,62.5,2|0,0:0|0:0,0:0:0:0:
199,256,8144,2,0,L|266:263,1,62.5,0|0,0:0|0:0,0:0:0:0:
94,292,8311,5,2,0:0:0:0:
86,274,8394,1,0,0:0:0:0:
82,255,8477,2,0,P|80:222|87:190,1,62.5,2|0,0:0|0:0,0:0:0:0:
159,139,8644,2,0,P|80:141|37:104,1,125,2|2,0:0|0:0,0:0:0:0:
71,28,8894,1,0,0:0:0:0:
63,15,8977,2,0,P|124:8|177:40,1,125,2|2,0:0|0:0,0:0:0:0:
154,125,9227,1,0,0:0:0:0:
159,139,9310,2,0,P|80:141|37:104,1,125,2|0,0:0|0:0,0:0:0:0:
294,19,9643,5,2,0:0:0:0:
299,36,9726,1,0,0:0:0:0:
304,53,9809,2,0,L|324:136,1,62.5,2|0,0:0|0:0,0:0:0:0:
254,171,9976,2,0,P|300:201|367:184,1,125,2|2,0:0|0:0,0:0:0:0:
422,120,10226,1,0,0:0:0:0:
432,104,10309,2,0,P|455:132|465:161,1,62.5,2|0,0:0|0:0,0:0:0:0:
472,244,10476,2,0,P|468:280|455:307,1,62.5,0|0,0:0|0:0,0:0:0:0:
443,97,10642,2,0,P|466:125|476:154,1,62.5,2|0,0:0|0:0,0:0:0:0:
489,245,10809,2,0,P|485:281|472:308,1,62.5,0|0,0:0|0:0,0:0:0:0:
305,384,10975,5,0,0:0:0:0:
294,361,11058,1,0,0:0:0:0:
294,335,11142,1,2,0:0:0:0:
301,311,11225,1,0,0:0:0:0:
322,280,11308,5,0,0:0:0:0:
345,250,11391,1,0,0:0:0:0:
349,212,11475,1,2,0:0:0:0:
337,176,11558,1,0,0:0:0:0:
300,141,11641,5,0,0:0:0:0:
249,138,11725,1,0,0:0:0:0:
204,159,11808,1,2,0:0:0:0:
181,203,11891,1,0,0:0:0:0:
194,263,11974,5,2,0:0:0:0:
159,315,12058,1,0,0:0:0:0:
99,332,12141,1,2,0:0:0:0:
43,304,12224,1,0,0:0:0:0:
24,232,12307,6,0,B|69:222|69:222|161:247|161:247|220:233,1,200,4|2,0:0|0:0,0:0:0:0:
249,138,12557,1,0,0:0:0:0:
257,128,12640,2,0,P|307:130|328:137,1,62.5,4|0,0:0|0:0,0:0:0:0:
368,287,12807,1,2,0:0:0:0:
365,300,12890,1,0,0:0:0:0:
362,313,12974,2,0,L|496:294,1,125,2|0,0:0|0:0,0:0:0:0:
425,226,13223,1,0,0:0:0:0:
420,217,13307,2,0,L|353:226,1,62.5,2|0,0:0|0:0,0:0:0:0:
429,137,13473,2,0,L|496:127,1,62.5,0|0,0:0|0:0,0:0:0:0:
394,45,13640,5,2,0:0:0:0:
360,35,13723,1,0,0:0:0:0:
326,25,13806,2,0,P|316:60|320:103,1,62.5,2|0,0:0|0:0,0:0:0:0:
358,225,13973,2,0,P|282:221|234:265,1,125,2|2,0:0|0:0,0:0:0:0:
319,306,14222,1,0,0:0:0:0:
356,213,14306,2,0,P|280:209|232:253,1,125,2|0,0:0|0:0,0:0:0:0:
319,306,14556,1,0,0:0:0:0:
327,317,14639,2,0,L|414:328,1,62.5,2|0,0:0|0:0,0:0:0:0:
212,351,14805,2,0,L|125:340,1,62.5,0|0,0:0|0:0,0:0:0:0:
243,236,14972,6,0,B|274:174|274:174|237:37,1,200,4|0,0:0|0:0,0:0:0:0:
232,26,15222,1,0,0:0:0:0:
157,81,15305,6,0,L|23:65,1,125,2|2,0:0|0:0,0:0:0:0:
29,58,15555,1,0,0:0:0:0:
0,141,15638,6,0,B|124:155|124:155|130:161|130:161|197:168,1,200,4|0,0:0|0:0,0:0:0:0:
203,191,15888,1,0,0:0:0:0:
226,288,15971,6,0,L|298:297,1,62.5,2|0,0:0|0:0,0:0:0:0:
116,249,16138,2,0,L|44:240,1,62.5,0|0,0:0|0:0,0:0:0:0:
203,191,16304,5,6,0:0:0:0:
229,165,16387,1,0,0:0:0:0:
240,129,16471,2,0,P|242:91|231:47,1,62.5,2|0,0:0|0:0,0:0:0:0:
59,0,16637,5,6,0:0:0:0:
33,26,16720,1,0,0:0:0:0:
22,62,16804,2,0,P|20:100|31:144,1,62.5,2|0,0:0|0:0,0:0:0:0:
203,191,16970,5,6,0:0:0:0:
250,175,17053,1,0,0:0:0:0:
297,192,17137,1,2,0:0:0:0:
326,232,17220,1,0,0:0:0:0:
341,279,17303,6,0,P|344:297|340:318,6,31.25,4|0|2|0|2|0|2,0:0|0:0|0:0|0:0|0:0|0:0|0:0,0:0:0:0:
355,265,17636,5,0,1:0:0:0:
355,265,18302,5,0,1:0:0:0:
355,265,18635,6,0,L|432:257,2,62.5,0|0|0,1:0|1:0|1:0,0:0:0:0:
426,73,18969,5,0,0:0:0:0:
388,41,19052,1,0,0:0:0:0:
340,28,19135,1,0,0:0:0:0:
291,39,19218,1,0,0:0:0:0:
252,69,19302,1,0,0:0:0:0:
231,114,19385,1,0,0:0:0:0:
231,164,19468,1,0,0:0:0:0:
247,211,19551,1,0,0:0:0:0:
282,246,19635,2,0,P|315:245|355:227,1,62.5,0|0,0:0|0:0,0:0:0:0:
396,318,19801,2,0,P|419:294|434:252,1,62.5,0|0,0:0|0:0,0:0:0:0:
501,103,19968,5,2,1:2:0:0:
445,92,20051,1,2,1:2:0:0:
389,81,20134,1,2,1:2:0:0:
333,70,20218,1,2,1:2:0:0:
277,60,20301,6,0,L|208:72,1,62.5,0|0,0:0|0:0,0:0:0:0:
100,170,20467,2,0,L|169:158,1,62.5,0|0,0:0|0:0,0:0:0:0:
282,246,20634,2,0,P|298:202|292:161,1,62.5,0|0,0:0|0:0,0:0:0:0:
136,318,20800,2,0,P|138:348|152:377,1,62.5,0|0,0:0|0:0,0:0:0:0:
245,123,20967,2,0,P|225:80|191:55,1,62.5,0|0,0:0|0:0,0:0:0:0:
230,325,21133,2,0,P|253:344|283:355,1,62.5,0|0,0:0|0:0,0:0:0:0:
428,319,21300,6,0,P|442:318|463:322,6,31.25,2|0|2|0|2|0|0,0:2|0:0|0:2|0:0|0:2|0:0|0:2,0:0:0:0:
333,275,21633,5,0,0:0:0:0:
301,236,21716,1,0,0:0:0:0:
297,186,21799,1,0,0:0:0:0:
314,138,21883,1,0,0:0:0:0:
354,109,21966,2,0,P|399:112|433:127,1,62.5,0|0,0:0|0:0,0:0:0:0:
225,217,22133,2,0,P|180:214|146:199,1,62.5,0|0,0:0|0:0,0:0:0:0:
333,275,22299,2,0,P|330:320|315:354,1,62.5,0|0,0:0|0:0,0:0:0:0:
233,61,22466,2,0,P|236:16|251:-18,1,62.5,0|0,0:0|0:0,0:0:0:0:
158,296,22632,5,2,0:2:0:0:
155,307,22715,1,0,0:0:0:0:
100,331,22799,5,2,0:2:0:0:
97,342,22882,1,0,0:0:0:0:
40,371,22965,6,0,L|24:295,1,62.5,2|0,0:2|0:0,0:0:0:0:
123,133,23132,1,2,0:2:0:0:
129,153,23215,1,0,0:0:0:0:
122,177,23298,2,0,L|106:253,1,62.5,2|0,0:2|0:0,0:0:0:0:
209,241,23465,2,0,L|193:317,1,62.5,0|0,0:0|0:0,0:0:0:0:
282,345,23631,1,2,0:2:0:0:
340,367,23715,1,0,0:0:0:0:
401,360,23798,1,0,0:0:0:0:
451,323,23881,1,0,0:0:0:0:
473,267,23964,6,0,P|475:230|469:209,1,50,0|0,0:0|0:0,0:0:0:0:
497,67,24297,5,0,0:0:0:0:
457,35,24381,1,0,0:0:0:0:
407,30,24464,1,0,0:0:0:0:
360,47,24547,1,0,0:0:0:0:
336,91,24630,1,0,0:0:0:0:
340,141,24714,1,0,0:0:0:0:
373,177,24797,1,0,0:0:0:0:
394,222,24880,1,0,0:0:0:0:
388,272,24964,6,0,B|365:294|365:294|335:288,1,62.5,2|0,0:2|0:0,0:0:0:0:
177,288,25130,2,0,B|147:294|147:294|124:272,1,62.5,0|0,0:0|0:0,0:0:0:0:
248,378,25297,2,0,L|261:307,1,62.5,2|0,0:2|0:0,0:0:0:0:
218,119,25463,2,0,L|205:190,1,62.5,0|0,0:0|0:0,0:0:0:0:
388,272,25630,5,0,0:0:0:0:
422,236,25713,1,0,0:0:0:0:
437,188,25796,1,0,0:0:0:0:
426,139,25879,1,0,0:0:0:0:
399,95,25963,2,0,P|393:71|397:28,2,62.5,0|0|0,0:0|0:0|0:0,0:0:0:0:
467,340,26296,5,2,0:2:0:0:
406,327,26379,1,0,0:0:0:0:
345,314,26462,1,0,0:0:0:0:
283,301,26546,1,0,0:0:0:0:
221,288,26629,2,0,L|184:280,4,31.25,2|2|2|2|2,0:2|0:2|0:2|0:2|0:2,0:0:0:0:
299,37,26962,5,0,0:0:0:0:
254,14,27045,1,0,0:0:0:0:
206,29,27128,1,0,0:0:0:0:
184,74,27212,1,0,0:0:0:0:
201,120,27295,2,0,P|242:131|274:121,1,62.5,0|0,0:0|0:0,0:0:0:0:
441,19,27461,2,0,P|400:8|368:18,1,62.5,0|0,0:0|0:0,0:0:0:0:
305,211,27628,5,0,0:0:0:0:
350,234,27711,1,0,0:0:0:0:
398,219,27794,1,0,0:0:0:0:
420,174,27878,1,0,0:0:0:0:
403,128,27961,2,0,P|371:119|347:127,4,31.25,2|0|0|0|0,1:2|0:0|0:0|0:0|0:0,0:0:0:0:
427,312,28294,5,2,1:2:0:0:
425,326,28377,1,0,0:0:0:0:
384,370,28461,5,2,1:2:0:0:
386,384,28544,1,0,0:0:0:0:
332,341,28627,6,0,L|264:331,1,62.5,2|0,1:2|0:0,0:0:0:0:
420,174,28794,2,0,L|488:184,1,62.5,2|0,1:2|0:0,0:0:0:0:
251,107,28960,5,2,1:2:0:0:
245,90,29043,1,0,0:0:0:0:
281,49,29127,5,0,0:0:0:0:
287,32,29210,1,0,0:0:0:0:
238,1,29293,6,0,P|195:0|161:21,1,75,0|0,0:0|2:0,0:0:0:0:
97,90,29626,5,0,0:0:0:0:
56,118,29709,1,0,0:0:0:0:
38,163,29792,1,0,0:0:0:0:
48,212,29875,1,0,0:0:0:0:
83,246,29959,1,0,0:0:0:0:
131,256,30042,1,0,0:0:0:0:
177,238,30125,1,0,0:0:0:0:
205,197,30208,1,0,0:0:0:0:
205,146,30292,1,0,0:0:0:0:
233,106,30375,1,0,0:0:0:0:
278,87,30458,1,0,0:0:0:0:
327,97,30541,1,0,0:0:0:0:
362,132,30625,6,0,L|436:123,1,62.5,2|2,0:2|0:2,0:0:0:0:
472,3,30792,2,0,L|398:12,1,62.5,2|2,0:2|0:2,0:0:0:0:
275,96,30959,5,0,0:0:0:0:
265,145,31042,1,0,0:0:0:0:
284,190,31125,1,0,0:0:0:0:
324,218,31208,1,0,0:0:0:0:
375,217,31292,1,0,0:0:0:0:
416,245,31375,1,0,0:0:0:0:
434,291,31458,1,0,0:0:0:0:
424,339,31541,1,0,0:0:0:0:
390,374,31625,1,0,0:0:0:0:
341,384,31708,1,0,0:0:0:0:
296,366,31791,1,0,0:0:0:0:
268,326,31874,1,0,0:0:0:0:
275,276,31958,6,0,P|278:256|288:234,4,31.25,2|2|2|2|2,0:2|0:2|0:2|0:2|0:2,0:0:0:0:
75,145,32291,6,0,P|67:119|69:75,1,62.5,0|0,0:0|0:0,0:0:0:0:
164,93,32457,2,0,P|176:69|209:39,1,62.5,0|0,0:0|0:0,0:0:0:0:
49,245,32624,2,0,P|25:232|-4:199,1,62.5,0|0,0:0|0:0,0:0:0:0:
75,145,32790,2,0,P|67:119|69:75,1,62.5,0|0,0:0|0:0,0:0:0:0:
210,275,32957,2,0,P|218:300|216:345,1,62.5,0|0,0:0|0:0,0:0:0:0:
121,327,33123,2,0,P|108:350|75:380,1,62.5,0|0,0:0|0:0,0:0:0:0:
235,174,33290,5,2,0:2:0:0:
252,167,33373,1,0,0:0:0:0:
303,181,33456,5,2,0:2:0:0:
319,189,33539,1,0,0:0:0:0:
366,172,33623,6,0,L|432:156,1,62.5,2|0,0:2|0:0,0:0:0:0:
345,56,33789,2,0,L|279:72,1,62.5,2|0,0:2|0:0,0:0:0:0:
409,311,33956,2,0,P|419:257|413:225,1,62.5,2|0,0:2|0:0,0:0:0:0:
256,311,34123,2,0,P|256:342|265:372,1,62.5,0|0,0:0|0:0,0:0:0:0:
241,162,34289,5,2,0:2:0:0:
194,144,34372,1,0,0:0:0:0:
146,160,34456,1,0,0:0:0:0:
117,200,34539,1,0,0:0:0:0:
122,248,34622,6,0,B|127:276|127:276|121:299,1,50,0|0,0:0|0:0,0:0:0:0:
162,66,34955,6,0,L|176:0,1,62.5,0|0,0:0|0:0,0:0:0:0:
350,66,35122,2,0,L|336:0,1,62.5,0|0,0:0|0:0,0:0:0:0:
117,200,35288,2,0,P|93:147|96:119,1,62.5,0|0,0:0|0:0,0:0:0:0:
395,200,35455,2,0,P|419:147|416:119,1,62.5,0|0,0:0|0:0,0:0:0:0:
295,264,35621,5,2,0:2:0:0:
290,281,35705,1,0,0:0:0:0:
328,312,35788,5,0,0:0:0:0:
335,329,35871,1,0,0:0:0:0:
293,373,35954,6,0,L|216:362,1,62.5,2|0,0:2|0:0,0:0:0:0:
428,319,36121,2,0,L|505:330,1,62.5,0|0,0:0|0:0,0:0:0:0:
363,172,36287,5,0,0:0:0:0:
341,126,36371,1,0,0:0:0:0:
345,76,36454,1,0,0:0:0:0:
382,43,36537,1,0,0:0:0:0:
431,37,36620,2,0,P|456:60|463:89,1,62.5,0|0,0:0|0:0,0:0:0:0:
315,240,36787,2,0,P|290:217|283:188,1,62.5,0|0,0:0|0:0,0:0:0:0:
180,10,36954,5,2,0:2:0:0:
164,70,37037,1,2,0:2:0:0:
149,130,37120,1,2,0:2:0:0:
134,190,37203,1,2,0:2:0:0:
119,251,37287,2,0,L|108:300,6,31.25,0|0|0|0|0|0|0,0:0|0:0|0:0|0:0|0:0|0:0|0:0,0:0:0:0:
114,239,37620,6,0,L|102:236,2,12.5,2|2|2,0:2|0:2|0:2,0:0:0:0:
201,274,37786,2,0,L|213:271,2,12.5,2|0|0,0:2|0:0|0:0,0:0:0:0:
154,344,37953,1,0,0:0:0:0:
398,239,38119,6,0,L|410:236,2,12.5,2|2|2,0:2|0:2|0:2,0:0:0:0:
311,274,38285,2,0,L|299:271,2,12.5,2|0|0,0:2|0:0|0:0,0:0:0:0:
358,344,38452,1,0,0:0:0:0:
301,160,38619,6,0,L|306:143,2,12.5,2|2|2,0:2|0:2|0:2,0:0:0:0:
211,160,38785,2,0,L|206:143,2,12.5,2|0|0,0:2|0:0|0:0,0:0:0:0:
256,235,38952,5,0,0:0:0:0:
287,273,39035,1,0,0:0:0:0:
335,284,39118,1,2,0:2:0:0:
383,269,39202,1,0,0:0:0:0:
415,231,39285,2,0,P|425:192|417:156,1,62.5,0|0,0:0|0:0,0:0:0:0:
312,87,39451,2,0,P|302:126|310:162,1,62.5,2|0,0:2|0:0,0:0:0:0:
256,235,39618,5,2,0:2:0:0:
225,197,39701,1,0,0:0:0:0:
177,186,39784,1,2,0:2:0:0:
129,201,39868,1,0,0:0:0:0:
94,238,39951,6,0,B|86:270|86:270|98:324,1,75,0|0,0:0|2:2,0:0:0:0:
115,382,40284,6,0,L|132:376,3,12.5,4|0|0|0,0:0|0:0|0:0|0:0,0:0:0:0:
184,320,40617,2,0,L|201:326,3,12.5,2|0|0|0,0:0|0:0|0:0|0:0,0:0:0:0:
256,380,40950,2,0,L|273:374,3,12.5,0|0|0|0,0:0|0:0|0:0|0:0,0:0:0:0:
325,318,41283,2,0,L|342:324,3,12.5,2|0|0|0,0:0|0:0|0:0|0:0,0:0:0:0:
433,293,41616,5,0,0:0:0:0:
433,288,41700,1,0,0:0:0:0:
433,283,41783,1,0,0:0:0:0:
433,278,41866,1,0,0:0:0:0:
434,273,41949,1,2,0:0:0:0:
435,268,42033,1,0,0:0:0:0:
436,263,42116,1,0,0:0:0:0:
437,258,42199,1,0,0:0:0:0:
438,253,42282,2,0,L|441:235,7,12.5,0|0|0|0|2|0|0|0,0:0|0:0|0:0|0:0|0:0|0:0|0:0|0:0,0:0:0:0:
372,180,42949,6,0,L|355:186,3,12.5,0|0|0|0,0:0|0:0|0:0|0:0,0:0:0:0:
303,242,43282,2,0,L|286:236,3,12.5,2|0|0|0,0:0|0:0|0:0|0:0,0:0:0:0:
231,182,43615,2,0,L|214:188,3,12.5,0|0|0|0,0:0|0:0|0:0|0:0,0:0:0:0:
162,244,43948,2,0,L|145:238,3,12.5,2|0|0|0,0:0|0:0|0:0|0:0,0:0:0:0:
80,204,44281,5,0,0:0:0:0:
80,199,44365,1,0,0:0:0:0:
80,194,44448,1,0,0:0:0:0:
80,189,44531,1,0,0:0:0:0:
79,184,44614,1,2,0:0:0:0:
78,179,44698,1,0,0:0:0:0:
77,174,44781,1,0,0:0:0:0:
76,169,44864,1,0,0:0:0:0:
75,164,44947,2,0,L|72:146,7,12.5,0|0|0|0|2|0|0|0,0:0|0:0|0:0|0:0|0:0|0:0|0:0|0:0,0:0:0:0:
116,80,45613,6,0,P|116:70|114:59,3,12.5,0|0|0|0,0:0|0:0|0:0|0:0,0:0:0:0:
171,145,45946,2,0,P|171:155|169:166,3,12.5,2|0|0|0,0:0|0:0|0:0|0:0,0:0:0:0:
224,66,46279,2,0,P|224:56|222:45,3,12.5,0|0|0|0,0:0|0:0|0:0|0:0,0:0:0:0:
279,131,46612,2,0,P|279:141|277:152,3,12.5,2|0|0|0,0:0|0:0|0:0|0:0,0:0:0:0:
339,52,46945,6,0,P|339:42|341:31,3,12.5,0|0|0|0,0:0|0:0|0:0|0:0,0:0:0:0:
284,117,47278,2,0,P|284:127|286:138,3,12.5,2|0|0|0,0:0|0:0|0:0|0:0,0:0:0:0:
231,38,47611,2,0,P|231:28|233:17,3,12.5,0|0|0|0,0:0|0:0|0:0|0:0,0:0:0:0:
176,103,47944,2,0,P|176:113|178:124,3,12.5,2|0|0|0,0:0|0:0|0:0|0:0,0:0:0:0:
108,28,48277,5,0,0:0:0:0:
106,32,48361,1,0,0:0:0:0:
104,36,48444,1,0,0:0:0:0:
102,40,48527,1,0,0:0:0:0:
100,44,48610,1,2,0:0:0:0:
98,48,48694,1,0,0:0:0:0:
96,52,48777,1,0,0:0:0:0:
94,56,48860,1,0,0:0:0:0:
82,87,48944,5,0,0:0:0:0:
84,91,49028,1,0,0:0:0:0:
86,95,49111,1,0,0:0:0:0:
88,99,49194,1,0,0:0:0:0:
90,103,49277,1,2,0:0:0:0:
92,107,49361,1,0,0:0:0:0:
94,111,49444,1,0,0:0:0:0:
96,115,49527,1,0,0:0:0:0:
96,134,49610,6,0,L|90:153,1,12.5,0|0,0:0|0:0,0:0:0:0:
165,189,49776,2,0,L|159:208,1,12.5,0|0,0:0|0:0,0:0:0:0:
255,167,49943,2,0,L|249:186,1,12.5,2|0,0:0|0:0,0:0:0:0:
324,222,50109,2,0,L|318:241,1,12.5,0|0,0:0|0:0,0:0:0:0:
92,145,50276,6,0,L|86:164,1,12.5,0|0,0:0|0:0,0:0:0:0:
161,200,50442,2,0,L|155:219,1,12.5,0|0,0:0|0:0,0:0:0:0:
251,178,50609,2,0,L|245:197,1,12.5,2|0,0:0|0:0,0:0:0:0:
320,233,50775,2,0,L|314:252,1,12.5,0|0,0:0|0:0,0:0:0:0:
322,56,50942,6,0,P|278:47|238:51,1,75,4|0,0:0|0:0,0:0:0:0:
168,77,51275,6,0,B|138:105|99:100|99:100|127:108|169:144|180:225|180:225|167:246|140:253|111:225|115:197|140:178,1,350,6|2,0:0|0:0,0:0:0:0:
259,141,56271,6,0,P|292:139|335:152,1,75,2|2,0:0|0:0,0:0:0:0:
288,250,57603,6,0,P|336:262|421:213,1,150,2|2,0:0|0:0,0:0:0:0:
436,110,58935,6,0,P|409:74|336:162,1,206.24999370575,2|0,0:0|0:0,0:0:0:0:
389,226,59934,6,0,B|349:216|349:216|255:231,1,112.499996566773,2|0,0:0|0:0,0:0:0:0:
216,293,60267,6,0,B|246:277|252:229|227:195|227:195|218:197|218:197|191:183|188:129|211:99,1,224.999993133545,2|2,0:0|0:0,0:0:0:0:
377,33,61600,5,4,1:2:0:0:
377,33,62266,5,4,1:2:0:0:
377,33,62599,6,0,L|365:94,2,62.5,0|0|0,1:0|1:0|1:0,0:0:0:0:
434,172,62932,6,0,P|449:178|471:179,1,31.25,8|0,1:2|0:0,0:0:0:0:
434,175,63015,2,0,P|449:181|471:182,1,31.25,8|0,1:2|0:0,0:0:0:0:
434,178,63098,2,0,P|449:184|471:186,1,31.25,8|0,1:2|0:0,0:0:0:0:
434,181,63181,2,0,P|449:188|471:190,1,31.25,8|0,1:2|0:0,0:0:0:0:
434,184,63265,2,0,P|449:191|471:194,1,31.25,8|0,1:2|0:0,0:0:0:0:
435,187,63348,2,0,P|449:194|471:197,1,31.25,8|0,1:2|0:0,0:0:0:0:
435,190,63431,2,0,P|449:198|471:201,1,31.25,8|0,1:2|0:0,0:0:0:0:
435,193,63514,2,0,P|449:201|470:205,1,31.25,8|0,1:2|0:0,0:0:0:0:
435,196,63598,2,0,L|401:211,4,31.25,8|0|8|0|8,1:2|0:0|1:2|0:0|1:2,0:0:0:0:
342,286,63931,6,0,L|333:316,4,31.25,2|0|2|0|2,0:0|0:0|0:0|0:0|0:0,0:0:0:0:
296,202,64264,6,0,P|281:196|259:195,1,31.25,8|0,1:2|0:0,0:0:0:0:
296,199,64347,2,0,P|281:193|259:192,1,31.25,8|0,1:2|0:0,0:0:0:0:
296,196,64430,2,0,P|281:190|259:188,1,31.25,8|0,1:2|0:0,0:0:0:0:
296,193,64514,2,0,P|281:186|259:184,1,31.25,8|0,1:2|0:0,0:0:0:0:
296,190,64597,2,0,P|281:183|259:180,1,31.25,8|0,1:2|0:0,0:0:0:0:
295,187,64680,2,0,P|281:180|259:177,1,31.25,8|0,1:2|0:0,0:0:0:0:
295,184,64763,2,0,P|281:176|259:173,1,31.25,8|0,1:2|0:0,0:0:0:0:
295,181,64847,2,0,P|281:173|260:169,1,31.25,8|0,1:2|0:0,0:0:0:0:
295,178,64930,2,0,L|329:163,4,31.25,8|0|8|0|8,1:2|0:0|1:2|0:0|1:2,0:0:0:0:
212,77,65263,6,0,L|203:47,4,31.25,2|0|2|0|2,0:0|0:0|0:0|0:0|0:0,0:0:0:0:
152,163,65596,6,0,L|118:157,1,31.25,8|0,1:2|0:0,0:0:0:0:
152,166,65680,2,0,L|186:172,1,31.25,8|0,1:2|0:0,0:0:0:0:
152,169,65763,2,0,L|118:163,1,31.25,8|0,1:2|0:0,0:0:0:0:
152,172,65847,2,0,L|186:178,1,31.25,8|0,1:2|0:0,0:0:0:0:
152,175,65929,2,0,L|118:169,1,31.25,8|0,1:2|0:0,0:0:0:0:
152,178,66013,2,0,L|186:184,1,31.25,8|0,1:2|0:0,0:0:0:0:
152,181,66096,2,0,L|118:175,1,31.25,8|0,1:2|0:0,0:0:0:0:
152,184,66180,2,0,L|186:190,1,31.25,8|0,1:2|0:0,0:0:0:0:
152,187,66262,2,0,L|152:226,4,31.25,8|0|8|0|8,1:2|0:0|1:2|0:0|1:2,0:0:0:0:
259,34,66595,6,0,L|308:27,5,41.6666666666667,0|0|0|0|0|0,1:0|1:0|1:0|1:0|1:0|1:0,0:0:0:0:
333,23,66929,6,0,L|317:155,1,125,0|2,1:0|0:0,0:0:0:0:
302,318,67262,1,8,0:0:0:0:
302,318,67345,1,0,0:0:0:0:
302,318,67428,1,8,0:0:0:0:
426,247,67595,6,0,P|455:237|491:238,1,62.5,2|2,0:0|0:0,0:0:0:0:
475,329,67761,2,0,P|446:339|410:338,1,62.5,2|2,0:0|0:0,0:0:0:0:
302,318,67928,5,0,1:0:0:0:
302,318,68094,1,0,1:0:0:0:
367,25,68261,6,0,L|385:93,1,62.5,0|0,1:0|0:0,0:0:0:0:
314,141,68427,2,0,L|296:73,1,62.5,0|0,1:0|0:0,0:0:0:0:
224,32,68594,2,0,L|189:27,4,31.25,0|0|0|0|0,1:0|0:0|0:0|0:0|1:0,0:0:0:0:
419,176,68927,6,0,L|464:186,2,31.25,8|0|0,1:2|0:0|0:2,0:0:0:0:
185,262,69093,2,0,L|140:272,2,31.25,8|0|0,1:2|0:0|0:2,0:0:0:0:
426,288,69260,2,0,L|471:298,2,31.25,2|0|0,1:2|0:0|0:2,0:0:0:0:
204,149,69426,2,0,L|159:159,2,31.25,0|0|0,1:2|0:0|0:2,0:0:0:0:
393,37,69593,6,0,L|403:80,1,31.25,8|0,1:2|0:0,0:0:0:0:
390,40,69676,2,0,L|400:83,1,31.25,8|0,1:2|0:0,0:0:0:0:
387,43,69760,2,0,L|397:86,1,31.25,8|0,1:2|0:0,0:0:0:0:
384,46,69843,2,0,L|394:89,1,31.25,8|0,1:2|0:0,0:0:0:0:
381,49,69926,2,0,L|391:92,1,31.25,8|0,1:2|0:0,0:0:0:0:
378,52,70009,2,0,L|388:95,1,31.25,8|0,1:2|0:0,0:0:0:0:
375,55,70093,2,0,L|385:98,1,31.25,8|0,1:2|0:0,0:0:0:0:
372,58,70176,2,0,L|382:101,1,31.25,8|0,1:2|0:0,0:0:0:0:
365,61,70259,6,0,L|324:53,4,31.25,8|8|8|8|8,1:2|1:2|1:2|0:0|0:0,0:0:0:0:
482,199,70592,2,0,L|523:191,4,31.25,2|2|2|2|2,0:0|0:0|0:0|0:0|0:0,0:0:0:0:
300,283,70925,6,0,L|310:240,1,31.25,8|0,1:2|0:0,0:0:0:0:
297,280,71008,2,0,L|307:237,1,31.25,8|0,1:2|0:0,0:0:0:0:
294,277,71092,2,0,L|304:234,1,31.25,8|0,1:2|0:0,0:0:0:0:
291,274,71175,2,0,L|301:231,1,31.25,8|0,1:2|0:0,0:0:0:0:
288,271,71258,2,0,L|298:228,1,31.25,8|0,1:2|0:0,0:0:0:0:
285,268,71341,2,0,L|295:225,1,31.25,8|0,1:2|0:0,0:0:0:0:
282,265,71425,2,0,L|292:222,1,31.25,8|0,1:2|0:0,0:0:0:0:
279,262,71508,2,0,L|289:219,1,31.25,8|0,1:2|0:0,0:0:0:0:
272,259,71591,2,0,L|231:267,4,31.25,8|0|8|0|8,1:2|0:0|1:2|0:0|1:2,0:0:0:0:
414,201,71924,6,0,P|418:170|409:129,1,62.5,2|0,0:0|0:0,0:0:0:0:
360,43,72091,2,0,P|340:18|305:-4,1,62.5,2|0,0:0|0:0,0:0:0:0:
467,169,72257,2,0,P|442:150|402:137,1,62.5,2|0,0:0|0:0,0:0:0:0:
303,136,72424,2,0,P|272:140|234:159,1,62.5,2|0,0:0|0:0,0:0:0:0:
466,107,72590,2,0,P|437:119|406:147,1,62.5,2|0,0:0|0:0,0:0:0:0:
355,232,72757,2,0,P|343:260|341:302,1,62.5,2|0,0:0|0:0,0:0:0:0:
412,77,72924,2,0,P|407:108|417:149,1,62.5,2|0,0:0|0:0,0:0:0:0:
464,235,73091,2,0,P|483:259|518:282,1,62.5,2|0,0:0|0:0,0:0:0:0:
303,136,73257,5,0,1:0:0:0:
303,136,73590,6,0,L|296:104,1,31.25,8|0,1:2|0:0,0:0:0:0:
300,136,73673,2,0,L|293:168,1,31.25,8|0,1:2|0:0,0:0:0:0:
297,136,73756,2,0,L|290:104,1,31.25,8|0,1:2|0:0,0:0:0:0:
294,136,73839,2,0,L|287:168,1,31.25,8|0,1:2|0:0,0:0:0:0:
291,136,73923,2,0,L|284:104,1,31.25,8|0,1:2|0:0,0:0:0:0:
288,136,74006,2,0,L|281:168,1,31.25,8|0,1:2|0:0,0:0:0:0:
285,136,74089,2,0,L|278:104,1,31.25,8|0,1:2|0:0,0:0:0:0:
282,136,74172,2,0,L|275:168,1,31.25,8|0,1:2|0:0,0:0:0:0:
279,136,74256,2,0,L|246:136,4,31.25,8|0|8|0|8,1:2|0:0|1:2|0:0|1:2,0:0:0:0:
416,267,74589,6,0,L|449:267,4,31.25,2|0|2|0|2,0:0|0:0|0:0|0:0|0:0,0:0:0:0:
247,308,74922,6,0,L|240:340,1,31.25,8|0,1:2|0:0,0:0:0:0:
244,308,75005,2,0,L|237:276,1,31.25,8|0,1:2|0:0,0:0:0:0:
241,308,75088,2,0,L|234:340,1,31.25,8|0,1:2|0:0,0:0:0:0:
238,308,75171,2,0,L|231:276,1,31.25,8|0,1:2|0:0,0:0:0:0:
235,308,75255,2,0,L|228:340,1,31.25,8|0,1:2|0:0,0:0:0:0:
232,308,75338,2,0,L|225:276,1,31.25,8|0,1:2|0:0,0:0:0:0:
229,308,75421,2,0,L|222:340,1,31.25,8|0,1:2|0:0,0:0:0:0:
226,308,75504,2,0,L|219:276,1,31.25,8|0,1:2|0:0,0:0:0:0:
223,308,75588,2,0,L|190:308,4,31.25,8|0|8|0|8,1:2|0:0|1:2|0:0|1:2,0:0:0:0:
308,159,75921,6,0,L|341:159,4,31.25,2|0|2|0|2,0:0|0:0|0:0|0:0|0:0,0:0:0:0:
186,75,76254,6,0,P|179:56|179:40,1,31.25,8|0,1:2|0:0,0:0:0:0:
186,78,76337,2,0,P|175:60|171:45,1,31.25,8|0,1:2|0:0,0:0:0:0:
186,81,76421,2,0,P|171:66|165:51,1,31.25,8|0,1:2|0:0,0:0:0:0:
186,84,76504,2,0,P|169:72|159:59,1,31.25,8|0,1:2|0:0,0:0:0:0:
186,87,76587,2,0,P|167:79|155:68,1,31.25,8|0,1:2|0:0,0:0:0:0:
186,90,76670,2,0,P|165:86|151:79,1,31.25,8|0,1:2|0:0,0:0:0:0:
186,93,76754,2,0,P|164:94|149:88,1,31.25,8|0,1:2|0:0,0:0:0:0:
186,96,76837,2,0,P|165:100|149:99,1,31.25,8|0,1:2|0:0,0:0:0:0:
186,99,76920,2,0,L|224:107,4,31.25,8|0|8|0|8,1:2|0:0|1:2|0:0|1:2,0:0:0:0:
101,211,77253,6,0,B|89:248|89:248|118:337,1,125,2|0,0:0|0:0,0:0:0:0:
268,363,77586,5,8,0:0:0:0:
268,363,77670,1,0,0:0:0:0:
268,363,77753,1,2,0:0:0:0:
339,177,77919,2,0,P|344:214|366:243,1,62.5,8|0,0:0|0:0,0:0:0:0:
402,320,78086,2,0,P|431:297|445:263,1,62.5,8|0,0:0|0:0,0:0:0:0:
494,194,78252,2,0,P|459:179|423:184,1,62.5,2|0,0:0|0:0,0:0:0:0:
357,234,78419,6,0,L|326:246,4,31.25,8|8|8|8|8,0:0|0:0|0:0|0:0|0:0,0:0:0:0:
394,72,78752,5,0,1:0:0:0:
443,275,78919,1,0,1:0:0:0:
442,280,79002,1,0,0:0:0:0:
441,285,79085,2,0,L|434:316,4,31.25,0|0|0|0|0,1:0|0:0|0:0|0:0|1:0,0:0:0:0:
309,139,79418,1,0,1:0:0:0:
265,340,79585,6,0,L|220:330,2,31.25,8|0|0,1:2|0:0|0:2,0:0:0:0:
411,193,79751,2,0,L|456:183,2,31.25,8|0|0,1:2|0:0|0:2,0:0:0:0:
206,231,79918,2,0,L|161:221,2,31.25,2|0|0,1:2|0:0|0:2,0:0:0:0:
381,384,80084,2,0,L|426:374,2,31.25,0|0|0,1:2|0:0|0:2,0:0:0:0:
311,110,80251,6,0,P|306:82|304:63,1,31.25,8|0,1:2|0:0,0:0:0:0:
308,108,80334,2,0,P|302:80|299:61,1,31.25,8|0,1:2|0:0,0:0:0:0:
305,106,80417,2,0,P|298:78|294:59,1,31.25,8|0,1:2|0:0,0:0:0:0:
302,104,80500,2,0,P|294:77|290:58,1,31.25,8|0,1:2|0:0,0:0:0:0:
299,103,80584,2,0,P|290:76|285:57,1,31.25,8|0,1:2|0:0,0:0:0:0:
295,101,80667,2,0,P|286:74|280:56,1,31.25,8|0,1:2|0:0,0:0:0:0:
292,100,80750,2,0,P|282:74|276:55,1,31.25,8|0,1:2|0:0,0:0:0:0:
289,99,80833,2,0,P|277:73|271:55,1,31.25,8|0,1:2|0:0,0:0:0:0:
283,97,80917,6,0,L|270:140,4,31.25,2|2|2|2|2,0:0|0:0|0:0|0:0|0:0,0:0:0:0:
133,197,81250,2,0,L|146:240,4,31.25,2|2|2|2|2,0:0|0:0|0:0|0:0|0:0,0:0:0:0:
261,302,81583,6,0,P|266:330|268:349,1,31.25,8|0,1:2|0:0,0:0:0:0:
263,303,81666,2,0,P|268:330|271:349,1,31.25,8|0,1:2|0:0,0:0:0:0:
266,305,81750,2,0,P|272:332|276:351,1,31.25,8|0,1:2|0:0,0:0:0:0:
269,307,81833,2,0,P|276:334|280:353,1,31.25,8|0,1:2|0:0,0:0:0:0:
272,308,81916,2,0,P|280:335|285:353,1,31.25,8|0,1:2|0:0,0:0:0:0:
276,310,81999,2,0,P|285:336|291:355,1,31.25,8|0,1:2|0:0,0:0:0:0:
279,311,82082,2,0,P|289:337|295:355,1,31.25,8|0,1:2|0:0,0:0:0:0:
282,312,82166,2,0,P|293:337|300:355,1,31.25,8|0,1:2|0:0,0:0:0:0:
285,313,82249,6,0,L|298:270,4,31.25,8|0|8|0|8,1:2|0:0|1:2|0:0|1:2,0:0:0:0:
133,197,82582,6,0,L|70:188,1,62.5,2|0,1:2|0:0,0:0:0:0:
278,151,82749,2,0,L|341:160,1,62.5,2|0,1:2|0:0,0:0:0:0:
149,122,82915,2,0,L|125:63,1,62.5,2|0,1:2|0:0,0:0:0:0:
261,225,83082,2,0,L|285:284,1,62.5,2|0,1:2|0:0,0:0:0:0:
221,99,83248,2,0,L|261:49,1,62.5,2|0,1:2|0:0,0:0:0:0:
189,248,83415,2,0,L|149:298,1,62.5,2|0,1:2|0:0,0:0:0:0:
278,151,83581,5,2,1:2:0:0:
296,145,83665,1,0,0:0:0:0:
313,139,83748,1,2,1:2:0:0:
330,133,83831,1,0,0:0:0:0:
359,123,83914,5,0,1:0:0:0:
359,123,84247,5,4,1:2:0:0:
367,68,94905,6,0,L|461:84,1,75,0|0,1:0|0:0,0:0:0:0:
497,138,95238,6,0,B|513:167|506:197|485:213|455:224|429:214|407:184|416:157|416:157|380:183|380:243|418:250|426:289|413:318,1,350,2|2,1:2|0:0,0:0:0:0:
295,362,100234,6,0,L|218:356,1,75,2|2,0:0|0:0,0:0:0:0:
341,287,101566,6,0,L|191:275,1,150,2|2,0:0|0:0,0:0:0:0:
376,210,102899,6,0,L|154:192,1,206.24999370575,2|0,0:0|0:0,0:0:0:0:
101,230,103898,6,0,B|86:206|86:206|106:115,1,112.499996566773,2|0,0:0|0:0,0:0:0:0:
58,61,104231,6,0,B|105:79|158:57|173:12|173:12|158:63|177:100,1,224.999993133545,2|2,0:0|0:0,0:0:0:0:
392,8,105563,6,0,P|404:47|405:69,1,62.5,4|0,0:0|0:0,0:0:0:0:
492,57,105729,2,0,P|487:97|480:118,1,62.5,2|0,0:0|0:0,0:0:0:0:
436,192,105896,2,0,P|369:187|307:227,1,125,2|2,0:0|0:0,0:0:0:0:
335,320,106145,1,0,0:0:0:0:
341,330,106229,2,0,P|408:335|470:295,1,125,2|0,0:0|0:0,0:0:0:0:
443,200,106479,1,0,0:0:0:0:
437,192,106562,2,0,P|425:142|427:121,1,62.5,2|0,0:0|0:0,0:0:0:0:
332,118,106728,2,0,P|340:67|350:48,1,62.5,0|0,0:0|0:0,0:0:0:0:
438,11,106895,5,2,0:0:0:0:
452,15,106978,1,0,0:0:0:0:
466,19,107061,1,2,0:0:0:0:
332,118,107228,2,0,P|267:110|218:141,1,125,2|0,0:0|0:0,0:0:0:0:
199,228,107478,1,0,0:0:0:0:
195,242,107561,2,0,P|130:250|81:219,1,125,2|0,0:0|0:0,0:0:0:0:
26,131,107811,1,0,0:0:0:0:
20,119,107894,2,0,B|4:72|4:72|25:0,1,125,2|0,0:0|0:0,0:0:0:0:
251,48,108227,5,2,0:0:0:0:
262,45,108310,1,0,0:0:0:0:
272,42,108394,2,0,L|342:50,1,62.5,2|0,0:0|0:0,0:0:0:0:
387,130,108560,2,0,L|517:115,1,125,2|2,0:0|0:0,0:0:0:0:
459,208,108810,1,0,0:0:0:0:
466,218,108893,2,0,L|396:225,1,62.5,2|0,0:0|0:0,0:0:0:0:
325,137,109060,2,0,L|394:129,1,62.5,0|0,0:0|0:0,0:0:0:0:
331,274,109226,2,0,P|327:316|330:344,1,62.5,2|0,0:0|0:0,0:0:0:0:
247,211,109393,2,0,P|226:248|218:275,1,62.5,0|0,0:0|0:0,0:0:0:0:
325,137,109559,5,0,0:0:0:0:
333,113,109643,1,0,0:0:0:0:
331,88,109726,1,2,0:0:0:0:
323,64,109809,1,0,0:0:0:0:
298,35,109892,5,0,0:0:0:0:
261,26,109976,1,0,0:0:0:0:
223,30,110059,1,2,0:0:0:0:
193,53,110142,1,0,0:0:0:0:
171,97,110225,5,0,0:0:0:0:
171,147,110309,1,0,0:0:0:0:
197,188,110392,1,2,0:0:0:0:
241,209,110475,1,0,0:0:0:0:
303,203,110558,5,2,0:0:0:0:
365,195,110642,1,0,0:0:0:0:
422,219,110725,1,2,0:0:0:0:
452,273,110808,1,0,0:0:0:0:
449,346,110892,6,0,B|377:366|377:366|221:335,1,200,4|2,0:0|0:0,0:0:0:0:
195,284,111141,1,0,0:0:0:0:
186,276,111225,2,0,L|120:285,1,62.5,4|0,0:0|0:0,0:0:0:0:
241,209,111391,1,2,0:0:0:0:
247,187,111474,1,0,0:0:0:0:
252,169,111558,2,0,P|256:125|252:100,1,62.5,2|0,0:0|0:0,0:0:0:0:
292,310,111724,2,0,P|289:341|293:371,1,62.5,0|0,0:0|0:0,0:0:0:0:
364,222,111891,2,0,P|425:214|482:237,1,125,2|0,0:0|0:0,0:0:0:0:
440,22,112224,5,2,0:0:0:0:
436,36,112307,1,0,0:0:0:0:
433,49,112390,2,0,L|365:57,1,62.5,2|0,0:0|0:0,0:0:0:0:
302,136,112557,2,0,L|168:122,1,125,2|2,0:0|0:0,0:0:0:0:
86,209,112807,1,0,0:0:0:0:
93,221,112890,2,0,L|227:235,1,125,2|0,0:0|0:0,0:0:0:0:
297,329,113140,1,0,0:0:0:0:
288,340,113223,2,0,L|203:331,1,62.5,2|0,0:0|0:0,0:0:0:0:
142,371,113389,2,0,L|57:362,1,62.5,0|0,0:0|0:0,0:0:0:0:
217,234,113556,6,0,B|257:170|231:88|231:88|213:112|219:144,1,200,4|2,0:0|0:0,0:0:0:0:
323,193,113806,1,0,0:0:0:0:
332,203,113889,6,0,P|381:206|454:164,1,125,0|2,0:0|0:0,0:0:0:0:
476,58,114139,1,0,0:0:0:0:
477,45,114222,6,0,B|380:41|380:41|375:36|375:36|277:32,1,200,4|0,0:0|0:0,0:0:0:0:
219,135,114472,1,0,0:0:0:0:
213,148,114555,6,0,L|131:142,1,62.5,2|0,0:0|0:0,0:0:0:0:
303,115,114722,2,0,L|385:121,1,62.5,0|0,0:0|0:0,0:0:0:0:
281,234,114888,5,4,0:0:0:0:
271,257,114971,1,0,0:0:0:0:
263,281,115055,2,0,P|260:332|264:350,1,62.5,2|0,0:0|0:0,0:0:0:0:
434,276,115221,5,4,0:0:0:0:
444,253,115304,1,0,0:0:0:0:
452,229,115388,2,0,P|455:178|451:160,1,62.5,2|0,0:0|0:0,0:0:0:0:
331,48,115554,5,4,0:0:0:0:
282,34,115638,1,0,0:0:0:0:
233,44,115721,1,2,0:0:0:0:
198,79,115804,1,0,0:0:0:0:
182,126,115888,2,0,P|179:152|183:170,6,31.25,2|0|2|0|2|0|2,0:0|0:0|0:0|0:0|0:0|0:0|0:0,0:0:0:0:
174,114,116221,5,0,1:0:0:0:
174,114,116887,5,0,1:0:0:0:
174,114,117220,6,0,L|109:102,2,62.5,0|0|0,1:0|1:0|1:0,0:0:0:0:
368,18,117553,5,0,0:0:0:0:
405,13,117636,1,0,0:0:0:0:
440,25,117719,1,0,0:0:0:0:
463,54,117802,1,0,0:0:0:0:
469,91,117886,1,0,0:0:0:0:
457,126,117969,1,0,0:0:0:0:
426,147,118052,1,0,0:0:0:0:
388,150,118136,1,0,0:0:0:0:
353,136,118219,6,0,P|313:132|285:139,1,62.5,0|0,0:0|0:0,0:0:0:0:
242,47,118385,2,0,P|210:72|196:97,1,62.5,0|0,0:0|0:0,0:0:0:0:
166,220,118552,5,2,0:2:0:0:
164,226,118635,1,2,0:2:0:0:
162,232,118718,1,2,0:2:0:0:
161,238,118802,1,2,0:2:0:0:
160,244,118885,5,0,0:0:0:0:
162,281,118968,1,0,0:0:0:0:
181,312,119051,1,0,0:0:0:0:
212,332,119135,1,0,0:0:0:0:
249,333,119218,1,0,0:0:0:0:
281,314,119301,1,0,0:0:0:0:
301,282,119384,1,0,0:0:0:0:
305,244,119468,1,0,0:0:0:0:
293,207,119551,6,0,P|287:160|293:138,1,62.5,0|0,0:0|0:0,0:0:0:0:
407,184,119717,2,0,P|413:231|407:253,1,62.5,0|0,0:0|0:0,0:0:0:0:
386,73,119884,6,0,L|399:23,4,31.25,2|0|2|0|2,0:2|0:0|0:2|0:0|0:2,0:0:0:0:
176,12,120217,5,0,0:0:0:0:
139,4,120300,1,0,0:0:0:0:
102,15,120384,1,0,0:0:0:0:
78,43,120467,1,0,0:0:0:0:
67,78,120550,1,0,0:0:0:0:
75,114,120633,1,0,0:0:0:0:
98,143,120717,1,0,0:0:0:0:
131,160,120800,1,0,0:0:0:0:
147,193,120883,2,0,P|155:243|152:258,1,62.5,0|0,0:0|0:0,0:0:0:0:
181,73,121050,2,0,P|173:23|176:8,1,62.5,0|0,0:0|0:0,0:0:0:0:
261,153,121216,5,0,0:2:0:0:
278,160,121300,1,0,0:0:0:0:
327,150,121383,5,2,0:2:0:0:
341,144,121467,1,0,0:0:0:0:
385,165,121550,6,0,L|464:153,1,62.5,2|0,0:2|0:0,0:0:0:0:
310,291,121716,1,0,0:0:0:0:
303,283,121799,1,0,0:0:0:0:
297,274,121882,2,0,L|218:262,1,62.5,2|0,0:2|0:0,0:0:0:0:
401,325,122049,1,0,0:0:0:0:
420,286,122132,1,0,0:0:0:0:
425,242,122215,1,2,0:2:0:0:
414,199,122299,1,0,0:0:0:0:
385,165,122382,2,0,P|379:119|386:87,1,62.5,0|0,0:0|0:0,0:0:0:0:
276,86,122548,2,0,P|288:41|307:14,1,62.5,0|0,0:0|0:0,0:0:0:0:
482,0,122715,2,0,P|469:44|450:71,1,62.5,0|0,0:0|0:0,0:0:0:0:
302,173,122882,5,0,0:0:0:0:
265,182,122965,1,0,0:0:0:0:
228,174,123048,1,0,0:0:0:0:
198,151,123131,1,0,0:0:0:0:
175,120,123215,1,0,0:0:0:0:
152,89,123298,1,0,0:0:0:0:
122,66,123381,1,0,0:0:0:0:
85,58,123464,1,0,0:0:0:0:
48,67,123548,6,0,P|38:105|45:153,1,62.5,2|0,0:2|0:0,0:0:0:0:
71,280,123714,2,0,P|81:242|74:194,1,62.5,0|0,0:2|0:0,0:0:0:0:
224,39,123881,5,2,0:2:0:0:
236,35,123964,1,0,0:0:0:0:
282,46,124047,5,0,0:2:0:0:
294,50,124130,1,0,0:0:0:0:
339,33,124214,5,0,0:0:0:0:
376,28,124297,1,0,0:0:0:0:
410,41,124380,1,0,0:0:0:0:
432,71,124464,1,0,0:0:0:0:
441,107,124547,1,0,0:0:0:0:
432,143,124630,1,0,0:0:0:0:
404,168,124713,1,0,0:0:0:0:
366,173,124797,1,0,0:0:0:0:
330,161,124880,6,0,P|297:156|265:166,1,62.5,2|0,0:2|0:0,0:0:0:0:
221,80,125046,2,0,P|194:99|178:129,1,62.5,2|0,0:2|0:0,0:0:0:0:
180,240,125213,2,0,P|180:263|187:293,6,31.25,2|0|2|0|2|0|2,0:2|0:0|0:2|0:0|0:2|0:0|0:2,0:0:0:0:
271,263,125546,5,0,0:0:0:0:
305,277,125629,1,0,0:0:0:0:
342,276,125713,1,0,0:0:0:0:
376,261,125796,1,0,0:0:0:0:
402,234,125879,1,0,0:0:0:0:
412,198,125962,1,0,0:0:0:0:
410,160,126046,1,0,0:0:0:0:
393,126,126129,1,0,0:0:0:0:
364,101,126212,2,0,P|359:62|364:32,1,62.5,0|0,0:0|0:0,0:0:0:0:
292,166,126379,2,0,P|272:132|265:102,1,62.5,0|0,0:0|0:0,0:0:0:0:
264,3,126545,6,0,L|221:-5,6,31.25,2|0|0|0|2|0|0,0:2|0:0|0:0|0:0|0:2|0:0|0:0,0:0:0:0:
177,65,126878,5,2,0:2:0:0:
134,40,126961,1,0,0:0:0:0:
82,39,127045,1,2,0:2:0:0:
42,68,127128,1,0,0:0:0:0:
22,114,127211,1,2,0:2:0:0:
35,162,127295,1,0,0:0:0:0:
72,194,127378,1,2,0:2:0:0:
121,198,127461,1,0,0:0:0:0:
167,179,127544,1,2,0:2:0:0:
216,183,127627,1,0,0:0:0:0:
253,215,127710,1,2,0:2:0:0:
265,263,127794,1,0,0:0:0:0:
246,309,127878,2,0,P|242:325|228:343,6,31.25,0|0|0|0|0|0|0,1:0|0:0|0:0|0:0|0:0|0:0|2:0,0:0:0:0:
336,302,128211,6,0,P|347:250|340:221,1,62.5,2|0,0:2|0:0,0:0:0:0:
320,94,128377,2,0,P|309:146|316:175,1,62.5,2|0,0:2|0:0,0:0:0:0:
449,245,128543,2,0,P|460:193|453:164,1,62.5,2|0,0:2|0:0,0:0:0:0:
423,37,128710,2,0,P|412:89|419:118,1,62.5,2|0,0:2|0:0,0:0:0:0:
336,302,128877,5,2,0:2:0:0:
287,331,128960,1,0,0:0:0:0:
230,333,129043,1,0,0:0:0:0:
179,308,129126,1,0,0:0:0:0:
153,257,129210,5,2,0:2:0:0:
151,250,129293,1,2,0:2:0:0:
149,243,129376,1,2,0:2:0:0:
147,236,129459,1,2,0:2:0:0:
140,212,129543,6,0,P|136:149|141:130,1,62.5,2|0,0:2|0:0,0:0:0:0:
331,241,129709,2,0,P|335:304|330:323,1,62.5,2|0,0:2|0:0,0:0:0:0:
261,134,129876,2,0,P|257:71|262:52,1,62.5,2|0,0:2|0:0,0:0:0:0:
221,323,130042,2,0,P|225:386|220:405,1,62.5,2|0,0:2|0:0,0:0:0:0:
334,223,130209,5,2,0:2:0:0:
386,203,130292,1,0,0:0:0:0:
439,218,130375,1,0,0:0:0:0:
474,262,130459,1,0,0:0:0:0:
476,317,130542,2,0,P|473:341|465:369,6,31.25,2|0|2|0|2|0|2,0:2|0:0|0:2|0:0|0:2|0:0|0:2,0:0:0:0:
439,218,130875,6,0,P|434:176|437:153,1,62.5,2|0,0:2|0:0,0:0:0:0:
325,143,131041,2,0,P|336:102|348:82,1,62.5,2|0,0:2|0:0,0:0:0:0:
315,344,131208,2,0,P|329:316|336:286,1,62.5,2|0,0:2|0:0,0:0:0:0:
225,272,131374,2,0,P|227:240|222:210,1,62.5,2|0,0:2|0:0,0:0:0:0:
101,247,131541,5,2,0:2:0:0:
69,200,131624,1,0,0:0:0:0:
57,144,131708,1,2,0:2:0:0:
67,88,131791,1,0,0:0:0:0:
97,40,131874,5,2,0:2:0:0:
111,34,131957,1,0,0:0:0:0:
161,46,132041,5,2,0:2:0:0:
175,52,132124,1,0,0:0:0:0:
222,36,132207,6,0,L|295:41,1,62.5,2|0,0:2|0:0,0:0:0:0:
440,118,132374,2,0,L|367:113,1,62.5,2|0,0:2|0:0,0:0:0:0:
199,147,132540,2,0,L|268:123,1,62.5,2|0,0:2|0:0,0:0:0:0:
432,137,132707,2,0,L|362:160,1,62.5,2|0,0:2|0:0,0:0:0:0:
221,258,132873,2,0,L|275:208,1,62.5,2|0,0:2|0:0,0:0:0:0:
431,157,133040,2,0,L|376:206,1,62.5,2|0,0:2|0:0,0:0:0:0:
314,315,133206,1,2,0:2:0:0:
316,320,133290,1,0,0:0:0:0:
318,325,133373,1,2,0:2:0:0:
320,330,133456,1,0,0:0:0:0:
322,335,133539,5,2,0:2:0:0:
374,356,133623,1,0,0:0:0:0:
427,339,133706,1,2,0:2:0:0:
453,289,133789,1,0,0:0:0:0:
438,234,133872,1,2,0:2:0:0:
389,204,133956,1,0,0:0:0:0:
341,173,134039,1,2,0:2:0:0:
330,118,134122,1,0,0:0:0:0:
348,65,134205,6,0,L|421:47,1,62.5,2|0,0:2|0:0,0:0:0:0:
164,65,134372,2,0,L|91:47,1,62.5,2|0,0:2|0:0,0:0:0:0:
358,48,134539,6,0,L|431:30,1,62.5,2|0,0:2|0:2,0:0:0:0:
154,48,134705,2,0,L|81:30,1,62.5,0|0,0:0|0:0,0:0:0:0:
248,119,134872,5,2,0:2:0:0:
286,159,134955,1,0,0:0:0:0:
282,214,135038,1,2,0:2:0:0:
245,256,135121,1,0,0:0:0:0:
188,264,135205,1,2,0:2:0:0:
135,244,135288,1,0,0:0:0:0:
81,261,135371,1,0,0:0:0:0:
54,310,135454,1,0,0:0:0:0:
68,364,135538,6,0,P|111:377|133:370,1,62.5,2|2,0:2|0:2,0:0:0:0:
85,176,135704,2,0,P|42:163|20:170,1,62.5,2|2,0:2|0:2,0:0:0:0:
245,256,135871,2,0,L|285:262,6,31.25,2|0|2|0|2|0|2,0:2|0:0|0:2|0:0|0:2|0:0|0:2,0:0:0:0:
222,167,136204,6,0,L|203:171,2,12.5,2|2|2,0:2|0:2|0:2,0:0:0:0:
315,153,136370,2,0,L|334:149,2,12.5,2|2|2,0:2|0:2|0:2,0:0:0:0:
258,83,136537,1,0,1:0:0:0:
177,326,136703,6,0,L|196:330,2,12.5,2|2|2,0:2|0:2|0:2,0:0:0:0:
84,312,136870,2,0,L|65:308,2,12.5,2|2|2,0:2|0:2|0:2,0:0:0:0:
141,242,137036,1,0,0:0:0:0:
335,326,137203,6,0,L|316:330,2,12.5,2|2|2,0:2|0:2|0:2,0:0:0:0:
428,312,137369,2,0,L|447:308,2,12.5,2|2|2,0:2|0:2|0:2,0:0:0:0:
371,242,137536,5,0,0:0:0:0:
340,194,137619,1,0,0:0:0:0:
337,137,137703,1,2,0:2:0:0:
364,88,137786,1,0,0:0:0:0:
418,75,137869,1,2,0:2:0:0:
468,98,137952,1,0,0:0:0:0:
480,153,138036,1,2,0:2:0:0:
446,198,138119,1,0,0:0:0:0:
389,197,138202,1,2,0:2:0:0:
341,166,138285,1,0,0:0:0:0:
286,150,138369,1,2,0:2:0:0:
232,165,138452,1,0,0:0:0:0:
201,211,138535,6,0,B|173:279|229:338|229:338|252:306|241:275,1,187.5,2|0,0:2|2:0,0:0:0:0:
259,273,138868,5,4,1:2:0:0:
256,192,138951,12,4,140200,2:2:0:0:
