osu file format v14

[General]
AudioFilename: audio.mp3
AudioLeadIn: 0
PreviewTime: 4647
Countdown: 0
SampleSet: Soft
StackLeniency: 0.5
Mode: 0
LetterboxInBreaks: 0
WidescreenStoryboard: 1

[Editor]
Bookmarks: 18999,29616,40314,50972,61630,73620,94935,97393,105553,114212,117543
DistanceSpacing: 0.84
BeatDivisor: 4
GridSize: 4
TimelineZoom: 2.550003

[Metadata]
Title:The Big Black
TitleUnicode:The Big Black
Artist:The Quick Brown Fox
ArtistUnicode:The Quick Brown Fox
Creator:Mismagius
Version:Easy
Source:
Tags:renard queenston speedkore 4 kidz speedcore splittercore blue dragon lapfox vulpvibe halley labs ren tqbf electronic instrumental english
BeatmapID:2805763
BeatmapSetID:867737

[Difficulty]
HPDrainRate:3
CircleSize:3.5
OverallDifficulty:3
ApproachRate:4
SliderMultiplier:1.00000000000001
SliderTickRate:1

[Events]
//Background and Video events
0,0,"big black remastered OFFICIAL 2020.png",0,0
//Break Periods
2,84447,93585
//Storyboard Layer 0 (Background)
//Storyboard Layer 1 (Fail)
//Storyboard Layer 2 (Pass)
//Storyboard Layer 3 (Foreground)
//Storyboard Layer 4 (Overlay)
//Storyboard Sound Samples

[TimingPoints]
6979,333.055786844296,4,2,0,80,1,0
6979,-100,4,2,0,80,0,0
18969,-100,4,1,0,80,0,0
40284,-125,4,2,0,80,0,0
61600,-100,4,2,0,80,0,0
94905,-125,4,2,0,80,0,0
105563,-100,4,2,0,80,0,0
117553,-100,4,1,0,80,0,0

[Colours]
Combo1 : 255,231,155
Combo2 : 138,255,138
Combo3 : 183,216,255
Combo4 : 250,154,169

[HitObjects]
300,332,6979,6,0,P|358:350|462:265,1,200.000000000002,4|2,0:0|0:0,0:0:0:0:
462,192,7978,1,2,0:0:0:0:
411,130,8311,2,0,P|353:112|249:197,1,200.000000000002,2|2,0:0|0:0,0:0:0:0:
249,270,9310,1,2,0:0:0:0:
205,337,9643,6,0,P|138:353|26:286,2,200.000000000002,2|2|2,0:0|0:0|0:0,0:0:0:0:
260,279,11308,1,0,0:0:0:0:
338,261,11641,2,0,P|387:266|433:300,1,100.000000000001,2|2,0:0|0:0,0:0:0:0:
492,247,12307,6,0,B|511:204|511:204|475:39,1,200.000000000002,4|2,0:0|0:0,0:0:0:0:
399,37,13307,1,2,0:0:0:0:
321,55,13640,2,0,B|353:204|353:204|334:247,1,200.000000000002,2|2,0:0|0:0,0:0:0:0:
292,315,14640,1,2,0:0:0:0:
221,352,14972,6,0,P|162:358|126:338,1,100.000000000001,4|2,0:0|0:0,0:0:0:0:
86,270,15638,2,0,P|80:211|100:175,1,100.000000000001,4|2,0:0|0:0,0:0:0:0:
154,119,16304,2,0,L|259:106,2,100.000000000001,6|6|6,0:0|0:0|0:0,0:0:0:0:
79,90,17303,1,4,0:0:0:0:
126,26,17636,6,4,L|331:-1,1,200.000000000002
340,78,18635,1,0,1:0:0:0:
419,64,18969,6,0,P|469:139|431:239,1,200.000000000002,0|0,0:0|1:2,0:0:0:0:
372,286,19968,1,2,1:2:0:0:
297,258,20301,2,0,P|232:195|322:32,1,300.000000000003,0|2,0:0|0:2,0:0:0:0:
390,3,21633,6,0,B|411:51|411:51|370:197,1,200.000000000002
312,247,22632,1,2,0:2:0:0:
248,295,22965,2,0,B|202:285|202:285|151:311,2,100.000000000001,2|2|2,0:2|0:2|0:2,0:0:0:0:
302,355,23964,1,0,0:0:0:0:
379,335,24297,6,0,P|421:302|411:164,1,200.000000000002,0|2,0:0|0:2,0:0:0:0:
340,137,25297,1,2,1:2:0:0:
263,113,25630,2,0,P|221:146|231:284,1,200.000000000002,0|2,0:0|0:2,0:0:0:0:
295,323,26629,1,2,1:2:0:0:
239,380,26962,6,0,B|30:320|30:320|123:281,1,300.000000000003,0|2,0:0|1:2,0:0:0:0:
183,266,28294,2,0,P|195:202|99:93,1,200.000000000002,2|2,1:2|1:2,0:0:0:0:
44,128,29293,1,0,0:0:0:0:
51,48,29626,6,0,B|96:-4|207:-4|171:92|286:92|327:53,1,300.000000000003,0|2,0:0|0:2,0:0:0:0:
397,17,30959,2,0,P|467:46|454:160,1,200.000000000002
386,189,31958,1,2,0:2:0:0:
312,156,32291,6,0,P|293:247|374:294,2,200.000000000002,0|0|2,0:0|0:0|0:2,0:0:0:0:
302,76,33956,2,0,P|262:61|199:80,2,100.000000000001,2|2|0,0:2|0:2|0:0,0:0:0:0:
353,14,34955,6,0,B|404:59|404:170|308:134|308:249|347:290,1,300.000000000003,0|2,0:0|0:2,0:0:0:0:
382,359,36287,2,0,P|314:309|189:313,1,200.000000000002,0|2,0:0|0:2,0:0:0:0:
137,356,37287,1,0,0:0:0:0:
63,323,37620,6,0,P|43:285|53:222,2,100.000000000001,2|0|2,0:2|0:0|0:2,0:0:0:0:
123,262,38619,2,0,P|143:300|133:363,2,100.000000000001,2|0|0,0:2|0:0|0:0,0:0:0:0:
49,230,39618,2,0,L|67:120,1,100.000000000001,2|0,0:2|0:0,0:0:0:0:
21,64,40284,6,0,B|70:8|192:8|152:113|278:113|313:81|313:81|319:18|388:-3|445:12|476:89|425:135,1,560.000000000006,4|2,0:0|0:0,0:0:0:0:
495,175,42949,2,0,B|544:236|507:327|430:344|353:298|345:223|345:223|274:259|174:245|118:195,1,560.000000000006,2|2,0:0|0:0,0:0:0:0:
61,251,45613,6,0,P|38:201|96:121,1,160.000000000002,2|0,0:0|0:0,0:0:0:0:
144,273,46945,2,0,P|196:217|175:143,1,160.000000000002,2|0,0:0|0:0,0:0:0:0:
78,16,48277,6,0,P|113:-1|156:-1,1,80.0000000000008,0|2,0:0|0:0,0:0:0:0:
228,26,48944,2,0,P|245:61|245:104,1,80.0000000000008,0|2,0:0|0:0,0:0:0:0:
218,176,49610,2,0,P|183:193|140:193,1,80.0000000000008,0|2,0:0|0:0,0:0:0:0:
68,166,50276,2,0,P|51:131|51:88,1,80.0000000000008,0|2,0:0|0:0,0:0:0:0:
110,37,50942,5,4,0:0:0:0:
169,90,51275,2,0,B|141:149|143:228|192:298|192:298|205:292|205:292|246:367|364:375|462:373|530:274|567:186|536:78|426:44|315:92|331:190|362:228|362:228|338:253|289:248|250:202|255:147|279:111,1,1120.00000000001,6|2,0:0|0:0,0:0:0:0:
323,50,56271,6,0,P|391:23|481:30,1,160.000000000002,2|0,0:0|0:0,0:0:0:0:
429,181,57603,2,0,P|354:208|275:202,1,160.000000000002,2|0,0:0|0:0,0:0:0:0:
147,106,58935,6,0,B|179:176|179:176|138:338,2,240.000000000002,2|2|0,0:0|0:0|0:0,0:0:0:0:
274,9,61600,5,4,1:2:0:0:
429,47,62266,2,0,P|434:94|417:152,1,100.000000000001,4|0,1:2|1:0,0:0:0:0:
356,191,62932,6,0,L|146:211,1,200.000000000002,8|8,1:2|1:2,0:0:0:0:
118,280,63931,1,2,0:0:0:0:
174,337,64264,2,0,L|373:318,1,200.000000000002,8|8,1:2|1:2,0:0:0:0:
412,248,65263,1,2,0:0:0:0:
356,191,65596,6,0,L|156:209,2,200.000000000002,8|8|0,1:2|1:2|1:0,0:0:0:0:
405,128,67262,2,0,P|411:91|389:29,2,100.000000000001,8|2|0,0:0|0:0|1:0,0:0:0:0:
356,191,68261,2,0,P|337:237|342:286,1,100.000000000001,0|0,1:0|1:0,0:0:0:0:
384,354,68927,1,8,0:0:0:0:
459,328,69260,1,2,0:0:0:0:
499,259,69593,6,0,B|512:202|512:202|475:58,1,200.000000000002,8|8,1:2|1:2,0:0:0:0:
399,45,70592,1,2,0:0:0:0:
321,64,70925,2,0,B|286:202|286:202|299:259,1,200.000000000002,8|8,1:2|1:2,0:0:0:0:
360,310,71924,2,0,P|329:334|268:332,1,100.000000000001,2|2,0:0|0:0,0:0:0:0:
200,293,72590,2,0,P|176:262|178:201,2,100.000000000001,2|2|0,0:0|0:0|1:0,0:0:0:0:
250,230,73590,6,0,B|262:176|262:176|231:99|231:99|246:38,1,200.000000000002,8|8,1:2|1:2,0:0:0:0:
324,55,74589,1,2,0:0:0:0:
402,70,74922,2,0,B|387:129|387:129|418:206|418:206|406:260,1,200.000000000002,8|8,1:2|1:2,0:0:0:0:
388,338,75921,1,2,0:0:0:0:
317,300,76254,6,0,B|249:269|249:269|28:326,1,300.000000000003,8|2,1:2|0:0,0:0:0:0:
20,245,77586,2,0,P|16:200|45:152,1,100.000000000001,8|8,0:0|0:0,0:0:0:0:
95,214,78252,2,0,P|120:172|117:122,1,100.000000000001,2|8,0:0|0:0,0:0:0:0:
80,50,78919,1,0,1:0:0:0:
158,34,79252,1,0,1:0:0:0:
236,19,79585,2,0,L|350:38,1,100.000000000001,8|2,0:0|0:0,0:0:0:0:
413,50,80251,6,0,B|442:175|442:175|413:243,1,200.000000000002,8|2,1:2|0:0,0:0:0:0:
381,314,81250,1,2,0:0:0:0:
304,290,81583,6,0,B|245:275|245:275|168:306|168:306|114:294,1,200.000000000002,8|8,1:2|1:2,0:0:0:0:
34,279,82582,2,0,P|13:234|25:178,1,100.000000000001,2|2,1:2|1:2,0:0:0:0:
97,220,83248,2,0,P|104:171|83:126,1,100.000000000001,2|2,1:2|1:2,0:0:0:0:
20,71,83914,1,0,1:0:0:0:
100,48,84247,5,4,1:2:0:0:
343,327,94905,5,0,1:0:0:0:
303,257,95238,2,0,B|324:225|329:170|290:124|241:119|217:144|217:144|248:182|264:280|153:328|43:294|12:186|49:98|117:0|215:-2|333:5|374:80|374:80|387:74|387:74|436:144|438:223|410:282,1,1120.00000000001,2|2,1:2|0:0,0:0:0:0:
439,356,100234,6,0,L|278:348,1,160.000000000002,2|0,0:0|0:0,0:0:0:0:
206,205,101566,2,0,L|367:197,1,160.000000000002,2|0,0:0|0:0,0:0:0:0:
439,55,102899,6,0,P|329:60|204:13,2,240.000000000002,2|2|0,0:0|0:0|0:0,0:0:0:0:
498,203,105563,6,0,P|497:290|397:354,1,200.000000000002,4|2,0:0|0:0,0:0:0:0:
383,278,106562,1,2,0:0:0:0:
303,282,106895,2,0,P|304:195|404:131,1,200.000000000002,2|2,0:0|0:0,0:0:0:0:
429,63,107894,1,2,0:0:0:0:
352,40,108227,6,0,B|287:25|287:25|142:83,2,200.000000000002,2|2|2,0:0|0:0|0:0,0:0:0:0:
429,63,109893,1,2,0:0:0:0:
480,124,110226,2,0,P|486:169|470:222,1,100.000000000001,2|2,0:0|0:0,0:0:0:0:
421,283,110892,6,0,P|374:297|249:225,1,200.000000000002,4|2,0:0|0:0,0:0:0:0:
270,150,111891,1,2,0:0:0:0:
242,74,112224,2,0,P|195:60|70:132,1,200.000000000002,2|2,0:0|0:0,0:0:0:0:
59,208,113223,1,2,0:0:0:0:
116,264,113556,6,0,P|152:273|216:263,1,100.000000000001,4|2,0:0|0:0,0:0:0:0:
290,244,114222,2,0,P|326:235|390:245,1,100.000000000001,4|2,0:0|0:0,0:0:0:0:
465,264,114889,2,0,L|496:372,2,100.000000000001,4|4|4,0:0|0:0|0:0,0:0:0:0:
500,192,115888,1,2,0:0:0:0:
455,125,116221,5,4,1:2:0:0:
352,247,116887,2,0,L|241:230,1,100.000000000001,4|0,1:2|1:0,0:0:0:0:
195,287,117553,5,0,0:0:0:0:
115,297,117886,1,0,0:0:0:0:
40,266,118219,2,0,P|27:218|42:169,1,100.000000000001,0|2,0:0|0:2,0:0:0:0:
95,112,118885,1,0,0:0:0:0:
175,102,119218,1,0,0:0:0:0:
250,133,119551,2,0,P|263:181|248:230,1,100.000000000001,0|2,0:0|0:2,0:0:0:0:
303,286,120217,6,0,L|409:305,2,100.000000000001,0|0|0,0:0|0:0|0:0,0:0:0:0:
235,329,121217,1,0,0:2:0:0:
156,315,121550,2,0,P|142:264|148:213,1,100.000000000001,2|0,0:2|0:0,0:0:0:0:
85,165,122216,2,0,P|122:127|169:107,1,100.000000000001,2|0,0:2|0:0,0:0:0:0:
119,42,122882,6,0,P|193:29|247:128,1,200.000000000002,0|2,0:0|0:2,0:0:0:0:
291,192,123881,1,2,0:2:0:0:
247,258,124214,2,0,P|212:345|119:342,1,200.000000000002,0|2,0:0|0:2,0:0:0:0:
59,288,125213,1,2,0:2:0:0:
4,229,125546,6,0,L|18:124,1,100.000000000001
29,50,126212,1,0,0:0:0:0:
92,98,126546,1,2,0:2:0:0:
157,143,126879,2,0,P|211:147|273:123,2,100.000000000001,2|2|2,0:2|0:2|0:2,0:0:0:0:
124,216,127878,1,2,1:2:0:0:
183,269,128211,6,0,B|217:275|217:275|278:253,1,100.000000000001,2|2,0:2|0:2,0:0:0:0:
353,223,128877,2,0,B|414:201|414:201|448:207,1,100.000000000001,2|2,0:2|0:2,0:0:0:0:
454,286,129543,2,0,B|420:280|420:280|359:302,1,100.000000000001,2|2,0:2|0:2,0:0:0:0:
284,332,130209,2,0,B|223:354|223:354|189:348,1,100.000000000001,2|2,0:2|0:2,0:0:0:0:
110,328,130875,6,0,P|85:288|94:224,2,100.000000000001,2|2|2,0:2|0:2|0:2,0:0:0:0:
162,267,131874,1,2,0:2:0:0:
178,188,132207,2,0,L|154:81,1,100.000000000001,2|2,0:2|0:2,0:0:0:0:
233,69,132874,2,0,L|257:176,1,100.000000000001,2|2,0:2|0:2,0:0:0:0:
308,225,133540,5,2,0:2:0:0:
387,221,133873,1,2,0:2:0:0:
436,158,134206,2,0,P|445:123|432:53,1,100.000000000001,2|2,0:2|0:2,0:0:0:0:
369,15,134872,1,2,0:2:0:0:
290,19,135205,1,2,0:2:0:0:
241,82,135538,2,0,P|232:117|245:187,1,100.000000000001,2|2,0:2|0:2,0:0:0:0:
298,235,136204,6,0,B|318:300|318:300|307:338,2,100.000000000001,2|0|2,0:2|1:0|0:2,0:0:0:0:
341,167,137203,1,2,0:2:0:0:
390,104,137536,2,0,L|510:117,1,100.000000000001,0|2,0:0|0:2,0:0:0:0:
508,36,138202,2,0,L|388:23,1,100.000000000001,2|2,0:2|0:2,0:0:0:0:
328,15,138869,6,0,B|314:51|314:51|314:64|314:64|306:75|306:75|296:98|296:98|287:108|287:108|287:122|287:122|278:146|278:146|279:160|279:160|270:169|270:169|261:193|261:193|251:203|251:203|251:217|251:217|242:240|242:240|243:254|243:254|234:265|234:265|225:288|225:288|216:298|216:298|217:312|217:312|207:336|207:336|207:349|207:349|198:359|198:359|185:395,1,400.000000000004,4|4,1:2|2:0,0:0:0:0:
