osu file format v14

[General]
AudioFilename: audio.mp3
AudioLeadIn: 0
PreviewTime: 4647
Countdown: 0
SampleSet: Normal
StackLeniency: 0.5
Mode: 0
LetterboxInBreaks: 0
WidescreenStoryboard: 1

[Editor]
Bookmarks: 18999,29616,40314,50972,61630,73620,94935,97393,105553,117543
DistanceSpacing: 0.84
BeatDivisor: 4
GridSize: 4
TimelineZoom: 2.050003

[Metadata]
Title:The Big Black
TitleUnicode:The Big Black
Artist:The Quick Brown Fox
ArtistUnicode:The Quick Brown Fox
Creator:Mismagius
Version:Advanced
Source:
Tags:renard queenston speedkore 4 kidz speedcore splittercore blue dragon lapfox vulpvibe halley labs ren tqbf electronic instrumental english
BeatmapID:2805891
BeatmapSetID:867737

[Difficulty]
HPDrainRate:4
CircleSize:4
OverallDifficulty:6
ApproachRate:7
SliderMultiplier:1.75000000000001
SliderTickRate:1

[Events]
//Background and Video events
0,0,"big black remastered OFFICIAL 2020.png",0,0
//Break Periods
2,84447,94005
//Storyboard Layer 0 (Background)
//Storyboard Layer 1 (Fail)
//Storyboard Layer 2 (Pass)
//Storyboard Layer 3 (Foreground)
//Storyboard Layer 4 (Overlay)
//Storyboard Sound Samples

[TimingPoints]
6979,333.055786844296,4,2,0,80,1,0
6979,-100,4,2,0,80,0,0
18969,-100,4,1,0,80,0,0
40284,-125,4,2,0,80,0,0
61600,-100,4,2,0,80,0,0
94905,-125,4,2,0,80,0,0
105563,-100,4,2,0,80,0,0
117553,-100,4,1,0,80,0,0

[Colours]
Combo1 : 255,231,155
Combo2 : 138,255,138
Combo3 : 183,216,255
Combo4 : 250,154,169

[HitObjects]
56,305,6979,6,0,L|147:286,1,87.5000000000005,4|2,0:0|0:0,0:0:0:0:
178,224,7312,2,0,L|269:243,1,87.5000000000005,2|0,0:0|0:0,0:0:0:0:
322,285,7645,2,0,P|331:338|324:374,2,87.5000000000005,2|0|2,0:0|0:0|0:0,0:0:0:0:
369,229,8144,1,0,0:0:0:0:
412,169,8311,6,0,L|425:76,2,87.5000000000005,2|2|2,0:0|0:0|0:0,0:0:0:0:
342,147,8810,1,2,0:0:0:0:
293,202,8977,2,0,P|224:220|141:157,1,175.000000000001,2|2,0:0|0:0,0:0:0:0:
16,236,9643,6,0,B|8:289|8:289|27:324,2,87.5000000000005,2|2|2,0:0|0:0|0:0,0:0:0:0:
28,163,10143,2,0,B|36:110|36:110|17:75,2,87.5000000000005,2|2|0,0:0|0:0|0:0,0:0:0:0:
94,193,10642,2,0,P|136:185|171:159,1,87.5000000000005,2|0,0:0|0:0,0:0:0:0:
224,105,10975,5,0,0:0:0:0:
295,93,11142,1,2,0:0:0:0:
366,81,11308,2,0,L|478:63,1,87.5000000000005,0|2,0:0|0:0,0:0:0:0:
495,137,11641,5,0,0:0:0:0:
424,149,11808,1,2,0:0:0:0:
353,161,11974,2,0,L|241:179,1,87.5000000000005,2|2,0:0|0:0,0:0:0:0:
210,221,12307,6,0,P|195:269|265:364,1,175.000000000001,4|4,0:0|0:0,0:0:0:0:
317,315,12807,1,2,0:0:0:0:
372,362,12974,2,0,L|472:375,2,87.5000000000005,2|0|2,0:0|0:0|0:0,0:0:0:0:
390,291,13473,1,0,0:0:0:0:
450,250,13640,6,0,P|459:185|446:156,2,87.5000000000005,2|2|2,0:0|0:0|0:0,0:0:0:0:
390,291,14139,1,2,0:0:0:0:
356,225,14306,2,0,B|303:212|303:212|183:246,1,175.000000000001,2|2,0:0|0:0,0:0:0:0:
46,285,14972,6,0,P|12:241|63:134,1,175.000000000001,4|2,0:0|0:0,0:0:0:0:
119,163,15471,1,0,0:0:0:0:
186,190,15638,6,0,P|220:146|169:39,1,175.000000000001,4|2,0:0|0:0,0:0:0:0:
114,12,16138,1,0,0:0:0:0:
54,55,16304,6,0,P|43:111|53:143,1,87.5000000000005,6|2,0:0|0:0,0:0:0:0:
8,198,16637,2,0,P|39:245|69:260,1,87.5000000000005,6|2,0:0|0:0,0:0:0:0:
76,331,16970,2,0,P|132:342|164:332,1,87.5000000000005,6|2,0:0|0:0,0:0:0:0:
215,286,17303,1,4,0:0:0:0:
352,334,17636,5,4,1:2:0:0:
352,334,18302,5,4,1:2:0:0:
462,239,18635,2,0,L|509:247,2,43.7500000000002,0|0|0,1:0|1:0|1:0,0:0:0:0:
431,172,18969,5,0,0:0:0:0:
359,159,19135,1,0,0:0:0:0:
287,146,19302,2,0,L|198:129,1,87.5000000000005,0|0,0:0|0:0,0:0:0:0:
129,117,19635,2,0,L|40:100,1,87.5000000000005,0|0,0:0|0:0,0:0:0:0:
6,164,19968,2,0,P|0:207|6:255,1,87.5000000000005,2|2,1:2|1:2,0:0:0:0:
74,273,20301,6,0,L|55:360,2,87.5000000000005,0|0|0,0:0|0:0|0:0,0:0:0:0:
142,248,20800,1,0,0:0:0:0:
210,223,20967,2,0,L|229:136,1,87.5000000000005,0|0,0:0|0:0,0:0:0:0:
243,66,21300,1,2,0:2:0:0:
381,22,21633,6,0,L|483:37,1,87.5000000000005,0|0,0:0|0:0,0:0:0:0:
493,102,21966,2,0,L|391:117,1,87.5000000000005,0|0,0:0|0:0,0:0:0:0:
381,182,22299,2,0,L|483:197,1,87.5000000000005,0|0,0:0|0:0,0:0:0:0:
502,258,22632,1,2,0:2:0:0:
487,329,22799,1,2,0:2:0:0:
421,359,22965,6,0,P|369:364|329:349,1,87.5000000000005,2|2,0:2|0:2,0:0:0:0:
301,289,23298,2,0,P|249:284|209:299,1,87.5000000000005,2|0,0:2|0:0,0:0:0:0:
179,357,23631,2,0,P|132:369|87:347,2,87.5000000000005,2|0|0,0:2|0:0|0:0,0:0:0:0:
251,360,24131,1,0,0:0:0:0:
217,295,24297,6,0,L|205:196,1,87.5000000000005,0|0,0:0|0:0,0:0:0:0:
137,231,24630,2,0,L|125:132,1,87.5000000000005,0|0,0:0|0:0,0:0:0:0:
122,70,24964,1,2,0:2:0:0:
243,6,25297,1,2,0:2:0:0:
348,92,25630,6,0,P|356:149|348:184,1,87.5000000000005,0|0,0:0|0:0,0:0:0:0:
309,237,25963,2,0,P|301:294|309:329,1,87.5000000000005,0|0,0:0|0:0,0:0:0:0:
365,366,26296,1,2,0:2:0:0:
433,341,26462,1,0,0:0:0:0:
501,317,26629,1,2,0:2:0:0:
445,182,26962,6,0,L|433:95,1,87.5000000000005,0|0,0:0|0:0,0:0:0:0:
362,77,27295,2,0,L|350:164,1,87.5000000000005,0|0,0:0|0:0,0:0:0:0:
279,182,27628,2,0,L|267:95,1,87.5000000000005,0|0,0:0|0:0,0:0:0:0:
212,46,27961,1,2,1:2:0:0:
140,29,28128,1,0,0:0:0:0:
73,56,28294,6,0,P|61:107|70:146,1,87.5000000000005,2|2,1:2|1:2,0:0:0:0:
35,206,28627,2,0,P|62:250|96:271,1,87.5000000000005,2|2,1:2|1:2,0:0:0:0:
114,338,28960,2,0,P|164:349|204:341,1,87.5000000000005,2|0,1:2|0:0,0:0:0:0:
255,297,29293,1,0,0:0:0:0:
148,198,29626,6,0,L|119:108,1,87.5000000000005,0|0,0:0|0:0,0:0:0:0:
190,92,29959,2,0,L|219:182,1,87.5000000000005,0|0,0:0|0:0,0:0:0:0:
284,152,30292,2,0,L|258:69,1,87.5000000000005,0|0,0:0|0:0,0:0:0:0:
317,26,30625,1,2,0:2:0:0:
386,46,30792,1,2,0:2:0:0:
453,73,30959,6,0,P|462:126|453:163,1,87.5000000000005,0|0,0:0|0:0,0:0:0:0:
407,213,31292,2,0,P|398:266|407:303,1,87.5000000000005,0|0,0:0|0:0,0:0:0:0:
362,357,31625,1,0,0:0:0:0:
218,332,31958,1,2,0:2:0:0:
77,369,32291,6,0,L|56:273,1,87.5000000000005,0|0,0:0|0:0,0:0:0:0:
108,230,32624,2,0,L|87:134,1,87.5000000000005,0|0,0:0|0:0,0:0:0:0:
139,91,32957,2,0,L|118:-5,1,87.5000000000005,0|0,0:0|0:0,0:0:0:0:
53,33,33290,5,2,0:2:0:0:
29,101,33456,1,2,0:2:0:0:
89,144,33623,2,0,P|131:167|179:148,1,87.5000000000005,2|2,0:2|0:2,0:0:0:0:
219,106,33956,2,0,P|260:97|297:119,1,87.5000000000005,2|0,0:2|0:0,0:0:0:0:
329,185,34289,2,0,P|371:208|419:189,2,87.5000000000005,2|0|0,0:2|0:0|0:0,0:0:0:0:
380,133,34789,1,0,0:0:0:0:
447,106,34955,6,0,L|414:23,1,87.5000000000005,0|0,0:0|0:0,0:0:0:0:
343,9,35288,2,0,L|310:92,1,87.5000000000005,0|0,0:0|0:0,0:0:0:0:
249,130,35621,2,0,L|216:47,1,87.5000000000005,2|0,0:2|0:0,0:0:0:0:
145,33,35954,1,2,1:2:0:0:
51,153,36287,6,0,P|46:210|66:254,1,87.5000000000005,0|0,0:0|0:0,0:0:0:0:
85,304,36620,2,0,P|121:347|167:364,1,87.5000000000005,0|0,0:0|0:0,0:0:0:0:
220,375,36954,1,2,0:2:0:0:
290,358,37120,1,2,0:2:0:0:
337,302,37287,1,2,1:2:0:0:
223,211,37620,6,0,L|202:106,1,87.5000000000005,2|2,0:2|0:2,0:0:0:0:
253,69,37953,1,0,0:0:0:0:
309,114,38119,2,0,L|330:219,1,87.5000000000005,2|2,0:2|0:2,0:0:0:0:
383,245,38452,1,0,0:0:0:0:
429,187,38619,2,0,L|412:102,1,87.5000000000005,2|2,0:2|0:2,0:0:0:0:
467,54,38952,6,0,P|416:27|379:37,1,87.5000000000005,0|2,0:0|0:2,0:0:0:0:
319,11,39285,2,0,P|321:68|348:95,1,87.5000000000005,0|2,0:0|0:2,0:0:0:0:
354,159,39618,2,0,P|402:128|412:91,2,87.5000000000005,2|2|0,0:2|0:2|0:0,0:0:0:0:
437,239,40284,6,0,L|419:380,1,140.000000000001,4|2,0:0|0:0,0:0:0:0:
307,347,40950,2,0,L|289:206,1,140.000000000001,0|2,0:0|0:0,0:0:0:0:
177,239,41616,2,0,L|159:380,2,140.000000000001,0|2|0,0:0|0:0|0:0,0:0:0:0:
114,140,42615,1,2,0:0:0:0:
175,41,42949,6,0,P|236:30|313:73,1,140.000000000001,0|2,0:0|0:0,0:0:0:0:
419,74,43615,2,0,P|398:132|322:177,1,140.000000000001,0|2,0:0|0:0,0:0:0:0:
268,268,44281,2,0,P|227:220|226:132,2,140.000000000001,0|2|0,0:0|0:0|0:0,0:0:0:0:
375,312,45280,1,2,0:0:0:0:
429,209,45613,6,0,L|505:201,2,70.0000000000004,0|0|2,0:0|0:0|0:0,0:0:0:0:
442,93,46279,2,0,L|518:85,2,70.0000000000004,0|0|2,0:0|0:0|0:0,0:0:0:0:
342,32,46945,2,0,L|266:40,2,70.0000000000004,0|0|2,0:0|0:0|0:0,0:0:0:0:
329,148,47611,2,0,L|253:156,2,70.0000000000004,0|0|2,0:0|0:0|0:0,0:0:0:0:
394,244,48277,6,0,P|401:290|396:318,1,70.0000000000004,0|0,0:0|0:0,0:0:0:0:
327,349,48610,2,0,P|320:303|325:275,1,70.0000000000004,2|0,0:0|0:0,0:0:0:0:
394,244,48944,2,0,P|401:198|396:170,1,70.0000000000004,0|0,0:0|0:0,0:0:0:0:
327,139,49277,2,0,P|320:185|325:213,1,70.0000000000004,2|0,0:0|0:0,0:0:0:0:
263,254,49610,6,0,P|270:300|265:328,1,70.0000000000004,0|0,0:0|0:0,0:0:0:0:
196,359,49943,2,0,P|189:313|194:285,1,70.0000000000004,2|0,0:0|0:0,0:0:0:0:
263,254,50277,2,0,P|270:208|265:180,1,70.0000000000004,0|0,0:0|0:0,0:0:0:0:
196,149,50610,2,0,P|189:195|194:223,1,70.0000000000004,2|0,0:0|0:0,0:0:0:0:
124,258,50942,5,4,0:0:0:0:
21,203,51275,2,0,P|13:130|283:88,2,420.000000000002,6|0|2,0:0|0:0|0:0,0:0:0:0:
137,203,53606,6,0,P|322:252|390:73,2,420.000000000002,0|2|0,0:0|0:0|0:0,0:0:0:0:
139,86,55938,1,2,0:0:0:0:
252,62,56271,6,0,L|412:75,1,140.000000000001,0|2,0:0|0:0,0:0:0:0:
444,176,56937,2,0,L|284:189,1,140.000000000001,0|2,0:0|0:0,0:0:0:0:
252,290,57603,2,0,L|412:303,2,140.000000000001,0|2|0,0:0|0:0|0:0,0:0:0:0:
145,335,58602,1,2,0:0:0:0:
47,271,58935,6,0,P|38:223|43:192,1,70.0000000000004,0|0,0:0|0:0,0:0:0:0:
46,129,59268,2,0,P|73:88|99:70,1,70.0000000000004,2|0,0:0|0:0,0:0:0:0:
160,100,59601,2,0,P|208:91|239:96,1,70.0000000000004
283,143,59934,2,0,P|317:144|351:136,1,70.0000000000004,2|0,0:0|0:0,0:0:0:0:
416,103,60267,6,0,L|437:178,1,70.0000000000004,0|0,0:0|0:0,0:0:0:0:
504,203,60600,2,0,L|483:278,1,70.0000000000004,2|0,0:0|0:0,0:0:0:0:
416,303,60934,2,0,L|437:378,2,70.0000000000004,0|0|2,0:0|0:0|0:0,0:0:0:0:
288,233,61600,5,4,1:2:0:0:
288,233,62266,5,4,1:2:0:0:
178,328,62599,2,0,L|168:377,2,43.7500000000002,0|0|0,1:0|1:0|1:0,0:0:0:0:
138,266,62932,6,0,L|46:248,1,87.5000000000005,8|8,1:2|1:2,0:0:0:0:
134,189,63265,2,0,L|42:171,1,87.5000000000005,8|8,1:2|1:2,0:0:0:0:
130,112,63598,2,0,L|38:94,1,87.5000000000005,8|8,1:2|1:2,0:0:0:0:
11,30,63931,1,2,0:0:0:0:
130,112,64264,6,0,L|222:130,1,87.5000000000005,8|8,1:2|1:2,0:0:0:0:
134,189,64597,2,0,L|226:207,1,87.5000000000005,8|8,1:2|1:2,0:0:0:0:
138,266,64930,2,0,L|230:284,1,87.5000000000005,8|8,1:2|1:2,0:0:0:0:
257,348,65263,1,2,0:0:0:0:
384,279,65596,6,0,L|476:261,1,87.5000000000005,8|8,1:2|1:2,0:0:0:0:
388,202,65929,2,0,L|480:184,1,87.5000000000005,8|8,1:2|1:2,0:0:0:0:
392,125,66262,2,0,L|484:107,1,87.5000000000005,8|8,1:2|1:2,0:0:0:0:
511,43,66595,1,0,1:0:0:0:
444,12,66762,1,0,1:0:0:0:
378,43,66929,6,0,L|286:61,1,87.5000000000005,0|2,1:0|0:0,0:0:0:0:
249,118,67262,2,0,L|157:100,1,87.5000000000005,8|8,0:0|0:0,0:0:0:0:
91,88,67595,1,2,0:0:0:0:
110,157,67761,1,2,0:0:0:0:
130,226,67928,6,0,B|142:271|142:271|132:313,2,87.5000000000005,0|0|0,1:0|1:0|1:0,0:0:0:0:
58,215,68427,1,0,1:0:0:0:
29,147,68594,2,0,B|17:102|17:102|27:60,1,87.5000000000005,0|0,1:0|1:0,0:0:0:0:
88,23,68927,6,0,L|180:41,1,87.5000000000005,8|0,0:0|0:0,0:0:0:0:
232,82,69260,2,0,L|324:64,1,87.5000000000005,2|0,0:0|0:0,0:0:0:0:
376,21,69593,6,0,L|468:39,1,87.5000000000005,8|8,1:2|1:2,0:0:0:0:
388,100,69926,2,0,L|480:118,1,87.5000000000005,8|8,1:2|1:2,0:0:0:0:
481,192,70259,6,0,B|439:237|439:237|318:213,1,175.000000000001,8|2,1:2|0:0,0:0:0:0:
239,330,70925,6,0,L|147:312,2,87.5000000000005,8|8|8,1:2|1:2|1:2,0:0:0:0:
234,256,71425,1,0,1:0:0:0:
229,182,71591,2,0,L|137:164,1,87.5000000000005,8|8,1:2|1:2,0:0:0:0:
99,102,71924,5,2,0:0:0:0:
124,33,72091,1,2,0:0:0:0:
191,7,72257,2,0,B|236:7|236:7|275:42,1,87.5000000000005,2|2,0:0|0:0,0:0:0:0:
283,106,72590,5,2,0:0:0:0:
308,175,72757,1,2,0:0:0:0:
375,201,72923,2,0,B|420:201|420:201|459:166,1,87.5000000000005,2|2,0:0|0:0,0:0:0:0:
461,99,73257,5,0,1:0:0:0:
375,201,73590,6,0,L|357:293,1,87.5000000000005,8|8,1:2|1:2,0:0:0:0:
298,205,73923,2,0,L|280:297,1,87.5000000000005,8|8,1:2|1:2,0:0:0:0:
221,209,74256,2,0,L|203:301,1,87.5000000000005,8|8,1:2|1:2,0:0:0:0:
138,325,74589,1,2,0:0:0:0:
221,209,74922,6,0,L|239:117,1,87.5000000000005,8|8,1:2|1:2,0:0:0:0:
298,205,75255,2,0,L|316:113,1,87.5000000000005,8|8,1:2|1:2,0:0:0:0:
375,201,75588,2,0,L|393:109,1,87.5000000000005,8|8,1:2|1:2,0:0:0:0:
458,85,75921,1,2,0:0:0:0:
375,201,76254,6,0,L|357:293,1,87.5000000000005,8|8,1:2|1:2,0:0:0:0:
298,205,76587,2,0,L|280:297,1,87.5000000000005,8|8,1:2|1:2,0:0:0:0:
221,209,76920,2,0,L|203:301,1,87.5000000000005,8|8,1:2|1:2,0:0:0:0:
138,325,77253,1,2,0:0:0:0:
44,226,77586,6,0,B|35:189|35:189|51:141,1,87.5000000000005,8|2,0:0|0:0,0:0:0:0:
119,167,77919,2,0,B|134:120|134:120|125:83,1,87.5000000000005,8|8,0:0|0:0,0:0:0:0:
110,11,78252,1,2,0:0:0:0:
179,32,78419,2,0,L|371:14,1,175.000000000001,8|0,0:0|1:0,0:0:0:0:
407,64,78919,6,0,L|520:53,2,87.5000000000005,0|0|0,1:0|1:0|1:0,0:0:0:0:
371,126,79418,1,0,1:0:0:0:
354,196,79585,2,0,B|345:233|345:233|366:293,1,87.5000000000005,8|0,0:0|0:0,0:0:0:0:
427,310,79918,2,0,B|436:273|436:273|415:213,1,87.5000000000005,2|0,0:0|0:0,0:0:0:0:
354,196,80251,6,0,L|336:104,1,87.5000000000005,8|8,1:2|1:2,0:0:0:0:
277,192,80584,2,0,L|259:100,1,87.5000000000005,8|8,1:2|1:2,0:0:0:0:
192,79,80917,6,0,B|147:121|147:121|171:242,1,175.000000000001,2|2,0:0|0:0,0:0:0:0:
259,346,81583,6,0,L|277:254,2,87.5000000000005,8|8|8,1:2|1:2|1:2,0:0:0:0:
336,342,82083,1,0,1:2:0:0:
413,338,82249,2,0,L|429:252,1,87.5000000000005,8|8,1:2|1:2,0:0:0:0:
443,180,82582,5,2,1:2:0:0:
426,109,82749,1,2,1:2:0:0:
410,38,82915,2,0,P|360:19|324:33,1,87.5000000000005,2|2,1:2|1:2,0:0:0:0:
285,87,83248,5,2,1:2:0:0:
268,158,83415,1,2,1:2:0:0:
252,229,83581,2,0,P|202:248|166:234,1,87.5000000000005,2|2,1:2|1:2,0:0:0:0:
125,181,83914,5,0,1:0:0:0:
94,322,84247,1,4,1:2:0:0:
130,191,94905,5,0,1:0:0:0:
181,294,95238,2,0,B|236:239|356:240|322:360|465:361|508:293|508:293|515:253|470:234,2,420.000000000002,2|0|2,1:2|0:0|0:0,0:0:0:0:
94,371,97570,6,0,B|39:316|40:196|160:230|161:87|93:44|93:44|53:37|34:82,2,420.000000000002,0|2|0,0:0|0:0|0:0,0:0:0:0:
181,294,99901,1,2,0:0:0:0:
290,333,100234,6,0,L|430:313,1,140.000000000001,0|2,0:0|0:0,0:0:0:0:
483,210,100900,2,0,L|343:190,1,140.000000000001,0|2,0:0|0:0,0:0:0:0:
290,87,101566,2,0,L|430:67,2,140.000000000001,0|2|0,0:0|0:0|0:0,0:0:0:0:
191,24,102566,1,2,0:0:0:0:
89,80,102899,6,0,P|81:126|99:157,1,70.0000000000004
56,210,103232,2,0,P|102:218|133:200,1,70.0000000000004,2|0,0:0|0:0,0:0:0:0:
186,243,103565,2,0,P|194:197|176:166,1,70.0000000000004
219,113,103898,2,0,P|185:103|152:113,1,70.0000000000004,2|0,0:0|0:0,0:0:0:0:
89,80,104231,6,0,B|78:120|78:120|94:156,1,70.0000000000004
56,210,104564,2,0,B|96:221|96:221|132:205,1,70.0000000000004,2|0,0:0|0:0,0:0:0:0:
186,243,104897,2,0,B|197:203|197:203|181:167,1,70.0000000000004
219,113,105230,2,0,B|179:102|179:102|143:118,1,70.0000000000004,2|0,0:0|0:0,0:0:0:0:
122,47,105563,6,0,L|202:7,1,87.5000000000005,4|2,0:0|0:0,0:0:0:0:
273,5,105896,2,0,L|353:45,1,87.5000000000005,2|2,0:0|0:0,0:0:0:0:
414,80,106229,1,2,0:0:0:0:
477,116,106396,1,0,0:0:0:0:
446,181,106562,2,0,P|438:235|460:283,1,87.5000000000005,2|0,0:0|0:0,0:0:0:0:
392,312,106895,6,0,P|435:340|485:326,2,87.5000000000005,2|2|2,0:0|0:0|0:0,0:0:0:0:
348,253,107395,1,0,0:0:0:0:
339,180,107561,2,0,P|278:162|162:206,1,175.000000000001,2|2,0:0|0:0,0:0:0:0:
37,255,108227,6,0,P|26:302|46:343,2,87.5000000000005,2|2|2,0:0|0:0|0:0,0:0:0:0:
17,184,108727,2,0,P|28:137|8:96,2,87.5000000000005,2|2|0,0:0|0:0|0:0,0:0:0:0:
88,200,109227,2,0,L|205:184,1,87.5000000000005,2|0,0:0|0:0,0:0:0:0:
247,185,109560,5,0,0:0:0:0:
283,122,109726,1,2,0:0:0:0:
268,50,109893,2,0,P|219:37|172:44,1,87.5000000000005,0|2,0:0|0:0,0:0:0:0:
119,75,110226,5,0,0:0:0:0:
83,138,110392,1,2,0:0:0:0:
98,210,110559,2,0,P|147:223|194:216,1,87.5000000000005,2|2,0:0|0:0,0:0:0:0:
231,274,110892,6,0,P|286:257|383:318,1,175.000000000001,4|4,0:0|0:0,0:0:0:0:
440,273,111391,1,2,0:0:0:0:
497,227,111558,2,0,P|516:189|515:133,2,87.5000000000005,2|0|2,0:0|0:0|0:0,0:0:0:0:
430,196,112058,1,0,0:0:0:0:
360,173,112224,6,0,P|361:129|380:90,2,87.5000000000005,2|2|2,0:0|0:0|0:0,0:0:0:0:
376,244,112723,1,2,0:0:0:0:
313,282,112890,2,0,B|262:298|262:298|134:258,1,175.000000000001,2|2,0:0|0:0,0:0:0:0:
252,158,113556,6,0,L|48:179,1,175.000000000001,4|2,0:0|0:0,0:0:0:0:
8,200,114056,1,0,0:0:0:0:
31,270,114222,2,0,L|235:291,1,175.000000000001,4|2,0:0|0:0,0:0:0:0:
239,352,114722,1,0,0:0:0:0:
308,377,114889,6,0,P|355:345|370:315,1,87.5000000000005,4|2,0:0|0:0,0:0:0:0:
441,308,115222,2,0,P|452:252|441:221,1,87.5000000000005,4|2,0:0|0:0,0:0:0:0:
487,166,115555,2,0,P|455:118|425:103,1,87.5000000000005,4|2,0:0|0:0,0:0:0:0:
358,124,115888,1,2,0:0:0:0:
219,75,116221,5,4,1:2:0:0:
182,357,116887,5,4,1:2:0:0:
322,319,117220,2,0,L|375:325,2,43.7500000000002,0|0|0,1:0|1:0|1:0,0:0:0:0:
256,286,117553,6,0,P|246:241|261:196,1,87.5000000000005,0|0,0:0|0:0,0:0:0:0:
328,188,117886,2,0,P|338:143|323:98,1,87.5000000000005,0|0,0:0|0:0,0:0:0:0:
256,90,118219,2,0,P|246:45|261:0,2,87.5000000000005,0|0|2,0:0|0:0|0:2,0:0:0:0:
205,142,118719,1,2,0:2:0:0:
149,94,118885,6,0,L|57:114,1,87.5000000000005,0|0,0:0|0:0,0:0:0:0:
50,184,119218,2,0,L|142:204,1,87.5000000000005,0|0,0:0|0:0,0:0:0:0:
149,274,119551,2,0,L|57:294,2,87.5000000000005,0|0|2,0:0|0:0|0:2,0:0:0:0:
292,255,120217,6,0,P|348:274|371:295,1,87.5000000000005,0|0,0:0|0:0,0:0:0:0:
425,246,120551,2,0,P|413:188|420:157,1,87.5000000000005,0|0,0:0|0:0,0:0:0:0:
350,135,120884,2,0,P|305:173|275:183,1,87.5000000000005,0|0,0:0|0:0,0:0:0:0:
209,203,121217,1,0,0:2:0:0:
137,191,121383,1,2,0:2:0:0:
77,149,121550,6,0,L|93:53,1,87.5000000000005,0|0,0:0|0:0,0:0:0:0:
157,116,121883,2,0,L|173:20,1,87.5000000000005,0|0,0:0|0:0,0:0:0:0:
241,49,122216,2,0,L|257:145,1,87.5000000000005,0|0,0:0|0:0,0:0:0:0:
321,82,122549,2,0,L|337:178,1,87.5000000000005,0|0,0:0|0:0,0:0:0:0:
323,240,122882,6,0,P|272:236|229:243,1,87.5000000000005,0|0,0:0|0:0,0:0:0:0:
209,308,123215,2,0,P|158:312|115:305,1,87.5000000000005,0|0,0:0|0:0,0:0:0:0:
95,240,123548,2,0,P|44:236|1:243,2,87.5000000000005,2|0|2,0:2|0:2|0:2,0:0:0:0:
190,129,124214,6,0,P|241:125|284:132,1,87.5000000000005,0|0,0:0|0:0,0:0:0:0:
304,197,124547,2,0,P|355:201|398:194,1,87.5000000000005,0|0,0:0|0:0,0:0:0:0:
418,129,124880,2,0,P|469:125|512:132,2,87.5000000000005,2|2|2,0:2|0:2|0:2,0:0:0:0:
370,74,125380,1,2,0:2:0:0:
323,18,125546,6,0,L|214:4,1,87.5000000000005,0|0,0:0|0:0,0:0:0:0:
171,41,125879,2,0,L|157:150,1,87.5000000000005,0|0,0:0|0:0,0:0:0:0:
194,193,126212,2,0,L|303:207,1,87.5000000000005,0|0,0:0|0:0,0:0:0:0:
336,156,126546,1,2,0:2:0:0:
408,158,126712,1,2,0:2:0:0:
460,208,126879,6,0,P|467:267|462:302,1,87.5000000000005,2|2,0:2|0:2,0:0:0:0:
421,354,127212,2,0,P|362:361|327:356,1,87.5000000000005,2|2,0:2|0:2,0:0:0:0:
275,315,127545,2,0,P|268:256|273:221,1,87.5000000000005,2|2,0:2|0:2,0:0:0:0:
308,165,127878,1,2,1:2:0:0:
257,28,128211,5,2,0:2:0:0:
189,1,128377,1,2,0:2:0:0:
118,18,128544,1,2,0:2:0:0:
47,140,128877,2,0,P|41:191|53:233,1,87.5000000000005,2|0,0:2|0:0,0:0:0:0:
78,292,129210,2,0,P|109:332|148:353,1,87.5000000000005,2|2,0:2|0:2,0:0:0:0:
207,321,129543,5,2,0:2:0:0:
275,348,129709,1,2,0:2:0:0:
346,331,129876,1,2,0:2:0:0:
417,209,130209,2,0,P|423:158|411:116,1,87.5000000000005,2|0,0:2|0:0,0:0:0:0:
386,57,130542,2,0,P|354:16|315:-4,1,87.5000000000005,2|2,0:2|0:2,0:0:0:0:
279,56,130875,5,2,0:2:0:0:
206,45,131042,1,2,0:2:0:0:
134,34,131208,1,2,0:2:0:0:
9,74,131541,2,0,L|31:177,1,87.5000000000005,2|2,0:2|0:2,0:0:0:0:
93,189,131874,2,0,L|115:292,1,87.5000000000005,2|2,0:2|0:2,0:0:0:0:
166,322,132207,5,2,0:2:0:0:
235,343,132374,1,2,0:2:0:0:
303,318,132541,2,0,P|309:275|301:225,1,87.5000000000005,2|2,0:2|0:2,0:0:0:0:
257,174,132874,5,2,0:2:0:0:
188,195,133041,1,2,0:2:0:0:
120,170,133208,2,0,P|114:127|122:77,1,87.5000000000005,2|0,0:2|0:0,0:0:0:0:
154,20,133540,5,2,0:2:0:0:
225,8,133706,1,2,0:2:0:0:
282,53,133873,1,2,0:2:0:0:
415,77,134206,2,0,L|406:167,1,87.5000000000005,2|2,0:2|0:2,0:0:0:0:
453,219,134539,2,0,L|444:309,1,87.5000000000005,2|0,0:2|0:0,0:0:0:0:
372,293,134872,5,2,0:2:0:0:
301,281,135038,1,2,0:2:0:0:
244,326,135205,1,2,0:2:0:0:
122,365,135538,2,0,P|76:378|25:374,2,87.5000000000005,2|2|2,0:2|0:2|0:2,0:0:0:0:
76,227,136204,6,0,B|86:204|86:204|65:134,1,87.5000000000005,2|2,0:2|0:2,0:0:0:0:
98,78,136537,1,0,1:0:0:0:
160,115,136704,2,0,B|150:138|150:138|171:208,1,87.5000000000005,2|2,0:2|0:2,0:0:0:0:
233,229,137037,1,0,0:0:0:0:
255,160,137203,2,0,B|245:137|245:137|266:67,1,87.5000000000005,2|2,0:2|0:2,0:0:0:0:
327,43,137536,5,0,0:0:0:0:
395,66,137703,1,2,0:2:0:0:
345,118,137869,2,0,L|366:217,1,87.5000000000005,2|2,0:2|0:2,0:0:0:0:
429,234,138202,2,0,L|408:333,2,87.5000000000005,2|2|2,0:2|0:2|0:2,0:0:0:0:
285,269,138869,5,4,1:2:0:0:
256,192,138952,12,4,140201,2:2:0:0:
