osu file format v14

[General]
AudioFilename: audio.mp3
AudioLeadIn: 0
PreviewTime: 117501
Countdown: 0
SampleSet: Normal
StackLeniency: 0.7
Mode: 1
LetterboxInBreaks: 0
WidescreenStoryboard: 1

[Editor]
Bookmarks: 50932
DistanceSpacing: 0.83
BeatDivisor: 4
GridSize: 4
TimelineZoom: 2.7

[Metadata]
Title:The Big Black
TitleUnicode:The Big Black
Artist:The Quick Brown Fox
ArtistUnicode:The Quick Brown Fox
Creator:Horiiizon
Version:Ura Oni
Source:
Tags:tasuke912 genjuro renard queenston speedkore 4 kidz speedcore splittercore lapfox vulpvibe halley labs ren tqbf electronic instrumental
BeatmapID:2810861
BeatmapSetID:1356632

[Difficulty]
HPDrainRate:5
CircleSize:5
OverallDifficulty:6.6
ApproachRate:5
SliderMultiplier:1.4
SliderTickRate:1

[Events]
//Background and Video events
0,0,"ooooooooooooooooooooh.png",0,25
//Break Periods
2,40474,49732
2,51465,55061
2,84438,93695
2,95428,99024
//Storyboard Layer 0 (Background)
//Storyboard Layer 1 (Fail)
//Storyboard Layer 2 (Pass)
//Storyboard Layer 3 (Foreground)
//Storyboard Layer 4 (Overlay)
//Storyboard Sound Samples

[TimingPoints]
6969,333.055786844296,4,1,0,70,1,0
18917,-100,4,1,0,80,0,0
18959,-100,4,1,0,80,0,1
29283,-100,4,1,0,80,0,0
29616,-100,4,1,0,80,0,1
40274,-100,4,1,0,80,0,0
40357,-100,4,1,0,40,0,0
50849,-100,4,1,0,50,0,0
61506,-100,4,1,0,70,0,0
62880,-100,4,1,0,90,0,0
62922,-100,4,1,0,90,0,1
73247,-100,4,1,0,90,0,0
73580,-100,4,1,0,90,0,1
84237,-100,4,1,0,90,0,0
84321,-100,4,1,0,40,0,0
94812,-100,4,1,0,50,0,0
105470,-100,4,1,0,70,0,0
117501,-100,4,1,0,80,0,0
117543,-100,4,1,0,80,0,1
127868,-100,4,1,0,80,0,0
128201,-100,4,1,0,80,0,1
138859,-100,4,1,0,80,0,0

[HitObjects]
211,170,6969,5,0,0:0:0:0:
211,170,7052,1,0,0:0:0:0:
227,194,7135,1,8,0:0:0:0:
227,194,7302,1,0,0:0:0:0:
227,139,7468,1,0,0:0:0:0:
227,139,7551,1,8,0:0:0:0:
294,122,7635,1,0,0:0:0:0:
227,139,7801,1,0,0:0:0:0:
220,142,7968,1,0,0:0:0:0:
220,142,8134,1,8,0:0:0:0:
241,166,8301,1,8,0:0:0:0:
219,129,8384,1,8,0:0:0:0:
219,129,8467,1,8,0:0:0:0:
219,129,8634,1,0,0:0:0:0:
216,93,8800,1,0,0:0:0:0:
217,99,8884,1,8,0:0:0:0:
191,79,8967,1,8,0:0:0:0:
211,109,9133,1,0,0:0:0:0:
211,109,9217,1,8,0:0:0:0:
191,79,9300,1,0,0:0:0:0:
191,79,9466,1,0,0:0:0:0:
191,79,9633,1,8,0:0:0:0:
216,110,9716,1,8,0:0:0:0:
216,111,9799,1,8,0:0:0:0:
216,111,9966,1,0,0:0:0:0:
227,139,10133,1,0,0:0:0:0:
227,139,10216,1,8,0:0:0:0:
294,122,10300,1,0,0:0:0:0:
227,139,10466,1,0,0:0:0:0:
220,142,10633,1,0,0:0:0:0:
220,142,10799,1,8,0:0:0:0:
247,133,10965,1,0,0:0:0:0:
247,133,11048,1,0,0:0:0:0:
224,125,11132,1,8,0:0:0:0:
224,125,11215,1,0,0:0:0:0:
224,125,11298,1,8,0:0:0:0:
187,131,11381,1,0,0:0:0:0:
201,133,11465,1,8,0:0:0:0:
201,132,11548,1,0,0:0:0:0:
225,129,11631,1,0,0:0:0:0:
201,121,11715,1,8,0:0:0:0:
230,123,11798,1,8,0:0:0:0:
206,152,11881,1,0,0:0:0:0:
244,156,11964,1,8,0:0:0:0:
208,135,12048,1,0,0:0:0:0:
206,152,12131,1,8,0:0:0:0:
220,178,12214,1,8,0:0:0:0:
220,178,12297,1,0,0:0:0:0:
229,178,12381,1,0,0:0:0:0:
195,163,12464,1,8,0:0:0:0:
253,148,12630,1,0,0:0:0:0:
227,139,12797,1,0,0:0:0:0:
227,139,12880,1,8,0:0:0:0:
294,122,12964,1,0,0:0:0:0:
227,139,13130,1,0,0:0:0:0:
220,142,13297,1,0,0:0:0:0:
220,142,13463,1,8,0:0:0:0:
241,166,13630,1,8,0:0:0:0:
219,129,13713,1,8,0:0:0:0:
219,129,13796,1,8,0:0:0:0:
219,129,13963,1,0,0:0:0:0:
216,93,14129,1,0,0:0:0:0:
217,99,14213,1,8,0:0:0:0:
191,79,14296,1,8,0:0:0:0:
211,109,14462,1,0,0:0:0:0:
211,109,14546,1,8,0:0:0:0:
191,79,14629,1,0,0:0:0:0:
191,79,14795,1,0,0:0:0:0:
204,140,14962,1,0,0:0:0:0:
204,140,15045,1,0,0:0:0:0:
216,111,15128,1,8,0:0:0:0:
216,111,15295,1,0,0:0:0:0:
227,139,15461,1,0,0:0:0:0:
227,139,15544,1,8,0:0:0:0:
294,122,15628,1,0,0:0:0:0:
227,139,15794,1,0,0:0:0:0:
220,142,15961,1,0,0:0:0:0:
220,142,16127,1,8,0:0:0:0:
212,132,16294,1,0,0:0:0:0:
212,132,16377,1,0,0:0:0:0:
219,129,16460,1,8,0:0:0:0:
220,176,16544,1,0,0:0:0:0:
220,176,16627,1,8,0:0:0:0:
216,191,16710,1,8,0:0:0:0:
216,93,16793,1,0,0:0:0:0:
217,99,16877,1,8,0:0:0:0:
214,132,16960,1,0,0:0:0:0:
207,177,17043,1,8,0:0:0:0:
211,109,17126,1,0,0:0:0:0:
197,108,17210,1,0,0:0:0:0:
221,120,17293,1,8,0:0:0:0:
263,134,17626,1,4,0:0:0:0:
263,134,18292,1,4,0:0:0:0:
198,122,18625,1,8,0:0:0:0:
199,130,18709,1,8,0:0:0:0:
201,142,18792,1,0,0:0:0:0:
210,170,18959,1,0,0:0:0:0:
210,170,19042,1,0,0:0:0:0:
221,149,19125,1,8,0:0:0:0:
238,134,19208,1,0,0:0:0:0:
222,152,19292,1,8,0:0:0:0:
239,160,19375,1,8,0:0:0:0:
213,175,19458,1,0,0:0:0:0:
225,172,19541,1,8,0:0:0:0:
224,172,19625,1,0,0:0:0:0:
205,156,19791,1,0,0:0:0:0:
236,148,19874,1,0,0:0:0:0:
214,164,19958,1,8,0:0:0:0:
210,136,20041,1,8,0:0:0:0:
211,135,20124,1,8,0:0:0:0:
227,222,20291,1,0,0:0:0:0:
256,205,20374,1,0,0:0:0:0:
219,148,20457,1,8,0:0:0:0:
205,125,20541,1,8,0:0:0:0:
196,143,20624,1,0,0:0:0:0:
241,178,20707,1,8,0:0:0:0:
241,178,20790,1,0,0:0:0:0:
220,143,20874,1,0,0:0:0:0:
223,147,20957,1,8,0:0:0:0:
212,151,21123,1,0,0:0:0:0:
223,125,21207,1,0,0:0:0:0:
241,47,21290,1,8,0:0:0:0:
241,47,21345,1,8,0:0:0:0:
241,47,21401,1,8,0:0:0:0:
215,89,21456,1,0,0:0:0:0:
204,127,21623,1,8,0:0:0:0:
201,108,21706,1,8,0:0:0:0:
200,144,21789,1,0,0:0:0:0:
212,145,21873,1,8,0:0:0:0:
202,138,21956,1,8,0:0:0:0:
202,138,22039,1,0,0:0:0:0:
180,82,22123,1,0,0:0:0:0:
206,147,22206,1,8,0:0:0:0:
206,147,22289,1,0,0:0:0:0:
206,132,22372,1,8,0:0:0:0:
192,122,22456,1,0,0:0:0:0:
191,121,22539,1,0,0:0:0:0:
193,122,22622,1,8,0:0:0:0:
201,125,22789,1,8,0:0:0:0:
224,127,22872,1,0,0:0:0:0:
212,174,22955,1,8,0:0:0:0:
199,138,23122,1,8,0:0:0:0:
197,137,23205,1,8,0:0:0:0:
197,137,23288,1,0,0:0:0:0:
208,124,23371,1,8,0:0:0:0:
196,117,23455,1,0,0:0:0:0:
196,117,23538,1,0,0:0:0:0:
202,114,23621,1,8,0:0:0:0:
216,215,23788,1,8,0:0:0:0:
211,111,23871,1,8,0:0:0:0:
216,215,23954,1,0,0:0:0:0:
208,100,24121,1,0,0:0:0:0:
137,176,24287,1,0,0:0:0:0:
194,130,24371,1,0,0:0:0:0:
217,146,24454,1,8,0:0:0:0:
217,146,24537,1,0,0:0:0:0:
236,171,24620,1,8,0:0:0:0:
236,171,24704,1,0,0:0:0:0:
196,124,24787,1,8,0:0:0:0:
227,136,24870,1,0,0:0:0:0:
203,139,24954,1,8,0:0:0:0:
217,146,25037,1,8,0:0:0:0:
193,116,25203,1,0,0:0:0:0:
193,116,25287,1,8,0:0:0:0:
186,112,25370,1,8,0:0:0:0:
223,115,25453,1,0,0:0:0:0:
266,156,25536,1,0,0:0:0:0:
219,194,25620,1,8,0:0:0:0:
241,155,25703,1,0,0:0:0:0:
241,155,25786,1,8,0:0:0:0:
205,149,25953,1,8,0:0:0:0:
182,105,26119,1,0,0:0:0:0:
206,117,26202,1,0,0:0:0:0:
193,98,26286,1,8,0:0:0:0:
238,146,26369,1,8,0:0:0:0:
192,102,26452,1,0,0:0:0:0:
182,83,26536,1,0,0:0:0:0:
229,132,26619,1,8,0:0:0:0:
229,132,26674,1,8,0:0:0:0:
229,132,26730,1,8,0:0:0:0:
236,132,26785,1,0,0:0:0:0:
216,170,26869,1,8,0:0:0:0:
197,137,26952,1,0,0:0:0:0:
215,103,27118,1,8,0:0:0:0:
217,100,27202,1,0,0:0:0:0:
194,132,27285,1,0,0:0:0:0:
191,152,27368,1,8,0:0:0:0:
201,137,27451,1,0,0:0:0:0:
197,123,27535,1,8,0:0:0:0:
196,115,27618,1,0,0:0:0:0:
210,141,27701,1,0,0:0:0:0:
184,93,27784,1,8,0:0:0:0:
186,98,27951,1,0,0:0:0:0:
295,125,28007,1,0,0:0:0:0:
222,83,28062,1,0,0:0:0:0:
202,127,28118,1,8,0:0:0:0:
216,131,28201,1,8,0:0:0:0:
202,127,28284,1,0,0:0:0:0:
253,217,28451,1,8,0:0:0:0:
253,217,28534,1,8,0:0:0:0:
253,217,28617,1,8,0:0:0:0:
197,129,28784,1,0,0:0:0:0:
241,205,28867,1,0,0:0:0:0:
241,205,28950,1,8,0:0:0:0:
219,121,29033,1,0,0:0:0:0:
241,205,29117,1,8,0:0:0:0:
286,243,29200,1,8,0:0:0:0:
246,203,29283,1,0,0:0:0:0:
210,170,29616,1,0,0:0:0:0:
210,170,29699,1,0,0:0:0:0:
221,149,29782,1,8,0:0:0:0:
238,134,29865,1,0,0:0:0:0:
222,152,29949,1,8,0:0:0:0:
239,160,30032,1,8,0:0:0:0:
213,175,30115,1,0,0:0:0:0:
225,172,30198,1,8,0:0:0:0:
224,172,30282,1,0,0:0:0:0:
205,156,30448,1,0,0:0:0:0:
236,148,30531,1,0,0:0:0:0:
214,164,30615,1,8,0:0:0:0:
210,136,30698,1,8,0:0:0:0:
211,135,30781,1,8,0:0:0:0:
227,222,30948,1,0,0:0:0:0:
256,205,31031,1,0,0:0:0:0:
219,148,31114,1,8,0:0:0:0:
205,125,31198,1,8,0:0:0:0:
196,143,31281,1,0,0:0:0:0:
241,178,31364,1,8,0:0:0:0:
241,178,31447,1,0,0:0:0:0:
220,143,31531,1,0,0:0:0:0:
223,147,31614,1,8,0:0:0:0:
212,151,31780,1,0,0:0:0:0:
223,125,31864,1,0,0:0:0:0:
241,47,31947,1,8,0:0:0:0:
241,47,32002,1,8,0:0:0:0:
241,47,32058,1,8,0:0:0:0:
215,89,32113,1,0,0:0:0:0:
204,127,32280,1,8,0:0:0:0:
201,108,32363,1,8,0:0:0:0:
200,144,32446,1,0,0:0:0:0:
212,145,32530,1,8,0:0:0:0:
202,138,32613,1,8,0:0:0:0:
202,138,32696,1,0,0:0:0:0:
180,82,32780,1,0,0:0:0:0:
206,147,32863,1,8,0:0:0:0:
206,147,32946,1,0,0:0:0:0:
206,132,33029,1,8,0:0:0:0:
192,122,33113,1,0,0:0:0:0:
191,121,33196,1,0,0:0:0:0:
193,122,33279,1,8,0:0:0:0:
201,125,33446,1,8,0:0:0:0:
224,127,33529,1,0,0:0:0:0:
212,174,33612,1,8,0:0:0:0:
199,138,33779,1,8,0:0:0:0:
197,137,33862,1,8,0:0:0:0:
197,137,33945,1,0,0:0:0:0:
208,124,34028,1,8,0:0:0:0:
196,117,34112,1,0,0:0:0:0:
196,117,34195,1,0,0:0:0:0:
202,114,34278,1,8,0:0:0:0:
216,215,34445,1,8,0:0:0:0:
211,111,34528,1,8,0:0:0:0:
216,215,34611,1,0,0:0:0:0:
208,100,34778,1,0,0:0:0:0:
137,176,34944,1,0,0:0:0:0:
194,130,35028,1,0,0:0:0:0:
217,146,35111,1,8,0:0:0:0:
217,146,35194,1,0,0:0:0:0:
236,171,35277,1,8,0:0:0:0:
236,171,35361,1,0,0:0:0:0:
196,124,35444,1,8,0:0:0:0:
227,136,35527,1,0,0:0:0:0:
203,139,35611,1,8,0:0:0:0:
217,146,35694,1,8,0:0:0:0:
193,116,35860,1,0,0:0:0:0:
193,116,35944,1,8,0:0:0:0:
186,112,36027,1,8,0:0:0:0:
223,115,36110,1,0,0:0:0:0:
266,156,36193,1,0,0:0:0:0:
219,194,36277,1,8,0:0:0:0:
241,155,36360,1,0,0:0:0:0:
241,155,36443,1,8,0:0:0:0:
205,149,36610,1,8,0:0:0:0:
182,105,36776,1,0,0:0:0:0:
206,117,36859,1,0,0:0:0:0:
193,98,36943,1,8,0:0:0:0:
238,146,37026,1,8,0:0:0:0:
192,102,37109,1,0,0:0:0:0:
182,83,37193,1,0,0:0:0:0:
229,132,37276,1,8,0:0:0:0:
229,132,37331,1,8,0:0:0:0:
229,132,37387,1,8,0:0:0:0:
236,132,37442,1,0,0:0:0:0:
216,170,37526,1,8,0:0:0:0:
197,137,37609,1,0,0:0:0:0:
245,272,37665,1,0,0:0:0:0:
245,272,37721,1,0,0:0:0:0:
245,272,37776,1,8,0:0:0:0:
220,187,37859,1,0,0:0:0:0:
187,183,37943,1,8,0:0:0:0:
201,122,38109,1,8,0:0:0:0:
200,122,38165,1,0,0:0:0:0:
201,122,38220,1,0,0:0:0:0:
200,122,38276,1,8,0:0:0:0:
302,175,38442,1,0,0:0:0:0:
232,95,38609,1,8,0:0:0:0:
232,95,38664,1,8,0:0:0:0:
189,67,38720,1,8,0:0:0:0:
207,107,38775,1,0,0:0:0:0:
202,135,38859,1,8,0:0:0:0:
213,99,38942,1,0,0:0:0:0:
262,183,39108,1,0,0:0:0:0:
225,122,39192,1,8,0:0:0:0:
225,122,39275,1,0,0:0:0:0:
182,90,39358,1,8,0:0:0:0:
203,80,39441,1,0,0:0:0:0:
201,107,39525,1,0,0:0:0:0:
204,108,39608,1,8,0:0:0:0:
194,112,39691,1,0,0:0:0:0:
198,106,39774,1,8,0:0:0:0:
198,106,39858,1,8,0:0:0:0:
198,106,39941,1,0,0:0:0:0:
211,142,40274,1,4,0:0:0:0:
224,177,50932,5,12,0:0:0:0:
196,181,51265,1,12,0:0:0:0:
235,175,56261,5,0,0:0:0:0:
238,180,57593,1,8,0:0:0:0:
241,181,58925,1,8,0:0:0:0:
340,250,61590,5,4,0:0:0:0:
340,250,62256,1,4,0:0:0:0:
225,172,62589,1,8,0:0:0:0:
227,191,62672,1,8,0:0:0:0:
230,198,62755,1,0,0:0:0:0:
216,164,62922,1,8,0:0:0:0:
216,164,63005,1,8,0:0:0:0:
234,115,63088,1,0,0:0:0:0:
234,115,63144,1,0,0:0:0:0:
234,115,63199,1,0,0:0:0:0:
212,172,63255,1,8,0:0:0:0:
212,172,63421,1,0,0:0:0:0:
208,140,63505,1,0,0:0:0:0:
208,140,63588,1,8,0:0:0:0:
208,128,63671,1,0,0:0:0:0:
208,132,63755,1,8,0:0:0:0:
191,112,63838,1,0,0:0:0:0:
193,108,63921,1,8,0:0:0:0:
193,108,63977,1,8,0:0:0:0:
193,108,64032,1,8,0:0:0:0:
193,108,64088,1,0,0:0:0:0:
236,224,64254,1,0,0:0:0:0:
191,168,64310,1,0,0:0:0:0:
191,168,64365,1,0,0:0:0:0:
208,140,64421,1,8,0:0:0:0:
189,93,64504,1,0,0:0:0:0:
189,93,64587,1,8,0:0:0:0:
228,180,64754,1,0,0:0:0:0:
232,168,64837,1,0,0:0:0:0:
232,168,64920,1,8,0:0:0:0:
228,136,65087,1,8,0:0:0:0:
232,132,65170,1,0,0:0:0:0:
232,132,65253,1,8,0:0:0:0:
202,136,65309,1,0,0:0:0:0:
202,136,65364,1,0,0:0:0:0:
202,136,65420,1,8,0:0:0:0:
192,124,65586,1,0,0:0:0:0:
234,164,65642,1,0,0:0:0:0:
234,164,65697,1,0,0:0:0:0:
196,128,65753,1,8,0:0:0:0:
208,156,65836,1,0,0:0:0:0:
199,112,65919,1,8,0:0:0:0:
228,184,66086,1,8,0:0:0:0:
228,184,66169,1,0,0:0:0:0:
228,184,66252,1,8,0:0:0:0:
194,118,66336,1,8,0:0:0:0:
228,184,66419,1,0,0:0:0:0:
228,184,66502,1,0,0:0:0:0:
207,98,66585,1,8,0:0:0:0:
291,150,66641,1,8,0:0:0:0:
291,150,66697,1,8,0:0:0:0:
199,120,66752,1,0,0:0:0:0:
199,120,66808,1,0,0:0:0:0:
199,121,66863,1,0,0:0:0:0:
201,123,66919,1,8,0:0:0:0:
196,136,67085,1,8,0:0:0:0:
180,60,67141,1,8,0:0:0:0:
180,68,67196,1,8,0:0:0:0:
192,104,67252,1,0,0:0:0:0:
200,88,67418,1,0,0:0:0:0:
196,112,67501,1,0,0:0:0:0:
196,112,67585,1,8,0:0:0:0:
200,120,67668,1,0,0:0:0:0:
192,132,67751,1,8,0:0:0:0:
188,124,67834,1,8,0:0:0:0:
200,116,67918,1,0,0:0:0:0:
200,152,68084,1,0,0:0:0:0:
212,120,68251,1,0,0:0:0:0:
216,116,68334,1,8,0:0:0:0:
216,116,68417,1,0,0:0:0:0:
204,108,68501,1,0,0:0:0:0:
212,62,68584,1,8,0:0:0:0:
244,134,68639,1,0,0:0:0:0:
244,134,68695,1,0,0:0:0:0:
238,129,68750,1,8,0:0:0:0:
212,103,68834,1,0,0:0:0:0:
320,224,68917,1,8,0:0:0:0:
288,208,69000,1,8,0:0:0:0:
288,208,69083,1,0,0:0:0:0:
264,200,69250,1,8,0:0:0:0:
212,176,69305,1,8,0:0:0:0:
212,176,69361,1,8,0:0:0:0:
216,140,69416,1,0,0:0:0:0:
257,149,69472,1,0,0:0:0:0:
257,149,69527,1,0,0:0:0:0:
212,128,69583,1,8,0:0:0:0:
208,180,69750,1,0,0:0:0:0:
208,180,69833,1,8,0:0:0:0:
200,144,69999,1,8,0:0:0:0:
204,144,70083,1,0,0:0:0:0:
224,160,70249,1,8,0:0:0:0:
340,288,70332,1,8,0:0:0:0:
340,288,70416,1,8,0:0:0:0:
284,200,70499,1,8,0:0:0:0:
204,140,70582,1,0,0:0:0:0:
229,117,70638,1,0,0:0:0:0:
235,121,70693,1,0,0:0:0:0:
237,124,70749,1,8,0:0:0:0:
220,144,70915,1,0,0:0:0:0:
228,156,70998,1,8,0:0:0:0:
228,156,71082,1,0,0:0:0:0:
228,156,71165,1,8,0:0:0:0:
208,152,71248,1,0,0:0:0:0:
219,105,71332,1,0,0:0:0:0:
221,98,71415,1,8,0:0:0:0:
216,120,71498,1,0,0:0:0:0:
216,120,71581,1,8,0:0:0:0:
200,104,71748,1,0,0:0:0:0:
207,63,71831,1,8,0:0:0:0:
241,105,71914,1,8,0:0:0:0:
229,102,71998,1,0,0:0:0:0:
229,102,72081,1,8,0:0:0:0:
240,120,72164,1,0,0:0:0:0:
240,120,72247,1,8,0:0:0:0:
252,136,72414,1,8,0:0:0:0:
200,128,72469,1,0,0:0:0:0:
200,128,72525,1,0,0:0:0:0:
254,138,72580,1,8,0:0:0:0:
254,138,72664,1,0,0:0:0:0:
256,136,72747,1,8,0:0:0:0:
192,104,72830,1,8,0:0:0:0:
200,140,72914,1,0,0:0:0:0:
200,116,73080,1,8,0:0:0:0:
180,76,73163,1,0,0:0:0:0:
192,88,73247,1,0,0:0:0:0:
216,164,73580,1,8,0:0:0:0:
174,100,73635,1,8,0:0:0:0:
174,98,73691,1,8,0:0:0:0:
234,115,73746,1,0,0:0:0:0:
234,115,73802,1,0,0:0:0:0:
234,115,73857,1,0,0:0:0:0:
212,172,73913,1,8,0:0:0:0:
212,172,74079,1,0,0:0:0:0:
208,140,74163,1,0,0:0:0:0:
208,140,74246,1,8,0:0:0:0:
208,128,74329,1,0,0:0:0:0:
208,132,74413,1,8,0:0:0:0:
191,112,74496,1,0,0:0:0:0:
193,108,74579,1,8,0:0:0:0:
193,108,74635,1,8,0:0:0:0:
193,108,74690,1,8,0:0:0:0:
193,108,74746,1,0,0:0:0:0:
191,134,74829,1,8,0:0:0:0:
236,224,74912,1,0,0:0:0:0:
191,168,74968,1,0,0:0:0:0:
191,168,75023,1,0,0:0:0:0:
208,140,75079,1,8,0:0:0:0:
189,93,75162,1,0,0:0:0:0:
189,93,75245,1,8,0:0:0:0:
228,180,75412,1,0,0:0:0:0:
232,168,75495,1,0,0:0:0:0:
232,168,75578,1,8,0:0:0:0:
228,136,75745,1,8,0:0:0:0:
232,132,75828,1,0,0:0:0:0:
232,132,75911,1,8,0:0:0:0:
252,125,75967,1,8,0:0:0:0:
252,125,76022,1,8,0:0:0:0:
253,120,76078,1,0,0:0:0:0:
263,100,76161,1,8,0:0:0:0:
220,110,76244,1,0,0:0:0:0:
234,164,76300,1,0,0:0:0:0:
234,164,76355,1,0,0:0:0:0:
196,128,76411,1,8,0:0:0:0:
208,156,76494,1,0,0:0:0:0:
199,112,76577,1,8,0:0:0:0:
228,184,76744,1,8,0:0:0:0:
228,184,76827,1,0,0:0:0:0:
228,184,76910,1,8,0:0:0:0:
194,118,76994,1,8,0:0:0:0:
228,184,77077,1,0,0:0:0:0:
228,184,77160,1,0,0:0:0:0:
207,98,77243,1,8,0:0:0:0:
291,150,77299,1,8,0:0:0:0:
291,150,77355,1,8,0:0:0:0:
199,120,77410,1,0,0:0:0:0:
256,247,77576,1,0,0:0:0:0:
260,235,77660,1,0,0:0:0:0:
196,136,77743,1,8,0:0:0:0:
180,60,77799,1,8,0:0:0:0:
180,68,77854,1,8,0:0:0:0:
192,104,77910,1,0,0:0:0:0:
200,88,78076,1,0,0:0:0:0:
196,112,78159,1,0,0:0:0:0:
196,112,78243,1,8,0:0:0:0:
200,120,78326,1,0,0:0:0:0:
192,132,78409,1,8,0:0:0:0:
188,124,78492,1,8,0:0:0:0:
200,116,78576,1,0,0:0:0:0:
200,152,78742,1,0,0:0:0:0:
212,120,78909,1,0,0:0:0:0:
216,116,78992,1,8,0:0:0:0:
216,116,79075,1,0,0:0:0:0:
204,108,79159,1,0,0:0:0:0:
212,62,79242,1,8,0:0:0:0:
244,134,79297,1,0,0:0:0:0:
244,134,79353,1,0,0:0:0:0:
238,129,79408,1,8,0:0:0:0:
212,103,79492,1,0,0:0:0:0:
320,224,79575,1,8,0:0:0:0:
288,208,79658,1,8,0:0:0:0:
288,208,79741,1,0,0:0:0:0:
264,200,79908,1,8,0:0:0:0:
212,176,79963,1,8,0:0:0:0:
212,176,80019,1,8,0:0:0:0:
216,140,80074,1,0,0:0:0:0:
200,132,80158,1,8,0:0:0:0:
192,152,80241,1,0,0:0:0:0:
291,113,80324,1,8,0:0:0:0:
208,180,80491,1,8,0:0:0:0:
210,81,80574,1,0,0:0:0:0:
204,144,80741,1,0,0:0:0:0:
209,88,80824,1,0,0:0:0:0:
224,160,80907,1,8,0:0:0:0:
340,288,80990,1,8,0:0:0:0:
340,288,81074,1,8,0:0:0:0:
284,200,81157,1,8,0:0:0:0:
204,140,81240,1,0,0:0:0:0:
200,98,81295,1,0,0:0:0:0:
235,121,81351,1,0,0:0:0:0:
237,124,81407,1,8,0:0:0:0:
220,144,81573,1,0,0:0:0:0:
228,156,81656,1,8,0:0:0:0:
228,156,81740,1,0,0:0:0:0:
228,156,81823,1,8,0:0:0:0:
208,152,81906,1,0,0:0:0:0:
219,105,81990,1,0,0:0:0:0:
221,98,82073,1,8,0:0:0:0:
216,120,82156,1,0,0:0:0:0:
216,120,82239,1,8,0:0:0:0:
200,104,82406,1,0,0:0:0:0:
207,63,82489,1,8,0:0:0:0:
241,105,82572,1,8,0:0:0:0:
229,102,82656,1,0,0:0:0:0:
229,102,82739,1,8,0:0:0:0:
240,120,82822,1,0,0:0:0:0:
240,120,82905,1,8,0:0:0:0:
252,136,83072,5,8,0:0:0:0:
200,128,83127,1,0,0:0:0:0:
200,128,83183,1,0,0:0:0:0:
254,138,83238,1,8,0:0:0:0:
254,138,83322,1,0,0:0:0:0:
256,136,83405,1,8,0:0:0:0:
192,104,83488,1,8,0:0:0:0:
200,140,83572,1,0,0:0:0:0:
200,116,83738,1,8,0:0:0:0:
180,76,83821,1,0,0:0:0:0:
192,88,83905,1,0,0:0:0:0:
200,96,84238,5,4,0:0:0:0:
233,218,94895,5,12,0:1:0:0:
238,220,95228,1,12,0:1:0:0:
236,222,100224,5,0,0:0:0:0:
236,222,101556,1,8,0:0:0:0:
235,222,102889,1,8,0:0:0:0:
211,170,105553,5,0,0:0:0:0:
211,170,105636,1,0,0:0:0:0:
227,194,105719,1,8,0:0:0:0:
227,194,105886,1,0,0:0:0:0:
227,139,106052,1,0,0:0:0:0:
227,139,106135,1,8,0:0:0:0:
294,122,106219,1,0,0:0:0:0:
227,139,106385,1,0,0:0:0:0:
220,142,106552,1,0,0:0:0:0:
220,142,106718,1,8,0:0:0:0:
241,166,106885,1,8,0:0:0:0:
219,129,106968,1,8,0:0:0:0:
219,129,107051,1,8,0:0:0:0:
219,129,107218,1,0,0:0:0:0:
216,93,107384,1,0,0:0:0:0:
217,99,107468,1,8,0:0:0:0:
191,79,107551,1,8,0:0:0:0:
211,109,107717,1,0,0:0:0:0:
211,109,107801,1,8,0:0:0:0:
191,79,107884,1,0,0:0:0:0:
191,79,108050,1,0,0:0:0:0:
191,79,108217,1,8,0:0:0:0:
216,110,108300,1,8,0:0:0:0:
216,111,108383,1,8,0:0:0:0:
216,111,108550,1,0,0:0:0:0:
227,139,108717,1,0,0:0:0:0:
227,139,108800,1,8,0:0:0:0:
294,122,108884,1,0,0:0:0:0:
227,139,109050,1,0,0:0:0:0:
220,142,109217,1,0,0:0:0:0:
220,142,109383,1,8,0:0:0:0:
247,133,109549,1,0,0:0:0:0:
247,133,109632,1,0,0:0:0:0:
224,125,109716,1,8,0:0:0:0:
224,125,109799,1,0,0:0:0:0:
224,125,109882,1,8,0:0:0:0:
187,131,109965,1,0,0:0:0:0:
201,133,110049,1,8,0:0:0:0:
201,132,110132,1,0,0:0:0:0:
225,129,110215,1,0,0:0:0:0:
201,121,110299,1,8,0:0:0:0:
230,123,110382,1,8,0:0:0:0:
206,152,110465,1,0,0:0:0:0:
244,156,110548,1,8,0:0:0:0:
208,135,110632,1,0,0:0:0:0:
206,152,110715,1,8,0:0:0:0:
220,178,110798,1,8,0:0:0:0:
220,178,110881,1,0,0:0:0:0:
229,178,110965,1,0,0:0:0:0:
195,163,111048,1,8,0:0:0:0:
253,148,111214,1,0,0:0:0:0:
227,139,111381,1,0,0:0:0:0:
227,139,111464,1,8,0:0:0:0:
294,122,111548,1,0,0:0:0:0:
227,139,111714,1,0,0:0:0:0:
220,142,111881,1,0,0:0:0:0:
220,142,112047,1,8,0:0:0:0:
241,166,112214,1,8,0:0:0:0:
219,129,112297,1,8,0:0:0:0:
219,129,112380,1,8,0:0:0:0:
219,129,112547,1,0,0:0:0:0:
216,93,112713,1,0,0:0:0:0:
217,99,112797,1,8,0:0:0:0:
191,79,112880,1,8,0:0:0:0:
211,109,113046,1,0,0:0:0:0:
211,109,113130,1,8,0:0:0:0:
191,79,113213,1,0,0:0:0:0:
191,79,113379,1,0,0:0:0:0:
204,140,113546,1,0,0:0:0:0:
204,140,113629,1,0,0:0:0:0:
216,111,113712,1,8,0:0:0:0:
216,111,113879,1,0,0:0:0:0:
227,139,114045,1,0,0:0:0:0:
227,139,114128,1,8,0:0:0:0:
294,122,114212,1,0,0:0:0:0:
227,139,114378,1,0,0:0:0:0:
220,142,114545,1,0,0:0:0:0:
220,142,114711,1,8,0:0:0:0:
212,132,114878,1,0,0:0:0:0:
212,132,114961,1,0,0:0:0:0:
219,129,115044,1,8,0:0:0:0:
220,176,115128,1,0,0:0:0:0:
220,176,115211,1,8,0:0:0:0:
216,191,115294,1,8,0:0:0:0:
216,93,115377,1,0,0:0:0:0:
217,99,115461,1,8,0:0:0:0:
214,132,115544,1,0,0:0:0:0:
207,177,115627,1,8,0:0:0:0:
211,109,115710,1,0,0:0:0:0:
197,108,115794,1,0,0:0:0:0:
221,120,115877,1,8,0:0:0:0:
263,134,116210,1,4,0:0:0:0:
263,134,116876,5,4,0:0:0:0:
198,122,117209,1,8,0:0:0:0:
199,130,117293,1,8,0:0:0:0:
201,142,117376,1,0,0:0:0:0:
211,170,117543,5,0,0:0:0:0:
211,170,117626,1,0,0:0:0:0:
227,194,117709,1,8,0:0:0:0:
192,152,117793,1,0,0:0:0:0:
196,116,117876,1,8,0:0:0:0:
200,112,118043,1,8,0:0:0:0:
227,139,118125,1,8,0:0:0:0:
294,122,118209,1,0,0:0:0:0:
196,100,118292,1,8,0:0:0:0:
227,139,118375,1,0,0:0:0:0:
196,104,118459,1,0,0:0:0:0:
216,112,118542,1,8,0:0:0:0:
216,112,118625,1,8,0:0:0:0:
188,96,118709,1,0,0:0:0:0:
241,166,118875,1,8,0:0:0:0:
219,129,118958,1,8,0:0:0:0:
219,129,119041,1,8,0:0:0:0:
192,92,119125,1,8,0:0:0:0:
219,129,119208,1,0,0:0:0:0:
216,93,119374,1,0,0:0:0:0:
217,99,119458,1,8,0:0:0:0:
191,79,119541,1,8,0:0:0:0:
188,112,119625,1,0,0:0:0:0:
208,96,119708,1,8,0:0:0:0:
208,112,119791,1,0,0:0:0:0:
180,48,119874,1,8,0:0:0:0:
180,48,119930,1,8,0:0:0:0:
180,48,119985,1,8,0:0:0:0:
191,79,120040,1,0,0:0:0:0:
191,79,120207,1,8,0:0:0:0:
216,110,120290,1,8,0:0:0:0:
192,128,120374,1,0,0:0:0:0:
192,128,120457,1,8,0:0:0:0:
216,111,120540,1,0,0:0:0:0:
227,139,120707,1,0,0:0:0:0:
227,139,120790,1,8,0:0:0:0:
294,122,120874,1,0,0:0:0:0:
244,184,120957,1,0,0:0:0:0:
208,160,121040,1,8,0:0:0:0:
196,120,121123,1,0,0:0:0:0:
200,120,121207,1,8,0:0:0:0:
220,142,121373,1,8,0:0:0:0:
247,133,121539,1,0,0:0:0:0:
247,133,121622,1,0,0:0:0:0:
224,125,121706,1,8,0:0:0:0:
224,125,121789,1,0,0:0:0:0:
224,125,121872,1,8,0:0:0:0:
160,132,121956,1,0,0:0:0:0:
201,133,122039,1,8,0:0:0:0:
201,132,122122,1,0,0:0:0:0:
225,129,122205,1,0,0:0:0:0:
201,121,122289,1,8,0:0:0:0:
230,123,122372,1,8,0:0:0:0:
206,152,122455,1,0,0:0:0:0:
244,156,122538,1,8,0:0:0:0:
206,152,122705,1,8,0:0:0:0:
220,178,122788,1,8,0:0:0:0:
220,178,122871,1,0,0:0:0:0:
229,178,122955,1,0,0:0:0:0:
195,163,123038,1,8,0:0:0:0:
192,152,123122,1,0,0:0:0:0:
196,116,123205,1,8,0:0:0:0:
227,139,123371,1,0,0:0:0:0:
188,104,123455,1,0,0:0:0:0:
212,164,123538,1,8,0:0:0:0:
224,160,123621,1,0,0:0:0:0:
192,100,123705,1,8,0:0:0:0:
204,112,123788,1,0,0:0:0:0:
216,112,123871,1,8,0:0:0:0:
216,112,123954,1,8,0:0:0:0:
188,96,124038,1,0,0:0:0:0:
241,166,124204,1,8,0:0:0:0:
219,129,124287,1,8,0:0:0:0:
219,129,124370,1,8,0:0:0:0:
192,92,124454,1,8,0:0:0:0:
219,129,124537,1,0,0:0:0:0:
216,93,124703,1,0,0:0:0:0:
184,112,124787,1,0,0:0:0:0:
191,79,124870,1,8,0:0:0:0:
208,148,124954,1,8,0:0:0:0:
211,109,125036,1,0,0:0:0:0:
208,112,125120,1,0,0:0:0:0:
196,88,125203,1,8,0:0:0:0:
228,92,125259,1,8,0:0:0:0:
228,100,125314,1,8,0:0:0:0:
220,144,125370,1,0,0:0:0:0:
191,79,125536,1,8,0:0:0:0:
216,110,125619,1,8,0:0:0:0:
192,128,125703,1,0,0:0:0:0:
192,128,125786,1,8,0:0:0:0:
216,111,125869,1,0,0:0:0:0:
227,139,126036,1,0,0:0:0:0:
227,139,126119,1,8,0:0:0:0:
294,122,126203,1,0,0:0:0:0:
184,108,126286,1,8,0:0:0:0:
227,139,126369,1,0,0:0:0:0:
196,120,126452,1,0,0:0:0:0:
200,120,126536,1,8,0:0:0:0:
216,144,126591,1,0,0:0:0:0:
216,144,126647,1,0,0:0:0:0:
220,142,126702,1,8,0:0:0:0:
247,133,126868,1,0,0:0:0:0:
247,133,126951,1,0,0:0:0:0:
224,125,127035,1,8,0:0:0:0:
224,125,127118,1,0,0:0:0:0:
224,125,127201,1,8,0:0:0:0:
192,128,127285,1,0,0:0:0:0:
201,133,127368,1,8,0:0:0:0:
201,132,127451,1,0,0:0:0:0:
225,129,127534,1,0,0:0:0:0:
201,121,127618,1,8,0:0:0:0:
230,123,127701,1,8,0:0:0:0:
206,152,127784,1,0,0:0:0:0:
216,132,127868,1,0,0:0:0:0:
211,170,128201,5,0,0:0:0:0:
211,170,128284,1,0,0:0:0:0:
227,194,128367,1,8,0:0:0:0:
192,152,128451,1,0,0:0:0:0:
196,116,128534,1,8,0:0:0:0:
200,112,128701,1,8,0:0:0:0:
227,139,128783,1,8,0:0:0:0:
294,122,128867,1,0,0:0:0:0:
196,100,128950,1,8,0:0:0:0:
227,139,129033,1,0,0:0:0:0:
196,104,129117,1,0,0:0:0:0:
216,112,129200,1,8,0:0:0:0:
216,112,129283,1,8,0:0:0:0:
188,96,129367,1,0,0:0:0:0:
241,166,129533,1,8,0:0:0:0:
219,129,129616,1,8,0:0:0:0:
219,129,129699,1,8,0:0:0:0:
192,92,129783,1,8,0:0:0:0:
219,129,129866,1,0,0:0:0:0:
216,93,130032,1,0,0:0:0:0:
217,99,130116,1,8,0:0:0:0:
191,79,130199,1,8,0:0:0:0:
188,112,130283,1,0,0:0:0:0:
208,96,130366,1,8,0:0:0:0:
208,112,130449,1,0,0:0:0:0:
180,48,130532,1,8,0:0:0:0:
180,48,130588,1,8,0:0:0:0:
180,48,130643,1,8,0:0:0:0:
191,79,130698,1,0,0:0:0:0:
191,79,130865,1,8,0:0:0:0:
216,110,130948,1,8,0:0:0:0:
192,128,131032,1,0,0:0:0:0:
192,128,131115,1,8,0:0:0:0:
216,111,131198,1,0,0:0:0:0:
227,139,131365,1,0,0:0:0:0:
227,139,131448,1,8,0:0:0:0:
294,122,131532,1,0,0:0:0:0:
244,184,131615,1,0,0:0:0:0:
208,160,131698,1,8,0:0:0:0:
196,120,131781,1,0,0:0:0:0:
200,120,131865,1,8,0:0:0:0:
220,142,132031,1,8,0:0:0:0:
247,133,132197,1,0,0:0:0:0:
247,133,132280,1,0,0:0:0:0:
224,125,132364,1,8,0:0:0:0:
224,125,132447,1,0,0:0:0:0:
224,125,132530,1,8,0:0:0:0:
160,132,132614,1,0,0:0:0:0:
201,133,132697,1,8,0:0:0:0:
201,132,132780,1,0,0:0:0:0:
225,129,132863,1,0,0:0:0:0:
201,121,132947,1,8,0:0:0:0:
230,123,133030,1,8,0:0:0:0:
206,152,133113,1,0,0:0:0:0:
244,156,133196,1,8,0:0:0:0:
206,152,133363,1,8,0:0:0:0:
220,178,133446,1,8,0:0:0:0:
220,178,133529,1,0,0:0:0:0:
229,178,133613,1,0,0:0:0:0:
195,163,133696,1,8,0:0:0:0:
192,152,133780,1,0,0:0:0:0:
196,116,133863,1,8,0:0:0:0:
227,139,134029,1,0,0:0:0:0:
188,104,134113,1,0,0:0:0:0:
212,164,134196,1,8,0:0:0:0:
224,160,134279,1,0,0:0:0:0:
192,100,134363,1,8,0:0:0:0:
204,112,134446,1,0,0:0:0:0:
216,112,134529,1,8,0:0:0:0:
216,112,134612,1,8,0:0:0:0:
188,96,134696,1,0,0:0:0:0:
241,166,134862,1,8,0:0:0:0:
219,129,134945,1,8,0:0:0:0:
219,129,135028,1,8,0:0:0:0:
192,92,135112,1,8,0:0:0:0:
219,129,135195,1,0,0:0:0:0:
216,93,135361,1,0,0:0:0:0:
184,112,135445,1,0,0:0:0:0:
191,79,135528,1,8,0:0:0:0:
208,148,135612,1,8,0:0:0:0:
211,109,135694,1,0,0:0:0:0:
208,112,135778,1,0,0:0:0:0:
196,88,135861,1,8,0:0:0:0:
228,92,135917,1,8,0:0:0:0:
228,100,135972,1,8,0:0:0:0:
220,144,136028,1,0,0:0:0:0:
204,128,136194,1,0,0:0:0:0:
204,136,136250,1,0,0:0:0:0:
204,132,136305,1,0,0:0:0:0:
208,112,136361,1,8,0:0:0:0:
204,92,136444,1,0,0:0:0:0:
208,128,136527,1,0,0:0:0:0:
320,216,136694,1,8,0:0:0:0:
192,112,136749,1,8,0:0:0:0:
192,112,136805,1,8,0:0:0:0:
256,124,136860,1,0,0:0:0:0:
184,80,136944,1,8,0:0:0:0:
192,108,137027,1,0,0:0:0:0:
200,104,137193,1,8,0:0:0:0:
112,164,137249,1,0,0:0:0:0:
112,164,137304,1,0,0:0:0:0:
196,80,137360,1,8,0:0:0:0:
244,172,137526,1,0,0:0:0:0:
244,172,137610,1,0,0:0:0:0:
244,172,137693,1,8,0:0:0:0:
240,164,137776,1,0,0:0:0:0:
240,164,137859,1,8,0:0:0:0:
252,164,137943,1,0,0:0:0:0:
252,164,138026,1,8,0:0:0:0:
252,164,138109,1,8,0:0:0:0:
252,164,138192,1,0,0:0:0:0:
252,164,138276,1,8,0:0:0:0:
256,164,138359,1,0,0:0:0:0:
256,164,138442,1,0,0:0:0:0:
256,164,138526,1,8,0:0:0:0:
196,132,138859,5,4,0:0:0:0:
