osu file format v14

[General]
AudioFilename: audio.mp3
AudioLeadIn: 0
PreviewTime: 117501
Countdown: 0
SampleSet: Normal
StackLeniency: 0.7
Mode: 1
LetterboxInBreaks: 0
WidescreenStoryboard: 1

[Editor]
Bookmarks: 105553
DistanceSpacing: 0.83
BeatDivisor: 4
GridSize: 4
TimelineZoom: 2.7

[Metadata]
Title:The Big Black
TitleUnicode:The Big Black
Artist:The Quick Brown Fox
ArtistUnicode:The Quick Brown Fox
Creator:Horiiizon
Version:Muzukashii
Source:
Tags:tasuke912 genjuro renard queenston speedkore 4 kidz speedcore splittercore lapfox vulpvibe halley labs ren tqbf electronic instrumental
BeatmapID:2807613
BeatmapSetID:1356632

[Difficulty]
HPDrainRate:6.5
CircleSize:5
OverallDifficulty:4.5
ApproachRate:5
SliderMultiplier:1.4
SliderTickRate:1

[Events]
//Background and Video events
0,0,"ooooooooooooooooooooh.png",0,25
//Break Periods
2,40474,49732
2,51465,55061
2,84437,93695
2,95428,99024
//Storyboard Layer 0 (Background)
//Storyboard Layer 1 (Fail)
//Storyboard Layer 2 (Pass)
//Storyboard Layer 3 (Foreground)
//Storyboard Layer 4 (Overlay)
//Storyboard Sound Samples

[TimingPoints]
6969,333.055786844296,4,1,0,70,1,0
18917,-100,4,1,0,80,0,0
18959,-100,4,1,0,80,0,1
29283,-100,4,1,0,80,0,0
29616,-100,4,1,0,80,0,1
40274,-100,4,1,0,80,0,0
40357,-100,4,1,0,40,0,0
50849,-100,4,1,0,50,0,0
61506,-100,4,1,0,70,0,0
62880,-100,4,1,0,90,0,0
62922,-100,4,1,0,90,0,1
73247,-100,4,1,0,90,0,0
73580,-100,4,1,0,90,0,1
84237,-100,4,1,0,90,0,0
84321,-100,4,1,0,40,0,0
94812,-100,4,1,0,50,0,0
105470,-100,4,1,0,70,0,0
117501,-100,4,1,0,80,0,0
117543,-100,4,1,0,80,0,1
127868,-100,4,1,0,80,0,0
128201,-100,4,1,0,80,0,1
138859,-100,4,1,0,80,0,0

[HitObjects]
213,156,6969,5,0,0:0:0:0:
207,151,7052,1,0,0:0:0:0:
233,186,7135,1,0,0:0:0:0:
190,113,7302,1,0,0:0:0:0:
204,161,7468,1,8,0:0:0:0:
208,152,7635,1,0,0:0:0:0:
212,162,7968,1,0,0:0:0:0:
213,163,8134,1,8,0:0:0:0:
217,137,8301,1,8,0:0:0:0:
217,137,8384,1,8,0:0:0:0:
223,142,8467,1,8,0:0:0:0:
197,185,8634,1,0,0:0:0:0:
215,118,8800,1,0,0:0:0:0:
180,92,8884,1,0,0:0:0:0:
201,133,8967,1,0,0:0:0:0:
230,186,9633,1,8,0:0:0:0:
230,186,9716,1,8,0:0:0:0:
240,189,9799,1,8,0:0:0:0:
213,134,9966,1,0,0:0:0:0:
230,149,10133,1,8,0:0:0:0:
192,142,10299,1,0,0:0:0:0:
204,161,10632,1,0,0:0:0:0:
205,160,10799,1,8,0:0:0:0:
228,218,10965,1,0,0:0:0:0:
191,148,11048,1,0,0:0:0:0:
211,157,11132,1,0,0:0:0:0:
177,142,11298,1,0,0:0:0:0:
187,140,11465,1,0,0:0:0:0:
208,157,11631,1,8,0:0:0:0:
199,105,11715,1,8,0:0:0:0:
199,149,11798,1,8,0:0:0:0:
181,124,11964,1,8,0:0:0:0:
203,144,12131,1,8,0:0:0:0:
213,156,12297,5,0,0:0:0:0:
207,151,12380,1,0,0:0:0:0:
233,186,12463,1,0,0:0:0:0:
190,113,12630,1,0,0:0:0:0:
204,161,12796,1,8,0:0:0:0:
208,152,12963,1,0,0:0:0:0:
212,162,13296,1,0,0:0:0:0:
213,163,13462,1,8,0:0:0:0:
217,137,13629,1,8,0:0:0:0:
217,137,13712,1,8,0:0:0:0:
223,142,13795,1,8,0:0:0:0:
197,185,13962,1,0,0:0:0:0:
215,118,14128,1,0,0:0:0:0:
180,92,14212,1,0,0:0:0:0:
201,133,14295,1,0,0:0:0:0:
202,142,14962,1,0,0:0:0:0:
212,143,15045,1,0,0:0:0:0:
221,164,15128,1,0,0:0:0:0:
213,134,15294,1,0,0:0:0:0:
230,149,15461,1,8,0:0:0:0:
192,142,15627,1,0,0:0:0:0:
204,161,15960,1,0,0:0:0:0:
205,160,16127,1,8,0:0:0:0:
228,218,16293,1,0,0:0:0:0:
191,148,16376,1,0,0:0:0:0:
211,157,16460,1,0,0:0:0:0:
177,142,16626,1,0,0:0:0:0:
189,124,16794,1,8,0:0:0:0:
228,179,16960,1,8,0:0:0:0:
228,179,17043,1,8,0:0:0:0:
224,176,17127,1,8,0:0:0:0:
223,115,17293,1,0,0:0:0:0:
278,165,17626,1,4,0:0:0:0:
212,141,18292,5,4,0:0:0:0:
219,138,18625,1,8,0:0:0:0:
217,142,18709,1,8,0:0:0:0:
227,169,18792,1,8,0:0:0:0:
210,170,18959,1,0,0:0:0:0:
210,170,19042,1,0,0:0:0:0:
206,152,19125,1,0,0:0:0:0:
222,152,19292,1,8,0:0:0:0:
277,229,19458,1,0,0:0:0:0:
224,172,19625,1,0,0:0:0:0:
214,164,19958,1,8,0:0:0:0:
227,222,20291,1,0,0:0:0:0:
256,205,20374,1,0,0:0:0:0:
223,195,20457,1,0,0:0:0:0:
196,143,20624,1,0,0:0:0:0:
200,144,20790,1,8,0:0:0:0:
208,149,20957,1,0,0:0:0:0:
217,153,21290,1,8,0:0:0:0:
240,181,21373,1,8,0:0:0:0:
240,181,21456,1,8,0:0:0:0:
208,166,21623,1,0,0:0:0:0:
207,166,21706,1,0,0:0:0:0:
206,160,21789,1,0,0:0:0:0:
203,132,21956,1,8,0:0:0:0:
235,78,22123,1,0,0:0:0:0:
235,78,22289,1,0,0:0:0:0:
193,122,22622,1,8,0:0:0:0:
201,125,22789,1,8,0:0:0:0:
212,174,22955,1,8,0:0:0:0:
199,138,23122,1,8,0:0:0:0:
197,137,23205,1,8,0:0:0:0:
200,137,23288,1,8,0:0:0:0:
196,117,23455,1,0,0:0:0:0:
202,114,23621,1,8,0:0:0:0:
216,215,23788,1,8,0:0:0:0:
210,170,24287,1,0,0:0:0:0:
210,170,24370,1,0,0:0:0:0:
206,152,24453,1,0,0:0:0:0:
222,152,24620,1,8,0:0:0:0:
277,229,24786,1,0,0:0:0:0:
224,172,24953,1,0,0:0:0:0:
226,197,25037,1,0,0:0:0:0:
214,164,25286,1,8,0:0:0:0:
227,222,25619,1,0,0:0:0:0:
256,205,25702,1,0,0:0:0:0:
223,195,25785,1,0,0:0:0:0:
205,149,25953,1,8,0:0:0:0:
197,93,26119,1,0,0:0:0:0:
210,131,26286,1,8,0:0:0:0:
196,133,26369,1,8,0:0:0:0:
195,70,26619,1,8,0:0:0:0:
170,106,26702,1,8,0:0:0:0:
171,107,26785,1,8,0:0:0:0:
208,166,26952,1,0,0:0:0:0:
207,166,27035,1,0,0:0:0:0:
206,160,27118,1,0,0:0:0:0:
203,132,27285,1,8,0:0:0:0:
235,78,27452,1,0,0:0:0:0:
235,78,27618,1,0,0:0:0:0:
217,160,27951,1,0,0:0:0:0:
233,162,28118,1,8,0:0:0:0:
233,162,28284,1,0,0:0:0:0:
199,138,28451,1,8,0:0:0:0:
197,137,28534,1,8,0:0:0:0:
200,137,28617,1,8,0:0:0:0:
196,117,28784,1,0,0:0:0:0:
202,114,28950,1,8,0:0:0:0:
216,215,29117,1,8,0:0:0:0:
210,170,29616,1,0,0:0:0:0:
210,170,29699,1,0,0:0:0:0:
206,152,29782,1,0,0:0:0:0:
222,152,29949,1,8,0:0:0:0:
277,229,30115,1,0,0:0:0:0:
224,172,30282,1,0,0:0:0:0:
214,164,30615,1,8,0:0:0:0:
227,222,30948,1,0,0:0:0:0:
256,205,31031,1,0,0:0:0:0:
223,195,31114,1,0,0:0:0:0:
196,143,31281,1,0,0:0:0:0:
200,144,31447,1,8,0:0:0:0:
208,149,31614,1,0,0:0:0:0:
217,153,31947,1,8,0:0:0:0:
240,181,32030,1,8,0:0:0:0:
240,181,32113,1,8,0:0:0:0:
208,166,32280,1,0,0:0:0:0:
207,166,32363,1,0,0:0:0:0:
206,160,32446,1,0,0:0:0:0:
203,132,32613,1,8,0:0:0:0:
235,78,32780,1,0,0:0:0:0:
235,78,32946,1,0,0:0:0:0:
193,122,33279,1,8,0:0:0:0:
201,125,33446,1,8,0:0:0:0:
212,174,33612,1,8,0:0:0:0:
199,138,33779,1,8,0:0:0:0:
197,137,33862,1,8,0:0:0:0:
200,137,33945,1,8,0:0:0:0:
196,117,34112,1,0,0:0:0:0:
202,114,34278,1,8,0:0:0:0:
216,215,34445,1,8,0:0:0:0:
210,170,34944,1,0,0:0:0:0:
210,170,35027,1,0,0:0:0:0:
206,152,35112,1,0,0:0:0:0:
222,152,35278,1,8,0:0:0:0:
277,229,35445,1,0,0:0:0:0:
224,172,35611,1,0,0:0:0:0:
226,197,35695,1,0,0:0:0:0:
214,164,35943,1,8,0:0:0:0:
227,222,36276,1,0,0:0:0:0:
256,205,36361,1,0,0:0:0:0:
223,195,36444,1,0,0:0:0:0:
205,149,36610,1,8,0:0:0:0:
197,93,36776,1,0,0:0:0:0:
210,131,36943,1,8,0:0:0:0:
196,133,37026,1,8,0:0:0:0:
195,70,37276,1,8,0:0:0:0:
170,106,37359,1,8,0:0:0:0:
171,107,37442,1,8,0:0:0:0:
207,165,37610,1,8,0:0:0:0:
207,165,37776,1,0,0:0:0:0:
204,223,38109,1,8,0:0:0:0:
213,108,38276,1,8,0:0:0:0:
212,187,38442,1,0,0:0:0:0:
212,187,38609,1,8,0:0:0:0:
257,231,38692,1,8,0:0:0:0:
186,176,38775,1,8,0:0:0:0:
255,226,38942,1,0,0:0:0:0:
201,171,39108,1,8,0:0:0:0:
209,176,39275,1,0,0:0:0:0:
230,220,39441,1,0,0:0:0:0:
230,220,39525,1,0,0:0:0:0:
230,220,39608,1,0,0:0:0:0:
243,209,39774,1,8,0:0:0:0:
199,143,39941,5,0,0:0:0:0:
181,175,40274,1,4,0:0:0:0:
224,177,50932,5,12,0:0:0:0:
196,181,51265,1,12,0:0:0:0:
235,175,56261,5,0,0:0:0:0:
238,180,57593,1,8,0:0:0:0:
241,181,58925,1,8,0:0:0:0:
340,250,61590,5,4,0:0:0:0:
340,250,62256,1,4,0:0:0:0:
225,172,62589,1,8,0:0:0:0:
227,191,62672,1,8,0:0:0:0:
219,162,62755,1,8,0:0:0:0:
207,143,62922,1,0,0:0:0:0:
201,125,63005,1,0,0:0:0:0:
207,143,63088,1,0,0:0:0:0:
207,143,63255,1,8,0:0:0:0:
191,119,63421,1,0,0:0:0:0:
181,109,63505,1,0,0:0:0:0:
194,137,63588,5,0,0:0:0:0:
210,117,63921,1,8,0:0:0:0:
181,122,64254,1,8,0:0:0:0:
193,155,64337,1,8,0:0:0:0:
190,120,64421,1,8,0:0:0:0:
195,151,64587,1,0,0:0:0:0:
199,113,64754,1,0,0:0:0:0:
199,113,64837,1,0,0:0:0:0:
181,88,64920,1,0,0:0:0:0:
187,98,65253,1,8,0:0:0:0:
187,98,65337,1,8,0:0:0:0:
188,99,65420,1,8,0:0:0:0:
266,256,65586,1,0,0:0:0:0:
266,256,65670,1,0,0:0:0:0:
201,123,65753,1,0,0:0:0:0:
189,88,65919,1,8,0:0:0:0:
199,142,66086,1,0,0:0:0:0:
266,262,66169,1,0,0:0:0:0:
206,145,66252,1,0,0:0:0:0:
197,96,66585,1,8,0:0:0:0:
197,96,66669,1,8,0:0:0:0:
197,96,66752,1,8,0:0:0:0:
215,101,66919,1,0,0:0:0:0:
226,191,67085,1,8,0:0:0:0:
225,191,67252,1,0,0:0:0:0:
200,114,67418,1,0,0:0:0:0:
200,102,67585,1,8,0:0:0:0:
191,127,67751,1,8,0:0:0:0:
208,145,68251,1,8,0:0:0:0:
176,136,68417,1,8,0:0:0:0:
219,217,68584,1,0,0:0:0:0:
217,203,68667,1,0,0:0:0:0:
266,180,68750,1,0,0:0:0:0:
271,193,68917,1,8,0:0:0:0:
271,193,69083,1,0,0:0:0:0:
299,238,69250,1,8,0:0:0:0:
218,192,69583,1,8,0:0:0:0:
212,135,69750,1,8,0:0:0:0:
193,123,69833,1,8,0:0:0:0:
214,151,70083,1,0,0:0:0:0:
214,151,70249,1,8,0:0:0:0:
192,105,70416,1,8,0:0:0:0:
224,146,70582,1,0,0:0:0:0:
224,145,70665,1,0,0:0:0:0:
190,109,70749,1,0,0:0:0:0:
210,179,70915,1,0,0:0:0:0:
215,118,71082,1,0,0:0:0:0:
204,147,71248,1,8,0:0:0:0:
203,140,71415,1,0,0:0:0:0:
192,105,71498,1,0,0:0:0:0:
230,169,71581,1,0,0:0:0:0:
251,199,71914,1,8,0:0:0:0:
187,145,72081,1,8,0:0:0:0:
202,168,72164,1,8,0:0:0:0:
192,105,72247,1,8,0:0:0:0:
244,174,72414,1,0,0:0:0:0:
251,176,72497,1,0,0:0:0:0:
193,112,72747,1,8,0:0:0:0:
229,273,72830,1,8,0:0:0:0:
229,273,72914,1,8,0:0:0:0:
184,192,73080,1,8,0:0:0:0:
207,143,73580,1,0,0:0:0:0:
201,125,73663,1,0,0:0:0:0:
207,143,73746,1,0,0:0:0:0:
207,143,73913,1,8,0:0:0:0:
191,119,74079,1,0,0:0:0:0:
181,109,74163,1,0,0:0:0:0:
194,137,74246,5,0,0:0:0:0:
210,117,74579,1,8,0:0:0:0:
181,122,74912,1,8,0:0:0:0:
193,155,74995,1,8,0:0:0:0:
190,120,75079,1,8,0:0:0:0:
195,151,75245,1,0,0:0:0:0:
199,113,75412,1,0,0:0:0:0:
199,113,75495,1,0,0:0:0:0:
181,88,75578,1,0,0:0:0:0:
187,98,75911,1,8,0:0:0:0:
187,98,75995,1,8,0:0:0:0:
188,99,76078,1,8,0:0:0:0:
266,256,76244,1,0,0:0:0:0:
266,256,76328,1,0,0:0:0:0:
201,123,76411,1,0,0:0:0:0:
181,88,76577,1,8,0:0:0:0:
199,142,76744,1,0,0:0:0:0:
266,262,76827,1,0,0:0:0:0:
206,145,76910,1,0,0:0:0:0:
197,96,77243,1,8,0:0:0:0:
197,96,77327,1,8,0:0:0:0:
197,96,77410,1,8,0:0:0:0:
215,101,77577,1,0,0:0:0:0:
226,191,77743,1,8,0:0:0:0:
225,191,77910,1,0,0:0:0:0:
200,114,78076,1,0,0:0:0:0:
200,102,78243,1,8,0:0:0:0:
191,127,78409,1,8,0:0:0:0:
208,145,78909,1,8,0:0:0:0:
176,136,79075,1,8,0:0:0:0:
219,217,79242,1,0,0:0:0:0:
217,203,79325,1,0,0:0:0:0:
266,180,79408,1,0,0:0:0:0:
271,193,79575,1,8,0:0:0:0:
271,193,79741,1,0,0:0:0:0:
299,238,79908,1,8,0:0:0:0:
218,192,80241,1,8,0:0:0:0:
196,209,80407,1,8,0:0:0:0:
193,123,80491,1,8,0:0:0:0:
214,151,80741,1,0,0:0:0:0:
214,151,80907,1,8,0:0:0:0:
192,105,81074,1,8,0:0:0:0:
224,146,81240,1,0,0:0:0:0:
224,145,81323,1,0,0:0:0:0:
190,109,81407,1,0,0:0:0:0:
210,179,81573,1,0,0:0:0:0:
215,118,81740,1,0,0:0:0:0:
204,147,81906,1,8,0:0:0:0:
203,140,82073,1,0,0:0:0:0:
192,105,82156,1,0,0:0:0:0:
230,169,82239,1,0,0:0:0:0:
251,199,82572,1,8,0:0:0:0:
187,145,82739,1,8,0:0:0:0:
202,168,82822,1,8,0:0:0:0:
192,105,82905,1,8,0:0:0:0:
244,174,83072,5,0,0:0:0:0:
251,176,83155,1,0,0:0:0:0:
327,268,83238,1,0,0:0:0:0:
208,200,83571,1,8,0:0:0:0:
218,185,83738,1,0,0:0:0:0:
191,137,83904,1,0,0:0:0:0:
281,146,84237,1,4,0:1:0:0:
233,218,94895,5,12,0:1:0:0:
238,220,95228,1,12,0:1:0:0:
236,222,100224,5,0,0:0:0:0:
236,222,101556,1,8,0:0:0:0:
235,222,102889,1,8,0:0:0:0:
213,156,105553,5,0,0:0:0:0:
207,151,105636,1,0,0:0:0:0:
233,186,105719,1,0,0:0:0:0:
190,113,105886,1,0,0:0:0:0:
204,161,106052,1,8,0:0:0:0:
208,152,106219,1,0,0:0:0:0:
212,162,106552,1,0,0:0:0:0:
213,163,106718,1,8,0:0:0:0:
217,137,106885,1,8,0:0:0:0:
217,137,106968,1,8,0:0:0:0:
223,142,107051,1,8,0:0:0:0:
197,185,107218,1,0,0:0:0:0:
215,118,107384,1,0,0:0:0:0:
180,92,107468,1,0,0:0:0:0:
201,133,107551,1,0,0:0:0:0:
230,186,108217,1,8,0:0:0:0:
230,186,108300,1,8,0:0:0:0:
240,189,108383,1,8,0:0:0:0:
213,134,108550,1,0,0:0:0:0:
230,149,108717,1,8,0:0:0:0:
192,142,108883,1,0,0:0:0:0:
204,161,109216,1,0,0:0:0:0:
205,160,109383,1,8,0:0:0:0:
228,218,109549,1,0,0:0:0:0:
191,148,109632,1,0,0:0:0:0:
211,157,109716,1,0,0:0:0:0:
177,142,109882,1,0,0:0:0:0:
187,140,110049,1,0,0:0:0:0:
208,157,110215,1,8,0:0:0:0:
199,105,110299,1,8,0:0:0:0:
199,149,110382,1,8,0:0:0:0:
181,124,110548,1,8,0:0:0:0:
203,144,110715,1,8,0:0:0:0:
213,156,110881,5,0,0:0:0:0:
207,151,110964,1,0,0:0:0:0:
233,186,111047,1,0,0:0:0:0:
190,113,111214,1,0,0:0:0:0:
204,161,111380,1,8,0:0:0:0:
208,152,111547,1,0,0:0:0:0:
212,162,111880,1,0,0:0:0:0:
213,163,112048,1,8,0:0:0:0:
217,137,112214,1,8,0:0:0:0:
217,137,112297,1,8,0:0:0:0:
223,142,112381,1,8,0:0:0:0:
197,185,112547,1,0,0:0:0:0:
215,118,112714,1,0,0:0:0:0:
180,92,112797,1,0,0:0:0:0:
201,133,112880,1,0,0:0:0:0:
202,142,113546,1,0,0:0:0:0:
212,143,113630,1,0,0:0:0:0:
221,164,113713,1,0,0:0:0:0:
213,134,113879,1,0,0:0:0:0:
230,149,114046,1,8,0:0:0:0:
192,142,114212,1,0,0:0:0:0:
204,161,114546,1,0,0:0:0:0:
205,160,114712,1,8,0:0:0:0:
228,218,114879,1,0,0:0:0:0:
191,148,114962,1,0,0:0:0:0:
211,157,115045,1,0,0:0:0:0:
177,142,115212,1,0,0:0:0:0:
189,124,115378,1,8,0:0:0:0:
240,213,115545,1,0,0:0:0:0:
240,213,115628,1,0,0:0:0:0:
192,116,115711,1,0,0:0:0:0:
181,124,115878,1,8,0:0:0:0:
278,165,116211,1,4,0:0:0:0:
212,141,116877,5,4,0:0:0:0:
219,138,117209,1,8,0:0:0:0:
217,142,117293,1,8,0:0:0:0:
227,169,117376,1,8,0:0:0:0:
213,156,117543,5,0,0:0:0:0:
207,151,117626,1,0,0:0:0:0:
233,186,117709,1,0,0:0:0:0:
190,113,117876,1,0,0:0:0:0:
204,161,118042,1,8,0:0:0:0:
208,152,118209,1,0,0:0:0:0:
217,137,118875,1,8,0:0:0:0:
217,137,118958,1,8,0:0:0:0:
223,142,119041,1,8,0:0:0:0:
197,185,119208,1,0,0:0:0:0:
215,118,119374,1,0,0:0:0:0:
180,92,119458,1,0,0:0:0:0:
201,133,119541,1,0,0:0:0:0:
212,154,119874,1,8,0:0:0:0:
224,155,120041,1,0,0:0:0:0:
230,186,120207,1,8,0:0:0:0:
230,186,120290,1,8,0:0:0:0:
240,189,120373,1,8,0:0:0:0:
213,134,120540,1,0,0:0:0:0:
230,149,120707,1,8,0:0:0:0:
192,142,120873,1,0,0:0:0:0:
204,161,121206,1,0,0:0:0:0:
205,160,121373,1,8,0:0:0:0:
228,218,121539,1,0,0:0:0:0:
191,148,121622,1,0,0:0:0:0:
211,157,121706,1,0,0:0:0:0:
177,142,121872,1,0,0:0:0:0:
187,140,122039,1,0,0:0:0:0:
208,157,122205,1,8,0:0:0:0:
199,105,122289,1,8,0:0:0:0:
199,149,122372,1,8,0:0:0:0:
213,156,122872,5,0,0:0:0:0:
207,151,122955,1,0,0:0:0:0:
233,186,123038,1,0,0:0:0:0:
190,113,123205,1,0,0:0:0:0:
204,161,123371,1,8,0:0:0:0:
208,152,123538,1,0,0:0:0:0:
217,137,124204,1,8,0:0:0:0:
217,137,124287,1,8,0:0:0:0:
223,142,124370,1,8,0:0:0:0:
197,185,124537,1,0,0:0:0:0:
215,118,124703,1,0,0:0:0:0:
180,92,124787,1,0,0:0:0:0:
201,133,124870,1,0,0:0:0:0:
201,109,125203,1,8,0:0:0:0:
238,151,125370,1,8,0:0:0:0:
230,186,125536,1,8,0:0:0:0:
230,186,125619,1,8,0:0:0:0:
240,189,125702,1,8,0:0:0:0:
213,134,125869,1,0,0:0:0:0:
230,149,126036,1,8,0:0:0:0:
192,142,126202,1,0,0:0:0:0:
204,161,126535,1,0,0:0:0:0:
205,160,126702,1,8,0:0:0:0:
228,218,126868,1,0,0:0:0:0:
191,148,126951,1,0,0:0:0:0:
211,157,127035,5,0,0:0:0:0:
177,142,127201,1,0,0:0:0:0:
187,140,127368,1,0,0:0:0:0:
208,157,127534,1,8,0:0:0:0:
199,105,127618,1,8,0:0:0:0:
199,149,127701,1,8,0:0:0:0:
213,156,128201,5,0,0:0:0:0:
207,151,128284,1,0,0:0:0:0:
233,186,128367,1,0,0:0:0:0:
190,113,128534,1,0,0:0:0:0:
204,161,128700,1,8,0:0:0:0:
208,152,128867,1,0,0:0:0:0:
217,137,129533,1,8,0:0:0:0:
217,137,129616,1,8,0:0:0:0:
223,142,129699,1,8,0:0:0:0:
197,185,129866,1,0,0:0:0:0:
215,118,130032,1,0,0:0:0:0:
180,92,130116,1,0,0:0:0:0:
201,133,130199,1,0,0:0:0:0:
203,126,130532,1,8,0:0:0:0:
224,155,130699,1,0,0:0:0:0:
230,186,130865,1,8,0:0:0:0:
230,186,130948,1,8,0:0:0:0:
240,189,131031,1,8,0:0:0:0:
213,134,131198,1,0,0:0:0:0:
230,149,131365,1,8,0:0:0:0:
192,142,131531,1,0,0:0:0:0:
204,161,131864,1,0,0:0:0:0:
205,160,132031,1,8,0:0:0:0:
228,218,132197,1,0,0:0:0:0:
191,148,132280,1,0,0:0:0:0:
211,157,132364,1,0,0:0:0:0:
177,142,132530,1,0,0:0:0:0:
187,140,132697,1,0,0:0:0:0:
208,157,132863,1,8,0:0:0:0:
199,105,132947,1,8,0:0:0:0:
199,149,133030,1,8,0:0:0:0:
213,156,133530,5,0,0:0:0:0:
207,151,133613,1,0,0:0:0:0:
233,186,133696,1,0,0:0:0:0:
190,113,133863,1,0,0:0:0:0:
204,161,134029,1,8,0:0:0:0:
208,152,134196,1,0,0:0:0:0:
217,137,134862,1,8,0:0:0:0:
217,137,134945,1,8,0:0:0:0:
223,142,135028,1,8,0:0:0:0:
197,185,135195,1,0,0:0:0:0:
215,118,135361,1,0,0:0:0:0:
180,92,135445,1,0,0:0:0:0:
201,133,135528,1,0,0:0:0:0:
215,147,135861,1,8,0:0:0:0:
186,114,136028,1,8,0:0:0:0:
230,186,136194,1,8,0:0:0:0:
230,186,136277,1,8,0:0:0:0:
240,189,136360,1,8,0:0:0:0:
213,134,136527,1,0,0:0:0:0:
230,149,136694,1,8,0:0:0:0:
206,142,136860,1,8,0:0:0:0:
204,161,137193,1,0,0:0:0:0:
205,160,137360,1,8,0:0:0:0:
211,125,137526,1,0,0:0:0:0:
211,126,137610,1,0,0:0:0:0:
211,126,137693,1,0,0:0:0:0:
219,122,137859,1,8,0:0:0:0:
187,140,138026,1,0,0:0:0:0:
218,120,138192,1,8,0:0:0:0:
199,105,138276,1,8,0:0:0:0:
199,149,138359,1,8,0:0:0:0:
220,198,138526,1,8,0:0:0:0:
237,113,138859,5,4,0:0:0:0:
