osu file format v14

[General]
AudioFilename: audio.mp3
AudioLeadIn: 0
PreviewTime: 9632
Countdown: 0
SampleSet: Normal
StackLeniency: 0.7
Mode: 3
LetterboxInBreaks: 0
SpecialStyle: 0
WidescreenStoryboard: 0

[Editor]
Bookmarks: 624,5424,7824,10224,19824,29424,34224,39024,48624,58224,63024,65424,67824,77424,87024
DistanceSpacing: 0.9
BeatDivisor: 4
GridSize: 4
TimelineZoom: 3

[Metadata]
Title:THOROUGH PINATA DICKING AMATEUR XXX
TitleUnicode:THOROUGH PIÑATA DICKING AMATEUR XXX
Artist:The Quick Brown Fox
ArtistUnicode:The Quick Brown Fox
Creator:JustinNF
Version:PAIN
Source:BRUTAL RHYTHM RIDER
Tags:SPEEDCORE YTM
BeatmapID:1783309
BeatmapSetID:853254

[Difficulty]
HPDrainRate:8
CircleSize:4
OverallDifficulty:8
ApproachRate:5
SliderMultiplier:1.4
SliderTickRate:1

[Events]
//Background and Video events
0,0,"The Quick Brown Fox - BRUTAL RHYTHM RIDER - wallpaper.jpg",0,0
//Break Periods
//Storyboard Layer 0 (Background)
//Storyboard Layer 1 (Fail)
//Storyboard Layer 2 (Pass)
//Storyboard Layer 3 (Foreground)
//Storyboard Sound Samples

[TimingPoints]
32,150,4,1,0,26,1,0
10232,-100,4,1,0,26,0,1
29432,-100,4,1,0,26,0,0
67832,-100,4,1,0,26,0,1
86732,-100,4,1,0,26,0,0

[HitObjects]
448,192,32,128,0,632:0:0:0:0:
64,192,632,1,0,0:0:0:0:
192,192,632,1,0,0:0:0:0:
320,192,632,1,0,0:0:0:0:
448,192,707,1,0,0:0:0:0:
320,192,782,1,0,0:0:0:0:
192,192,857,1,0,0:0:0:0:
64,192,932,1,0,0:0:0:0:
320,192,1082,1,0,0:0:0:0:
448,192,1157,1,0,0:0:0:0:
192,192,1232,1,0,0:0:0:0:
320,192,1382,1,0,0:0:0:0:
64,192,1457,1,0,0:0:0:0:
192,192,1607,1,0,0:0:0:0:
448,192,1682,1,0,0:0:0:0:
64,192,1757,1,0,0:0:0:0:
320,192,1832,1,0,0:0:0:0:
448,192,1907,1,0,0:0:0:0:
192,192,1982,1,0,0:0:0:0:
320,192,2057,1,0,0:0:0:0:
64,192,2132,1,0,0:0:0:0:
192,192,2282,1,0,0:0:0:0:
320,192,2357,1,0,0:0:0:0:
448,192,2432,1,0,0:0:0:0:
64,192,2507,1,0,0:0:0:0:
448,192,2582,1,0,0:0:0:0:
320,192,2657,1,0,0:0:0:0:
192,192,2807,1,0,0:0:0:0:
64,192,2882,1,0,0:0:0:0:
448,192,2957,1,0,0:0:0:0:
192,192,3032,1,0,0:0:0:0:
320,192,3107,1,0,0:0:0:0:
448,192,3182,1,0,0:0:0:0:
64,192,3257,1,0,0:0:0:0:
192,192,3332,1,0,0:0:0:0:
320,192,3482,1,0,0:0:0:0:
448,192,3557,1,0,0:0:0:0:
320,192,3632,1,0,0:0:0:0:
192,192,3707,1,0,0:0:0:0:
64,192,3782,1,0,0:0:0:0:
320,192,3857,1,0,0:0:0:0:
192,192,4007,1,0,0:0:0:0:
448,192,4082,1,0,0:0:0:0:
64,192,4157,1,0,0:0:0:0:
320,192,4232,1,0,0:0:0:0:
192,192,4307,1,0,0:0:0:0:
448,192,4382,1,0,0:0:0:0:
64,192,4532,1,0,0:0:0:0:
320,192,4682,1,0,0:0:0:0:
448,192,4757,1,0,0:0:0:0:
64,192,4832,1,0,0:0:0:0:
448,192,4982,1,0,0:0:0:0:
192,192,5057,1,0,0:0:0:0:
64,192,5207,1,0,0:0:0:0:
320,192,5282,1,0,0:0:0:0:
448,192,5357,1,0,0:0:0:0:
64,192,5432,1,0,0:0:0:0:
192,192,5432,1,0,0:0:0:0:
320,192,5432,1,0,0:0:0:0:
448,192,5507,1,0,0:0:0:0:
64,192,5582,1,0,0:0:0:0:
192,192,5657,1,0,0:0:0:0:
448,192,5732,1,0,0:0:0:0:
320,192,5882,1,0,0:0:0:0:
64,192,5957,1,0,0:0:0:0:
192,192,6032,1,0,0:0:0:0:
448,192,6182,1,0,0:0:0:0:
320,192,6257,1,0,0:0:0:0:
64,192,6407,1,0,0:0:0:0:
192,192,6444,1,0,0:0:0:0:
448,192,6482,1,0,0:0:0:0:
320,192,6519,1,0,0:0:0:0:
192,192,6632,1,0,0:0:0:0:
448,192,6632,1,0,0:0:0:0:
64,192,6632,1,0,0:0:0:0:
320,192,6707,1,0,0:0:0:0:
192,192,6782,1,0,0:0:0:0:
448,192,6857,1,0,0:0:0:0:
64,192,6932,1,0,0:0:0:0:
192,192,7082,1,0,0:0:0:0:
448,192,7157,1,0,0:0:0:0:
320,192,7232,1,0,0:0:0:0:
64,192,7382,1,0,0:0:0:0:
448,192,7457,1,0,0:0:0:0:
192,192,7607,1,0,0:0:0:0:
320,192,7644,1,0,0:0:0:0:
448,192,7682,1,0,0:0:0:0:
64,192,7719,1,0,0:0:0:0:
192,192,7832,1,0,0:0:0:0:
320,192,7832,1,0,0:0:0:0:
448,192,7832,1,0,0:0:0:0:
64,192,7907,1,0,0:0:0:0:
192,192,7982,1,0,0:0:0:0:
448,192,8057,1,0,0:0:0:0:
64,192,8132,1,0,0:0:0:0:
320,192,8282,1,0,0:0:0:0:
192,192,8357,1,0,0:0:0:0:
448,192,8432,1,0,0:0:0:0:
320,192,8432,1,0,0:0:0:0:
64,192,8432,1,0,0:0:0:0:
192,192,8582,1,0,0:0:0:0:
448,192,8657,1,0,0:0:0:0:
64,192,8807,1,0,0:0:0:0:
192,192,8844,1,0,0:0:0:0:
320,192,8882,1,0,0:0:0:0:
448,192,8919,1,0,0:0:0:0:
320,192,9032,1,0,0:0:0:0:
192,192,9032,1,0,0:0:0:0:
64,192,9032,1,0,0:0:0:0:
448,192,9107,1,0,0:0:0:0:
64,192,9182,1,0,0:0:0:0:
320,192,9257,1,0,0:0:0:0:
192,192,9332,1,0,0:0:0:0:
448,192,9332,1,0,0:0:0:0:
64,192,9332,1,0,0:0:0:0:
320,192,9482,1,0,0:0:0:0:
192,192,9557,1,0,0:0:0:0:
64,192,9632,1,0,0:0:0:0:
448,192,9632,1,0,0:0:0:0:
320,192,9707,1,0,0:0:0:0:
192,192,9782,1,0,0:0:0:0:
64,192,9857,1,0,0:0:0:0:
448,192,9932,1,0,0:0:0:0:
320,192,9969,1,0,0:0:0:0:
192,192,10007,1,0,0:0:0:0:
64,192,10044,1,0,0:0:0:0:
448,192,10082,1,0,0:0:0:0:
320,192,10119,1,0,0:0:0:0:
192,192,10157,1,0,0:0:0:0:
64,192,10194,1,0,0:0:0:0:
320,192,10232,1,0,0:0:0:0:
448,192,10232,1,0,0:0:0:0:
192,192,10307,1,0,0:0:0:0:
64,192,10382,1,0,0:0:0:0:
448,192,10382,1,0,0:0:0:0:
320,192,10457,1,0,0:0:0:0:
64,192,10532,1,0,0:0:0:0:
192,192,10532,1,0,0:0:0:0:
448,192,10607,1,0,0:0:0:0:
320,192,10682,1,0,0:0:0:0:
192,192,10682,1,0,0:0:0:0:
64,192,10757,1,0,0:0:0:0:
320,192,10832,1,0,0:0:0:0:
448,192,10832,1,0,0:0:0:0:
192,192,10907,1,0,0:0:0:0:
448,192,10982,1,0,0:0:0:0:
64,192,10982,1,0,0:0:0:0:
320,192,11057,1,0,0:0:0:0:
192,192,11132,1,0,0:0:0:0:
64,192,11132,1,0,0:0:0:0:
448,192,11207,1,0,0:0:0:0:
320,192,11282,1,0,0:0:0:0:
192,192,11282,1,0,0:0:0:0:
448,192,11357,1,0,0:0:0:0:
64,192,11432,1,0,0:0:0:0:
320,192,11432,1,0,0:0:0:0:
192,192,11507,1,0,0:0:0:0:
448,192,11582,1,0,0:0:0:0:
64,192,11582,1,0,0:0:0:0:
320,192,11657,1,0,0:0:0:0:
192,192,11732,1,0,0:0:0:0:
448,192,11732,1,0,0:0:0:0:
64,192,11807,1,0,0:0:0:0:
192,192,11882,1,0,0:0:0:0:
320,192,11882,1,0,0:0:0:0:
448,192,11957,1,0,0:0:0:0:
320,192,12032,1,0,0:0:0:0:
64,192,12032,1,0,0:0:0:0:
192,192,12107,1,0,0:0:0:0:
448,192,12182,1,0,0:0:0:0:
64,192,12182,1,0,0:0:0:0:
320,192,12257,1,0,0:0:0:0:
192,192,12332,1,0,0:0:0:0:
448,192,12332,1,0,0:0:0:0:
320,192,12407,1,0,0:0:0:0:
64,192,12482,1,0,0:0:0:0:
192,192,12482,1,0,0:0:0:0:
448,192,12519,1,0,0:0:0:0:
320,192,12557,1,0,0:0:0:0:
192,192,12594,1,0,0:0:0:0:
64,192,12632,1,0,0:0:0:0:
448,192,12632,1,0,0:0:0:0:
320,192,12707,1,0,0:0:0:0:
64,192,12782,1,0,0:0:0:0:
192,192,12782,1,0,0:0:0:0:
448,192,12857,1,0,0:0:0:0:
320,192,12932,1,0,0:0:0:0:
192,192,12932,1,0,0:0:0:0:
64,192,13007,1,0,0:0:0:0:
448,192,13082,1,0,0:0:0:0:
192,192,13082,1,0,0:0:0:0:
320,192,13157,1,0,0:0:0:0:
64,192,13232,1,0,0:0:0:0:
448,192,13232,1,0,0:0:0:0:
192,192,13307,1,0,0:0:0:0:
320,192,13382,1,0,0:0:0:0:
64,192,13382,1,0,0:0:0:0:
192,192,13457,1,0,0:0:0:0:
320,192,13532,1,0,0:0:0:0:
448,192,13532,1,0,0:0:0:0:
64,192,13607,1,0,0:0:0:0:
192,192,13682,1,0,0:0:0:0:
448,192,13682,1,0,0:0:0:0:
320,192,13757,1,0,0:0:0:0:
192,192,13832,1,0,0:0:0:0:
64,192,13832,1,0,0:0:0:0:
448,192,13907,1,0,0:0:0:0:
320,192,13982,1,0,0:0:0:0:
64,192,13982,1,0,0:0:0:0:
192,192,14057,1,0,0:0:0:0:
320,192,14132,1,0,0:0:0:0:
448,192,14132,1,0,0:0:0:0:
64,192,14207,1,0,0:0:0:0:
192,192,14282,1,0,0:0:0:0:
448,192,14282,1,0,0:0:0:0:
320,192,14357,1,0,0:0:0:0:
64,192,14432,1,0,0:0:0:0:
448,192,14432,1,0,0:0:0:0:
192,192,14507,1,0,0:0:0:0:
64,192,14582,1,0,0:0:0:0:
320,192,14582,1,0,0:0:0:0:
448,192,14657,1,0,0:0:0:0:
320,192,14732,1,0,0:0:0:0:
192,192,14732,1,0,0:0:0:0:
64,192,14807,1,0,0:0:0:0:
448,192,14807,1,0,0:0:0:0:
320,192,14882,1,0,0:0:0:0:
192,192,14882,1,0,0:0:0:0:
64,192,14957,1,0,0:0:0:0:
448,192,14957,1,0,0:0:0:0:
192,192,15032,1,0,0:0:0:0:
320,192,15032,1,0,0:0:0:0:
64,192,15107,1,0,0:0:0:0:
192,192,15182,1,0,0:0:0:0:
448,192,15182,1,0,0:0:0:0:
320,192,15257,1,0,0:0:0:0:
448,192,15332,1,0,0:0:0:0:
64,192,15332,1,0,0:0:0:0:
192,192,15407,1,0,0:0:0:0:
320,192,15482,1,0,0:0:0:0:
64,192,15482,1,0,0:0:0:0:
448,192,15557,1,0,0:0:0:0:
192,192,15632,1,0,0:0:0:0:
64,192,15632,1,0,0:0:0:0:
320,192,15707,1,0,0:0:0:0:
192,192,15782,1,0,0:0:0:0:
448,192,15782,1,0,0:0:0:0:
64,192,15857,1,0,0:0:0:0:
320,192,15932,1,0,0:0:0:0:
192,192,15932,1,0,0:0:0:0:
448,192,16007,1,0,0:0:0:0:
320,192,16082,1,0,0:0:0:0:
64,192,16082,1,0,0:0:0:0:
192,192,16157,1,0,0:0:0:0:
64,192,16232,1,0,0:0:0:0:
448,192,16232,1,0,0:0:0:0:
320,192,16307,1,0,0:0:0:0:
192,192,16382,1,0,0:0:0:0:
448,192,16382,1,0,0:0:0:0:
64,192,16457,1,0,0:0:0:0:
192,192,16532,1,0,0:0:0:0:
320,192,16532,1,0,0:0:0:0:
448,192,16607,1,0,0:0:0:0:
320,192,16682,1,0,0:0:0:0:
64,192,16682,1,0,0:0:0:0:
192,192,16757,1,0,0:0:0:0:
64,192,16832,1,0,0:0:0:0:
448,192,16832,1,0,0:0:0:0:
320,192,16907,1,0,0:0:0:0:
192,192,16982,1,0,0:0:0:0:
448,192,16982,1,0,0:0:0:0:
64,192,17057,1,0,0:0:0:0:
320,192,17132,1,0,0:0:0:0:
192,192,17132,1,0,0:0:0:0:
448,192,17169,1,0,0:0:0:0:
64,192,17207,1,0,0:0:0:0:
192,192,17244,1,0,0:0:0:0:
320,192,17282,1,0,0:0:0:0:
448,192,17319,1,0,0:0:0:0:
64,192,17357,1,0,0:0:0:0:
192,192,17394,1,0,0:0:0:0:
320,192,17432,1,0,0:0:0:0:
448,192,17432,1,0,0:0:0:0:
64,192,17507,1,0,0:0:0:0:
192,192,17582,1,0,0:0:0:0:
320,192,17582,1,0,0:0:0:0:
448,192,17657,1,0,0:0:0:0:
320,192,17732,1,0,0:0:0:0:
64,192,17732,1,0,0:0:0:0:
192,192,17807,1,0,0:0:0:0:
64,192,17882,1,0,0:0:0:0:
448,192,17882,1,0,0:0:0:0:
320,192,17957,1,0,0:0:0:0:
192,192,18032,1,0,0:0:0:0:
448,192,18032,1,0,0:0:0:0:
64,192,18107,1,0,0:0:0:0:
320,192,18182,1,0,0:0:0:0:
448,192,18182,1,0,0:0:0:0:
192,192,18257,1,0,0:0:0:0:
320,192,18332,1,0,0:0:0:0:
64,192,18332,1,0,0:0:0:0:
448,192,18407,1,0,0:0:0:0:
192,192,18482,1,0,0:0:0:0:
64,192,18482,1,0,0:0:0:0:
320,192,18557,1,0,0:0:0:0:
192,192,18632,1,0,0:0:0:0:
448,192,18632,1,0,0:0:0:0:
64,192,18707,1,0,0:0:0:0:
320,192,18782,1,0,0:0:0:0:
192,192,18782,1,0,0:0:0:0:
448,192,18857,1,0,0:0:0:0:
320,192,18932,1,0,0:0:0:0:
64,192,18932,1,0,0:0:0:0:
192,192,19007,1,0,0:0:0:0:
64,192,19082,1,0,0:0:0:0:
448,192,19082,1,0,0:0:0:0:
320,192,19157,1,0,0:0:0:0:
192,192,19232,1,0,0:0:0:0:
448,192,19232,1,0,0:0:0:0:
64,192,19307,1,0,0:0:0:0:
192,192,19382,1,0,0:0:0:0:
320,192,19382,1,0,0:0:0:0:
448,192,19457,1,0,0:0:0:0:
192,192,19532,1,0,0:0:0:0:
64,192,19532,1,0,0:0:0:0:
448,192,19607,1,0,0:0:0:0:
320,192,19607,1,0,0:0:0:0:
64,192,19682,1,0,0:0:0:0:
192,192,19682,1,0,0:0:0:0:
192,192,19832,1,0,0:0:0:0:
320,192,19832,1,0,0:0:0:0:
448,192,19832,1,0,0:0:0:0:
64,192,19907,1,0,0:0:0:0:
448,192,19982,1,0,0:0:0:0:
320,192,19982,1,0,0:0:0:0:
192,192,20057,1,0,0:0:0:0:
64,192,20132,1,0,0:0:0:0:
320,192,20132,1,0,0:0:0:0:
448,192,20207,1,0,0:0:0:0:
192,192,20282,1,0,0:0:0:0:
64,192,20282,1,0,0:0:0:0:
448,192,20357,1,0,0:0:0:0:
320,192,20432,1,0,0:0:0:0:
192,192,20432,1,0,0:0:0:0:
64,192,20507,1,0,0:0:0:0:
320,192,20582,1,0,0:0:0:0:
448,192,20582,1,0,0:0:0:0:
192,192,20657,1,0,0:0:0:0:
64,192,20732,1,0,0:0:0:0:
448,192,20732,1,0,0:0:0:0:
320,192,20807,1,0,0:0:0:0:
192,192,20882,1,0,0:0:0:0:
64,192,20882,1,0,0:0:0:0:
448,192,20957,1,0,0:0:0:0:
320,192,21032,1,0,0:0:0:0:
64,192,21032,1,0,0:0:0:0:
192,192,21107,1,0,0:0:0:0:
320,192,21182,1,0,0:0:0:0:
448,192,21182,1,0,0:0:0:0:
64,192,21257,1,0,0:0:0:0:
192,192,21332,1,0,0:0:0:0:
448,192,21332,1,0,0:0:0:0:
320,192,21407,1,0,0:0:0:0:
448,192,21482,1,0,0:0:0:0:
64,192,21482,1,0,0:0:0:0:
192,192,21557,1,0,0:0:0:0:
64,192,21632,1,0,0:0:0:0:
320,192,21632,1,0,0:0:0:0:
448,192,21707,1,0,0:0:0:0:
320,192,21782,1,0,0:0:0:0:
192,192,21782,1,0,0:0:0:0:
64,192,21857,1,0,0:0:0:0:
192,192,21932,1,0,0:0:0:0:
448,192,21932,1,0,0:0:0:0:
320,192,22007,1,0,0:0:0:0:
64,192,22082,1,0,0:0:0:0:
192,192,22082,1,0,0:0:0:0:
448,192,22119,1,0,0:0:0:0:
320,192,22157,1,0,0:0:0:0:
192,192,22194,1,0,0:0:0:0:
448,192,22232,1,0,0:0:0:0:
64,192,22232,1,0,0:0:0:0:
320,192,22307,1,0,0:0:0:0:
192,192,22382,1,0,0:0:0:0:
64,192,22382,1,0,0:0:0:0:
448,192,22457,1,0,0:0:0:0:
320,192,22532,1,0,0:0:0:0:
192,192,22532,1,0,0:0:0:0:
64,192,22607,1,0,0:0:0:0:
320,192,22682,1,0,0:0:0:0:
448,192,22682,1,0,0:0:0:0:
192,192,22757,1,0,0:0:0:0:
64,192,22832,1,0,0:0:0:0:
448,192,22832,1,0,0:0:0:0:
320,192,22907,1,0,0:0:0:0:
192,192,22982,1,0,0:0:0:0:
64,192,22982,1,0,0:0:0:0:
448,192,23057,1,0,0:0:0:0:
320,192,23132,1,0,0:0:0:0:
192,192,23132,1,0,0:0:0:0:
64,192,23207,1,0,0:0:0:0:
192,192,23282,1,0,0:0:0:0:
448,192,23282,1,0,0:0:0:0:
320,192,23357,1,0,0:0:0:0:
448,192,23432,1,0,0:0:0:0:
64,192,23432,1,0,0:0:0:0:
192,192,23507,1,0,0:0:0:0:
64,192,23582,1,0,0:0:0:0:
320,192,23582,1,0,0:0:0:0:
448,192,23657,1,0,0:0:0:0:
192,192,23732,1,0,0:0:0:0:
320,192,23732,1,0,0:0:0:0:
64,192,23807,1,0,0:0:0:0:
192,192,23882,1,0,0:0:0:0:
448,192,23882,1,0,0:0:0:0:
320,192,23957,1,0,0:0:0:0:
64,192,24032,1,0,0:0:0:0:
448,192,24032,1,0,0:0:0:0:
192,192,24107,1,0,0:0:0:0:
64,192,24182,1,0,0:0:0:0:
320,192,24182,1,0,0:0:0:0:
448,192,24257,1,0,0:0:0:0:
192,192,24332,1,0,0:0:0:0:
64,192,24332,1,0,0:0:0:0:
320,192,24407,1,0,0:0:0:0:
448,192,24407,1,0,0:0:0:0:
192,192,24482,1,0,0:0:0:0:
64,192,24482,1,0,0:0:0:0:
320,192,24557,1,0,0:0:0:0:
448,192,24557,1,0,0:0:0:0:
192,192,24632,1,0,0:0:0:0:
64,192,24632,1,0,0:0:0:0:
448,192,24707,1,0,0:0:0:0:
320,192,24782,1,0,0:0:0:0:
192,192,24782,1,0,0:0:0:0:
64,192,24857,1,0,0:0:0:0:
320,192,24932,1,0,0:0:0:0:
448,192,24932,1,0,0:0:0:0:
192,192,25007,1,0,0:0:0:0:
64,192,25082,1,0,0:0:0:0:
448,192,25082,1,0,0:0:0:0:
320,192,25157,1,0,0:0:0:0:
192,192,25232,1,0,0:0:0:0:
448,192,25232,1,0,0:0:0:0:
64,192,25307,1,0,0:0:0:0:
320,192,25382,1,0,0:0:0:0:
192,192,25382,1,0,0:0:0:0:
448,192,25457,1,0,0:0:0:0:
320,192,25532,1,0,0:0:0:0:
64,192,25532,1,0,0:0:0:0:
192,192,25607,1,0,0:0:0:0:
64,192,25682,1,0,0:0:0:0:
448,192,25682,1,0,0:0:0:0:
320,192,25757,1,0,0:0:0:0:
192,192,25832,1,0,0:0:0:0:
448,192,25832,1,0,0:0:0:0:
64,192,25907,1,0,0:0:0:0:
320,192,25982,1,0,0:0:0:0:
192,192,25982,1,0,0:0:0:0:
448,192,26057,1,0,0:0:0:0:
320,192,26132,1,0,0:0:0:0:
64,192,26132,1,0,0:0:0:0:
192,192,26207,1,0,0:0:0:0:
448,192,26282,1,0,0:0:0:0:
64,192,26282,1,0,0:0:0:0:
320,192,26357,1,0,0:0:0:0:
192,192,26432,1,0,0:0:0:0:
448,192,26432,1,0,0:0:0:0:
64,192,26507,1,0,0:0:0:0:
192,192,26582,1,0,0:0:0:0:
320,192,26582,1,0,0:0:0:0:
448,192,26657,1,0,0:0:0:0:
320,192,26732,1,0,0:0:0:0:
64,192,26732,1,0,0:0:0:0:
192,192,26769,1,0,0:0:0:0:
320,192,26807,1,0,0:0:0:0:
448,192,26844,1,0,0:0:0:0:
64,192,26882,1,0,0:0:0:0:
192,192,26919,1,0,0:0:0:0:
320,192,26957,1,0,0:0:0:0:
448,192,26994,1,0,0:0:0:0:
192,192,27032,1,0,0:0:0:0:
64,192,27032,1,0,0:0:0:0:
320,192,27107,1,0,0:0:0:0:
448,192,27182,1,0,0:0:0:0:
64,192,27182,1,0,0:0:0:0:
320,192,27257,1,0,0:0:0:0:
192,192,27332,1,0,0:0:0:0:
448,192,27332,1,0,0:0:0:0:
64,192,27407,1,0,0:0:0:0:
192,192,27482,1,0,0:0:0:0:
320,192,27482,1,0,0:0:0:0:
448,192,27557,1,0,0:0:0:0:
320,192,27632,1,0,0:0:0:0:
64,192,27632,1,0,0:0:0:0:
192,192,27707,1,0,0:0:0:0:
448,192,27782,1,0,0:0:0:0:
64,192,27782,1,0,0:0:0:0:
320,192,27857,1,0,0:0:0:0:
192,192,27932,1,0,0:0:0:0:
448,192,27932,1,0,0:0:0:0:
64,192,28007,1,0,0:0:0:0:
192,192,28082,1,0,0:0:0:0:
320,192,28082,1,0,0:0:0:0:
448,192,28157,1,0,0:0:0:0:
320,192,28232,1,0,0:0:0:0:
64,192,28232,1,0,0:0:0:0:
192,192,28307,1,0,0:0:0:0:
64,192,28382,1,0,0:0:0:0:
448,192,28382,1,0,0:0:0:0:
320,192,28457,1,0,0:0:0:0:
192,192,28532,1,0,0:0:0:0:
448,192,28532,1,0,0:0:0:0:
64,192,28607,1,0,0:0:0:0:
192,192,28682,1,0,0:0:0:0:
320,192,28682,1,0,0:0:0:0:
448,192,28757,1,0,0:0:0:0:
320,192,28832,1,0,0:0:0:0:
64,192,28832,1,0,0:0:0:0:
192,192,28907,1,0,0:0:0:0:
448,192,28982,1,0,0:0:0:0:
64,192,28982,1,0,0:0:0:0:
192,192,29057,1,0,0:0:0:0:
320,192,29132,1,0,0:0:0:0:
448,192,29132,1,0,0:0:0:0:
192,192,29207,1,0,0:0:0:0:
64,192,29207,1,0,0:0:0:0:
320,192,29282,1,0,0:0:0:0:
448,192,29282,1,0,0:0:0:0:
192,192,29432,1,0,0:0:0:0:
448,192,29432,1,0,0:0:0:0:
64,192,29432,1,0,0:0:0:0:
320,192,29507,1,0,0:0:0:0:
64,192,29582,1,0,0:0:0:0:
448,192,29657,1,0,0:0:0:0:
192,192,29732,128,0,29882:0:0:0:0:
448,192,29882,128,0,30032:0:0:0:0:
64,192,30032,1,0,0:0:0:0:
320,192,30107,1,0,0:0:0:0:
192,192,30182,1,0,0:0:0:0:
64,192,30257,1,0,0:0:0:0:
448,192,30332,128,0,30482:0:0:0:0:
320,192,30482,128,0,30632:0:0:0:0:
64,192,30632,1,0,0:0:0:0:
192,192,30707,1,0,0:0:0:0:
448,192,30782,1,0,0:0:0:0:
192,192,30857,1,0,0:0:0:0:
320,192,30932,128,0,31082:0:0:0:0:
64,192,31082,128,0,31232:0:0:0:0:
192,192,31232,1,0,0:0:0:0:
448,192,31307,1,0,0:0:0:0:
320,192,31382,1,0,0:0:0:0:
192,192,31457,1,0,0:0:0:0:
448,192,31532,128,0,31682:0:0:0:0:
320,192,31682,128,0,31832:0:0:0:0:
192,192,31832,1,0,0:0:0:0:
64,192,31907,1,0,0:0:0:0:
448,192,31982,1,0,0:0:0:0:
320,192,32057,1,0,0:0:0:0:
192,192,32132,128,0,32282:0:0:0:0:
64,192,32282,128,0,32432:0:0:0:0:
448,192,32432,1,0,0:0:0:0:
192,192,32507,1,0,0:0:0:0:
320,192,32582,1,0,0:0:0:0:
64,192,32657,1,0,0:0:0:0:
448,192,32732,128,0,32882:0:0:0:0:
192,192,32882,128,0,33032:0:0:0:0:
64,192,33032,1,0,0:0:0:0:
320,192,33107,1,0,0:0:0:0:
448,192,33182,1,0,0:0:0:0:
192,192,33257,1,0,0:0:0:0:
320,192,33332,128,0,33482:0:0:0:0:
64,192,33482,128,0,33632:0:0:0:0:
192,192,33632,1,0,0:0:0:0:
448,192,33707,1,0,0:0:0:0:
320,192,33782,1,0,0:0:0:0:
64,192,33857,1,0,0:0:0:0:
448,192,33932,128,0,34082:0:0:0:0:
320,192,34082,128,0,34232:0:0:0:0:
64,192,34232,1,0,0:0:0:0:
192,192,34232,1,0,0:0:0:0:
448,192,34232,1,0,0:0:0:0:
320,192,34307,1,0,0:0:0:0:
64,192,34382,1,0,0:0:0:0:
448,192,34457,1,0,0:0:0:0:
320,192,34532,1,0,0:0:0:0:
192,192,34532,128,0,34682:0:0:0:0:
64,192,34682,128,0,34832:0:0:0:0:
448,192,34832,1,0,0:0:0:0:
320,192,34832,1,0,0:0:0:0:
192,192,34907,1,0,0:0:0:0:
448,192,34982,1,0,0:0:0:0:
320,192,35057,1,0,0:0:0:0:
192,192,35132,128,0,35282:0:0:0:0:
64,192,35132,1,0,0:0:0:0:
448,192,35282,128,0,35432:0:0:0:0:
320,192,35432,1,0,0:0:0:0:
64,192,35432,1,0,0:0:0:0:
192,192,35507,1,0,0:0:0:0:
320,192,35582,1,0,0:0:0:0:
64,192,35657,1,0,0:0:0:0:
448,192,35732,128,0,35882:0:0:0:0:
192,192,35732,1,0,0:0:0:0:
192,192,35882,128,0,36032:0:0:0:0:
64,192,36032,1,0,0:0:0:0:
320,192,36032,1,0,0:0:0:0:
448,192,36107,1,0,0:0:0:0:
192,192,36182,1,0,0:0:0:0:
320,192,36257,1,0,0:0:0:0:
64,192,36332,128,0,36482:0:0:0:0:
448,192,36332,1,0,0:0:0:0:
320,192,36482,128,0,36632:0:0:0:0:
192,192,36632,1,0,0:0:0:0:
448,192,36632,1,0,0:0:0:0:
64,192,36707,1,0,0:0:0:0:
448,192,36782,1,0,0:0:0:0:
192,192,36857,1,0,0:0:0:0:
320,192,36932,128,0,37082:0:0:0:0:
64,192,36932,1,0,0:0:0:0:
192,192,37082,128,0,37232:0:0:0:0:
448,192,37232,1,0,0:0:0:0:
64,192,37232,1,0,0:0:0:0:
320,192,37307,1,0,0:0:0:0:
192,192,37382,1,0,0:0:0:0:
64,192,37457,1,0,0:0:0:0:
448,192,37532,128,0,37682:0:0:0:0:
320,192,37532,1,0,0:0:0:0:
192,192,37682,128,0,37832:0:0:0:0:
64,192,37832,1,0,0:0:0:0:
320,192,37832,1,0,0:0:0:0:
448,192,37907,1,0,0:0:0:0:
192,192,37982,1,0,0:0:0:0:
320,192,38057,1,0,0:0:0:0:
448,192,38132,128,0,38282:0:0:0:0:
64,192,38132,1,0,0:0:0:0:
320,192,38282,128,0,38432:0:0:0:0:
192,192,38432,1,0,0:0:0:0:
448,192,38432,1,0,0:0:0:0:
64,192,38507,1,0,0:0:0:0:
448,192,38582,1,0,0:0:0:0:
320,192,38582,1,0,0:0:0:0:
192,192,38657,1,0,0:0:0:0:
64,192,38732,1,0,0:0:0:0:
320,192,38732,1,0,0:0:0:0:
192,192,38769,1,0,0:0:0:0:
320,192,38807,1,0,0:0:0:0:
448,192,38844,1,0,0:0:0:0:
64,192,38882,1,0,0:0:0:0:
192,192,38919,1,0,0:0:0:0:
320,192,38957,1,0,0:0:0:0:
448,192,38994,1,0,0:0:0:0:
192,192,39032,1,0,0:0:0:0:
64,192,39032,1,0,0:0:0:0:
320,192,39032,1,0,0:0:0:0:
448,192,39107,1,0,0:0:0:0:
64,192,39182,1,0,0:0:0:0:
320,192,39182,1,0,0:0:0:0:
192,192,39257,1,0,0:0:0:0:
64,192,39332,1,0,0:0:0:0:
448,192,39332,1,0,0:0:0:0:
192,192,39407,1,0,0:0:0:0:
320,192,39482,1,0,0:0:0:0:
448,192,39482,1,0,0:0:0:0:
64,192,39632,1,0,0:0:0:0:
192,192,39632,1,0,0:0:0:0:
448,192,39707,1,0,0:0:0:0:
64,192,39744,1,0,0:0:0:0:
320,192,39782,1,0,0:0:0:0:
192,192,39782,1,0,0:0:0:0:
64,192,39857,1,0,0:0:0:0:
320,192,39932,1,0,0:0:0:0:
448,192,39932,1,0,0:0:0:0:
192,192,39969,1,0,0:0:0:0:
64,192,40007,1,0,0:0:0:0:
448,192,40044,1,0,0:0:0:0:
320,192,40082,1,0,0:0:0:0:
192,192,40082,1,0,0:0:0:0:
64,192,40157,1,0,0:0:0:0:
192,192,40232,1,0,0:0:0:0:
448,192,40232,1,0,0:0:0:0:
448,192,40382,1,0,0:0:0:0:
64,192,40382,1,0,0:0:0:0:
320,192,40457,1,0,0:0:0:0:
64,192,40532,1,0,0:0:0:0:
192,192,40532,1,0,0:0:0:0:
448,192,40607,1,0,0:0:0:0:
320,192,40682,1,0,0:0:0:0:
192,192,40682,1,0,0:0:0:0:
64,192,40832,1,0,0:0:0:0:
448,192,40832,1,0,0:0:0:0:
192,192,40907,1,0,0:0:0:0:
320,192,40982,1,0,0:0:0:0:
64,192,40982,1,0,0:0:0:0:
448,192,41057,1,0,0:0:0:0:
192,192,41132,1,0,0:0:0:0:
320,192,41132,1,0,0:0:0:0:
64,192,41182,1,0,0:0:0:0:
320,192,41232,1,0,0:0:0:0:
448,192,41282,1,0,0:0:0:0:
192,192,41332,1,0,0:0:0:0:
320,192,41382,1,0,0:0:0:0:
64,192,41432,1,0,0:0:0:0:
448,192,41432,1,0,0:0:0:0:
320,192,41507,1,0,0:0:0:0:
192,192,41582,1,0,0:0:0:0:
448,192,41582,1,0,0:0:0:0:
64,192,41732,1,0,0:0:0:0:
320,192,41732,1,0,0:0:0:0:
192,192,41882,1,0,0:0:0:0:
64,192,41882,1,0,0:0:0:0:
192,192,42032,1,0,0:0:0:0:
448,192,42032,1,0,0:0:0:0:
320,192,42107,1,0,0:0:0:0:
64,192,42182,1,0,0:0:0:0:
192,192,42182,1,0,0:0:0:0:
448,192,42257,1,0,0:0:0:0:
320,192,42332,1,0,0:0:0:0:
64,192,42332,1,0,0:0:0:0:
192,192,42369,1,0,0:0:0:0:
320,192,42407,1,0,0:0:0:0:
448,192,42444,1,0,0:0:0:0:
64,192,42482,1,0,0:0:0:0:
192,192,42519,1,0,0:0:0:0:
320,192,42557,1,0,0:0:0:0:
448,192,42594,1,0,0:0:0:0:
64,192,42632,1,0,0:0:0:0:
192,192,42632,1,0,0:0:0:0:
320,192,42707,1,0,0:0:0:0:
448,192,42782,1,0,0:0:0:0:
64,192,42857,1,0,0:0:0:0:
192,192,42932,1,0,0:0:0:0:
320,192,42932,1,0,0:0:0:0:
448,192,43082,1,0,0:0:0:0:
192,192,43157,1,0,0:0:0:0:
448,192,43232,1,0,0:0:0:0:
320,192,43232,1,0,0:0:0:0:
64,192,43232,1,0,0:0:0:0:
192,192,43307,1,0,0:0:0:0:
448,192,43382,1,0,0:0:0:0:
320,192,43457,1,0,0:0:0:0:
448,192,43532,1,0,0:0:0:0:
320,192,43569,1,0,0:0:0:0:
192,192,43607,1,0,0:0:0:0:
64,192,43644,1,0,0:0:0:0:
448,192,43682,1,0,0:0:0:0:
320,192,43719,1,0,0:0:0:0:
192,192,43757,1,0,0:0:0:0:
64,192,43794,1,0,0:0:0:0:
320,192,43832,1,0,0:0:0:0:
448,192,43832,1,0,0:0:0:0:
192,192,43907,1,0,0:0:0:0:
64,192,43982,1,0,0:0:0:0:
448,192,43982,1,0,0:0:0:0:
192,192,44132,1,0,0:0:0:0:
448,192,44132,1,0,0:0:0:0:
320,192,44207,1,0,0:0:0:0:
192,192,44282,1,0,0:0:0:0:
64,192,44282,1,0,0:0:0:0:
448,192,44357,1,0,0:0:0:0:
320,192,44432,1,0,0:0:0:0:
64,192,44432,1,0,0:0:0:0:
320,192,44582,1,0,0:0:0:0:
192,192,44582,1,0,0:0:0:0:
448,192,44657,1,0,0:0:0:0:
64,192,44732,1,0,0:0:0:0:
320,192,44782,1,0,0:0:0:0:
448,192,44832,1,0,0:0:0:0:
192,192,44882,1,0,0:0:0:0:
320,192,44882,1,0,0:0:0:0:
448,192,44957,1,0,0:0:0:0:
320,192,45032,1,0,0:0:0:0:
64,192,45032,1,0,0:0:0:0:
192,192,45107,1,0,0:0:0:0:
448,192,45144,1,0,0:0:0:0:
320,192,45182,1,0,0:0:0:0:
64,192,45182,1,0,0:0:0:0:
448,192,45257,1,0,0:0:0:0:
64,192,45332,1,0,0:0:0:0:
192,192,45332,1,0,0:0:0:0:
320,192,45407,1,0,0:0:0:0:
192,192,45482,1,0,0:0:0:0:
448,192,45482,1,0,0:0:0:0:
320,192,45557,1,0,0:0:0:0:
64,192,45632,1,0,0:0:0:0:
448,192,45632,1,0,0:0:0:0:
192,192,45782,1,0,0:0:0:0:
320,192,45782,1,0,0:0:0:0:
448,192,45832,1,0,0:0:0:0:
64,192,45882,1,0,0:0:0:0:
320,192,45932,1,0,0:0:0:0:
448,192,45932,1,0,0:0:0:0:
192,192,46007,1,0,0:0:0:0:
64,192,46082,1,0,0:0:0:0:
320,192,46082,1,0,0:0:0:0:
448,192,46157,1,0,0:0:0:0:
192,192,46232,1,0,0:0:0:0:
64,192,46232,1,0,0:0:0:0:
448,192,46382,1,0,0:0:0:0:
192,192,46382,1,0,0:0:0:0:
320,192,46532,1,0,0:0:0:0:
448,192,46532,1,0,0:0:0:0:
192,192,46607,1,0,0:0:0:0:
64,192,46607,1,0,0:0:0:0:
64,192,46682,1,0,0:0:0:0:
320,192,46682,1,0,0:0:0:0:
192,192,46832,1,0,0:0:0:0:
448,192,46832,1,0,0:0:0:0:
320,192,46907,1,0,0:0:0:0:
64,192,46982,1,0,0:0:0:0:
448,192,46982,1,0,0:0:0:0:
192,192,47057,1,0,0:0:0:0:
320,192,47132,1,0,0:0:0:0:
448,192,47132,1,0,0:0:0:0:
192,192,47169,1,0,0:0:0:0:
64,192,47207,1,0,0:0:0:0:
448,192,47244,1,0,0:0:0:0:
320,192,47282,1,0,0:0:0:0:
192,192,47319,1,0,0:0:0:0:
64,192,47357,1,0,0:0:0:0:
448,192,47394,1,0,0:0:0:0:
320,192,47432,1,0,0:0:0:0:
192,192,47432,1,0,0:0:0:0:
64,192,47432,1,0,0:0:0:0:
192,192,47582,1,0,0:0:0:0:
448,192,47582,1,0,0:0:0:0:
64,192,47732,1,0,0:0:0:0:
448,192,47732,1,0,0:0:0:0:
320,192,47882,1,0,0:0:0:0:
192,192,47882,1,0,0:0:0:0:
448,192,47957,1,0,0:0:0:0:
192,192,47994,1,0,0:0:0:0:
64,192,48032,1,0,0:0:0:0:
320,192,48032,1,0,0:0:0:0:
448,192,48069,1,0,0:0:0:0:
64,192,48107,1,0,0:0:0:0:
192,192,48144,1,0,0:0:0:0:
320,192,48182,1,0,0:0:0:0:
448,192,48219,1,0,0:0:0:0:
64,192,48257,1,0,0:0:0:0:
192,192,48294,1,0,0:0:0:0:
320,192,48332,1,0,0:0:0:0:
448,192,48369,1,0,0:0:0:0:
192,192,48407,1,0,0:0:0:0:
64,192,48482,1,0,0:0:0:0:
320,192,48557,1,0,0:0:0:0:
192,192,48632,1,0,0:0:0:0:
448,192,48632,1,0,0:0:0:0:
64,192,48682,1,0,0:0:0:0:
320,192,48732,1,0,0:0:0:0:
448,192,48782,1,0,0:0:0:0:
192,192,48832,1,0,0:0:0:0:
320,192,48882,1,0,0:0:0:0:
64,192,48932,1,0,0:0:0:0:
448,192,48932,1,0,0:0:0:0:
192,192,48982,1,0,0:0:0:0:
448,192,49032,1,0,0:0:0:0:
64,192,49082,1,0,0:0:0:0:
320,192,49082,1,0,0:0:0:0:
192,192,49232,1,0,0:0:0:0:
448,192,49232,1,0,0:0:0:0:
64,192,49307,1,0,0:0:0:0:
448,192,49344,1,0,0:0:0:0:
192,192,49382,1,0,0:0:0:0:
320,192,49382,1,0,0:0:0:0:
64,192,49457,1,0,0:0:0:0:
448,192,49532,1,0,0:0:0:0:
320,192,49532,1,0,0:0:0:0:
192,192,49582,1,0,0:0:0:0:
320,192,49632,1,0,0:0:0:0:
64,192,49682,1,0,0:0:0:0:
448,192,49682,1,0,0:0:0:0:
192,192,49757,1,0,0:0:0:0:
448,192,49832,1,0,0:0:0:0:
320,192,49832,1,0,0:0:0:0:
192,192,49982,1,0,0:0:0:0:
320,192,49982,1,0,0:0:0:0:
64,192,50057,1,0,0:0:0:0:
448,192,50057,1,0,0:0:0:0:
320,192,50132,1,0,0:0:0:0:
192,192,50207,1,0,0:0:0:0:
64,192,50282,1,0,0:0:0:0:
448,192,50282,1,0,0:0:0:0:
64,192,50432,1,0,0:0:0:0:
192,192,50432,1,0,0:0:0:0:
320,192,50507,1,0,0:0:0:0:
192,192,50582,1,0,0:0:0:0:
448,192,50582,1,0,0:0:0:0:
64,192,50657,1,0,0:0:0:0:
320,192,50732,1,0,0:0:0:0:
192,192,50732,1,0,0:0:0:0:
448,192,50782,1,0,0:0:0:0:
64,192,50832,1,0,0:0:0:0:
320,192,50882,1,0,0:0:0:0:
448,192,50882,1,0,0:0:0:0:
192,192,50957,1,0,0:0:0:0:
64,192,51032,1,0,0:0:0:0:
448,192,51032,1,0,0:0:0:0:
320,192,51107,1,0,0:0:0:0:
192,192,51182,1,0,0:0:0:0:
64,192,51182,1,0,0:0:0:0:
448,192,51257,1,0,0:0:0:0:
320,192,51332,1,0,0:0:0:0:
192,192,51332,1,0,0:0:0:0:
64,192,51407,1,0,0:0:0:0:
320,192,51482,1,0,0:0:0:0:
448,192,51482,1,0,0:0:0:0:
64,192,51557,1,0,0:0:0:0:
192,192,51632,1,0,0:0:0:0:
448,192,51632,1,0,0:0:0:0:
320,192,51707,1,0,0:0:0:0:
64,192,51782,1,0,0:0:0:0:
448,192,51782,1,0,0:0:0:0:
192,192,51857,1,0,0:0:0:0:
448,192,51932,1,0,0:0:0:0:
320,192,51969,1,0,0:0:0:0:
192,192,52007,1,0,0:0:0:0:
64,192,52044,1,0,0:0:0:0:
448,192,52082,1,0,0:0:0:0:
320,192,52119,1,0,0:0:0:0:
192,192,52157,1,0,0:0:0:0:
64,192,52194,1,0,0:0:0:0:
320,192,52232,1,0,0:0:0:0:
448,192,52232,1,0,0:0:0:0:
192,192,52307,1,0,0:0:0:0:
64,192,52382,1,0,0:0:0:0:
320,192,52382,1,0,0:0:0:0:
448,192,52457,1,0,0:0:0:0:
64,192,52532,1,0,0:0:0:0:
192,192,52532,1,0,0:0:0:0:
320,192,52607,1,0,0:0:0:0:
192,192,52682,1,0,0:0:0:0:
448,192,52682,1,0,0:0:0:0:
64,192,52757,1,0,0:0:0:0:
320,192,52832,1,0,0:0:0:0:
448,192,52869,1,0,0:0:0:0:
64,192,52907,1,0,0:0:0:0:
192,192,52944,1,0,0:0:0:0:
320,192,52982,1,0,0:0:0:0:
448,192,53019,1,0,0:0:0:0:
64,192,53057,1,0,0:0:0:0:
192,192,53094,1,0,0:0:0:0:
448,192,53132,1,0,0:0:0:0:
64,192,53182,1,0,0:0:0:0:
320,192,53232,1,0,0:0:0:0:
192,192,53282,1,0,0:0:0:0:
64,192,53332,1,0,0:0:0:0:
448,192,53382,1,0,0:0:0:0:
320,192,53432,1,0,0:0:0:0:
192,192,53432,1,0,0:0:0:0:
64,192,53507,1,0,0:0:0:0:
320,192,53582,1,0,0:0:0:0:
448,192,53582,1,0,0:0:0:0:
192,192,53657,1,0,0:0:0:0:
64,192,53732,1,0,0:0:0:0:
448,192,53732,1,0,0:0:0:0:
320,192,53807,1,0,0:0:0:0:
448,192,53882,1,0,0:0:0:0:
192,192,53882,1,0,0:0:0:0:
320,192,54032,1,0,0:0:0:0:
192,192,54032,1,0,0:0:0:0:
448,192,54107,1,0,0:0:0:0:
64,192,54182,1,0,0:0:0:0:
192,192,54182,1,0,0:0:0:0:
320,192,54257,1,0,0:0:0:0:
448,192,54332,1,0,0:0:0:0:
192,192,54332,1,0,0:0:0:0:
64,192,54382,1,0,0:0:0:0:
320,192,54432,1,0,0:0:0:0:
192,192,54482,1,0,0:0:0:0:
64,192,54532,1,0,0:0:0:0:
448,192,54582,1,0,0:0:0:0:
320,192,54632,1,0,0:0:0:0:
192,192,54632,1,0,0:0:0:0:
448,192,54782,1,0,0:0:0:0:
64,192,54782,1,0,0:0:0:0:
320,192,54857,1,0,0:0:0:0:
192,192,54932,1,0,0:0:0:0:
64,192,54932,1,0,0:0:0:0:
320,192,55082,1,0,0:0:0:0:
448,192,55082,1,0,0:0:0:0:
192,192,55232,1,0,0:0:0:0:
448,192,55232,1,0,0:0:0:0:
64,192,55382,1,0,0:0:0:0:
320,192,55432,1,0,0:0:0:0:
448,192,55482,1,0,0:0:0:0:
192,192,55532,1,0,0:0:0:0:
320,192,55532,1,0,0:0:0:0:
64,192,55607,1,0,0:0:0:0:
448,192,55682,1,0,0:0:0:0:
192,192,55682,1,0,0:0:0:0:
320,192,55757,1,0,0:0:0:0:
64,192,55832,1,0,0:0:0:0:
192,192,55832,1,0,0:0:0:0:
448,192,55982,1,0,0:0:0:0:
64,192,55982,1,0,0:0:0:0:
320,192,56132,1,0,0:0:0:0:
192,192,56132,1,0,0:0:0:0:
448,192,56207,1,0,0:0:0:0:
320,192,56282,1,0,0:0:0:0:
64,192,56282,1,0,0:0:0:0:
192,192,56432,1,0,0:0:0:0:
448,192,56432,1,0,0:0:0:0:
64,192,56507,1,0,0:0:0:0:
320,192,56507,1,0,0:0:0:0:
192,192,56582,1,0,0:0:0:0:
448,192,56582,1,0,0:0:0:0:
320,192,56657,1,0,0:0:0:0:
64,192,56657,1,0,0:0:0:0:
192,192,56732,1,0,0:0:0:0:
448,192,56732,1,0,0:0:0:0:
320,192,56769,1,0,0:0:0:0:
192,192,56807,1,0,0:0:0:0:
64,192,56844,1,0,0:0:0:0:
448,192,56882,1,0,0:0:0:0:
320,192,56919,1,0,0:0:0:0:
192,192,56957,1,0,0:0:0:0:
64,192,56994,1,0,0:0:0:0:
448,192,57032,1,0,0:0:0:0:
320,192,57032,1,0,0:0:0:0:
320,192,57182,1,0,0:0:0:0:
64,192,57182,1,0,0:0:0:0:
448,192,57332,1,0,0:0:0:0:
64,192,57332,1,0,0:0:0:0:
320,192,57407,1,0,0:0:0:0:
192,192,57407,1,0,0:0:0:0:
448,192,57482,1,0,0:0:0:0:
64,192,57482,1,0,0:0:0:0:
192,192,57519,1,0,0:0:0:0:
320,192,57557,1,0,0:0:0:0:
448,192,57594,1,0,0:0:0:0:
64,192,57632,1,0,0:0:0:0:
192,192,57669,1,0,0:0:0:0:
320,192,57707,1,0,0:0:0:0:
448,192,57744,1,0,0:0:0:0:
64,192,57782,1,0,0:0:0:0:
192,192,57819,1,0,0:0:0:0:
320,192,57857,1,0,0:0:0:0:
448,192,57894,1,0,0:0:0:0:
64,192,57932,1,0,0:0:0:0:
192,192,57969,1,0,0:0:0:0:
320,192,58007,1,0,0:0:0:0:
448,192,58044,1,0,0:0:0:0:
64,192,58082,1,0,0:0:0:0:
192,192,58119,1,0,0:0:0:0:
320,192,58157,1,0,0:0:0:0:
448,192,58194,1,0,0:0:0:0:
64,192,58232,1,0,0:0:0:0:
192,192,58232,1,0,0:0:0:0:
320,192,58232,1,0,0:0:0:0:
448,192,58307,1,0,0:0:0:0:
192,192,58382,1,0,0:0:0:0:
320,192,58457,1,0,0:0:0:0:
448,192,58532,1,0,0:0:0:0:
64,192,58682,1,0,0:0:0:0:
320,192,58757,1,0,0:0:0:0:
192,192,58832,1,0,0:0:0:0:
64,192,58907,1,0,0:0:0:0:
448,192,58982,1,0,0:0:0:0:
320,192,59057,1,0,0:0:0:0:
192,192,59207,1,0,0:0:0:0:
320,192,59244,1,0,0:0:0:0:
448,192,59282,1,0,0:0:0:0:
64,192,59319,1,0,0:0:0:0:
192,192,59432,1,0,0:0:0:0:
320,192,59507,1,0,0:0:0:0:
64,192,59582,1,0,0:0:0:0:
192,192,59657,1,0,0:0:0:0:
448,192,59732,1,0,0:0:0:0:
192,192,59882,1,0,0:0:0:0:
320,192,59957,1,0,0:0:0:0:
64,192,60032,1,0,0:0:0:0:
192,192,60182,1,0,0:0:0:0:
320,192,60257,1,0,0:0:0:0:
64,192,60407,128,0,60632:0:0:0:0:
320,192,60632,1,0,0:0:0:0:
192,192,60707,1,0,0:0:0:0:
448,192,60782,1,0,0:0:0:0:
320,192,60857,1,0,0:0:0:0:
448,192,60932,1,0,0:0:0:0:
64,192,61082,1,0,0:0:0:0:
320,192,61157,1,0,0:0:0:0:
192,192,61232,1,0,0:0:0:0:
64,192,61307,1,0,0:0:0:0:
448,192,61382,1,0,0:0:0:0:
320,192,61457,1,0,0:0:0:0:
192,192,61607,1,0,0:0:0:0:
448,192,61682,1,0,0:0:0:0:
320,192,61757,1,0,0:0:0:0:
64,192,61832,1,0,0:0:0:0:
192,192,61907,1,0,0:0:0:0:
448,192,61982,128,0,62132:0:0:0:0:
320,192,62132,128,0,62282:0:0:0:0:
192,192,62282,1,0,0:0:0:0:
64,192,62357,1,0,0:0:0:0:
448,192,62432,1,0,0:0:0:0:
64,192,62582,1,0,0:0:0:0:
320,192,62657,1,0,0:0:0:0:
448,192,62807,1,0,0:0:0:0:
192,192,62882,1,0,0:0:0:0:
64,192,63032,1,0,0:0:0:0:
320,192,63032,1,0,0:0:0:0:
448,192,63032,1,0,0:0:0:0:
192,192,63107,1,0,0:0:0:0:
448,192,63182,1,0,0:0:0:0:
320,192,63219,1,0,0:0:0:0:
64,192,63257,1,0,0:0:0:0:
192,192,63332,1,0,0:0:0:0:
448,192,63482,1,0,0:0:0:0:
320,192,63557,1,0,0:0:0:0:
64,192,63632,1,0,0:0:0:0:
192,192,63669,1,0,0:0:0:0:
448,192,63707,1,0,0:0:0:0:
64,192,63782,1,0,0:0:0:0:
320,192,63857,1,0,0:0:0:0:
192,192,63894,1,0,0:0:0:0:
448,192,63932,1,0,0:0:0:0:
64,192,64007,1,0,0:0:0:0:
192,192,64044,1,0,0:0:0:0:
320,192,64082,1,0,0:0:0:0:
448,192,64119,1,0,0:0:0:0:
192,192,64232,1,0,0:0:0:0:
320,192,64232,1,0,0:0:0:0:
448,192,64232,1,0,0:0:0:0:
64,192,64307,1,0,0:0:0:0:
320,192,64382,1,0,0:0:0:0:
448,192,64419,1,0,0:0:0:0:
192,192,64457,1,0,0:0:0:0:
320,192,64532,1,0,0:0:0:0:
64,192,64682,1,0,0:0:0:0:
320,192,64757,1,0,0:0:0:0:
448,192,64832,1,0,0:0:0:0:
192,192,64869,1,0,0:0:0:0:
64,192,64907,1,0,0:0:0:0:
448,192,64982,1,0,0:0:0:0:
320,192,65057,1,0,0:0:0:0:
192,192,65094,1,0,0:0:0:0:
64,192,65132,1,0,0:0:0:0:
320,192,65207,1,0,0:0:0:0:
192,192,65244,1,0,0:0:0:0:
448,192,65282,1,0,0:0:0:0:
320,192,65319,1,0,0:0:0:0:
192,192,65432,1,0,0:0:0:0:
448,192,65432,1,0,0:0:0:0:
64,192,65432,1,0,0:0:0:0:
320,192,65507,1,0,0:0:0:0:
192,192,65544,1,0,0:0:0:0:
64,192,65582,1,0,0:0:0:0:
448,192,65657,1,0,0:0:0:0:
192,192,65732,1,0,0:0:0:0:
64,192,65882,1,0,0:0:0:0:
320,192,65957,1,0,0:0:0:0:
192,192,66032,1,0,0:0:0:0:
448,192,66032,1,0,0:0:0:0:
64,192,66032,1,0,0:0:0:0:
320,192,66069,1,0,0:0:0:0:
448,192,66107,1,0,0:0:0:0:
192,192,66182,1,0,0:0:0:0:
448,192,66257,1,0,0:0:0:0:
320,192,66294,1,0,0:0:0:0:
64,192,66332,1,0,0:0:0:0:
192,192,66407,1,0,0:0:0:0:
64,192,66444,1,0,0:0:0:0:
320,192,66482,1,0,0:0:0:0:
448,192,66519,1,0,0:0:0:0:
320,192,66632,1,0,0:0:0:0:
64,192,66632,1,0,0:0:0:0:
448,192,66632,1,0,0:0:0:0:
192,192,66707,1,0,0:0:0:0:
64,192,66782,1,0,0:0:0:0:
320,192,66819,1,0,0:0:0:0:
448,192,66857,1,0,0:0:0:0:
192,192,66932,1,0,0:0:0:0:
320,192,66932,1,0,0:0:0:0:
64,192,66932,1,0,0:0:0:0:
192,192,67082,1,0,0:0:0:0:
320,192,67157,1,0,0:0:0:0:
192,192,67232,1,0,0:0:0:0:
448,192,67232,1,0,0:0:0:0:
64,192,67232,1,0,0:0:0:0:
320,192,67307,1,0,0:0:0:0:
192,192,67382,1,0,0:0:0:0:
448,192,67382,1,0,0:0:0:0:
64,192,67457,1,0,0:0:0:0:
192,192,67532,1,0,0:0:0:0:
320,192,67532,1,0,0:0:0:0:
448,192,67569,1,0,0:0:0:0:
64,192,67607,1,0,0:0:0:0:
192,192,67644,1,0,0:0:0:0:
320,192,67682,1,0,0:0:0:0:
448,192,67719,1,0,0:0:0:0:
64,192,67757,1,0,0:0:0:0:
192,192,67794,1,0,0:0:0:0:
64,192,67832,1,0,0:0:0:0:
320,192,67832,1,0,0:0:0:0:
448,192,67832,1,0,0:0:0:0:
192,192,67907,1,0,0:0:0:0:
320,192,67982,1,0,0:0:0:0:
64,192,67982,1,0,0:0:0:0:
448,192,68057,1,0,0:0:0:0:
192,192,68132,1,0,0:0:0:0:
64,192,68132,1,0,0:0:0:0:
320,192,68207,1,0,0:0:0:0:
192,192,68282,1,0,0:0:0:0:
448,192,68282,1,0,0:0:0:0:
64,192,68357,1,0,0:0:0:0:
320,192,68432,1,0,0:0:0:0:
448,192,68432,1,0,0:0:0:0:
192,192,68507,1,0,0:0:0:0:
64,192,68582,1,0,0:0:0:0:
320,192,68582,1,0,0:0:0:0:
448,192,68657,1,0,0:0:0:0:
64,192,68732,1,0,0:0:0:0:
192,192,68732,1,0,0:0:0:0:
320,192,68807,1,0,0:0:0:0:
192,192,68882,1,0,0:0:0:0:
448,192,68882,1,0,0:0:0:0:
64,192,68957,1,0,0:0:0:0:
320,192,69032,1,0,0:0:0:0:
448,192,69032,1,0,0:0:0:0:
192,192,69107,1,0,0:0:0:0:
64,192,69182,1,0,0:0:0:0:
320,192,69182,1,0,0:0:0:0:
448,192,69257,1,0,0:0:0:0:
192,192,69332,1,0,0:0:0:0:
64,192,69332,1,0,0:0:0:0:
320,192,69407,1,0,0:0:0:0:
64,192,69482,1,0,0:0:0:0:
448,192,69482,1,0,0:0:0:0:
192,192,69557,1,0,0:0:0:0:
320,192,69632,1,0,0:0:0:0:
448,192,69632,1,0,0:0:0:0:
64,192,69707,1,0,0:0:0:0:
192,192,69782,1,0,0:0:0:0:
320,192,69782,1,0,0:0:0:0:
448,192,69857,1,0,0:0:0:0:
192,192,69932,1,0,0:0:0:0:
64,192,69932,1,0,0:0:0:0:
320,192,69932,1,0,0:0:0:0:
64,192,70082,1,0,0:0:0:0:
448,192,70082,1,0,0:0:0:0:
192,192,70157,1,0,0:0:0:0:
320,192,70157,1,0,0:0:0:0:
64,192,70232,1,0,0:0:0:0:
448,192,70232,1,0,0:0:0:0:
320,192,70307,1,0,0:0:0:0:
192,192,70382,1,0,0:0:0:0:
64,192,70382,1,0,0:0:0:0:
448,192,70457,1,0,0:0:0:0:
320,192,70532,1,0,0:0:0:0:
192,192,70532,1,0,0:0:0:0:
64,192,70607,1,0,0:0:0:0:
320,192,70682,1,0,0:0:0:0:
448,192,70682,1,0,0:0:0:0:
192,192,70757,1,0,0:0:0:0:
64,192,70832,1,0,0:0:0:0:
320,192,70832,1,0,0:0:0:0:
448,192,70907,1,0,0:0:0:0:
192,192,70982,1,0,0:0:0:0:
64,192,70982,1,0,0:0:0:0:
320,192,71057,1,0,0:0:0:0:
192,192,71132,1,0,0:0:0:0:
448,192,71132,1,0,0:0:0:0:
64,192,71207,1,0,0:0:0:0:
320,192,71282,1,0,0:0:0:0:
448,192,71282,1,0,0:0:0:0:
192,192,71357,1,0,0:0:0:0:
64,192,71432,1,0,0:0:0:0:
320,192,71432,1,0,0:0:0:0:
448,192,71507,1,0,0:0:0:0:
192,192,71582,1,0,0:0:0:0:
64,192,71582,1,0,0:0:0:0:
320,192,71657,1,0,0:0:0:0:
448,192,71732,1,0,0:0:0:0:
192,192,71732,1,0,0:0:0:0:
64,192,71807,1,0,0:0:0:0:
320,192,71882,1,0,0:0:0:0:
448,192,71882,1,0,0:0:0:0:
192,192,71957,1,0,0:0:0:0:
64,192,72032,1,0,0:0:0:0:
320,192,72032,1,0,0:0:0:0:
192,192,72107,1,0,0:0:0:0:
64,192,72182,1,0,0:0:0:0:
448,192,72182,1,0,0:0:0:0:
320,192,72182,1,0,0:0:0:0:
192,192,72332,1,0,0:0:0:0:
64,192,72332,1,0,0:0:0:0:
448,192,72407,1,0,0:0:0:0:
192,192,72482,1,0,0:0:0:0:
320,192,72482,1,0,0:0:0:0:
64,192,72557,1,0,0:0:0:0:
320,192,72632,1,0,0:0:0:0:
448,192,72632,1,0,0:0:0:0:
192,192,72707,1,0,0:0:0:0:
64,192,72782,1,0,0:0:0:0:
448,192,72782,1,0,0:0:0:0:
320,192,72857,1,0,0:0:0:0:
192,192,72932,1,0,0:0:0:0:
64,192,72932,1,0,0:0:0:0:
448,192,73007,1,0,0:0:0:0:
320,192,73082,1,0,0:0:0:0:
64,192,73082,1,0,0:0:0:0:
192,192,73157,1,0,0:0:0:0:
320,192,73232,1,0,0:0:0:0:
448,192,73232,1,0,0:0:0:0:
64,192,73307,1,0,0:0:0:0:
192,192,73382,1,0,0:0:0:0:
448,192,73382,1,0,0:0:0:0:
320,192,73457,1,0,0:0:0:0:
64,192,73532,1,0,0:0:0:0:
448,192,73532,1,0,0:0:0:0:
192,192,73607,1,0,0:0:0:0:
320,192,73682,1,0,0:0:0:0:
64,192,73682,1,0,0:0:0:0:
448,192,73757,1,0,0:0:0:0:
192,192,73832,1,0,0:0:0:0:
320,192,73832,1,0,0:0:0:0:
64,192,73907,1,0,0:0:0:0:
192,192,73982,1,0,0:0:0:0:
448,192,73982,1,0,0:0:0:0:
320,192,74057,1,0,0:0:0:0:
192,192,74132,1,0,0:0:0:0:
64,192,74132,1,0,0:0:0:0:
448,192,74207,1,0,0:0:0:0:
320,192,74282,1,0,0:0:0:0:
64,192,74282,1,0,0:0:0:0:
192,192,74357,1,0,0:0:0:0:
320,192,74432,1,0,0:0:0:0:
448,192,74432,1,0,0:0:0:0:
64,192,74507,1,0,0:0:0:0:
192,192,74582,1,0,0:0:0:0:
448,192,74582,1,0,0:0:0:0:
320,192,74582,1,0,0:0:0:0:
192,192,74732,1,0,0:0:0:0:
64,192,74732,1,0,0:0:0:0:
320,192,74769,1,0,0:0:0:0:
448,192,74807,1,0,0:0:0:0:
64,192,74844,1,0,0:0:0:0:
192,192,74882,1,0,0:0:0:0:
320,192,74919,1,0,0:0:0:0:
448,192,74957,1,0,0:0:0:0:
64,192,74994,1,0,0:0:0:0:
192,192,75032,1,0,0:0:0:0:
320,192,75032,1,0,0:0:0:0:
448,192,75107,1,0,0:0:0:0:
192,192,75182,1,0,0:0:0:0:
64,192,75182,1,0,0:0:0:0:
320,192,75257,1,0,0:0:0:0:
64,192,75332,1,0,0:0:0:0:
448,192,75332,1,0,0:0:0:0:
192,192,75407,1,0,0:0:0:0:
320,192,75482,1,0,0:0:0:0:
448,192,75482,1,0,0:0:0:0:
64,192,75557,1,0,0:0:0:0:
192,192,75632,1,0,0:0:0:0:
320,192,75632,1,0,0:0:0:0:
448,192,75707,1,0,0:0:0:0:
64,192,75782,1,0,0:0:0:0:
192,192,75782,1,0,0:0:0:0:
320,192,75857,1,0,0:0:0:0:
64,192,75932,1,0,0:0:0:0:
448,192,75932,1,0,0:0:0:0:
192,192,76007,1,0,0:0:0:0:
320,192,76082,1,0,0:0:0:0:
448,192,76082,1,0,0:0:0:0:
64,192,76157,1,0,0:0:0:0:
192,192,76232,1,0,0:0:0:0:
448,192,76232,1,0,0:0:0:0:
320,192,76307,1,0,0:0:0:0:
192,192,76382,1,0,0:0:0:0:
64,192,76382,1,0,0:0:0:0:
448,192,76457,1,0,0:0:0:0:
320,192,76532,1,0,0:0:0:0:
64,192,76532,1,0,0:0:0:0:
192,192,76607,1,0,0:0:0:0:
320,192,76682,1,0,0:0:0:0:
448,192,76682,1,0,0:0:0:0:
64,192,76757,1,0,0:0:0:0:
192,192,76832,1,0,0:0:0:0:
448,192,76832,1,0,0:0:0:0:
320,192,76832,1,0,0:0:0:0:
192,192,76982,1,0,0:0:0:0:
64,192,76982,1,0,0:0:0:0:
448,192,76982,1,0,0:0:0:0:
64,192,77132,1,0,0:0:0:0:
320,192,77132,1,0,0:0:0:0:
192,192,77207,1,0,0:0:0:0:
320,192,77282,1,0,0:0:0:0:
448,192,77282,1,0,0:0:0:0:
64,192,77357,1,0,0:0:0:0:
192,192,77432,1,0,0:0:0:0:
320,192,77432,1,0,0:0:0:0:
448,192,77432,1,0,0:0:0:0:
64,192,77482,1,0,0:0:0:0:
320,192,77532,1,0,0:0:0:0:
192,192,77582,1,0,0:0:0:0:
448,192,77632,1,0,0:0:0:0:
64,192,77682,1,0,0:0:0:0:
192,192,77732,1,0,0:0:0:0:
448,192,77782,1,0,0:0:0:0:
320,192,77832,1,0,0:0:0:0:
192,192,77882,1,0,0:0:0:0:
64,192,77932,1,0,0:0:0:0:
320,192,77982,1,0,0:0:0:0:
448,192,78032,1,0,0:0:0:0:
192,192,78082,1,0,0:0:0:0:
320,192,78132,1,0,0:0:0:0:
448,192,78182,1,0,0:0:0:0:
64,192,78232,1,0,0:0:0:0:
320,192,78282,1,0,0:0:0:0:
192,192,78332,1,0,0:0:0:0:
64,192,78332,1,0,0:0:0:0:
320,192,78407,1,0,0:0:0:0:
448,192,78407,1,0,0:0:0:0:
192,192,78482,1,0,0:0:0:0:
448,192,78532,1,0,0:0:0:0:
320,192,78582,1,0,0:0:0:0:
64,192,78632,1,0,0:0:0:0:
192,192,78682,1,0,0:0:0:0:
448,192,78732,1,0,0:0:0:0:
64,192,78782,1,0,0:0:0:0:
320,192,78832,1,0,0:0:0:0:
448,192,78882,1,0,0:0:0:0:
192,192,78932,1,0,0:0:0:0:
320,192,78982,1,0,0:0:0:0:
448,192,79032,1,0,0:0:0:0:
64,192,79082,1,0,0:0:0:0:
192,192,79132,1,0,0:0:0:0:
320,192,79182,1,0,0:0:0:0:
448,192,79232,1,0,0:0:0:0:
192,192,79282,1,0,0:0:0:0:
320,192,79332,1,0,0:0:0:0:
64,192,79382,1,0,0:0:0:0:
192,192,79432,1,0,0:0:0:0:
448,192,79482,1,0,0:0:0:0:
64,192,79532,1,0,0:0:0:0:
320,192,79532,1,0,0:0:0:0:
192,192,79682,1,0,0:0:0:0:
448,192,79682,1,0,0:0:0:0:
320,192,79719,1,0,0:0:0:0:
192,192,79757,1,0,0:0:0:0:
64,192,79794,1,0,0:0:0:0:
448,192,79832,1,0,0:0:0:0:
192,192,79882,1,0,0:0:0:0:
320,192,79932,1,0,0:0:0:0:
192,192,79982,1,0,0:0:0:0:
64,192,80032,1,0,0:0:0:0:
320,192,80082,1,0,0:0:0:0:
448,192,80132,1,0,0:0:0:0:
192,192,80182,1,0,0:0:0:0:
448,192,80232,1,0,0:0:0:0:
320,192,80282,1,0,0:0:0:0:
64,192,80332,1,0,0:0:0:0:
448,192,80382,1,0,0:0:0:0:
192,192,80432,1,0,0:0:0:0:
320,192,80482,1,0,0:0:0:0:
64,192,80532,1,0,0:0:0:0:
192,192,80582,1,0,0:0:0:0:
448,192,80632,1,0,0:0:0:0:
320,192,80682,1,0,0:0:0:0:
64,192,80732,1,0,0:0:0:0:
192,192,80782,1,0,0:0:0:0:
448,192,80832,1,0,0:0:0:0:
64,192,80882,1,0,0:0:0:0:
320,192,80882,1,0,0:0:0:0:
192,192,80932,1,0,0:0:0:0:
320,192,80957,1,0,0:0:0:0:
448,192,80982,1,0,0:0:0:0:
64,192,81032,1,0,0:0:0:0:
320,192,81082,1,0,0:0:0:0:
448,192,81132,1,0,0:0:0:0:
192,192,81182,1,0,0:0:0:0:
320,192,81232,1,0,0:0:0:0:
448,192,81282,1,0,0:0:0:0:
64,192,81332,1,0,0:0:0:0:
192,192,81332,1,0,0:0:0:0:
320,192,81407,1,0,0:0:0:0:
448,192,81407,1,0,0:0:0:0:
192,192,81482,1,0,0:0:0:0:
320,192,81532,1,0,0:0:0:0:
448,192,81582,1,0,0:0:0:0:
64,192,81632,1,0,0:0:0:0:
320,192,81632,1,0,0:0:0:0:
448,192,81707,1,0,0:0:0:0:
192,192,81707,1,0,0:0:0:0:
64,192,81782,1,0,0:0:0:0:
320,192,81832,1,0,0:0:0:0:
448,192,81882,1,0,0:0:0:0:
192,192,81932,1,0,0:0:0:0:
64,192,81932,1,0,0:0:0:0:
320,192,82007,1,0,0:0:0:0:
192,192,82082,1,0,0:0:0:0:
448,192,82082,1,0,0:0:0:0:
64,192,82157,1,0,0:0:0:0:
448,192,82232,1,0,0:0:0:0:
320,192,82232,128,0,83432:0:0:0:0:
192,192,82307,1,0,0:0:0:0:
64,192,82382,1,0,0:0:0:0:
448,192,82419,1,0,0:0:0:0:
192,192,82532,1,0,0:0:0:0:
64,192,82682,1,0,0:0:0:0:
448,192,82757,1,0,0:0:0:0:
192,192,82832,1,0,0:0:0:0:
64,192,82869,1,0,0:0:0:0:
192,192,82982,1,0,0:0:0:0:
448,192,83057,1,0,0:0:0:0:
64,192,83094,1,0,0:0:0:0:
192,192,83244,1,0,0:0:0:0:
448,192,83282,1,0,0:0:0:0:
64,192,83357,1,0,0:0:0:0:
192,192,83432,1,0,0:0:0:0:
448,192,83432,1,0,0:0:0:0:
64,192,83507,1,0,0:0:0:0:
320,192,83507,1,0,0:0:0:0:
192,192,83582,1,0,0:0:0:0:
448,192,83582,1,0,0:0:0:0:
320,192,83619,1,0,0:0:0:0:
64,192,83657,128,0,84332:0:0:0:0:
192,192,83657,1,0,0:0:0:0:
448,192,83732,1,0,0:0:0:0:
192,192,83882,1,0,0:0:0:0:
320,192,83957,1,0,0:0:0:0:
448,192,84032,1,0,0:0:0:0:
192,192,84107,1,0,0:0:0:0:
320,192,84182,1,0,0:0:0:0:
448,192,84257,1,0,0:0:0:0:
320,192,84369,1,0,0:0:0:0:
448,192,84407,1,0,0:0:0:0:
64,192,84444,1,0,0:0:0:0:
192,192,84482,1,0,0:0:0:0:
320,192,84519,1,0,0:0:0:0:
448,192,84557,1,0,0:0:0:0:
64,192,84594,1,0,0:0:0:0:
448,192,84632,128,0,86732:0:0:0:0:
192,192,84632,1,0,0:0:0:0:
320,192,84632,1,0,0:0:0:0:
64,192,84707,1,0,0:0:0:0:
320,192,84782,1,0,0:0:0:0:
64,192,84857,1,0,0:0:0:0:
192,192,84932,1,0,0:0:0:0:
64,192,85082,1,0,0:0:0:0:
192,192,85157,1,0,0:0:0:0:
320,192,85232,1,0,0:0:0:0:
64,192,85344,1,0,0:0:0:0:
320,192,85382,1,0,0:0:0:0:
192,192,85494,1,0,0:0:0:0:
320,192,85532,1,0,0:0:0:0:
64,192,85644,1,0,0:0:0:0:
192,192,85682,1,0,0:0:0:0:
192,192,85832,1,0,0:0:0:0:
320,192,85907,1,0,0:0:0:0:
64,192,85982,1,0,0:0:0:0:
192,192,86019,1,0,0:0:0:0:
320,192,86282,1,0,0:0:0:0:
64,192,86357,1,0,0:0:0:0:
192,192,86432,1,0,0:0:0:0:
320,192,86507,1,0,0:0:0:0:
64,192,86582,1,0,0:0:0:0:
192,192,86619,1,0,0:0:0:0:
320,192,86732,1,0,0:0:0:0:
64,192,86732,1,0,0:0:0:0:
192,192,86807,1,0,0:0:0:0:
448,192,86807,1,0,0:0:0:0:
320,192,86882,1,0,0:0:0:0:
64,192,86882,1,0,0:0:0:0:
64,192,87032,128,0,87932:0:0:0:0:
320,192,87032,128,0,87932:0:0:0:0:
448,192,87032,128,0,87932:0:0:0:0:
