osu file format v14

[General]
AudioFilename: audio.mp3
AudioLeadIn: 0
PreviewTime: 0
Countdown: 1
SampleSet: None
StackLeniency: 1
Mode: 2
LetterboxInBreaks: 0
SkinPreference:Default
WidescreenStoryboard: 0

[Editor]
DistanceSpacing: 0.9
BeatDivisor: 4
GridSize: 8
TimelineZoom: 1

[Metadata]
Title:Soulja Boy
TitleUnicode:Soulja Boy
Artist:The Quick Brown Fox
ArtistUnicode:The Quick Brown Fox
Creator:- Anima -
Version:True to you.
Source:SPEEDKORE 4 KIDZ!!
Tags:tqbf, renard, speedcore, sherlies
BeatmapID:1769782
BeatmapSetID:846213

[Difficulty]
HPDrainRate:4.2
CircleSize:5
OverallDifficulty:3.8
ApproachRate:4.2
SliderMultiplier:1.4
SliderTickRate:1

[Events]
//Background and Video events
0,0,"tooru-chibi-kobayashi-sand-chi-no-maid-dragon-sleeping-cute-blonde-horns-anime-15316-resized.jpg",0,0
//Break Periods
2,51715,57719
2,75715,84766
//Storyboard Layer 0 (Background)
//Storyboard Layer 1 (Fail)
//Storyboard Layer 2 (Pass)
//Storyboard Layer 3 (Foreground)
//Storyboard Sound Samples

[TimingPoints]
0,187.5,4,1,0,100,1,0

[HitObjects]
88,120,13265,6,0,L|288:224,3,210
200,176,14812,1,0,0:0:0:0:
336,272,15187,1,0,0:0:0:0:
360,104,15515,1,0,0:0:0:0:
320,272,16078,1,0,0:0:0:0:
216,144,16312,1,0,0:0:0:0:
120,96,16968,1,0,0:0:0:0:
312,104,17296,1,0,0:0:0:0:
272,200,17531,1,0,0:0:0:0:
368,240,17765,1,0,0:0:0:0:
328,296,18000,1,0,0:0:0:0:
424,312,18281,1,0,0:0:0:0:
416,152,18515,1,0,0:0:0:0:
352,88,19312,5,0,0:0:0:0:
80,152,20015,1,0,0:0:0:0:
384,200,20718,1,0,0:0:0:0:
256,192,21796,12,0,24140,0:0:0:0:
32,104,24562,5,0,0:0:0:0:
432,88,25312,1,0,0:0:0:0:
144,176,26062,1,0,0:0:0:0:
424,208,26484,1,0,0:0:0:0:
224,248,26765,1,0,0:0:0:0:
384,288,26953,1,0,0:0:0:0:
352,152,27140,1,0,0:0:0:0:
168,168,27328,1,0,0:0:0:0:
376,216,27515,1,0,0:0:0:0:
440,184,27890,5,0,0:0:0:0:
376,88,28312,1,0,0:0:0:0:
288,120,28640,1,0,0:0:0:0:
152,128,29015,1,0,0:0:0:0:
128,224,29390,1,0,0:0:0:0:
440,248,29765,1,0,0:0:0:0:
376,128,29953,1,0,0:0:0:0:
312,240,30140,1,0,0:0:0:0:
216,136,30328,1,0,0:0:0:0:
152,224,30562,1,0,0:0:0:0:
24,120,31031,2,0,L|184:240,1,175
152,128,31687,1,0,0:0:0:0:
376,144,32015,1,0,0:0:0:0:
416,192,32390,5,0,0:0:0:0:
328,72,32718,1,0,0:0:0:0:
184,136,32906,1,0,0:0:0:0:
384,216,33140,1,0,0:0:0:0:
208,272,33328,1,0,0:0:0:0:
416,328,33515,1,0,0:0:0:0:
376,88,33890,1,0,0:0:0:0:
312,280,34312,1,0,0:0:0:0:
264,96,34640,1,0,0:0:0:0:
128,232,35015,1,0,0:0:0:0:
160,96,35390,1,0,0:0:0:0:
312,224,35765,1,0,0:0:0:0:
416,80,36140,1,0,0:0:0:0:
448,256,36515,1,0,0:0:0:0:
440,248,36937,5,0,0:0:0:0:
392,40,37312,1,0,0:0:0:0:
184,112,37828,1,0,0:0:0:0:
384,152,38203,1,0,0:0:0:0:
192,208,38578,1,0,0:0:0:0:
376,240,38765,1,0,0:0:0:0:
248,280,38953,1,0,0:0:0:0:
384,296,39140,1,0,0:0:0:0:
304,136,39328,1,0,0:0:0:0:
272,208,39515,1,0,0:0:0:0:
208,136,39703,1,0,0:0:0:0:
184,192,39890,1,0,0:0:0:0:
128,136,40078,1,0,0:0:0:0:
104,184,40265,1,0,0:0:0:0:
296,136,40828,5,0,0:0:0:0:
424,200,41203,1,0,0:0:0:0:
192,216,41578,1,0,0:0:0:0:
144,104,41812,1,0,0:0:0:0:
272,112,41953,1,0,0:0:0:0:
160,160,42140,1,0,0:0:0:0:
320,240,42328,1,0,0:0:0:0:
40,112,42843,2,0,L|352:216,1,315
272,88,43640,1,0,0:0:0:0:
416,192,44015,1,0,0:0:0:0:
416,192,44390,5,0,0:0:0:0:
184,200,44578,1,0,0:0:0:0:
328,256,44765,1,0,0:0:0:0:
152,288,45046,1,0,0:0:0:0:
296,320,45281,1,0,0:0:0:0:
304,160,45515,1,0,0:0:0:0:
376,272,45937,1,0,0:0:0:0:
192,136,46312,1,0,0:0:0:0:
72,272,46640,1,0,0:0:0:0:
264,104,47015,1,0,0:0:0:0:
280,264,47390,1,0,0:0:0:0:
368,120,47765,1,0,0:0:0:0:
368,120,48093,5,0,0:0:0:0:
152,96,48515,5,0,0:0:0:0:
288,136,48703,5,0,0:0:0:0:
184,200,48890,5,0,0:0:0:0:
320,248,49078,5,0,0:0:0:0:
216,288,49265,5,0,0:0:0:0:
336,328,49453,5,0,0:0:0:0:
184,208,49640,5,0,0:0:0:0:
320,160,49828,5,0,0:0:0:0:
200,88,50015,5,0,0:0:0:0:
288,80,50203,5,0,0:0:0:0:
168,168,50390,5,0,0:0:0:0:
336,208,50578,5,0,0:0:0:0:
208,256,50765,5,0,0:0:0:0:
328,264,51140,5,0,0:0:0:0:
264,72,51515,1,0,0:0:0:0:
192,112,59015,5,0,0:0:0:0:
368,136,59390,1,0,0:0:0:0:
384,280,59765,1,0,0:0:0:0:
272,96,60140,1,0,0:0:0:0:
224,224,60328,1,0,0:0:0:0:
160,128,60515,1,0,0:0:0:0:
88,240,60703,1,0,0:0:0:0:
384,312,60890,1,0,0:0:0:0:
352,120,61265,1,0,0:0:0:0:
352,120,61640,5,0,0:0:0:0:
160,120,61828,1,0,0:0:0:0:
264,192,62015,1,0,0:0:0:0:
24,128,62390,2,0,L|224:240,2,210
40,120,63375,1,0,0:0:0:0:
176,120,63656,1,0,0:0:0:0:
344,152,63937,1,0,0:0:0:0:
376,248,64265,1,0,0:0:0:0:
288,128,64453,1,0,0:0:0:0:
272,256,64640,1,0,0:0:0:0:
152,128,64828,1,0,0:0:0:0:
96,248,65015,1,0,0:0:0:0:
352,216,65203,1,0,0:0:0:0:
368,136,65390,1,0,0:0:0:0:
368,128,65765,5,0,0:0:0:0:
168,136,66140,1,0,0:0:0:0:
304,192,66328,1,0,0:0:0:0:
192,248,66515,1,0,0:0:0:0:
344,312,66890,1,0,0:0:0:0:
456,320,67265,1,0,0:0:0:0:
400,112,67453,1,0,0:0:0:0:
328,232,67640,1,0,0:0:0:0:
232,104,67828,1,0,0:0:0:0:
160,216,68015,1,0,0:0:0:0:
40,120,68390,2,0,L|384:304,1,385
144,88,69187,1,0,0:0:0:0:
328,120,69515,1,0,0:0:0:0:
400,264,69890,1,0,0:0:0:0:
136,240,70265,1,0,0:0:0:0:
160,144,70453,1,0,0:0:0:0:
296,176,70687,1,0,0:0:0:0:
240,272,70828,1,0,0:0:0:0:
368,304,71015,1,0,0:0:0:0:
368,304,71390,5,0,0:0:0:0:
400,96,71765,1,0,0:0:0:0:
280,96,72140,1,0,0:0:0:0:
232,240,72328,1,0,0:0:0:0:
176,120,72515,1,0,0:0:0:0:
104,224,72703,1,0,0:0:0:0:
112,112,73453,2,0,L|216:208,2,140
152,72,74015,1,0,0:0:0:0:
336,128,74390,1,0,0:0:0:0:
368,248,74765,1,0,0:0:0:0:
264,144,74953,1,0,0:0:0:0:
208,224,75140,1,0,0:0:0:0:
120,120,75328,1,0,0:0:0:0:
320,240,75515,1,0,0:0:0:0:
256,192,86062,12,0,89671,0:0:0:0:
152,168,89906,5,0,0:0:0:0:
288,192,90140,1,0,0:0:0:0:
256,192,90328,12,0,93094,0:0:0:0:
176,120,93515,5,0,0:0:0:0:
424,144,94359,1,0,0:0:0:0:
448,288,95109,1,0,0:0:0:0:
280,128,95812,1,0,0:0:0:0:
8,168,96609,2,0,L|448:296,1,455
144,152,98015,1,0,0:0:0:0:
336,168,98812,1,0,0:0:0:0:
432,256,99562,5,0,0:0:0:0:
384,112,100265,1,0,0:0:0:0:
376,280,101015,1,0,0:0:0:0:
280,120,101437,1,0,0:0:0:0:
168,216,101765,1,0,0:0:0:0:
128,88,102140,1,0,0:0:0:0:
80,208,102515,1,0,0:0:0:0:
