osu file format v14

[General]
AudioFilename: The Quick Brown Fox - Shake Your Tail.mp3
AudioLeadIn: 0
PreviewTime: 2640
Countdown: 0
SampleSet: Normal
StackLeniency: 0.7
Mode: 1
LetterboxInBreaks: 0
WidescreenStoryboard: 1

[Editor]
Bookmarks: 2639,23709,44779,55314,65849,76384,86919,107989,118524,129059,139594,150197
DistanceSpacing: 1.2
BeatDivisor: 12
GridSize: 32
TimelineZoom: 4.099998

[Metadata]
Title:Shake Your Tail
TitleUnicode:Shake Your Tail
Artist:The Quick Brown Fox
ArtistUnicode:The Quick Brown Fox
Creator:-Kazu-
Version:Inner Oni
Source:
Tags:dave remmler renard ren queenston speedcore -[ ix ishida xi ]-
BeatmapID:1749209
BeatmapSetID:825355

[Difficulty]
HPDrainRate:5
CircleSize:5
OverallDifficulty:6
ApproachRate:5
SliderMultiplier:1.4
SliderTickRate:1

[Events]
//Background and Video events
0,0,"purple_nova_by_mrtoxin-d4v5845.jpg",0,0
//Break Periods
//Storyboard Layer 0 (Background)
//Storyboard Layer 1 (Fail)
//Storyboard Layer 2 (Pass)
//Storyboard Layer 3 (Foreground)
//Storyboard Sound Samples

[TimingPoints]
2685,329.268694230115,4,1,0,100,1,0
43678,-98.0392156862745,4,1,0,100,0,0
43843,-96.1538461538461,4,1,0,100,0,0
44008,-94.3396226415094,4,1,0,100,0,0
44172,-92.5925925925926,4,1,0,100,0,0
44337,-90.9090909090909,4,1,0,100,0,0
44502,-89.2857142857143,4,1,0,100,0,0
44584,-88.4955752212389,4,1,0,100,0,0
44666,-87.719298245614,4,1,0,100,0,0
44831,-86.2068965517241,4,1,0,100,0,0
54050,-90.9090909090909,4,1,0,100,0,0
55367,-86.9565217391304,4,1,0,100,0,0
65904,-83.3333333333333,4,1,0,100,0,1
75124,-76.9230769230769,4,1,0,20,0,0
76441,-83.3333333333333,4,1,0,100,0,1
86977,-86.9565217391304,4,1,0,100,0,0
96197,-90.9090909090909,4,1,0,100,0,0
97514,-86.9565217391304,4,1,0,100,0,0
108050,-100,4,1,0,100,0,0
139660,-86.9565217391304,4,1,0,100,0,0
149950,-85.4700854700855,4,1,0,100,0,0
150032,-84.7457627118644,4,1,0,100,0,0
150115,-84.0336134453781,4,1,0,100,0,0
150197,-83.3333333333333,4,1,0,100,0,1
160733,-83.3333333333333,4,1,0,100,0,0

[HitObjects]
256,192,2684,5,4,0:0:0:0:
256,192,3014,1,8,0:0:0:0:
256,192,3178,1,8,0:0:0:0:
256,192,3261,1,0,0:0:0:0:
256,192,3425,1,0,0:0:0:0:
256,192,3508,1,8,0:0:0:0:
256,192,3755,1,0,0:0:0:0:
256,192,3919,1,0,0:0:0:0:
256,192,4002,1,8,0:0:0:0:
256,192,4249,1,0,0:0:0:0:
256,192,4413,1,0,0:0:0:0:
256,192,4495,1,8,0:0:0:0:
256,192,4742,1,0,0:0:0:0:
256,192,4907,1,0,0:0:0:0:
256,192,4989,1,8,0:0:0:0:
256,192,5319,1,4,0:0:0:0:
256,192,5648,1,8,0:0:0:0:
256,192,5813,1,8,0:0:0:0:
256,192,5895,1,0,0:0:0:0:
256,192,5977,1,0,0:0:0:0:
256,192,6142,1,8,0:0:0:0:
256,192,6389,1,0,0:0:0:0:
256,192,6553,1,0,0:0:0:0:
256,192,6636,1,8,0:0:0:0:
256,192,6883,1,0,0:0:0:0:
256,192,7047,1,0,0:0:0:0:
256,192,7130,1,8,0:0:0:0:
256,192,7377,1,0,0:0:0:0:
256,192,7541,1,0,0:0:0:0:
256,192,7624,1,8,0:0:0:0:
256,192,7953,1,4,0:0:0:0:
256,192,8282,1,8,0:0:0:0:
256,192,8447,1,0,0:0:0:0:
256,192,8529,1,8,0:0:0:0:
256,192,8611,1,0,0:0:0:0:
256,192,8694,1,0,0:0:0:0:
256,192,8776,1,8,0:0:0:0:
256,192,9023,1,0,0:0:0:0:
256,192,9188,1,0,0:0:0:0:
256,192,9270,1,8,0:0:0:0:
256,192,9517,1,0,0:0:0:0:
256,192,9681,1,0,0:0:0:0:
256,192,9764,1,8,0:0:0:0:
256,192,10011,1,0,0:0:0:0:
256,192,10175,1,0,0:0:0:0:
256,192,10258,1,8,0:0:0:0:
256,192,10587,1,4,0:0:0:0:
256,192,10916,1,8,0:0:0:0:
256,192,11163,1,0,0:0:0:0:
256,192,11328,1,0,0:0:0:0:
256,192,11410,1,8,0:0:0:0:
256,192,11657,1,0,0:0:0:0:
256,192,11822,1,0,0:0:0:0:
256,192,11904,1,8,0:0:0:0:
256,192,12151,1,0,0:0:0:0:
256,192,12316,1,0,0:0:0:0:
256,192,12398,1,8,0:0:0:0:
256,192,12645,1,0,0:0:0:0:
256,192,12810,1,0,0:0:0:0:
256,192,12892,1,8,0:0:0:0:
256,192,13056,1,0,0:0:0:0:
256,192,13221,1,0,0:0:0:0:
256,192,13880,1,0,0:0:0:0:
256,192,14538,1,8,0:0:0:0:
256,192,14703,1,8,0:0:0:0:
256,192,15032,1,0,0:0:0:0:
256,192,15361,1,0,0:0:0:0:
256,192,15526,1,8,0:0:0:0:
256,192,15855,1,0,0:0:0:0:
256,192,16514,1,0,0:0:0:0:
256,192,17172,1,8,0:0:0:0:
256,192,17337,1,8,0:0:0:0:
256,192,17666,1,0,0:0:0:0:
256,192,17995,1,0,0:0:0:0:
256,192,18160,1,8,0:0:0:0:
256,192,18489,1,0,0:0:0:0:
256,192,19148,1,0,0:0:0:0:
256,192,19806,1,8,0:0:0:0:
256,192,19971,1,8,0:0:0:0:
256,192,20300,1,0,0:0:0:0:
256,192,20630,1,0,0:0:0:0:
256,192,20794,1,8,0:0:0:0:
256,192,21124,1,0,0:0:0:0:
256,192,21782,1,0,0:0:0:0:
256,192,22441,1,8,0:0:0:0:
256,192,22770,1,8,0:0:0:0:
256,192,23099,1,8,0:0:0:0:
256,192,23264,1,0,0:0:0:0:
256,192,23428,1,8,0:0:0:0:
256,192,23593,1,0,0:0:0:0:
256,192,23758,1,8,0:0:0:0:
256,192,23840,1,0,0:0:0:0:
256,192,23922,1,0,0:0:0:0:
256,192,24087,1,8,0:0:0:0:
256,192,24252,1,8,0:0:0:0:
256,192,24334,1,0,0:0:0:0:
256,192,24416,1,8,0:0:0:0:
256,192,24499,1,8,0:0:0:0:
256,192,24581,1,0,0:0:0:0:
256,192,24746,1,8,0:0:0:0:
256,192,24910,1,0,0:0:0:0:
256,192,24992,1,8,0:0:0:0:
256,192,25075,1,0,0:0:0:0:
256,192,25157,1,0,0:0:0:0:
256,192,25239,1,8,0:0:0:0:
256,192,25404,1,8,0:0:0:0:
256,192,25569,1,0,0:0:0:0:
256,192,25651,1,0,0:0:0:0:
256,192,25733,1,8,0:0:0:0:
256,192,25816,1,0,0:0:0:0:
256,192,25898,1,8,0:0:0:0:
256,192,26063,1,8,0:0:0:0:
256,192,26227,1,8,0:0:0:0:
256,192,26392,1,0,0:0:0:0:
256,192,26556,1,8,0:0:0:0:
256,192,26639,1,8,0:0:0:0:
256,192,26721,1,0,0:0:0:0:
256,192,26886,1,8,0:0:0:0:
256,192,27050,1,0,0:0:0:0:
256,192,27215,1,8,0:0:0:0:
256,192,27297,1,0,0:0:0:0:
256,192,27380,1,0,0:0:0:0:
256,192,27544,1,0,0:0:0:0:
256,192,27627,1,8,0:0:0:0:
256,192,27709,1,0,0:0:0:0:
256,192,27791,1,0,0:0:0:0:
256,192,27874,1,8,0:0:0:0:
256,192,28038,1,0,0:0:0:0:
256,192,28203,1,8,0:0:0:0:
256,192,28285,1,0,0:0:0:0:
256,192,28367,1,8,0:0:0:0:
256,192,28450,1,8,0:0:0:0:
256,192,28532,1,8,0:0:0:0:
256,192,28614,1,0,0:0:0:0:
256,192,28697,1,8,0:0:0:0:
256,192,28861,1,8,0:0:0:0:
256,192,29026,1,12,0:0:0:0:
256,192,29355,1,8,0:0:0:0:
256,192,29520,1,8,0:0:0:0:
256,192,29602,1,0,0:0:0:0:
256,192,29685,1,8,0:0:0:0:
256,192,29767,1,8,0:0:0:0:
256,192,29849,1,0,0:0:0:0:
256,192,30014,1,8,0:0:0:0:
256,192,30178,1,0,0:0:0:0:
256,192,30261,1,8,0:0:0:0:
256,192,30343,1,0,0:0:0:0:
256,192,30425,1,0,0:0:0:0:
256,192,30508,1,8,0:0:0:0:
256,192,30672,1,0,0:0:0:0:
256,192,30837,1,0,0:0:0:0:
256,192,30919,1,0,0:0:0:0:
256,192,31002,1,8,0:0:0:0:
256,192,31084,1,0,0:0:0:0:
256,192,31166,1,8,0:0:0:0:
256,192,31331,1,8,0:0:0:0:
256,192,31496,1,8,0:0:0:0:
256,192,31660,1,0,0:0:0:0:
256,192,31825,1,8,0:0:0:0:
256,192,31907,1,8,0:0:0:0:
256,192,31989,1,0,0:0:0:0:
256,192,32072,1,8,0:0:0:0:
256,192,32154,1,0,0:0:0:0:
256,192,32319,1,0,0:0:0:0:
256,192,32483,1,8,0:0:0:0:
256,192,32566,1,0,0:0:0:0:
256,192,32648,1,0,0:0:0:0:
256,192,32813,1,0,0:0:0:0:
256,192,32977,1,8,0:0:0:0:
256,192,33060,1,0,0:0:0:0:
256,192,33224,1,0,0:0:0:0:
256,192,33306,1,8,0:0:0:0:
256,192,33389,1,0,0:0:0:0:
256,192,33553,1,0,0:0:0:0:
256,192,33636,1,8,0:0:0:0:
256,192,33800,1,8,0:0:0:0:
256,192,33965,1,0,0:0:0:0:
256,192,34020,1,0,0:0:0:0:
256,192,34075,1,0,0:0:0:0:
256,192,34130,1,0,0:0:0:0:
256,192,34185,1,0,0:0:0:0:
256,192,34239,1,0,0:0:0:0:
256,192,34294,1,8,0:0:0:0:
256,192,34624,1,8,0:0:0:0:
256,192,34788,1,8,0:0:0:0:
256,192,34871,1,0,0:0:0:0:
256,192,34953,1,8,0:0:0:0:
256,192,35035,1,8,0:0:0:0:
256,192,35117,1,0,0:0:0:0:
256,192,35282,1,8,0:0:0:0:
256,192,35447,1,0,0:0:0:0:
256,192,35529,1,8,0:0:0:0:
256,192,35611,1,0,0:0:0:0:
256,192,35694,1,0,0:0:0:0:
256,192,35776,1,8,0:0:0:0:
256,192,35941,1,8,0:0:0:0:
256,192,36105,1,0,0:0:0:0:
256,192,36188,1,0,0:0:0:0:
256,192,36270,1,8,0:0:0:0:
256,192,36352,1,0,0:0:0:0:
256,192,36435,1,8,0:0:0:0:
256,192,36599,1,8,0:0:0:0:
256,192,36764,1,8,0:0:0:0:
256,192,36928,1,0,0:0:0:0:
256,192,37093,1,8,0:0:0:0:
256,192,37175,1,8,0:0:0:0:
256,192,37258,1,0,0:0:0:0:
256,192,37422,1,8,0:0:0:0:
256,192,37587,1,0,0:0:0:0:
256,192,37752,1,8,0:0:0:0:
256,192,37834,1,0,0:0:0:0:
256,192,37916,1,0,0:0:0:0:
256,192,38081,1,0,0:0:0:0:
256,192,38163,1,8,0:0:0:0:
256,192,38246,1,0,0:0:0:0:
256,192,38328,1,0,0:0:0:0:
256,192,38410,1,8,0:0:0:0:
256,192,38575,1,0,0:0:0:0:
256,192,38739,1,8,0:0:0:0:
256,192,38822,1,0,0:0:0:0:
256,192,38904,1,8,0:0:0:0:
256,192,38986,1,8,0:0:0:0:
256,192,39069,1,8,0:0:0:0:
256,192,39151,1,0,0:0:0:0:
256,192,39233,1,8,0:0:0:0:
256,192,39398,1,8,0:0:0:0:
256,192,39563,1,12,0:0:0:0:
256,192,39892,1,8,0:0:0:0:
256,192,40056,1,8,0:0:0:0:
256,192,40139,1,0,0:0:0:0:
256,192,40221,1,8,0:0:0:0:
256,192,40303,1,8,0:0:0:0:
256,192,40386,1,0,0:0:0:0:
256,192,40550,1,8,0:0:0:0:
256,192,40715,1,0,0:0:0:0:
256,192,40797,1,8,0:0:0:0:
256,192,40880,1,0,0:0:0:0:
256,192,40962,1,0,0:0:0:0:
256,192,41044,1,8,0:0:0:0:
256,192,41209,1,0,0:0:0:0:
256,192,41374,1,0,0:0:0:0:
256,192,41456,1,0,0:0:0:0:
256,192,41538,1,8,0:0:0:0:
256,192,41621,1,0,0:0:0:0:
256,192,41703,1,8,0:0:0:0:
256,192,41867,1,8,0:0:0:0:
256,192,42032,1,8,0:0:0:0:
256,192,42197,1,8,0:0:0:0:
256,192,42361,1,0,0:0:0:0:
256,192,42444,1,0,0:0:0:0:
256,192,42526,1,8,0:0:0:0:
256,192,42691,1,0,0:0:0:0:
256,192,42855,1,8,0:0:0:0:
256,192,42938,1,0,0:0:0:0:
256,192,43020,1,0,0:0:0:0:
256,192,43185,1,8,0:0:0:0:
256,192,43267,1,0,0:0:0:0:
256,192,43349,1,0,0:0:0:0:
256,192,43432,1,0,0:0:0:0:
256,192,43514,1,8,0:0:0:0:
256,192,43678,1,0,0:0:0:0:
256,192,43843,1,8,0:0:0:0:
256,192,44008,1,0,0:0:0:0:
256,192,44172,1,8,0:0:0:0:
256,192,44337,1,8,0:0:0:0:
256,192,44502,1,8,0:0:0:0:
256,192,44584,1,0,0:0:0:0:
256,192,44666,1,0,0:0:0:0:
256,192,44831,1,0,0:0:0:0:
256,192,44913,1,8,0:0:0:0:
256,192,44996,1,8,0:0:0:0:
256,192,45078,1,0,0:0:0:0:
256,192,45160,1,8,0:0:0:0:
256,192,45242,1,0,0:0:0:0:
256,192,45325,1,0,0:0:0:0:
256,192,45407,1,8,0:0:0:0:
256,192,45489,1,8,0:0:0:0:
256,192,45572,1,8,0:0:0:0:
256,192,45654,1,0,0:0:0:0:
256,192,45736,1,8,0:0:0:0:
256,192,45819,1,8,0:0:0:0:
256,192,45901,1,0,0:0:0:0:
256,192,45983,1,8,0:0:0:0:
256,192,46148,1,0,0:0:0:0:
256,192,46230,1,0,0:0:0:0:
256,192,46313,1,8,0:0:0:0:
256,192,46395,1,0,0:0:0:0:
256,192,46477,1,0,0:0:0:0:
256,192,46560,1,8,0:0:0:0:
256,192,46642,1,0,0:0:0:0:
256,192,46724,1,8,0:0:0:0:
256,192,46889,1,0,0:0:0:0:
256,192,46971,1,0,0:0:0:0:
256,192,47053,1,8,0:0:0:0:
256,192,47136,1,0,0:0:0:0:
256,192,47218,1,8,0:0:0:0:
256,192,47300,1,8,0:0:0:0:
256,192,47383,1,0,0:0:0:0:
256,192,47465,1,0,0:0:0:0:
256,192,47630,1,8,0:0:0:0:
256,192,47712,1,0,0:0:0:0:
256,192,47794,1,8,0:0:0:0:
256,192,47877,1,0,0:0:0:0:
256,192,47959,1,0,0:0:0:0:
256,192,48041,1,8,0:0:0:0:
256,192,48124,1,8,0:0:0:0:
256,192,48206,1,8,0:0:0:0:
256,192,48288,1,0,0:0:0:0:
256,192,48371,1,8,0:0:0:0:
256,192,48453,1,8,0:0:0:0:
256,192,48535,1,0,0:0:0:0:
256,192,48617,1,8,0:0:0:0:
256,192,48782,1,0,0:0:0:0:
256,192,48864,1,0,0:0:0:0:
256,192,48947,1,8,0:0:0:0:
256,192,49029,1,0,0:0:0:0:
256,192,49111,1,0,0:0:0:0:
256,192,49194,1,8,0:0:0:0:
256,192,49276,1,0,0:0:0:0:
256,192,49358,1,8,0:0:0:0:
256,192,49523,1,0,0:0:0:0:
256,192,49605,1,0,0:0:0:0:
256,192,49688,1,8,0:0:0:0:
256,192,49770,1,0,0:0:0:0:
256,192,49852,1,8,0:0:0:0:
256,192,49935,1,8,0:0:0:0:
256,192,50017,1,8,0:0:0:0:
256,192,50099,1,4,0:0:0:0:
256,192,50264,1,8,0:0:0:0:
256,192,50346,1,0,0:0:0:0:
256,192,50428,1,0,0:0:0:0:
256,192,50511,1,8,0:0:0:0:
256,192,50593,1,0,0:0:0:0:
256,192,50675,1,8,0:0:0:0:
256,192,50758,1,8,0:0:0:0:
256,192,50840,1,8,0:0:0:0:
256,192,50922,1,0,0:0:0:0:
256,192,51005,1,8,0:0:0:0:
256,192,51087,1,8,0:0:0:0:
256,192,51169,1,0,0:0:0:0:
256,192,51252,1,8,0:0:0:0:
256,192,51416,1,0,0:0:0:0:
256,192,51499,1,0,0:0:0:0:
256,192,51581,1,8,0:0:0:0:
256,192,51663,1,0,0:0:0:0:
256,192,51746,1,8,0:0:0:0:
256,192,51828,1,8,0:0:0:0:
256,192,51910,1,0,0:0:0:0:
256,192,51992,1,8,0:0:0:0:
256,192,52157,1,8,0:0:0:0:
256,192,52239,1,0,0:0:0:0:
256,192,52322,1,8,0:0:0:0:
256,192,52404,1,8,0:0:0:0:
256,192,52486,1,0,0:0:0:0:
256,192,52569,1,8,0:0:0:0:
256,192,52651,1,0,0:0:0:0:
256,192,52733,1,0,0:0:0:0:
256,192,52898,1,8,0:0:0:0:
256,192,52980,1,0,0:0:0:0:
256,192,53063,1,0,0:0:0:0:
256,192,53145,1,8,0:0:0:0:
256,192,53227,1,0,0:0:0:0:
256,192,53310,1,8,0:0:0:0:
256,192,53392,1,8,0:0:0:0:
256,192,53474,1,0,0:0:0:0:
256,192,53557,1,0,0:0:0:0:
256,192,53639,1,8,0:0:0:0:
256,192,53721,1,0,0:0:0:0:
256,192,53803,1,0,0:0:0:0:
256,192,53886,1,8,0:0:0:0:
256,192,54050,1,8,0:0:0:0:
256,192,54105,1,8,0:0:0:0:
256,192,54160,1,8,0:0:0:0:
256,192,54215,1,8,0:0:0:0:
256,192,54380,1,0,0:0:0:0:
256,192,54544,1,8,0:0:0:0:
256,192,54709,1,8,0:0:0:0:
256,192,54764,1,8,0:0:0:0:
256,192,54819,1,8,0:0:0:0:
256,192,54874,1,8,0:0:0:0:
256,192,55038,1,0,0:0:0:0:
256,192,55203,1,8,0:0:0:0:
256,192,55367,1,0,0:0:0:0:
256,192,55450,1,8,0:0:0:0:
256,192,55532,1,0,0:0:0:0:
256,192,55614,1,0,0:0:0:0:
256,192,55697,1,8,0:0:0:0:
256,192,55779,1,0,0:0:0:0:
256,192,55861,1,8,0:0:0:0:
256,192,55944,1,0,0:0:0:0:
256,192,56026,1,8,0:0:0:0:
256,192,56108,1,8,0:0:0:0:
256,192,56191,1,0,0:0:0:0:
256,192,56273,1,8,0:0:0:0:
256,192,56355,1,0,0:0:0:0:
256,192,56438,1,0,0:0:0:0:
256,192,56520,1,8,0:0:0:0:
256,192,56602,1,0,0:0:0:0:
256,192,56685,1,8,0:0:0:0:
256,192,56767,1,8,0:0:0:0:
256,192,56849,1,0,0:0:0:0:
256,192,56932,1,8,0:0:0:0:
256,192,57014,1,8,0:0:0:0:
256,192,57096,1,0,0:0:0:0:
256,192,57178,1,8,0:0:0:0:
256,192,57261,1,0,0:0:0:0:
256,192,57343,1,8,0:0:0:0:
256,192,57425,1,8,0:0:0:0:
256,192,57508,1,0,0:0:0:0:
256,192,57590,1,8,0:0:0:0:
256,192,57672,1,0,0:0:0:0:
256,192,57755,1,0,0:0:0:0:
256,192,57837,1,8,0:0:0:0:
256,192,57919,1,0,0:0:0:0:
256,192,58002,1,0,0:0:0:0:
256,192,58084,1,0,0:0:0:0:
256,192,58166,1,8,0:0:0:0:
256,192,58249,1,0,0:0:0:0:
256,192,58331,1,0,0:0:0:0:
256,192,58413,1,0,0:0:0:0:
256,192,58496,1,8,0:0:0:0:
256,192,58578,1,0,0:0:0:0:
256,192,58660,1,8,0:0:0:0:
256,192,58742,1,8,0:0:0:0:
256,192,58825,1,0,0:0:0:0:
256,192,58907,1,8,0:0:0:0:
256,192,58989,1,0,0:0:0:0:
256,192,59072,1,0,0:0:0:0:
256,192,59154,1,8,0:0:0:0:
256,192,59236,1,0,0:0:0:0:
256,192,59319,1,8,0:0:0:0:
256,192,59401,1,0,0:0:0:0:
256,192,59483,1,8,0:0:0:0:
256,192,59566,1,8,0:0:0:0:
256,192,59648,1,0,0:0:0:0:
256,192,59730,1,0,0:0:0:0:
256,192,59813,1,8,0:0:0:0:
256,192,59895,1,8,0:0:0:0:
256,192,59977,1,8,0:0:0:0:
256,192,60060,1,0,0:0:0:0:
256,192,60142,1,8,0:0:0:0:
256,192,60224,1,8,0:0:0:0:
256,192,60307,1,0,0:0:0:0:
256,192,60389,1,0,0:0:0:0:
256,192,60471,1,8,0:0:0:0:
256,192,60553,1,0,0:0:0:0:
256,192,60636,1,0,0:0:0:0:
256,192,60718,1,0,0:0:0:0:
256,192,60800,1,8,0:0:0:0:
256,192,60883,1,0,0:0:0:0:
256,192,60965,1,0,0:0:0:0:
256,192,61047,1,0,0:0:0:0:
256,192,61130,1,8,0:0:0:0:
256,192,61212,1,0,0:0:0:0:
256,192,61294,1,8,0:0:0:0:
256,192,61377,1,8,0:0:0:0:
256,192,61459,1,0,0:0:0:0:
256,192,61541,1,8,0:0:0:0:
256,192,61624,1,0,0:0:0:0:
256,192,61706,1,0,0:0:0:0:
256,192,61788,1,8,0:0:0:0:
256,192,61871,1,0,0:0:0:0:
256,192,61953,1,8,0:0:0:0:
256,192,62035,1,8,0:0:0:0:
256,192,62117,1,0,0:0:0:0:
256,192,62200,1,8,0:0:0:0:
256,192,62282,1,0,0:0:0:0:
256,192,62364,1,8,0:0:0:0:
256,192,62447,1,8,0:0:0:0:
256,192,62529,1,8,0:0:0:0:
256,192,62611,1,0,0:0:0:0:
256,192,62694,1,8,0:0:0:0:
256,192,62776,1,0,0:0:0:0:
256,192,62858,1,8,0:0:0:0:
256,192,62941,1,0,0:0:0:0:
256,192,63023,1,0,0:0:0:0:
256,192,63105,1,8,0:0:0:0:
256,192,63188,1,0,0:0:0:0:
256,192,63270,1,0,0:0:0:0:
256,192,63352,1,0,0:0:0:0:
256,192,63435,1,8,0:0:0:0:
256,192,63517,1,0,0:0:0:0:
256,192,63599,1,0,0:0:0:0:
256,192,63682,1,0,0:0:0:0:
256,192,63764,1,8,0:0:0:0:
256,192,63846,1,0,0:0:0:0:
256,192,63928,1,8,0:0:0:0:
256,192,64011,1,8,0:0:0:0:
256,192,64093,1,0,0:0:0:0:
256,192,64175,1,8,0:0:0:0:
256,192,64258,1,0,0:0:0:0:
256,192,64340,1,0,0:0:0:0:
256,192,64422,1,8,0:0:0:0:
256,192,64587,1,0,0:0:0:0:
256,192,65904,1,0,0:0:0:0:
256,192,65986,1,8,0:0:0:0:
256,192,66069,1,0,0:0:0:0:
256,192,66124,1,0,0:0:0:0:
256,192,66178,1,0,0:0:0:0:
256,192,66233,1,8,0:0:0:0:
256,192,66316,1,0,0:0:0:0:
256,192,66398,1,0,0:0:0:0:
256,192,66563,1,8,0:0:0:0:
256,192,66618,1,8,0:0:0:0:
256,192,66672,1,8,0:0:0:0:
256,192,66727,1,0,0:0:0:0:
256,192,66810,1,8,0:0:0:0:
256,192,66892,1,8,0:0:0:0:
256,192,66974,1,0,0:0:0:0:
256,192,67057,1,8,0:0:0:0:
256,192,67221,1,0,0:0:0:0:
256,192,67303,1,0,0:0:0:0:
256,192,67386,1,8,0:0:0:0:
256,192,67441,1,8,0:0:0:0:
256,192,67496,1,8,0:0:0:0:
256,192,67550,1,0,0:0:0:0:
256,192,67715,1,8,0:0:0:0:
256,192,67797,1,8,0:0:0:0:
256,192,67880,1,0,0:0:0:0:
256,192,67962,1,0,0:0:0:0:
256,192,68044,1,8,0:0:0:0:
256,192,68099,1,8,0:0:0:0:
256,192,68154,1,8,0:0:0:0:
256,192,68209,1,0,0:0:0:0:
256,192,68291,1,0,0:0:0:0:
256,192,68374,1,8,0:0:0:0:
256,192,68538,1,0,0:0:0:0:
256,192,68621,1,0,0:0:0:0:
256,192,68703,1,8,0:0:0:0:
256,192,68758,1,8,0:0:0:0:
256,192,68813,1,8,0:0:0:0:
256,192,68868,1,0,0:0:0:0:
256,192,68950,1,0,0:0:0:0:
256,192,69032,1,8,0:0:0:0:
256,192,69087,1,8,0:0:0:0:
256,192,69142,1,8,0:0:0:0:
256,192,69197,1,0,0:0:0:0:
256,192,69307,1,8,0:0:0:0:
256,192,69361,1,0,0:0:0:0:
256,192,69471,1,8,0:0:0:0:
256,192,69526,1,0,0:0:0:0:
256,192,69636,1,8,0:0:0:0:
256,192,69691,1,0,0:0:0:0:
256,192,69800,1,8,0:0:0:0:
256,192,69855,1,0,0:0:0:0:
256,192,69938,1,0,0:0:0:0:
256,192,70020,1,8,0:0:0:0:
256,192,70075,1,8,0:0:0:0:
256,192,70130,1,8,0:0:0:0:
256,192,70185,1,0,0:0:0:0:
256,192,70267,1,8,0:0:0:0:
256,192,70349,1,0,0:0:0:0:
256,192,70404,1,0,0:0:0:0:
256,192,70459,1,0,0:0:0:0:
256,192,70514,1,8,0:0:0:0:
256,192,70678,1,0,0:0:0:0:
256,192,70761,1,0,0:0:0:0:
256,192,70843,1,8,0:0:0:0:
256,192,71172,1,0,0:0:0:0:
256,192,71255,1,8,0:0:0:0:
256,192,71337,1,0,0:0:0:0:
256,192,71392,1,0,0:0:0:0:
256,192,71447,1,0,0:0:0:0:
256,192,71502,1,8,0:0:0:0:
256,192,71584,1,0,0:0:0:0:
256,192,71666,1,0,0:0:0:0:
256,192,71831,1,8,0:0:0:0:
256,192,71886,1,8,0:0:0:0:
256,192,71941,1,8,0:0:0:0:
256,192,71996,1,0,0:0:0:0:
256,192,72078,1,8,0:0:0:0:
256,192,72160,1,8,0:0:0:0:
256,192,72243,1,0,0:0:0:0:
256,192,72325,1,8,0:0:0:0:
256,192,72489,1,0,0:0:0:0:
256,192,72572,1,0,0:0:0:0:
256,192,72654,1,8,0:0:0:0:
256,192,72709,1,8,0:0:0:0:
256,192,72764,1,8,0:0:0:0:
256,192,72819,1,0,0:0:0:0:
256,192,72983,1,8,0:0:0:0:
256,192,73066,1,8,0:0:0:0:
256,192,73148,1,0,0:0:0:0:
256,192,73230,1,0,0:0:0:0:
256,192,73313,1,8,0:0:0:0:
256,192,73368,1,8,0:0:0:0:
256,192,73422,1,8,0:0:0:0:
256,192,73477,1,0,0:0:0:0:
256,192,73560,1,0,0:0:0:0:
256,192,73642,1,8,0:0:0:0:
256,192,73807,1,0,0:0:0:0:
256,192,73889,1,0,0:0:0:0:
256,192,73971,1,8,0:0:0:0:
256,192,74026,1,8,0:0:0:0:
256,192,74081,1,8,0:0:0:0:
256,192,74136,1,0,0:0:0:0:
256,192,74218,1,0,0:0:0:0:
256,192,74300,1,8,0:0:0:0:
256,192,74355,1,8,0:0:0:0:
256,192,74410,1,8,0:0:0:0:
256,192,74465,1,0,0:0:0:0:
256,192,74575,1,8,0:0:0:0:
256,192,74630,1,0,0:0:0:0:
256,192,74739,1,8,0:0:0:0:
256,192,74794,1,0,0:0:0:0:
256,192,74904,1,8,0:0:0:0:
256,192,74959,1,0,0:0:0:0:
256,192,75124,12,0,75288,0:0:0:0:
192,160,75453,6,0,L|128:96,1,90.9999958343508
256,192,75782,12,0,75947,0:0:0:0:
288,128,76111,6,0,L|384:192,1,90.9999958343508
256,192,76441,1,0,0:0:0:0:
256,192,76523,1,8,0:0:0:0:
256,192,76605,1,0,0:0:0:0:
256,192,76660,1,0,0:0:0:0:
256,192,76715,1,0,0:0:0:0:
256,192,76770,1,8,0:0:0:0:
256,192,76852,1,0,0:0:0:0:
256,192,76935,1,0,0:0:0:0:
256,192,77099,1,8,0:0:0:0:
256,192,77154,1,8,0:0:0:0:
256,192,77209,1,8,0:0:0:0:
256,192,77264,1,0,0:0:0:0:
256,192,77346,1,8,0:0:0:0:
256,192,77428,1,8,0:0:0:0:
256,192,77511,1,0,0:0:0:0:
256,192,77593,1,8,0:0:0:0:
256,192,77758,1,0,0:0:0:0:
256,192,77840,1,0,0:0:0:0:
256,192,77922,1,8,0:0:0:0:
256,192,77977,1,8,0:0:0:0:
256,192,78032,1,8,0:0:0:0:
256,192,78087,1,0,0:0:0:0:
256,192,78252,1,8,0:0:0:0:
256,192,78334,1,8,0:0:0:0:
256,192,78416,1,0,0:0:0:0:
256,192,78499,1,0,0:0:0:0:
256,192,78581,1,8,0:0:0:0:
256,192,78636,1,8,0:0:0:0:
256,192,78691,1,8,0:0:0:0:
256,192,78746,1,0,0:0:0:0:
256,192,78828,1,0,0:0:0:0:
256,192,78910,1,8,0:0:0:0:
256,192,79075,1,0,0:0:0:0:
256,192,79157,1,0,0:0:0:0:
256,192,79239,1,8,0:0:0:0:
256,192,79294,1,8,0:0:0:0:
256,192,79349,1,8,0:0:0:0:
256,192,79404,1,0,0:0:0:0:
256,192,79486,1,0,0:0:0:0:
256,192,79569,1,8,0:0:0:0:
256,192,79624,1,8,0:0:0:0:
256,192,79678,1,8,0:0:0:0:
256,192,79733,1,0,0:0:0:0:
256,192,79843,1,8,0:0:0:0:
256,192,79898,1,0,0:0:0:0:
256,192,80008,1,8,0:0:0:0:
256,192,80063,1,0,0:0:0:0:
256,192,80172,1,8,0:0:0:0:
256,192,80227,1,0,0:0:0:0:
256,192,80337,1,8,0:0:0:0:
256,192,80392,1,0,0:0:0:0:
256,192,80474,1,0,0:0:0:0:
256,192,80557,1,8,0:0:0:0:
256,192,80611,1,8,0:0:0:0:
256,192,80666,1,8,0:0:0:0:
256,192,80721,1,0,0:0:0:0:
256,192,80803,1,8,0:0:0:0:
256,192,80886,1,0,0:0:0:0:
256,192,80941,1,0,0:0:0:0:
256,192,80996,1,0,0:0:0:0:
256,192,81050,1,8,0:0:0:0:
256,192,81215,1,0,0:0:0:0:
256,192,81297,1,0,0:0:0:0:
256,192,81380,1,8,0:0:0:0:
256,192,81709,1,0,0:0:0:0:
256,192,81791,1,8,0:0:0:0:
256,192,81874,1,0,0:0:0:0:
256,192,81928,1,0,0:0:0:0:
256,192,81983,1,0,0:0:0:0:
256,192,82038,1,8,0:0:0:0:
256,192,82121,1,0,0:0:0:0:
256,192,82203,1,0,0:0:0:0:
256,192,82368,1,8,0:0:0:0:
256,192,82422,1,8,0:0:0:0:
256,192,82477,1,8,0:0:0:0:
256,192,82532,1,0,0:0:0:0:
256,192,82614,1,8,0:0:0:0:
256,192,82697,1,8,0:0:0:0:
256,192,82779,1,0,0:0:0:0:
256,192,82861,1,8,0:0:0:0:
256,192,83026,1,0,0:0:0:0:
256,192,83108,1,0,0:0:0:0:
256,192,83191,1,8,0:0:0:0:
256,192,83246,1,8,0:0:0:0:
256,192,83300,1,8,0:0:0:0:
256,192,83355,1,0,0:0:0:0:
256,192,83520,1,8,0:0:0:0:
256,192,83602,1,8,0:0:0:0:
256,192,83685,1,0,0:0:0:0:
256,192,83767,1,0,0:0:0:0:
256,192,83849,1,8,0:0:0:0:
256,192,83904,1,8,0:0:0:0:
256,192,83959,1,8,0:0:0:0:
256,192,84014,1,0,0:0:0:0:
256,192,84096,1,0,0:0:0:0:
256,192,84179,1,8,0:0:0:0:
256,192,84343,1,0,0:0:0:0:
256,192,84425,1,0,0:0:0:0:
256,192,84508,1,8,0:0:0:0:
256,192,84563,1,8,0:0:0:0:
256,192,84618,1,8,0:0:0:0:
256,192,84672,1,0,0:0:0:0:
256,192,84755,1,0,0:0:0:0:
256,192,84837,1,8,0:0:0:0:
256,192,84892,1,8,0:0:0:0:
256,192,84947,1,8,0:0:0:0:
256,192,85002,1,0,0:0:0:0:
256,192,85111,1,8,0:0:0:0:
256,192,85166,1,0,0:0:0:0:
256,192,85276,1,8,0:0:0:0:
256,192,85331,1,0,0:0:0:0:
256,192,85441,1,8,0:0:0:0:
256,192,85496,1,0,0:0:0:0:
256,192,85605,1,8,0:0:0:0:
256,192,85660,1,0,0:0:0:0:
256,192,86319,1,0,0:0:0:0:
256,192,86977,1,0,0:0:0:0:
256,192,87060,1,8,0:0:0:0:
256,192,87142,1,8,0:0:0:0:
256,192,87224,1,0,0:0:0:0:
256,192,87307,1,8,0:0:0:0:
256,192,87389,1,0,0:0:0:0:
256,192,87471,1,0,0:0:0:0:
256,192,87554,1,8,0:0:0:0:
256,192,87636,1,8,0:0:0:0:
256,192,87718,1,8,0:0:0:0:
256,192,87800,1,0,0:0:0:0:
256,192,87883,1,8,0:0:0:0:
256,192,87965,1,8,0:0:0:0:
256,192,88047,1,0,0:0:0:0:
256,192,88130,1,8,0:0:0:0:
256,192,88294,1,0,0:0:0:0:
256,192,88377,1,0,0:0:0:0:
256,192,88459,1,8,0:0:0:0:
256,192,88541,1,0,0:0:0:0:
256,192,88624,1,0,0:0:0:0:
256,192,88706,1,8,0:0:0:0:
256,192,88788,1,0,0:0:0:0:
256,192,88871,1,8,0:0:0:0:
256,192,89035,1,0,0:0:0:0:
256,192,89118,1,0,0:0:0:0:
256,192,89200,1,8,0:0:0:0:
256,192,89282,1,0,0:0:0:0:
256,192,89364,1,8,0:0:0:0:
256,192,89447,1,8,0:0:0:0:
256,192,89529,1,0,0:0:0:0:
256,192,89611,1,0,0:0:0:0:
256,192,89776,1,8,0:0:0:0:
256,192,89858,1,0,0:0:0:0:
256,192,89941,1,8,0:0:0:0:
256,192,90023,1,0,0:0:0:0:
256,192,90105,1,0,0:0:0:0:
256,192,90188,1,8,0:0:0:0:
256,192,90270,1,8,0:0:0:0:
256,192,90352,1,8,0:0:0:0:
256,192,90435,1,0,0:0:0:0:
256,192,90517,1,8,0:0:0:0:
256,192,90599,1,8,0:0:0:0:
256,192,90682,1,0,0:0:0:0:
256,192,90764,1,8,0:0:0:0:
256,192,90929,1,0,0:0:0:0:
256,192,91011,1,0,0:0:0:0:
256,192,91093,1,8,0:0:0:0:
256,192,91175,1,0,0:0:0:0:
256,192,91258,1,0,0:0:0:0:
256,192,91340,1,8,0:0:0:0:
256,192,91422,1,0,0:0:0:0:
256,192,91505,1,8,0:0:0:0:
256,192,91669,1,0,0:0:0:0:
256,192,91752,1,0,0:0:0:0:
256,192,91834,1,8,0:0:0:0:
256,192,91916,1,0,0:0:0:0:
256,192,91999,1,8,0:0:0:0:
256,192,92081,1,8,0:0:0:0:
256,192,92163,1,8,0:0:0:0:
256,192,92246,1,4,0:0:0:0:
256,192,92410,1,8,0:0:0:0:
256,192,92493,1,0,0:0:0:0:
256,192,92575,1,0,0:0:0:0:
256,192,92657,1,8,0:0:0:0:
256,192,92739,1,0,0:0:0:0:
256,192,92822,1,8,0:0:0:0:
256,192,92904,1,8,0:0:0:0:
256,192,92986,1,8,0:0:0:0:
256,192,93069,1,0,0:0:0:0:
256,192,93151,1,8,0:0:0:0:
256,192,93233,1,8,0:0:0:0:
256,192,93316,1,0,0:0:0:0:
256,192,93398,1,8,0:0:0:0:
256,192,93563,1,0,0:0:0:0:
256,192,93645,1,0,0:0:0:0:
256,192,93727,1,8,0:0:0:0:
256,192,93810,1,0,0:0:0:0:
256,192,93892,1,8,0:0:0:0:
256,192,93974,1,8,0:0:0:0:
256,192,94057,1,0,0:0:0:0:
256,192,94139,1,8,0:0:0:0:
256,192,94304,1,8,0:0:0:0:
256,192,94386,1,0,0:0:0:0:
256,192,94468,1,8,0:0:0:0:
256,192,94550,1,8,0:0:0:0:
256,192,94633,1,0,0:0:0:0:
256,192,94715,1,8,0:0:0:0:
256,192,94797,1,0,0:0:0:0:
256,192,94880,1,0,0:0:0:0:
256,192,95044,1,8,0:0:0:0:
256,192,95127,1,0,0:0:0:0:
256,192,95209,1,0,0:0:0:0:
256,192,95291,1,8,0:0:0:0:
256,192,95374,1,0,0:0:0:0:
256,192,95456,1,8,0:0:0:0:
256,192,95538,1,8,0:0:0:0:
256,192,95621,1,0,0:0:0:0:
256,192,95703,1,0,0:0:0:0:
256,192,95785,1,8,0:0:0:0:
256,192,95868,1,0,0:0:0:0:
256,192,95950,1,0,0:0:0:0:
256,192,96032,1,8,0:0:0:0:
256,192,96197,1,8,0:0:0:0:
256,192,96252,1,8,0:0:0:0:
256,192,96307,1,8,0:0:0:0:
256,192,96361,1,8,0:0:0:0:
256,192,96526,1,0,0:0:0:0:
256,192,96691,1,8,0:0:0:0:
256,192,96855,1,8,0:0:0:0:
256,192,96910,1,8,0:0:0:0:
256,192,96965,1,8,0:0:0:0:
256,192,97020,1,8,0:0:0:0:
256,192,97185,1,0,0:0:0:0:
256,192,97349,1,8,0:0:0:0:
256,192,97514,1,0,0:0:0:0:
256,192,97596,1,8,0:0:0:0:
256,192,97679,1,0,0:0:0:0:
256,192,97761,1,0,0:0:0:0:
256,192,97843,1,8,0:0:0:0:
256,192,97925,1,0,0:0:0:0:
256,192,98008,1,8,0:0:0:0:
256,192,98090,1,0,0:0:0:0:
256,192,98172,1,8,0:0:0:0:
256,192,98255,1,8,0:0:0:0:
256,192,98337,1,0,0:0:0:0:
256,192,98419,1,8,0:0:0:0:
256,192,98502,1,0,0:0:0:0:
256,192,98584,1,0,0:0:0:0:
256,192,98666,1,8,0:0:0:0:
256,192,98749,1,0,0:0:0:0:
256,192,98831,1,8,0:0:0:0:
256,192,98913,1,8,0:0:0:0:
256,192,98996,1,0,0:0:0:0:
256,192,99078,1,8,0:0:0:0:
256,192,99160,1,8,0:0:0:0:
256,192,99243,1,0,0:0:0:0:
256,192,99325,1,8,0:0:0:0:
256,192,99407,1,0,0:0:0:0:
256,192,99489,1,8,0:0:0:0:
256,192,99572,1,8,0:0:0:0:
256,192,99654,1,0,0:0:0:0:
256,192,99736,1,8,0:0:0:0:
256,192,99819,1,0,0:0:0:0:
256,192,99901,1,0,0:0:0:0:
256,192,99983,1,8,0:0:0:0:
256,192,100066,1,0,0:0:0:0:
256,192,100148,1,0,0:0:0:0:
256,192,100230,1,0,0:0:0:0:
256,192,100313,1,8,0:0:0:0:
256,192,100395,1,0,0:0:0:0:
256,192,100477,1,0,0:0:0:0:
256,192,100560,1,0,0:0:0:0:
256,192,100642,1,8,0:0:0:0:
256,192,100724,1,0,0:0:0:0:
256,192,100807,1,8,0:0:0:0:
256,192,100889,1,8,0:0:0:0:
256,192,100971,1,0,0:0:0:0:
256,192,101054,1,8,0:0:0:0:
256,192,101136,1,0,0:0:0:0:
256,192,101218,1,0,0:0:0:0:
256,192,101300,1,8,0:0:0:0:
256,192,101383,1,0,0:0:0:0:
256,192,101465,1,8,0:0:0:0:
256,192,101547,1,0,0:0:0:0:
256,192,101630,1,8,0:0:0:0:
256,192,101712,1,8,0:0:0:0:
256,192,101794,1,0,0:0:0:0:
256,192,101877,1,0,0:0:0:0:
256,192,101959,1,8,0:0:0:0:
256,192,102041,1,8,0:0:0:0:
256,192,102124,1,8,0:0:0:0:
256,192,102206,1,0,0:0:0:0:
256,192,102288,1,8,0:0:0:0:
256,192,102371,1,8,0:0:0:0:
256,192,102453,1,0,0:0:0:0:
256,192,102535,1,0,0:0:0:0:
256,192,102618,1,8,0:0:0:0:
256,192,102700,1,0,0:0:0:0:
256,192,102782,1,0,0:0:0:0:
256,192,102865,1,0,0:0:0:0:
256,192,102947,1,8,0:0:0:0:
256,192,103029,1,0,0:0:0:0:
256,192,103111,1,0,0:0:0:0:
256,192,103194,1,0,0:0:0:0:
256,192,103276,1,8,0:0:0:0:
256,192,103358,1,0,0:0:0:0:
256,192,103441,1,8,0:0:0:0:
256,192,103523,1,8,0:0:0:0:
256,192,103605,1,0,0:0:0:0:
256,192,103688,1,8,0:0:0:0:
256,192,103770,1,0,0:0:0:0:
256,192,103852,1,0,0:0:0:0:
256,192,103935,1,8,0:0:0:0:
256,192,104017,1,0,0:0:0:0:
256,192,104099,1,8,0:0:0:0:
256,192,104182,1,8,0:0:0:0:
256,192,104264,1,0,0:0:0:0:
256,192,104346,1,8,0:0:0:0:
256,192,104429,1,0,0:0:0:0:
256,192,104511,1,8,0:0:0:0:
256,192,104593,1,8,0:0:0:0:
256,192,104675,1,8,0:0:0:0:
256,192,104758,1,0,0:0:0:0:
256,192,104840,1,8,0:0:0:0:
256,192,104922,1,0,0:0:0:0:
256,192,105005,1,8,0:0:0:0:
256,192,105087,1,0,0:0:0:0:
256,192,105169,1,0,0:0:0:0:
256,192,105252,1,8,0:0:0:0:
256,192,105334,1,0,0:0:0:0:
256,192,105416,1,0,0:0:0:0:
256,192,105499,1,0,0:0:0:0:
256,192,105581,1,8,0:0:0:0:
256,192,105663,1,0,0:0:0:0:
256,192,105746,1,0,0:0:0:0:
256,192,105828,1,0,0:0:0:0:
256,192,105910,1,8,0:0:0:0:
256,192,105993,1,0,0:0:0:0:
256,192,106075,1,8,0:0:0:0:
256,192,106157,1,8,0:0:0:0:
256,192,106240,1,0,0:0:0:0:
256,192,106322,1,8,0:0:0:0:
256,192,106404,1,0,0:0:0:0:
256,192,106486,1,0,0:0:0:0:
256,192,106569,1,8,0:0:0:0:
256,192,106733,1,0,0:0:0:0:
256,192,108050,5,0,0:0:0:0:
256,192,108709,1,0,0:0:0:0:
256,192,109368,1,8,0:0:0:0:
256,192,109532,1,8,0:0:0:0:
256,192,109861,1,0,0:0:0:0:
256,192,110191,1,0,0:0:0:0:
256,192,110355,1,8,0:0:0:0:
256,192,110685,1,0,0:0:0:0:
256,192,111343,1,0,0:0:0:0:
256,192,112002,1,8,0:0:0:0:
256,192,112166,1,8,0:0:0:0:
256,192,112496,1,0,0:0:0:0:
256,192,112825,1,0,0:0:0:0:
256,192,112990,1,8,0:0:0:0:
256,192,113319,1,0,0:0:0:0:
256,192,113977,1,0,0:0:0:0:
256,192,114636,1,8,0:0:0:0:
256,192,114800,1,8,0:0:0:0:
256,192,115130,1,0,0:0:0:0:
256,192,115459,1,0,0:0:0:0:
256,192,115624,1,8,0:0:0:0:
256,192,115953,1,0,0:0:0:0:
256,192,116611,1,0,0:0:0:0:
256,192,117270,1,8,0:0:0:0:
256,192,117599,1,8,0:0:0:0:
256,192,117929,1,8,0:0:0:0:
256,192,118093,1,8,0:0:0:0:
256,192,118258,1,8,0:0:0:0:
256,192,118422,1,0,0:0:0:0:
256,192,118587,1,8,0:0:0:0:
256,192,118834,1,0,0:0:0:0:
256,192,118916,1,8,0:0:0:0:
256,192,119081,1,0,0:0:0:0:
256,192,119328,1,0,0:0:0:0:
256,192,119410,1,8,0:0:0:0:
256,192,119575,1,0,0:0:0:0:
256,192,119822,1,0,0:0:0:0:
256,192,119904,1,8,0:0:0:0:
256,192,120069,1,0,0:0:0:0:
256,192,120316,1,0,0:0:0:0:
256,192,120398,1,8,0:0:0:0:
256,192,120563,1,0,0:0:0:0:
256,192,120645,1,8,0:0:0:0:
256,192,120727,1,0,0:0:0:0:
256,192,120810,1,0,0:0:0:0:
256,192,120892,1,8,0:0:0:0:
256,192,121057,1,0,0:0:0:0:
256,192,121221,1,0,0:0:0:0:
256,192,121468,1,0,0:0:0:0:
256,192,121550,1,8,0:0:0:0:
256,192,121715,1,0,0:0:0:0:
256,192,121962,1,0,0:0:0:0:
256,192,122044,1,8,0:0:0:0:
256,192,122209,1,0,0:0:0:0:
256,192,122456,1,0,0:0:0:0:
256,192,122538,1,8,0:0:0:0:
256,192,122703,1,0,0:0:0:0:
256,192,122950,1,0,0:0:0:0:
256,192,123032,1,8,0:0:0:0:
256,192,123197,1,0,0:0:0:0:
256,192,123279,1,8,0:0:0:0:
256,192,123361,1,0,0:0:0:0:
256,192,123444,1,0,0:0:0:0:
256,192,123526,1,8,0:0:0:0:
256,192,123691,1,0,0:0:0:0:
256,192,123855,1,0,0:0:0:0:
256,192,124102,1,0,0:0:0:0:
256,192,124185,1,8,0:0:0:0:
256,192,124349,1,0,0:0:0:0:
256,192,124596,1,0,0:0:0:0:
256,192,124679,1,8,0:0:0:0:
256,192,124843,1,0,0:0:0:0:
256,192,125090,1,0,0:0:0:0:
256,192,125172,1,8,0:0:0:0:
256,192,125337,1,0,0:0:0:0:
256,192,125584,1,0,0:0:0:0:
256,192,125666,1,8,0:0:0:0:
256,192,125831,1,0,0:0:0:0:
256,192,125913,1,8,0:0:0:0:
256,192,125996,1,0,0:0:0:0:
256,192,126078,1,0,0:0:0:0:
256,192,126160,1,8,0:0:0:0:
256,192,126325,1,0,0:0:0:0:
256,192,126490,1,0,0:0:0:0:
256,192,126736,1,0,0:0:0:0:
256,192,126819,1,8,0:0:0:0:
256,192,126983,1,0,0:0:0:0:
256,192,127230,1,0,0:0:0:0:
256,192,127313,1,8,0:0:0:0:
256,192,127477,1,0,0:0:0:0:
256,192,127724,1,0,0:0:0:0:
256,192,127807,1,8,0:0:0:0:
256,192,127971,1,0,0:0:0:0:
256,192,128218,1,0,0:0:0:0:
256,192,128301,1,8,0:0:0:0:
256,192,128465,1,0,0:0:0:0:
256,192,128547,1,8,0:0:0:0:
256,192,128630,1,0,0:0:0:0:
256,192,128712,1,0,0:0:0:0:
256,192,128794,1,8,0:0:0:0:
256,192,129124,1,8,0:0:0:0:
256,192,129288,1,8,0:0:0:0:
256,192,129371,1,8,0:0:0:0:
256,192,129453,1,0,0:0:0:0:
256,192,129618,1,8,0:0:0:0:
256,192,129782,1,0,0:0:0:0:
256,192,129865,1,8,0:0:0:0:
256,192,129947,1,8,0:0:0:0:
256,192,130111,1,0,0:0:0:0:
256,192,130276,1,8,0:0:0:0:
256,192,130358,1,8,0:0:0:0:
256,192,130441,1,0,0:0:0:0:
256,192,130605,1,8,0:0:0:0:
256,192,130770,1,0,0:0:0:0:
256,192,130852,1,8,0:0:0:0:
256,192,131017,1,8,0:0:0:0:
256,192,131099,1,0,0:0:0:0:
256,192,131182,1,8,0:0:0:0:
256,192,131264,1,0,0:0:0:0:
256,192,131346,1,0,0:0:0:0:
256,192,131429,1,8,0:0:0:0:
256,192,131593,1,8,0:0:0:0:
256,192,131758,1,0,0:0:0:0:
256,192,131922,1,8,0:0:0:0:
256,192,132005,1,8,0:0:0:0:
256,192,132087,1,0,0:0:0:0:
256,192,132252,1,8,0:0:0:0:
256,192,132416,1,0,0:0:0:0:
256,192,132499,1,8,0:0:0:0:
256,192,132581,1,8,0:0:0:0:
256,192,132746,1,0,0:0:0:0:
256,192,132910,1,8,0:0:0:0:
256,192,132993,1,8,0:0:0:0:
256,192,133075,1,0,0:0:0:0:
256,192,133240,1,8,0:0:0:0:
256,192,133404,1,0,0:0:0:0:
256,192,133486,1,8,0:0:0:0:
256,192,133651,1,8,0:0:0:0:
256,192,133733,1,0,0:0:0:0:
256,192,133816,1,0,0:0:0:0:
256,192,133980,1,0,0:0:0:0:
256,192,134063,1,0,0:0:0:0:
256,192,134227,1,0,0:0:0:0:
256,192,134392,1,12,0:0:0:0:
256,192,134557,1,8,0:0:0:0:
256,192,134639,1,8,0:0:0:0:
256,192,134721,1,0,0:0:0:0:
256,192,134886,1,8,0:0:0:0:
256,192,135051,1,0,0:0:0:0:
256,192,135133,1,8,0:0:0:0:
256,192,135215,1,8,0:0:0:0:
256,192,135380,1,0,0:0:0:0:
256,192,135544,1,8,0:0:0:0:
256,192,135627,1,8,0:0:0:0:
256,192,135709,1,0,0:0:0:0:
256,192,135874,1,8,0:0:0:0:
256,192,136038,1,0,0:0:0:0:
256,192,136121,1,8,0:0:0:0:
256,192,136285,1,8,0:0:0:0:
256,192,136368,1,0,0:0:0:0:
256,192,136450,1,8,0:0:0:0:
256,192,136532,1,0,0:0:0:0:
256,192,136615,1,0,0:0:0:0:
256,192,136697,1,8,0:0:0:0:
256,192,136861,1,8,0:0:0:0:
256,192,137026,1,0,0:0:0:0:
256,192,137191,1,8,0:0:0:0:
256,192,137273,1,8,0:0:0:0:
256,192,137355,1,0,0:0:0:0:
256,192,137520,1,8,0:0:0:0:
256,192,137685,1,0,0:0:0:0:
256,192,137767,1,8,0:0:0:0:
256,192,137849,1,8,0:0:0:0:
256,192,138014,1,0,0:0:0:0:
256,192,138179,1,8,0:0:0:0:
256,192,138343,1,12,0:0:0:0:
256,192,139660,1,0,0:0:0:0:
256,192,139743,1,8,0:0:0:0:
256,192,139825,1,0,0:0:0:0:
256,192,139907,1,0,0:0:0:0:
256,192,139990,1,8,0:0:0:0:
256,192,140072,1,0,0:0:0:0:
256,192,140154,1,8,0:0:0:0:
256,192,140236,1,0,0:0:0:0:
256,192,140319,1,8,0:0:0:0:
256,192,140401,1,8,0:0:0:0:
256,192,140483,1,0,0:0:0:0:
256,192,140566,1,8,0:0:0:0:
256,192,140648,1,0,0:0:0:0:
256,192,140730,1,0,0:0:0:0:
256,192,140813,1,8,0:0:0:0:
256,192,140895,1,0,0:0:0:0:
256,192,140977,1,8,0:0:0:0:
256,192,141060,1,8,0:0:0:0:
256,192,141142,1,0,0:0:0:0:
256,192,141224,1,8,0:0:0:0:
256,192,141307,1,8,0:0:0:0:
256,192,141389,1,0,0:0:0:0:
256,192,141471,1,8,0:0:0:0:
256,192,141554,1,0,0:0:0:0:
256,192,141636,1,8,0:0:0:0:
256,192,141718,1,8,0:0:0:0:
256,192,141801,1,0,0:0:0:0:
256,192,141883,1,8,0:0:0:0:
256,192,141965,1,0,0:0:0:0:
256,192,142047,1,0,0:0:0:0:
256,192,142130,1,8,0:0:0:0:
256,192,142212,1,0,0:0:0:0:
256,192,142294,1,0,0:0:0:0:
256,192,142377,1,0,0:0:0:0:
256,192,142459,1,8,0:0:0:0:
256,192,142541,1,0,0:0:0:0:
256,192,142624,1,0,0:0:0:0:
256,192,142706,1,0,0:0:0:0:
256,192,142788,1,8,0:0:0:0:
256,192,142871,1,0,0:0:0:0:
256,192,142953,1,8,0:0:0:0:
256,192,143035,1,8,0:0:0:0:
256,192,143118,1,0,0:0:0:0:
256,192,143200,1,8,0:0:0:0:
256,192,143282,1,0,0:0:0:0:
256,192,143365,1,0,0:0:0:0:
256,192,143447,1,8,0:0:0:0:
256,192,143529,1,0,0:0:0:0:
256,192,143612,1,8,0:0:0:0:
256,192,143694,1,0,0:0:0:0:
256,192,143776,1,8,0:0:0:0:
256,192,143858,1,8,0:0:0:0:
256,192,143941,1,0,0:0:0:0:
256,192,144023,1,0,0:0:0:0:
256,192,144105,1,8,0:0:0:0:
256,192,144188,1,8,0:0:0:0:
256,192,144270,1,8,0:0:0:0:
256,192,144352,1,0,0:0:0:0:
256,192,144435,1,8,0:0:0:0:
256,192,144517,1,8,0:0:0:0:
256,192,144599,1,0,0:0:0:0:
256,192,144682,1,0,0:0:0:0:
256,192,144764,1,8,0:0:0:0:
256,192,144846,1,0,0:0:0:0:
256,192,144929,1,0,0:0:0:0:
256,192,145011,1,0,0:0:0:0:
256,192,145093,1,8,0:0:0:0:
256,192,145176,1,0,0:0:0:0:
256,192,145258,1,0,0:0:0:0:
256,192,145340,1,0,0:0:0:0:
256,192,145422,1,8,0:0:0:0:
256,192,145505,1,0,0:0:0:0:
256,192,145587,1,8,0:0:0:0:
256,192,145669,1,8,0:0:0:0:
256,192,145752,1,0,0:0:0:0:
256,192,145834,1,8,0:0:0:0:
256,192,145916,1,0,0:0:0:0:
256,192,145999,1,0,0:0:0:0:
256,192,146081,1,8,0:0:0:0:
256,192,146163,1,0,0:0:0:0:
256,192,146246,1,8,0:0:0:0:
256,192,146328,1,8,0:0:0:0:
256,192,146410,1,0,0:0:0:0:
256,192,146493,1,8,0:0:0:0:
256,192,146575,1,0,0:0:0:0:
256,192,146657,1,8,0:0:0:0:
256,192,146740,1,8,0:0:0:0:
256,192,146822,1,8,0:0:0:0:
256,192,146904,1,0,0:0:0:0:
256,192,146987,1,8,0:0:0:0:
256,192,147069,1,0,0:0:0:0:
256,192,147151,1,8,0:0:0:0:
256,192,147233,1,0,0:0:0:0:
256,192,147316,1,0,0:0:0:0:
256,192,147398,1,8,0:0:0:0:
256,192,147480,1,0,0:0:0:0:
256,192,147563,1,0,0:0:0:0:
256,192,147645,1,0,0:0:0:0:
256,192,147727,1,8,0:0:0:0:
256,192,147810,1,0,0:0:0:0:
256,192,147892,1,0,0:0:0:0:
256,192,147974,1,0,0:0:0:0:
256,192,148057,1,8,0:0:0:0:
256,192,148139,1,0,0:0:0:0:
256,192,148221,1,8,0:0:0:0:
256,192,148304,1,8,0:0:0:0:
256,192,148386,1,0,0:0:0:0:
256,192,148468,1,8,0:0:0:0:
256,192,148551,1,0,0:0:0:0:
256,192,148633,1,0,0:0:0:0:
256,192,148715,1,8,0:0:0:0:
256,192,148880,1,0,0:0:0:0:
256,192,149044,1,0,0:0:0:0:
256,192,149127,1,0,0:0:0:0:
256,192,149291,1,0,0:0:0:0:
256,192,149374,1,0,0:0:0:0:
256,192,149456,1,0,0:0:0:0:
256,192,149538,1,0,0:0:0:0:
256,192,149621,1,8,0:0:0:0:
256,192,149785,1,8,0:0:0:0:
256,192,149950,1,8,0:0:0:0:
256,192,150032,1,8,0:0:0:0:
256,192,150115,1,8,0:0:0:0:
256,192,150197,1,0,0:0:0:0:
256,192,150279,1,8,0:0:0:0:
256,192,150362,1,0,0:0:0:0:
256,192,150416,1,0,0:0:0:0:
256,192,150471,1,0,0:0:0:0:
256,192,150526,1,8,0:0:0:0:
256,192,150608,1,0,0:0:0:0:
256,192,150691,1,0,0:0:0:0:
256,192,150855,1,8,0:0:0:0:
256,192,150910,1,8,0:0:0:0:
256,192,150965,1,8,0:0:0:0:
256,192,151020,1,0,0:0:0:0:
256,192,151102,1,8,0:0:0:0:
256,192,151185,1,8,0:0:0:0:
256,192,151267,1,0,0:0:0:0:
256,192,151349,1,8,0:0:0:0:
256,192,151514,1,0,0:0:0:0:
256,192,151596,1,0,0:0:0:0:
256,192,151679,1,8,0:0:0:0:
256,192,151733,1,8,0:0:0:0:
256,192,151788,1,8,0:0:0:0:
256,192,151843,1,0,0:0:0:0:
256,192,152008,1,8,0:0:0:0:
256,192,152090,1,8,0:0:0:0:
256,192,152172,1,0,0:0:0:0:
256,192,152255,1,0,0:0:0:0:
256,192,152337,1,8,0:0:0:0:
256,192,152392,1,8,0:0:0:0:
256,192,152447,1,8,0:0:0:0:
256,192,152502,1,0,0:0:0:0:
256,192,152584,1,0,0:0:0:0:
256,192,152666,1,8,0:0:0:0:
256,192,152831,1,0,0:0:0:0:
256,192,152913,1,0,0:0:0:0:
256,192,152996,1,8,0:0:0:0:
256,192,153051,1,8,0:0:0:0:
256,192,153105,1,8,0:0:0:0:
256,192,153160,1,0,0:0:0:0:
256,192,153243,1,0,0:0:0:0:
256,192,153325,1,8,0:0:0:0:
256,192,153380,1,8,0:0:0:0:
256,192,153435,1,8,0:0:0:0:
256,192,153490,1,0,0:0:0:0:
256,192,153599,1,8,0:0:0:0:
256,192,153654,1,0,0:0:0:0:
256,192,153764,1,8,0:0:0:0:
256,192,153819,1,0,0:0:0:0:
256,192,153929,1,8,0:0:0:0:
256,192,153983,1,0,0:0:0:0:
256,192,154093,1,8,0:0:0:0:
256,192,154148,1,0,0:0:0:0:
256,192,154230,1,0,0:0:0:0:
256,192,154313,1,8,0:0:0:0:
256,192,154368,1,8,0:0:0:0:
256,192,154422,1,8,0:0:0:0:
256,192,154477,1,0,0:0:0:0:
256,192,154560,1,8,0:0:0:0:
256,192,154642,1,0,0:0:0:0:
256,192,154697,1,0,0:0:0:0:
256,192,154752,1,0,0:0:0:0:
256,192,154807,1,8,0:0:0:0:
256,192,154971,1,0,0:0:0:0:
256,192,155054,1,0,0:0:0:0:
256,192,155136,1,8,0:0:0:0:
256,192,155465,1,0,0:0:0:0:
256,192,155547,1,8,0:0:0:0:
256,192,155630,1,0,0:0:0:0:
256,192,155685,1,0,0:0:0:0:
256,192,155740,1,0,0:0:0:0:
256,192,155794,1,8,0:0:0:0:
256,192,155877,1,0,0:0:0:0:
256,192,155959,1,0,0:0:0:0:
256,192,156124,1,8,0:0:0:0:
256,192,156179,1,8,0:0:0:0:
256,192,156233,1,8,0:0:0:0:
256,192,156288,1,0,0:0:0:0:
256,192,156371,1,8,0:0:0:0:
256,192,156453,1,8,0:0:0:0:
256,192,156535,1,0,0:0:0:0:
256,192,156618,1,8,0:0:0:0:
256,192,156782,1,0,0:0:0:0:
256,192,156865,1,0,0:0:0:0:
256,192,156947,1,8,0:0:0:0:
256,192,157002,1,8,0:0:0:0:
256,192,157057,1,8,0:0:0:0:
256,192,157112,1,0,0:0:0:0:
256,192,157276,1,8,0:0:0:0:
256,192,157358,1,8,0:0:0:0:
256,192,157441,1,0,0:0:0:0:
256,192,157523,1,0,0:0:0:0:
256,192,157605,1,8,0:0:0:0:
256,192,157660,1,8,0:0:0:0:
256,192,157715,1,8,0:0:0:0:
256,192,157770,1,0,0:0:0:0:
256,192,157852,1,0,0:0:0:0:
256,192,157935,1,8,0:0:0:0:
256,192,158099,1,0,0:0:0:0:
256,192,158182,1,0,0:0:0:0:
256,192,158264,1,8,0:0:0:0:
256,192,158319,1,8,0:0:0:0:
256,192,158374,1,8,0:0:0:0:
256,192,158429,1,0,0:0:0:0:
256,192,158511,1,0,0:0:0:0:
256,192,158593,1,8,0:0:0:0:
256,192,158648,1,8,0:0:0:0:
256,192,158703,1,8,0:0:0:0:
256,192,158758,1,0,0:0:0:0:
256,192,158868,5,8,0:0:0:0:
256,192,158922,1,0,0:0:0:0:
256,192,159032,1,8,0:0:0:0:
256,192,159087,1,0,0:0:0:0:
256,192,159197,1,8,0:0:0:0:
256,192,159252,1,0,0:0:0:0:
256,192,159362,1,8,0:0:0:0:
256,192,159416,1,0,0:0:0:0:
256,192,160075,5,0,0:0:0:0:
256,192,160733,1,8,0:0:0:0:
