osu file format v14

[General]
AudioFilename: audio.mp3
AudioLeadIn: 0
PreviewTime: 18024
Countdown: 0
SampleSet: Normal
StackLeniency: 0.7
Mode: 0
LetterboxInBreaks: 0
WidescreenStoryboard: 0

[Editor]
DistanceSpacing: 0.5
BeatDivisor: 8
GridSize: 4
TimelineZoom: 2.2

[Metadata]
Title:Rip Roar Power
TitleUnicode:Rip Roar Power
Artist:The Quick Brown Fox
ArtistUnicode:The Quick Brown Fox
Creator:UselessXD
Version:LAPFOX
Source:
Tags:TQBF LAPFOX Renard Queenston speedkore 4 kidz
BeatmapID:1384695
BeatmapSetID:653137

[Difficulty]
HPDrainRate:5
CircleSize:4
OverallDifficulty:8
ApproachRate:10
SliderMultiplier:1.8
SliderTickRate:1

[Events]
//Background and Video events
0,0,"lapfox_trax_by_takuyarawr-d6ym5b2.jpg",0,0
//Break Periods
2,90935,97144
//Storyboard Layer 0 (Background)
//Storyboard Layer 1 (Fail)
//Storyboard Layer 2 (Pass)
//Storyboard Layer 3 (Foreground)
//Storyboard Sound Samples

[TimingPoints]
916,427.046263345196,4,1,0,80,1,0
16316,213.523131672598,4,1,0,80,1,0
16316,-166.666666666667,4,1,0,80,0,0
16636,-66.6666666666667,4,1,0,80,0,0
16849,-100,4,1,0,80,0,0
17170,-166.666666666667,4,1,0,80,0,0
17490,-100,4,1,0,80,0,0
18903,213.523131672598,4,1,0,80,1,0
26162,-83.3333333333333,4,1,0,80,0,0
32568,-200,4,1,0,80,0,0
32782,-100,4,1,0,80,0,0
42070,-100,4,1,0,80,0,0
42177,-83.3333333333333,4,1,0,80,0,0
42390,-71.4285714285714,4,1,0,80,0,0
42604,-62.5,4,1,0,80,0,0
42817,-100,4,1,0,80,0,0
46287,427.046263345196,4,1,0,80,1,0
49703,-83.3333333333333,4,1,0,80,0,0
63405,213.523131672598,4,1,0,80,1,0
69810,-66.6666666666667,4,1,0,80,0,0
70237,-76.9230769230769,4,1,0,80,0,0
71732,-100,4,1,0,80,0,0
90762,427.046263345196,4,1,0,80,1,0
104427,-100,4,1,0,80,0,0

[Colours]
Combo1 : 255,255,119
Combo2 : 192,192,192
Combo3 : 255,0,0
Combo4 : 98,98,255
Combo5 : 153,235,1
Combo6 : 255,150,45

[HitObjects]
208,32,916,5,0,0:0:0:0:
0,152,1236,1,0,0:0:0:0:
224,240,1556,1,0,0:0:0:0:
144,64,2197,5,0,0:0:0:0:
376,64,2624,2,0,L|376:104,4,22.5
376,160,3051,1,0,0:0:0:0:
376,232,3264,2,0,L|376:272,4,22.5
152,192,3905,69,0,0:0:0:0:
392,360,4332,5,0,0:0:0:0:
192,144,4652,1,0,0:0:0:0:
480,72,4972,1,0,0:0:0:0:
328,288,5613,69,0,0:0:0:0:
80,248,6040,2,0,L|104:216,4,22.5
152,152,6467,1,0,0:0:0:0:
224,48,6681,2,0,L|200:80,4,22.5
392,192,7321,5,0,0:0:0:0:
144,8,7748,69,0,0:0:0:0:
320,280,8069,1,0,0:0:0:0:
496,8,8389,1,0,0:0:0:0:
256,104,9029,5,0,0:0:0:0:
136,272,9456,2,0,L|104:288,4,22.5
256,272,9883,1,0,0:0:0:0:
376,272,10097,2,0,L|408:288,4,22.5
176,104,10738,69,0,0:0:0:0:
432,256,11165,5,0,0:0:0:0:
136,376,11485,1,0,0:0:0:0:
96,56,11805,1,0,0:0:0:0:
360,168,12446,69,0,0:0:0:0:
208,64,12873,2,0,L|208:104,4,22.5
208,192,13300,1,0,0:0:0:0:
208,320,13513,2,0,L|208:280,4,22.5
408,232,14154,5,0,0:0:0:0:
296,96,14581,70,0,L|272:104,4,22.5
144,144,16316,6,0,B|144:192|144:192|200:240,1,107.999996704102
280,328,16636,1,0,0:0:0:0:
392,224,16849,2,0,B|304:176|304:176|288:168,1,112.5
156,96,17170,2,0,B|128:100|128:100|104:176,1,107.999996704102
264,280,17490,2,0,L|368:344,1,90
424,112,17810,1,0,0:0:0:0:
352,200,18024,69,0,0:0:0:0:
352,200,18237,1,0,0:0:0:0:
208,296,18451,6,0,L|168:272,6,45
320,320,18903,5,0,0:0:0:0:
336,240,19009,1,0,0:0:0:0:
256,264,19116,1,0,0:0:0:0:
277,333,19223,1,0,0:0:0:0:
328,240,19329,1,0,0:0:0:0:
216,240,19436,1,0,0:0:0:0:
232,333,19543,5,0,0:0:0:0:
328,248,19649,1,0,0:0:0:0:
208,200,19756,1,0,0:0:0:0:
190,319,19863,1,0,0:0:0:0:
320,264,19969,1,0,0:0:0:0:
208,168,20076,1,0,0:0:0:0:
56,240,20184,5,0,0:0:0:0:
56,240,20290,2,0,L|56:192,2,45
160,240,20504,2,0,L|184:240,4,22.5
320,56,20717,6,0,L|256:120,1,90
192,328,20931,2,0,L|256:264,1,90
432,88,21144,2,0,L|368:152,1,90
143,232,21358,1,0,0:0:0:0:
120,80,21465,38,0,L|144:80,2,22.5
256,192,21625,1,0,0:0:0:0:
392,304,21732,2,0,L|369:304,2,22.5
360,160,21892,1,0,0:0:0:0:
232,96,21999,1,0,0:0:0:0:
96,168,22105,6,0,L|72:232,1,45
152,248,22212,2,0,L|176:312,1,45
112,352,22319,1,0,0:0:0:0:
314,300,22426,5,0,0:0:0:0:
421,242,22532,1,0,0:0:0:0:
364,135,22639,1,0,0:0:0:0:
256,192,22746,1,0,0:0:0:0:
314,300,22853,1,0,0:0:0:0:
364,135,22959,6,0,L|368:88,2,45
277,229,23172,37,0,0:0:0:0:
120,296,23280,1,0,0:0:0:0:
53,138,23386,1,0,0:0:0:0:
210,71,23493,1,0,0:0:0:0:
277,229,23600,1,0,0:0:0:0:
53,138,23707,6,0,L|-8:112,2,45
300,307,23920,6,0,P|356:331|380:315,1,90
408,198,24134,2,0,P|433:162|419:121,1,90
300,90,24347,2,0,P|244:66|220:82,1,90
191,198,24561,2,0,P|167:254|183:278,1,90
376,318,24774,1,0,0:0:0:0:
400,184,24881,6,0,L|368:152,2,45
256,184,25095,1,0,0:0:0:0:
112,200,25201,2,0,L|144:232,2,45
272,344,25415,1,0,0:0:0:0:
384,216,25522,2,0,L|400:200,8,22.5
256,80,25842,37,0,0:0:0:0:
88,136,25949,2,0,L|72:152,4,22.5
136,232,26162,6,0,L|136:352,1,107.999996704102
328,232,26376,2,0,L|328:360,1,107.999996704102
136,232,26589,5,0,0:0:0:0:
136,344,26696,1,0,0:0:0:0:
328,232,26803,1,0,0:0:0:0:
328,344,26910,1,0,0:0:0:0:
440,192,27016,5,0,0:0:0:0:
352,120,27123,2,0,L|304:88,2,53.9999983520508
264,144,27283,2,0,L|232:152,6,26.9999991760254
136,72,27550,37,0,0:0:0:0:
0,200,27657,1,0,0:0:0:0:
136,40,27764,1,0,0:0:0:0:
0,232,27871,1,0,0:0:0:0:
136,312,27977,5,0,0:0:0:0:
0,184,28084,1,0,0:0:0:0:
136,344,28191,1,0,0:0:0:0:
176,112,28298,6,0,L|210:153,2,53.9999983520508
330,41,28511,1,0,0:0:0:0:
360,192,28618,2,0,L|394:233,2,53.9999983520508
346,1,28831,1,0,0:0:0:0:
178,113,28938,2,0,L|146:137,4,26.9999991760254
160,248,29152,5,0,0:0:0:0:
168,344,29258,1,0,0:0:0:0:
256,320,29365,2,0,L|280:288,4,26.9999991760254
352,136,29579,37,0,0:0:0:0:
344,40,29685,1,0,0:0:0:0:
256,64,29792,2,0,L|232:96,4,26.9999991760254
344,272,30006,6,0,B|312:216|312:216|272:192,1,107.999996704102
72,104,30219,2,0,B|104:160|104:160|144:184,1,107.999996704102
344,272,30433,1,0,0:0:0:0:
352,136,30540,6,0,L|352:80,2,53.9999983520508
184,88,30753,1,0,0:0:0:0:
128,152,30860,1,0,0:0:0:0:
136,240,30967,1,0,0:0:0:0:
200,296,31073,1,0,0:0:0:0:
288,312,31180,1,0,0:0:0:0:
368,280,31287,2,0,B|408:240|408:240|416:176,1,107.999996704102
344,80,31500,2,0,B|304:40|304:40|240:32,1,107.999996704102
128,136,31714,5,0,0:0:0:0:
120,168,31767,1,0,0:0:0:0:
120,200,31821,1,0,0:0:0:0:
256,288,31927,37,0,0:0:0:0:
392,200,32034,5,0,0:0:0:0:
392,168,32088,1,0,0:0:0:0:
384,136,32141,1,0,0:0:0:0:
256,48,32248,6,0,L|256:104,4,53.9999983520508
312,272,32568,6,0,L|256:296,1,45
88,328,32782,1,0,0:0:0:0:
96,304,32835,1,0,0:0:0:0:
112,288,32888,1,0,0:0:0:0:
136,280,32942,1,0,0:0:0:0:
160,280,32995,1,0,0:0:0:0:
184,272,33048,1,0,0:0:0:0:
208,256,33102,1,0,0:0:0:0:
224,240,33155,1,0,0:0:0:0:
240,216,33209,37,0,0:0:0:0:
248,192,33262,1,0,0:0:0:0:
256,168,33315,2,0,L|264:144,4,22.5
304,112,33475,1,0,0:0:0:0:
320,88,33528,1,0,0:0:0:0:
344,80,33581,1,0,0:0:0:0:
368,80,33634,1,0,0:0:0:0:
392,96,33688,1,0,0:0:0:0:
408,120,33741,1,0,0:0:0:0:
408,156,33796,6,0,L|384:196,2,45
436,196,33956,2,0,L|440:232,4,22.5
332,272,34169,2,0,L|304:304,4,22.5
216,152,34436,1,0,0:0:0:0:
216,152,34489,1,0,0:0:0:0:
256,312,34596,1,0,0:0:0:0:
256,312,34650,1,0,0:0:0:0:
256,312,34703,5,0,0:0:0:0:
280,328,34756,1,0,0:0:0:0:
312,336,34810,1,0,0:0:0:0:
344,328,34863,1,0,0:0:0:0:
368,304,34916,2,0,P|384:272|384:268,4,22.5
296,208,35077,5,0,0:0:0:0:
264,192,35131,1,0,0:0:0:0:
240,164,35184,1,0,0:0:0:0:
224,132,35237,1,0,0:0:0:0:
220,96,35290,1,0,0:0:0:0:
228,60,35344,2,0,P|244:36|260:16,1,45
348,72,35451,2,0,L|336:100,4,22.5
392,156,35611,2,0,P|416:176|416:196,2,45
328,264,35771,2,0,P|328:244|340:228,4,22.5
444,292,35984,37,0,0:0:0:0:
424,268,36038,1,0,0:0:0:0:
396,256,36091,1,0,0:0:0:0:
364,252,36144,1,0,0:0:0:0:
336,264,36198,1,0,0:0:0:0:
312,284,36251,1,0,0:0:0:0:
292,308,36305,1,0,0:0:0:0:
268,328,36358,1,0,0:0:0:0:
236,332,36411,1,0,0:0:0:0:
204,324,36465,5,0,0:0:0:0:
180,304,36518,1,0,0:0:0:0:
260,240,36625,6,0,L|232:196,1,45
276,172,36732,2,0,L|272:116,1,45
136,64,36838,2,0,B|100:96|100:96|100:152,2,90
224,120,37105,6,0,L|228:92,4,22.5
176,280,37265,1,0,0:0:0:0:
176,280,37319,1,0,0:0:0:0:
184,288,37372,1,0,0:0:0:0:
184,288,37426,1,0,0:0:0:0:
184,288,37479,37,0,0:0:0:0:
268,220,37586,1,0,0:0:0:0:
256,112,37693,1,0,0:0:0:0:
256,112,37799,1,0,0:0:0:0:
404,104,37906,6,0,L|412:128,4,22.5
416,252,38120,1,0,0:0:0:0:
396,261,38173,1,0,0:0:0:0:
377,271,38226,1,0,0:0:0:0:
358,281,38280,1,0,0:0:0:0:
339,291,38333,1,0,0:0:0:0:
319,301,38386,1,0,0:0:0:0:
300,311,38440,1,0,0:0:0:0:
92,284,38547,5,0,0:0:0:0:
148,120,38653,1,0,0:0:0:0:
444,80,38867,1,0,0:0:0:0:
384,248,39187,6,0,L|356:260,4,22.5
160,76,39401,37,0,0:0:0:0:
180,100,39454,1,0,0:0:0:0:
204,120,39507,1,0,0:0:0:0:
236,128,39561,1,0,0:0:0:0:
268,132,39614,1,0,0:0:0:0:
288,156,39668,1,0,0:0:0:0:
296,184,39721,1,0,0:0:0:0:
288,212,39774,1,0,0:0:0:0:
268,236,39828,1,0,0:0:0:0:
240,252,39881,6,0,L|188:272,2,45
216,304,40041,2,0,L|264:284,2,45
404,256,40255,6,0,L|404:284,3,15
308,304,40468,2,0,L|308:332,3,15
156,232,40682,1,0,0:0:0:0:
256,116,40789,1,0,0:0:0:0:
352,236,40895,2,0,L|368:236,8,11.25
168,296,41109,5,0,0:0:0:0:
168,296,41216,1,0,0:0:0:0:
34,162,41322,1,0,0:0:0:0:
34,162,41429,1,0,0:0:0:0:
168,28,41536,1,0,0:0:0:0:
168,28,41643,1,0,0:0:0:0:
296,160,41749,2,0,L|348:160,2,45
156,236,41963,38,0,L|156:332,1,90
232,236,42177,2,0,L|232:344,1,107.999996704102
308,236,42390,2,0,L|308:364,1,125.999996154785
384,236,42604,2,0,L|384:380,1,144
160,96,42817,6,0,L|136:148,8,45
208,120,43280,2,0,L|208:168,11,30
260,116,43698,2,0,L|264:144,15,22.5
312,104,44116,2,0,L|320:120,23,15
360,80,44552,2,0,L|376:92,110,11.25
356,296,46127,1,0,0:0:0:0:
152,208,46287,37,0,0:0:0:0:
324,156,46500,1,0,0:0:0:0:
164,76,46714,6,0,L|116:124,1,45
272,112,46927,2,0,L|224:160,1,45
160,192,47141,2,0,L|108:244,1,45
264,232,47354,2,0,L|344:312,1,90
327,295,47781,1,0,0:0:0:0:
308,104,47995,2,0,L|308:68,4,22.5
188,216,48422,1,0,0:0:0:0:
340,292,48635,1,0,0:0:0:0:
340,292,48689,1,0,0:0:0:0:
340,292,48742,1,0,0:0:0:0:
340,292,48795,1,0,0:0:0:0:
340,292,48849,1,0,0:0:0:0:
404,160,49062,69,0,0:0:0:0:
160,72,49276,1,0,0:0:0:0:
112,220,49703,6,0,L|244:313,1,161.999995056153
244,313,50130,1,0,0:0:0:0:
312,148,50343,1,0,0:0:0:0:
312,148,50557,1,0,0:0:0:0:
158,201,50770,70,0,L|120:240,1,53.9999983520508
161,105,50984,2,0,L|200:144,1,53.9999983520508
57,118,51197,2,0,L|96:80,1,53.9999983520508
352,264,51411,5,0,0:0:0:0:
352,264,51464,1,0,0:0:0:0:
352,264,51518,1,0,0:0:0:0:
352,264,51571,1,0,0:0:0:0:
352,264,51625,1,0,0:0:0:0:
184,324,51838,1,0,0:0:0:0:
112,216,52052,2,0,L|116:176,4,26.9999991760254
248,96,52479,69,0,0:0:0:0:
412,296,52692,1,0,0:0:0:0:
240,324,53119,6,0,P|176:304|156:208,1,161.999995056153
220,216,53546,2,0,P|232:180|188:112,1,107.999996704102
384,92,53973,1,0,0:0:0:0:
428,212,54187,2,0,L|428:272,1,53.9999983520508
384,240,54400,2,0,L|384:300,1,53.9999983520508
340,264,54614,2,0,L|340:324,1,53.9999983520508
176,320,54827,69,0,0:0:0:0:
172,312,54881,1,0,0:0:0:0:
168,304,54934,1,0,0:0:0:0:
164,296,54988,1,0,0:0:0:0:
160,288,55041,1,0,0:0:0:0:
256,192,55254,1,0,0:0:0:0:
160,96,55468,5,0,0:0:0:0:
164,88,55521,1,0,0:0:0:0:
168,80,55575,1,0,0:0:0:0:
172,72,55628,1,0,0:0:0:0:
176,64,55682,1,0,0:0:0:0:
328,284,55895,69,0,0:0:0:0:
84,308,56109,1,0,0:0:0:0:
196,208,56536,6,0,P|168:168|224:200,1,161.999995056153
300,224,56963,2,0,P|320:248|304:224,1,107.999996704102
196,208,57390,1,0,0:0:0:0:
104,320,57603,70,0,L|152:272,1,53.9999983520508
92,96,57817,2,0,L|130:134,1,53.9999983520508
328,124,58030,2,0,L|289:162,1,53.9999983520508
204,308,58244,6,0,L|232:308,4,26.9999991760254
204,192,58671,1,0,0:0:0:0:
204,76,58884,2,0,L|232:76,4,26.9999991760254
380,44,59311,69,0,0:0:0:0:
76,44,59525,1,0,0:0:0:0:
256,224,59952,6,0,L|256:260,4,26.9999991760254
244,80,61660,70,0,B|244:128|244:128|192:168,1,107.999996704102
396,168,61980,1,0,0:0:0:0:
288,320,62193,2,0,B|252:284|252:284|232:264,1,53.9999983520508
100,228,62514,5,0,0:0:0:0:
240,140,62728,1,0,0:0:0:0:
256,296,62941,2,0,L|256:328,4,26.9999991760254
312,132,63405,5,0,0:0:0:0:
452,76,63511,1,0,0:0:0:0:
412,216,63618,1,0,0:0:0:0:
324,292,63725,5,0,0:0:0:0:
200,252,63832,5,0,0:0:0:0:
60,308,63938,1,0,0:0:0:0:
100,168,64045,1,0,0:0:0:0:
240,80,64152,6,0,P|292:100|316:144,1,90
200,176,64365,2,0,P|148:156|124:112,1,90
288,216,64579,2,0,P|340:236|364:280,1,90
248,312,64792,2,0,P|196:292|172:248,3,90
336,88,65219,37,0,0:0:0:0:
208,288,65326,1,0,0:0:0:0:
295,67,65433,1,0,0:0:0:0:
244,299,65540,1,0,0:0:0:0:
250,61,65646,1,0,0:0:0:0:
281,296,65753,1,0,0:0:0:0:
206,70,65860,1,0,0:0:0:0:
315,281,65967,1,0,0:0:0:0:
388,176,66074,5,0,0:0:0:0:
284,104,66180,1,0,0:0:0:0:
168,152,66287,1,0,0:0:0:0:
172,280,66394,2,0,L|176:312,4,22.5
324,312,66607,1,0,0:0:0:0:
324,312,66714,1,0,0:0:0:0:
340,48,66821,6,0,L|340:152,1,90
340,308,67034,1,0,0:0:0:0:
340,308,67141,2,0,L|244:308,1,90
192,168,67355,1,0,0:0:0:0:
320,168,67462,1,0,0:0:0:0:
168,180,67569,1,0,0:0:0:0:
344,180,67676,1,0,0:0:0:0:
144,192,67782,1,0,0:0:0:0:
368,192,67889,1,0,0:0:0:0:
124,200,67996,1,0,0:0:0:0:
388,200,68103,1,0,0:0:0:0:
256,292,68209,5,0,0:0:0:0:
256,152,68316,2,0,L|256:120,4,22.5
308,212,68529,37,0,0:0:0:0:
355,66,68636,1,0,0:0:0:0:
500,113,68743,1,0,0:0:0:0:
453,259,68849,1,0,0:0:0:0:
297,179,68956,5,0,0:0:0:0:
387,56,69063,1,0,0:0:0:0:
511,145,69170,1,0,0:0:0:0:
421,269,69276,1,0,0:0:0:0:
296,296,69383,6,0,L|240:296,2,45
248,260,69597,2,0,L|220:252,4,22.5
208,296,69810,2,0,B|160:312|160:312|160:160,1,202.500007724762
184,116,70024,2,0,L|224:116,4,33.7500012874604
368,296,70237,6,0,P|332:312|248:320,1,116.999994644165
195,63,70451,2,0,P|253:66|308:88,1,116.999994644165
348,296,70664,2,0,P|312:312|228:320,1,116.999994644165
215,63,70878,2,0,P|273:66|328:88,1,116.999994644165
328,296,71091,2,0,P|292:312|208:320,1,116.999994644165
235,63,71305,2,0,P|293:66|348:88,1,116.999994644165
308,296,71518,2,0,P|272:312|188:320,1,116.999994644165
88,178,71732,38,0,L|88:268,2,90
169,113,72052,1,0,0:0:0:0:
263,75,72159,1,0,0:0:0:0:
351,125,72266,1,0,0:0:0:0:
367,225,72372,1,0,0:0:0:0:
299,300,72480,1,0,0:0:0:0:
198,293,72587,1,0,0:0:0:0:
140,210,72693,1,0,0:0:0:0:
392,212,72800,5,0,0:0:0:0:
140,210,72906,1,0,0:0:0:0:
392,212,73013,1,0,0:0:0:0:
140,210,73120,1,0,0:0:0:0:
240,88,73227,6,0,L|264:100,8,22.5
193,127,73654,5,0,0:0:0:0:
193,254,73760,1,0,0:0:0:0:
319,128,73867,1,0,0:0:0:0:
318,254,73974,1,0,0:0:0:0:
193,102,74081,37,0,0:0:0:0:
167,253,74187,1,0,0:0:0:0:
344,129,74294,1,0,0:0:0:0:
318,279,74401,1,0,0:0:0:0:
199,70,74508,5,0,0:0:0:0:
135,247,74614,1,0,0:0:0:0:
376,134,74721,1,0,0:0:0:0:
312,312,74828,1,0,0:0:0:0:
214,37,74935,5,0,0:0:0:0:
102,232,75042,1,0,0:0:0:0:
409,150,75148,1,0,0:0:0:0:
297,344,75255,1,0,0:0:0:0:
256,192,75362,12,0,76109,0:0:0:0:
256,192,76216,5,0,0:0:0:0:
256,296,76536,38,0,L|256:332,16,22.5
368,136,77070,6,0,B|396:164|396:164|372:224,1,90
252,340,77284,1,0,0:0:0:0:
200,180,77390,1,0,0:0:0:0:
392,324,77497,2,0,B|428:308|428:308|436:256,1,90
272,144,77711,1,0,0:0:0:0:
152,324,77817,1,0,0:0:0:0:
344,224,77924,2,0,B|368:192|368:192|336:148,1,90
92,108,78138,1,0,0:0:0:0:
224,272,78244,1,0,0:0:0:0:
360,132,78351,6,0,L|360:100,4,22.5
152,252,78565,2,0,L|152:284,4,22.5
320,304,78778,6,0,L|388:236,1,90
192,80,78992,2,0,L|124:148,1,90
420,256,79205,2,0,L|488:188,1,90
92,128,79419,2,0,L|24:196,1,90
156,312,79632,38,0,L|180:312,4,22.5
304,312,79846,2,0,L|304:268,2,45
304,144,80059,1,0,0:0:0:0:
304,144,80166,1,0,0:0:0:0:
124,176,80273,2,0,L|104:204,4,22.5
380,271,80486,6,0,P|361:311|320:324,1,90
135,271,80700,2,0,P|154:311|196:324,1,90
256,192,80913,2,0,L|256:102,1,90
456,52,81127,6,0,L|456:108,4,45
456,208,81447,1,0,0:0:0:0:
360,383,81554,1,0,0:0:0:0:
336,185,81661,1,0,0:0:0:0:
472,331,81767,1,0,0:0:0:0:
276,293,81874,2,0,L|232:293,2,45
276,117,82088,1,0,0:0:0:0:
88,40,82195,6,0,L|20:108,1,90
124,232,82408,1,0,0:0:0:0:
212,96,82515,1,0,0:0:0:0:
284,240,82622,37,0,0:0:0:0:
372,104,82729,1,0,0:0:0:0:
471,232,82836,2,0,L|407:295,1,90
272,384,83049,2,0,L|236:384,4,22.5
88,384,83262,1,0,0:0:0:0:
88,384,83369,1,0,0:0:0:0:
88,256,83476,2,0,L|88:208,2,45
172,188,83689,2,0,L|172:156,4,22.5
8,316,83903,6,0,P|39:347|82:354,1,90
232,288,84116,1,0,0:0:0:0:
248,268,84170,1,0,0:0:0:0:
264,248,84223,1,0,0:0:0:0:
280,228,84276,1,0,0:0:0:0:
296,208,84330,1,0,0:0:0:0:
396,76,84437,6,0,P|444:104|436:156,1,90
347,266,84650,2,0,P|306:249|295:207,1,90
376,120,84864,2,0,P|424:148|416:200,1,90
327,310,85077,2,0,P|286:293|275:251,1,90
360,56,85291,6,0,L|328:56,2,22.5
364,100,85397,2,0,B|292:172|292:172|292:176,1,90
96,160,85611,1,0,0:0:0:0:
95,322,85718,1,0,0:0:0:0:
236,241,85824,1,0,0:0:0:0:
80,240,85931,1,0,0:0:0:0:
1,98,86038,1,0,0:0:0:0:
143,19,86145,1,0,0:0:0:0:
220,160,86251,2,0,P|224:212|276:240,1,90
432,248,86465,38,0,L|432:288,4,22.5
288,328,86679,1,0,0:0:0:0:
288,204,86785,1,0,0:0:0:0:
288,76,86892,1,0,0:0:0:0:
288,76,86999,1,0,0:0:0:0:
436,76,87106,6,0,L|436:136,1,45
408,104,87212,2,0,L|408:152,1,45
396,192,87319,2,0,L|360:192,4,22.5
440,344,87533,1,0,0:0:0:0:
440,344,87639,1,0,0:0:0:0:
288,296,87746,2,0,L|288:328,3,30
168,248,87960,2,0,L|168:200,3,30
168,40,88173,5,0,0:0:0:0:
0,40,88280,1,0,0:0:0:0:
204,40,88387,1,0,0:0:0:0:
36,40,88494,1,0,0:0:0:0:
240,40,88600,1,0,0:0:0:0:
128,148,88707,6,0,L|96:188,4,45
20,296,89027,37,0,0:0:0:0:
232,352,89134,1,0,0:0:0:0:
16,352,89241,5,0,0:0:0:0:
228,296,89348,1,0,0:0:0:0:
4,296,89454,5,0,0:0:0:0:
248,352,89561,1,0,0:0:0:0:
0,352,89668,5,0,0:0:0:0:
244,296,89775,1,0,0:0:0:0:
296,164,89881,38,0,L|320:148,4,22.5
244,296,90095,1,0,0:0:0:0:
152,120,90202,2,0,L|124:148,4,22.5
344,84,90415,1,0,0:0:0:0:
492,180,90522,5,0,0:0:0:0:
492,204,90575,1,0,0:0:0:0:
492,228,90629,1,0,0:0:0:0:
492,252,90682,1,0,0:0:0:0:
492,276,90735,1,0,0:0:0:0:
96,104,97594,37,0,0:0:0:0:
416,192,97915,1,0,0:0:0:0:
212,336,98235,1,0,0:0:0:0:
60,152,98555,5,0,0:0:0:0:
60,152,98662,2,0,P|96:116|136:116,1,90
144,112,98983,1,0,0:0:0:0:
208,200,99089,2,0,P|192:232|172:244,1,45
160,268,99302,2,0,L|176:304,4,22.5
352,268,99729,1,0,0:0:0:0:
412,120,99943,2,0,L|424:92,4,22.5
336,320,100370,70,0,P|312:320|280:304,1,45
176,200,100584,1,0,0:0:0:0:
400,0,101011,5,0,0:0:0:0:
444,372,101331,1,0,0:0:0:0:
488,0,101651,1,0,0:0:0:0:
444,384,102078,69,0,0:0:0:0:
356,168,102185,2,0,P|376:208|368:216,1,45
336,280,102399,2,0,P|296:264|292:248,1,45
280,240,102612,1,0,0:0:0:0:
200,128,102719,6,0,L|176:144,4,22.5
340,128,103146,1,0,0:0:0:0:
200,128,103359,2,0,L|176:144,4,22.5
420,340,103786,69,0,0:0:0:0:
100,76,104000,1,0,0:0:0:0:
196,280,104427,6,0,P|172:256|252:304,1,720
256,192,106242,12,0,107843,0:0:0:0:
