osu file format v14

[General]
AudioFilename: audio.mp3
AudioLeadIn: 0
PreviewTime: -1
Countdown: 0
SampleSet: Normal
StackLeniency: 0.7
Mode: 3
LetterboxInBreaks: 0
SpecialStyle: 0
WidescreenStoryboard: 1

[Editor]
DistanceSpacing: 0.7
BeatDivisor: 8
GridSize: 8
TimelineZoom: 1.8

[Metadata]
Title:PIPE DREAM
TitleUnicode:PIPE DREAM
Artist:The Quick Brown Fox
ArtistUnicode:The Quick Brown Fox
Creator:stupud man
Version:INUNDATION
Source:NERVE'S ENDING
Tags:tqbf
BeatmapID:1261880
BeatmapSetID:596815

[Difficulty]
HPDrainRate:8
CircleSize:4
OverallDifficulty:8
ApproachRate:5
SliderMultiplier:1.4
SliderTickRate:1

[Events]
//Background and Video events
0,0,"pipe dream.png",0,0
//Break Periods
2,51300,55600
2,108975,120400
2,134500,138800
//Storyboard Layer 0 (Background)
//Storyboard Layer 1 (Fail)
//Storyboard Layer 2 (Pass)
//Storyboard Layer 3 (Foreground)
//Storyboard Sound Samples

[TimingPoints]
0,200,4,1,0,15,1,0
100,-100,4,1,0,15,0,0
51200,-80,4,1,0,15,0,0
56800,-1000,4,1,0,15,0,0
57200,-100,4,1,0,15,0,0
134400,-80,4,1,0,15,0,0
140000,-1000,4,1,0,15,0,0
140400,-100,4,1,0,15,0,0
166000,-10000,4,1,0,15,0,0
166200,-100,4,1,0,15,0,0

[HitObjects]
448,192,38400,5,0,0:0:0:0:
448,192,38500,1,0,0:0:0:0:
64,192,38600,1,0,0:0:0:0:
64,192,38700,1,0,0:0:0:0:
448,192,38800,1,0,0:0:0:0:
448,192,38900,1,0,0:0:0:0:
64,192,39000,1,0,0:0:0:0:
64,192,39100,1,0,0:0:0:0:
448,192,39200,1,0,0:0:0:0:
448,192,39300,1,0,0:0:0:0:
64,192,39400,1,0,0:0:0:0:
64,192,39500,1,0,0:0:0:0:
448,192,39600,1,0,0:0:0:0:
448,192,39700,1,0,0:0:0:0:
64,192,39800,1,0,0:0:0:0:
64,192,39900,1,0,0:0:0:0:
448,192,40000,1,0,0:0:0:0:
448,192,40100,1,0,0:0:0:0:
192,192,40200,1,0,0:0:0:0:
192,192,40300,1,0,0:0:0:0:
320,192,40400,1,0,0:0:0:0:
320,192,40500,1,0,0:0:0:0:
64,192,40600,1,0,0:0:0:0:
64,192,40700,1,0,0:0:0:0:
320,192,40800,1,0,0:0:0:0:
320,192,40900,1,0,0:0:0:0:
64,192,41000,1,0,0:0:0:0:
64,192,41100,1,0,0:0:0:0:
448,192,41200,1,0,0:0:0:0:
448,192,41300,1,0,0:0:0:0:
192,192,41400,1,0,0:0:0:0:
192,192,41500,1,0,0:0:0:0:
320,192,41600,1,0,0:0:0:0:
320,192,41700,1,0,0:0:0:0:
448,192,41800,1,0,0:0:0:0:
448,192,41900,1,0,0:0:0:0:
192,192,42000,1,0,0:0:0:0:
192,192,42100,1,0,0:0:0:0:
320,192,42200,1,0,0:0:0:0:
320,192,42300,1,0,0:0:0:0:
192,192,42400,1,0,0:0:0:0:
192,192,42500,1,0,0:0:0:0:
320,192,42600,1,0,0:0:0:0:
320,192,42700,1,0,0:0:0:0:
64,192,42800,1,0,0:0:0:0:
64,192,42900,1,0,0:0:0:0:
192,192,43000,1,0,0:0:0:0:
192,192,43100,1,0,0:0:0:0:
320,192,43200,1,0,0:0:0:0:
320,192,43300,1,0,0:0:0:0:
448,192,43400,1,0,0:0:0:0:
448,192,43500,1,0,0:0:0:0:
64,192,43600,1,0,0:0:0:0:
64,192,43700,1,0,0:0:0:0:
192,192,43800,1,0,0:0:0:0:
192,192,43900,1,0,0:0:0:0:
448,192,44000,1,0,0:0:0:0:
448,192,44100,1,0,0:0:0:0:
192,192,44200,1,0,0:0:0:0:
192,192,44300,1,0,0:0:0:0:
64,192,44400,1,0,0:0:0:0:
64,192,44500,1,0,0:0:0:0:
320,192,44600,1,0,0:0:0:0:
320,192,44700,1,0,0:0:0:0:
64,192,44800,1,0,0:0:0:0:
64,192,44900,1,0,0:0:0:0:
320,192,45000,1,0,0:0:0:0:
320,192,45100,1,0,0:0:0:0:
448,192,45200,1,0,0:0:0:0:
448,192,45300,1,0,0:0:0:0:
192,192,45400,1,0,0:0:0:0:
192,192,45500,1,0,0:0:0:0:
320,192,45600,1,0,0:0:0:0:
320,192,45700,1,0,0:0:0:0:
64,192,45800,1,0,0:0:0:0:
64,192,45900,1,0,0:0:0:0:
448,192,46000,1,0,0:0:0:0:
448,192,46100,1,0,0:0:0:0:
192,192,46200,1,0,0:0:0:0:
192,192,46300,1,0,0:0:0:0:
448,192,46400,1,0,0:0:0:0:
448,192,46500,1,0,0:0:0:0:
64,192,46600,1,0,0:0:0:0:
64,192,46700,1,0,0:0:0:0:
320,192,46800,1,0,0:0:0:0:
320,192,46900,1,0,0:0:0:0:
192,192,47000,1,0,0:0:0:0:
192,192,47100,1,0,0:0:0:0:
320,192,47200,1,0,0:0:0:0:
320,192,47300,1,0,0:0:0:0:
64,192,47400,1,0,0:0:0:0:
64,192,47500,1,0,0:0:0:0:
448,192,47600,1,0,0:0:0:0:
448,192,47700,1,0,0:0:0:0:
192,192,47800,1,0,0:0:0:0:
192,192,47900,1,0,0:0:0:0:
448,192,48000,1,0,0:0:0:0:
448,192,48100,1,0,0:0:0:0:
64,192,48200,1,0,0:0:0:0:
64,192,48300,1,0,0:0:0:0:
320,192,48400,1,0,0:0:0:0:
320,192,48500,1,0,0:0:0:0:
192,192,48600,1,0,0:0:0:0:
192,192,48700,1,0,0:0:0:0:
64,192,48800,1,0,0:0:0:0:
64,192,48900,1,0,0:0:0:0:
192,192,49000,1,0,0:0:0:0:
192,192,49100,1,0,0:0:0:0:
320,192,49200,1,0,0:0:0:0:
320,192,49300,1,0,0:0:0:0:
448,192,49400,1,0,0:0:0:0:
448,192,49500,1,0,0:0:0:0:
320,192,49600,1,0,0:0:0:0:
320,192,49700,1,0,0:0:0:0:
192,192,49800,1,0,0:0:0:0:
192,192,49900,1,0,0:0:0:0:
64,192,50000,1,0,0:0:0:0:
64,192,50100,1,0,0:0:0:0:
448,192,50200,1,0,0:0:0:0:
448,192,50300,1,0,0:0:0:0:
320,192,50400,1,0,0:0:0:0:
320,192,50500,1,0,0:0:0:0:
192,192,50600,1,0,0:0:0:0:
192,192,50700,1,0,0:0:0:0:
64,192,50800,1,0,0:0:0:0:
64,192,50900,1,0,0:0:0:0:
320,192,51000,1,0,0:0:0:0:
320,192,51100,1,0,0:0:0:0:
64,192,56800,132,0,57200:0:0:0:0:
192,192,56800,128,0,57200:0:0:0:0:
320,192,56800,128,0,57200:0:0:0:0:
448,192,56800,128,0,57200:0:0:0:0:
448,192,57600,1,0,0:0:0:0:
320,192,57600,1,0,0:0:0:0:
64,192,57600,1,0,0:0:0:0:
64,192,57700,1,0,0:0:0:0:
192,192,57700,1,0,0:0:0:0:
448,192,57800,1,0,0:0:0:0:
192,192,57800,1,0,0:0:0:0:
64,192,57800,1,0,0:0:0:0:
320,192,57900,1,0,0:0:0:0:
448,192,57900,1,0,0:0:0:0:
448,192,58000,1,0,0:0:0:0:
64,192,58000,1,0,0:0:0:0:
320,192,58000,1,0,0:0:0:0:
64,192,58100,1,0,0:0:0:0:
192,192,58100,1,0,0:0:0:0:
192,192,58200,1,0,0:0:0:0:
64,192,58200,1,0,0:0:0:0:
448,192,58200,1,0,0:0:0:0:
448,192,58300,1,0,0:0:0:0:
320,192,58300,1,0,0:0:0:0:
320,192,58400,1,0,0:0:0:0:
64,192,58400,1,0,0:0:0:0:
448,192,58400,1,0,0:0:0:0:
64,192,58500,1,0,0:0:0:0:
192,192,58500,1,0,0:0:0:0:
192,192,58600,1,0,0:0:0:0:
448,192,58600,1,0,0:0:0:0:
64,192,58600,1,0,0:0:0:0:
320,192,58700,1,0,0:0:0:0:
448,192,58700,1,0,0:0:0:0:
320,192,58800,1,0,0:0:0:0:
448,192,58800,1,0,0:0:0:0:
64,192,58800,1,0,0:0:0:0:
64,192,58900,1,0,0:0:0:0:
192,192,58900,1,0,0:0:0:0:
448,192,59000,1,0,0:0:0:0:
64,192,59000,1,0,0:0:0:0:
192,192,59000,1,0,0:0:0:0:
448,192,59100,1,0,0:0:0:0:
320,192,59100,1,0,0:0:0:0:
64,192,59200,1,0,0:0:0:0:
320,192,59200,1,0,0:0:0:0:
192,192,59300,1,0,0:0:0:0:
64,192,59300,1,0,0:0:0:0:
448,192,59400,1,0,0:0:0:0:
320,192,59400,1,0,0:0:0:0:
192,192,59400,1,0,0:0:0:0:
448,192,59500,1,0,0:0:0:0:
320,192,59500,1,0,0:0:0:0:
320,192,59600,1,0,0:0:0:0:
64,192,59600,1,0,0:0:0:0:
192,192,59600,1,0,0:0:0:0:
64,192,59700,1,0,0:0:0:0:
192,192,59700,1,0,0:0:0:0:
448,192,59800,1,0,0:0:0:0:
320,192,59800,1,0,0:0:0:0:
192,192,59800,1,0,0:0:0:0:
448,192,59900,1,0,0:0:0:0:
320,192,59900,1,0,0:0:0:0:
320,192,60000,1,0,0:0:0:0:
64,192,60000,1,0,0:0:0:0:
192,192,60000,1,0,0:0:0:0:
192,192,60100,1,0,0:0:0:0:
64,192,60100,1,0,0:0:0:0:
448,192,60200,1,0,0:0:0:0:
320,192,60200,1,0,0:0:0:0:
192,192,60200,1,0,0:0:0:0:
448,192,60300,1,0,0:0:0:0:
320,192,60300,1,0,0:0:0:0:
64,192,60400,1,0,0:0:0:0:
192,192,60400,1,0,0:0:0:0:
320,192,60400,1,0,0:0:0:0:
192,192,60500,1,0,0:0:0:0:
64,192,60500,1,0,0:0:0:0:
448,192,60600,1,0,0:0:0:0:
320,192,60600,1,0,0:0:0:0:
192,192,60600,1,0,0:0:0:0:
448,192,60700,1,0,0:0:0:0:
320,192,60700,1,0,0:0:0:0:
448,192,60800,1,0,0:0:0:0:
64,192,60800,1,0,0:0:0:0:
192,192,60800,1,0,0:0:0:0:
448,192,60900,1,0,0:0:0:0:
64,192,60900,1,0,0:0:0:0:
64,192,61000,1,0,0:0:0:0:
192,192,61000,1,0,0:0:0:0:
320,192,61000,1,0,0:0:0:0:
64,192,61100,1,0,0:0:0:0:
192,192,61100,1,0,0:0:0:0:
448,192,61200,1,0,0:0:0:0:
64,192,61200,1,0,0:0:0:0:
320,192,61200,1,0,0:0:0:0:
448,192,61300,1,0,0:0:0:0:
64,192,61300,1,0,0:0:0:0:
448,192,61400,1,0,0:0:0:0:
320,192,61400,1,0,0:0:0:0:
192,192,61400,1,0,0:0:0:0:
448,192,61500,1,0,0:0:0:0:
320,192,61500,1,0,0:0:0:0:
448,192,61600,1,0,0:0:0:0:
64,192,61600,1,0,0:0:0:0:
192,192,61600,1,0,0:0:0:0:
448,192,61700,1,0,0:0:0:0:
64,192,61700,1,0,0:0:0:0:
64,192,61800,1,0,0:0:0:0:
320,192,61800,1,0,0:0:0:0:
192,192,61800,1,0,0:0:0:0:
64,192,61900,1,0,0:0:0:0:
192,192,61900,1,0,0:0:0:0:
448,192,62000,1,0,0:0:0:0:
64,192,62000,1,0,0:0:0:0:
320,192,62000,1,0,0:0:0:0:
448,192,62100,1,0,0:0:0:0:
64,192,62100,1,0,0:0:0:0:
448,192,62200,1,0,0:0:0:0:
320,192,62200,1,0,0:0:0:0:
192,192,62200,1,0,0:0:0:0:
448,192,62300,1,0,0:0:0:0:
320,192,62300,1,0,0:0:0:0:
320,192,62400,1,0,0:0:0:0:
448,192,62400,1,0,0:0:0:0:
64,192,62400,1,0,0:0:0:0:
448,192,62500,1,0,0:0:0:0:
64,192,62500,1,0,0:0:0:0:
64,192,62600,1,0,0:0:0:0:
448,192,62600,1,0,0:0:0:0:
192,192,62600,1,0,0:0:0:0:
64,192,62700,1,0,0:0:0:0:
192,192,62700,1,0,0:0:0:0:
320,192,62800,1,0,0:0:0:0:
64,192,62800,1,0,0:0:0:0:
192,192,62800,1,0,0:0:0:0:
192,192,62900,1,0,0:0:0:0:
64,192,62900,1,0,0:0:0:0:
192,192,63000,1,0,0:0:0:0:
448,192,63000,1,0,0:0:0:0:
64,192,63000,1,0,0:0:0:0:
64,192,63100,1,0,0:0:0:0:
448,192,63100,1,0,0:0:0:0:
64,192,63200,1,0,0:0:0:0:
448,192,63200,1,0,0:0:0:0:
320,192,63200,1,0,0:0:0:0:
448,192,63300,1,0,0:0:0:0:
320,192,63300,1,0,0:0:0:0:
192,192,63400,1,0,0:0:0:0:
448,192,63400,1,0,0:0:0:0:
320,192,63400,1,0,0:0:0:0:
448,192,63500,1,0,0:0:0:0:
320,192,63500,1,0,0:0:0:0:
320,192,63600,1,0,0:0:0:0:
64,192,63600,1,0,0:0:0:0:
448,192,63600,1,0,0:0:0:0:
448,192,63700,1,0,0:0:0:0:
64,192,63700,1,0,0:0:0:0:
448,192,63800,1,0,0:0:0:0:
64,192,63800,1,0,0:0:0:0:
192,192,63800,1,0,0:0:0:0:
192,192,63900,1,0,0:0:0:0:
64,192,63900,1,0,0:0:0:0:
64,192,64000,1,0,0:0:0:0:
320,192,64000,1,0,0:0:0:0:
448,192,64000,1,0,0:0:0:0:
320,192,64100,1,0,0:0:0:0:
448,192,64100,1,0,0:0:0:0:
320,192,64200,1,0,0:0:0:0:
192,192,64200,1,0,0:0:0:0:
448,192,64200,1,0,0:0:0:0:
448,192,64300,1,0,0:0:0:0:
320,192,64300,1,0,0:0:0:0:
64,192,64400,1,0,0:0:0:0:
192,192,64400,1,0,0:0:0:0:
448,192,64400,1,0,0:0:0:0:
64,192,64500,1,0,0:0:0:0:
192,192,64500,1,0,0:0:0:0:
64,192,64600,1,0,0:0:0:0:
192,192,64600,1,0,0:0:0:0:
320,192,64600,1,0,0:0:0:0:
64,192,64700,1,0,0:0:0:0:
192,192,64700,1,0,0:0:0:0:
448,192,64800,1,0,0:0:0:0:
64,192,64800,1,0,0:0:0:0:
320,192,64800,1,0,0:0:0:0:
448,192,64900,1,0,0:0:0:0:
320,192,64900,1,0,0:0:0:0:
448,192,65000,1,0,0:0:0:0:
320,192,65000,1,0,0:0:0:0:
192,192,65000,1,0,0:0:0:0:
448,192,65100,1,0,0:0:0:0:
320,192,65100,1,0,0:0:0:0:
64,192,65200,1,0,0:0:0:0:
192,192,65200,1,0,0:0:0:0:
448,192,65200,1,0,0:0:0:0:
64,192,65300,1,0,0:0:0:0:
192,192,65300,1,0,0:0:0:0:
64,192,65400,1,0,0:0:0:0:
192,192,65400,1,0,0:0:0:0:
320,192,65400,1,0,0:0:0:0:
192,192,65500,1,0,0:0:0:0:
64,192,65500,1,0,0:0:0:0:
64,192,65600,1,0,0:0:0:0:
192,192,65600,1,0,0:0:0:0:
64,192,65700,1,0,0:0:0:0:
192,192,65700,1,0,0:0:0:0:
320,192,65700,1,0,0:0:0:0:
448,192,65800,1,0,0:0:0:0:
64,192,65800,1,0,0:0:0:0:
448,192,65900,1,0,0:0:0:0:
192,192,65900,1,0,0:0:0:0:
64,192,65900,1,0,0:0:0:0:
448,192,66000,1,0,0:0:0:0:
320,192,66000,1,0,0:0:0:0:
64,192,66100,1,0,0:0:0:0:
448,192,66100,1,0,0:0:0:0:
320,192,66100,1,0,0:0:0:0:
320,192,66200,1,0,0:0:0:0:
192,192,66200,1,0,0:0:0:0:
448,192,66300,1,0,0:0:0:0:
320,192,66300,1,0,0:0:0:0:
192,192,66300,1,0,0:0:0:0:
64,192,66400,1,0,0:0:0:0:
192,192,66400,1,0,0:0:0:0:
64,192,66500,1,0,0:0:0:0:
192,192,66500,1,0,0:0:0:0:
320,192,66500,1,0,0:0:0:0:
448,192,66600,1,0,0:0:0:0:
64,192,66600,1,0,0:0:0:0:
448,192,66700,1,0,0:0:0:0:
64,192,66700,1,0,0:0:0:0:
192,192,66700,1,0,0:0:0:0:
448,192,66800,1,0,0:0:0:0:
320,192,66800,1,0,0:0:0:0:
64,192,66900,1,0,0:0:0:0:
448,192,66900,1,0,0:0:0:0:
320,192,66900,1,0,0:0:0:0:
320,192,67000,1,0,0:0:0:0:
192,192,67000,1,0,0:0:0:0:
448,192,67100,1,0,0:0:0:0:
320,192,67100,1,0,0:0:0:0:
192,192,67100,1,0,0:0:0:0:
448,192,67200,1,0,0:0:0:0:
320,192,67200,1,0,0:0:0:0:
64,192,67300,1,0,0:0:0:0:
448,192,67300,1,0,0:0:0:0:
320,192,67300,1,0,0:0:0:0:
448,192,67400,1,0,0:0:0:0:
320,192,67400,1,0,0:0:0:0:
64,192,67500,1,0,0:0:0:0:
320,192,67500,1,0,0:0:0:0:
448,192,67500,1,0,0:0:0:0:
64,192,67600,1,0,0:0:0:0:
192,192,67600,1,0,0:0:0:0:
448,192,67700,1,0,0:0:0:0:
192,192,67700,1,0,0:0:0:0:
64,192,67700,1,0,0:0:0:0:
64,192,67800,1,0,0:0:0:0:
192,192,67800,1,0,0:0:0:0:
448,192,67900,1,0,0:0:0:0:
192,192,67900,1,0,0:0:0:0:
64,192,67900,1,0,0:0:0:0:
448,192,68000,1,0,0:0:0:0:
320,192,68000,1,0,0:0:0:0:
64,192,68100,1,0,0:0:0:0:
448,192,68100,1,0,0:0:0:0:
320,192,68100,1,0,0:0:0:0:
448,192,68200,1,0,0:0:0:0:
320,192,68200,1,0,0:0:0:0:
64,192,68300,1,0,0:0:0:0:
448,192,68300,1,0,0:0:0:0:
320,192,68300,1,0,0:0:0:0:
192,192,68400,1,0,0:0:0:0:
64,192,68400,1,0,0:0:0:0:
448,192,68500,1,0,0:0:0:0:
64,192,68500,1,0,0:0:0:0:
192,192,68500,1,0,0:0:0:0:
192,192,68600,1,0,0:0:0:0:
64,192,68600,1,0,0:0:0:0:
448,192,68700,1,0,0:0:0:0:
64,192,68700,1,0,0:0:0:0:
192,192,68700,1,0,0:0:0:0:
320,192,68800,1,0,0:0:0:0:
448,192,68800,1,0,0:0:0:0:
64,192,68800,1,0,0:0:0:0:
192,192,68800,1,0,0:0:0:0:
192,192,68900,1,0,0:0:0:0:
320,192,68900,1,0,0:0:0:0:
448,192,68900,1,0,0:0:0:0:
448,192,69000,1,0,0:0:0:0:
320,192,69000,1,0,0:0:0:0:
448,192,69100,1,0,0:0:0:0:
64,192,69200,1,0,0:0:0:0:
192,192,69200,1,0,0:0:0:0:
192,192,69300,5,0,0:0:0:0:
320,192,69300,1,0,0:0:0:0:
448,192,69400,1,0,0:0:0:0:
320,192,69400,1,0,0:0:0:0:
192,192,69500,1,0,0:0:0:0:
448,192,69500,1,0,0:0:0:0:
448,192,69600,1,0,0:0:0:0:
320,192,69600,1,0,0:0:0:0:
64,192,69600,1,0,0:0:0:0:
192,192,69600,1,0,0:0:0:0:
64,192,69700,1,0,0:0:0:0:
448,192,69700,1,0,0:0:0:0:
320,192,69700,1,0,0:0:0:0:
64,192,69800,1,0,0:0:0:0:
192,192,69800,1,0,0:0:0:0:
448,192,69900,1,0,0:0:0:0:
320,192,69900,1,0,0:0:0:0:
448,192,70000,1,0,0:0:0:0:
192,192,70000,1,0,0:0:0:0:
64,192,70000,1,0,0:0:0:0:
320,192,70000,1,0,0:0:0:0:
448,192,70100,1,0,0:0:0:0:
320,192,70100,1,0,0:0:0:0:
192,192,70100,1,0,0:0:0:0:
320,192,70200,1,0,0:0:0:0:
64,192,70200,1,0,0:0:0:0:
192,192,70300,1,0,0:0:0:0:
448,192,70300,1,0,0:0:0:0:
64,192,70400,1,0,0:0:0:0:
192,192,70400,1,0,0:0:0:0:
448,192,70400,1,0,0:0:0:0:
448,192,70500,1,0,0:0:0:0:
320,192,70500,1,0,0:0:0:0:
64,192,70600,1,0,0:0:0:0:
320,192,70600,1,0,0:0:0:0:
448,192,70600,1,0,0:0:0:0:
192,192,70700,1,0,0:0:0:0:
64,192,70700,1,0,0:0:0:0:
64,192,70800,1,0,0:0:0:0:
448,192,70800,1,0,0:0:0:0:
192,192,70800,1,0,0:0:0:0:
448,192,70900,1,0,0:0:0:0:
320,192,70900,1,0,0:0:0:0:
320,192,71000,1,0,0:0:0:0:
448,192,71000,1,0,0:0:0:0:
64,192,71000,1,0,0:0:0:0:
64,192,71100,1,0,0:0:0:0:
192,192,71100,1,0,0:0:0:0:
192,192,71200,1,0,0:0:0:0:
448,192,71200,1,0,0:0:0:0:
64,192,71200,1,0,0:0:0:0:
448,192,71300,1,0,0:0:0:0:
320,192,71300,1,0,0:0:0:0:
320,192,71400,1,0,0:0:0:0:
64,192,71400,1,0,0:0:0:0:
448,192,71400,1,0,0:0:0:0:
192,192,71500,1,0,0:0:0:0:
64,192,71500,1,0,0:0:0:0:
192,192,71600,1,0,0:0:0:0:
64,192,71600,1,0,0:0:0:0:
448,192,71600,1,0,0:0:0:0:
448,192,71700,1,0,0:0:0:0:
320,192,71700,1,0,0:0:0:0:
64,192,71800,1,0,0:0:0:0:
448,192,71800,1,0,0:0:0:0:
320,192,71800,1,0,0:0:0:0:
64,192,71900,1,0,0:0:0:0:
192,192,71900,1,0,0:0:0:0:
448,192,72000,1,0,0:0:0:0:
192,192,72000,1,0,0:0:0:0:
320,192,72100,1,0,0:0:0:0:
448,192,72100,1,0,0:0:0:0:
64,192,72200,1,0,0:0:0:0:
192,192,72200,1,0,0:0:0:0:
320,192,72200,1,0,0:0:0:0:
64,192,72300,1,0,0:0:0:0:
192,192,72300,1,0,0:0:0:0:
192,192,72400,1,0,0:0:0:0:
448,192,72400,1,0,0:0:0:0:
320,192,72400,1,0,0:0:0:0:
448,192,72500,1,0,0:0:0:0:
320,192,72500,1,0,0:0:0:0:
64,192,72600,1,0,0:0:0:0:
192,192,72600,1,0,0:0:0:0:
320,192,72600,1,0,0:0:0:0:
64,192,72700,1,0,0:0:0:0:
192,192,72700,1,0,0:0:0:0:
192,192,72800,1,0,0:0:0:0:
448,192,72800,1,0,0:0:0:0:
320,192,72800,1,0,0:0:0:0:
320,192,72900,1,0,0:0:0:0:
448,192,72900,1,0,0:0:0:0:
64,192,73000,1,0,0:0:0:0:
192,192,73000,1,0,0:0:0:0:
320,192,73000,1,0,0:0:0:0:
64,192,73100,1,0,0:0:0:0:
192,192,73100,1,0,0:0:0:0:
448,192,73200,1,0,0:0:0:0:
320,192,73200,1,0,0:0:0:0:
192,192,73200,1,0,0:0:0:0:
320,192,73300,1,0,0:0:0:0:
448,192,73300,1,0,0:0:0:0:
64,192,73400,1,0,0:0:0:0:
192,192,73400,1,0,0:0:0:0:
320,192,73400,1,0,0:0:0:0:
64,192,73500,1,0,0:0:0:0:
192,192,73500,1,0,0:0:0:0:
64,192,73600,1,0,0:0:0:0:
448,192,73600,1,0,0:0:0:0:
320,192,73600,1,0,0:0:0:0:
64,192,73700,1,0,0:0:0:0:
448,192,73700,1,0,0:0:0:0:
448,192,73800,1,0,0:0:0:0:
320,192,73800,1,0,0:0:0:0:
192,192,73800,1,0,0:0:0:0:
448,192,73900,1,0,0:0:0:0:
320,192,73900,1,0,0:0:0:0:
64,192,74000,1,0,0:0:0:0:
448,192,74000,1,0,0:0:0:0:
192,192,74000,1,0,0:0:0:0:
64,192,74100,1,0,0:0:0:0:
448,192,74100,1,0,0:0:0:0:
64,192,74200,1,0,0:0:0:0:
192,192,74200,1,0,0:0:0:0:
320,192,74200,1,0,0:0:0:0:
64,192,74300,1,0,0:0:0:0:
192,192,74300,1,0,0:0:0:0:
64,192,74400,1,0,0:0:0:0:
448,192,74400,1,0,0:0:0:0:
320,192,74400,1,0,0:0:0:0:
64,192,74500,1,0,0:0:0:0:
448,192,74500,1,0,0:0:0:0:
448,192,74600,1,0,0:0:0:0:
192,192,74600,1,0,0:0:0:0:
320,192,74600,1,0,0:0:0:0:
448,192,74700,1,0,0:0:0:0:
320,192,74700,1,0,0:0:0:0:
64,192,74800,1,0,0:0:0:0:
448,192,74800,1,0,0:0:0:0:
192,192,74800,1,0,0:0:0:0:
64,192,74900,1,0,0:0:0:0:
448,192,74900,1,0,0:0:0:0:
64,192,75000,1,0,0:0:0:0:
192,192,75000,1,0,0:0:0:0:
320,192,75000,1,0,0:0:0:0:
64,192,75100,1,0,0:0:0:0:
192,192,75100,1,0,0:0:0:0:
192,192,75200,1,0,0:0:0:0:
64,192,75200,1,0,0:0:0:0:
448,192,75200,1,0,0:0:0:0:
64,192,75300,1,0,0:0:0:0:
448,192,75300,1,0,0:0:0:0:
448,192,75400,1,0,0:0:0:0:
64,192,75400,1,0,0:0:0:0:
320,192,75400,1,0,0:0:0:0:
448,192,75500,1,0,0:0:0:0:
320,192,75500,1,0,0:0:0:0:
192,192,75600,1,0,0:0:0:0:
448,192,75600,1,0,0:0:0:0:
320,192,75600,1,0,0:0:0:0:
320,192,75700,1,0,0:0:0:0:
448,192,75700,1,0,0:0:0:0:
320,192,75800,1,0,0:0:0:0:
64,192,75800,1,0,0:0:0:0:
448,192,75800,1,0,0:0:0:0:
448,192,75900,1,0,0:0:0:0:
64,192,75900,1,0,0:0:0:0:
448,192,76000,1,0,0:0:0:0:
64,192,76000,1,0,0:0:0:0:
192,192,76000,1,0,0:0:0:0:
64,192,76100,1,0,0:0:0:0:
192,192,76100,1,0,0:0:0:0:
320,192,76200,1,0,0:0:0:0:
64,192,76200,1,0,0:0:0:0:
192,192,76200,1,0,0:0:0:0:
64,192,76300,1,0,0:0:0:0:
192,192,76300,1,0,0:0:0:0:
192,192,76400,1,0,0:0:0:0:
448,192,76400,1,0,0:0:0:0:
64,192,76400,1,0,0:0:0:0:
64,192,76500,1,0,0:0:0:0:
448,192,76500,1,0,0:0:0:0:
64,192,76600,1,0,0:0:0:0:
448,192,76600,1,0,0:0:0:0:
320,192,76600,1,0,0:0:0:0:
320,192,76700,1,0,0:0:0:0:
448,192,76700,1,0,0:0:0:0:
448,192,76800,1,0,0:0:0:0:
192,192,76800,1,0,0:0:0:0:
64,192,76800,1,0,0:0:0:0:
192,192,76900,1,0,0:0:0:0:
64,192,76900,1,0,0:0:0:0:
192,192,77000,1,0,0:0:0:0:
320,192,77000,1,0,0:0:0:0:
64,192,77000,1,0,0:0:0:0:
64,192,77100,1,0,0:0:0:0:
192,192,77100,1,0,0:0:0:0:
448,192,77200,1,0,0:0:0:0:
320,192,77200,1,0,0:0:0:0:
64,192,77200,1,0,0:0:0:0:
448,192,77300,1,0,0:0:0:0:
320,192,77300,1,0,0:0:0:0:
448,192,77400,1,0,0:0:0:0:
320,192,77400,1,0,0:0:0:0:
192,192,77400,1,0,0:0:0:0:
448,192,77500,1,0,0:0:0:0:
320,192,77500,1,0,0:0:0:0:
64,192,77600,1,0,0:0:0:0:
448,192,77600,1,0,0:0:0:0:
192,192,77600,1,0,0:0:0:0:
64,192,77700,1,0,0:0:0:0:
192,192,77700,1,0,0:0:0:0:
64,192,77800,1,0,0:0:0:0:
192,192,77800,1,0,0:0:0:0:
320,192,77800,1,0,0:0:0:0:
64,192,77900,1,0,0:0:0:0:
192,192,77900,1,0,0:0:0:0:
448,192,78000,1,0,0:0:0:0:
320,192,78000,1,0,0:0:0:0:
64,192,78000,1,0,0:0:0:0:
448,192,78100,1,0,0:0:0:0:
320,192,78100,1,0,0:0:0:0:
448,192,78200,1,0,0:0:0:0:
320,192,78200,1,0,0:0:0:0:
192,192,78200,1,0,0:0:0:0:
320,192,78300,1,0,0:0:0:0:
448,192,78300,1,0,0:0:0:0:
448,192,78400,1,0,0:0:0:0:
320,192,78400,1,0,0:0:0:0:
448,192,78500,1,0,0:0:0:0:
320,192,78500,1,0,0:0:0:0:
192,192,78500,1,0,0:0:0:0:
64,192,78600,1,0,0:0:0:0:
448,192,78600,1,0,0:0:0:0:
64,192,78700,1,0,0:0:0:0:
320,192,78700,1,0,0:0:0:0:
448,192,78700,1,0,0:0:0:0:
64,192,78800,1,0,0:0:0:0:
192,192,78800,1,0,0:0:0:0:
448,192,78900,1,0,0:0:0:0:
64,192,78900,1,0,0:0:0:0:
192,192,78900,1,0,0:0:0:0:
192,192,79000,1,0,0:0:0:0:
320,192,79000,1,0,0:0:0:0:
64,192,79100,1,0,0:0:0:0:
192,192,79100,1,0,0:0:0:0:
320,192,79100,1,0,0:0:0:0:
448,192,79200,1,0,0:0:0:0:
320,192,79200,1,0,0:0:0:0:
448,192,79300,1,0,0:0:0:0:
320,192,79300,1,0,0:0:0:0:
192,192,79300,1,0,0:0:0:0:
64,192,79400,1,0,0:0:0:0:
448,192,79400,1,0,0:0:0:0:
64,192,79500,1,0,0:0:0:0:
448,192,79500,1,0,0:0:0:0:
320,192,79500,1,0,0:0:0:0:
64,192,79600,1,0,0:0:0:0:
192,192,79600,1,0,0:0:0:0:
448,192,79700,1,0,0:0:0:0:
64,192,79700,1,0,0:0:0:0:
192,192,79700,1,0,0:0:0:0:
192,192,79800,1,0,0:0:0:0:
320,192,79800,1,0,0:0:0:0:
64,192,79900,1,0,0:0:0:0:
192,192,79900,1,0,0:0:0:0:
320,192,79900,1,0,0:0:0:0:
64,192,80000,1,0,0:0:0:0:
192,192,80000,1,0,0:0:0:0:
448,192,80100,1,0,0:0:0:0:
64,192,80100,1,0,0:0:0:0:
192,192,80100,1,0,0:0:0:0:
64,192,80200,1,0,0:0:0:0:
192,192,80200,1,0,0:0:0:0:
448,192,80300,1,0,0:0:0:0:
192,192,80300,1,0,0:0:0:0:
64,192,80300,1,0,0:0:0:0:
448,192,80400,1,0,0:0:0:0:
320,192,80400,1,0,0:0:0:0:
64,192,80500,1,0,0:0:0:0:
320,192,80500,1,0,0:0:0:0:
448,192,80500,1,0,0:0:0:0:
448,192,80600,1,0,0:0:0:0:
320,192,80600,1,0,0:0:0:0:
64,192,80700,1,0,0:0:0:0:
320,192,80700,1,0,0:0:0:0:
448,192,80700,1,0,0:0:0:0:
64,192,80800,1,0,0:0:0:0:
192,192,80800,1,0,0:0:0:0:
448,192,80900,1,0,0:0:0:0:
64,192,80900,1,0,0:0:0:0:
192,192,80900,1,0,0:0:0:0:
64,192,81000,1,0,0:0:0:0:
192,192,81000,1,0,0:0:0:0:
448,192,81100,1,0,0:0:0:0:
64,192,81100,1,0,0:0:0:0:
192,192,81100,1,0,0:0:0:0:
320,192,81200,1,0,0:0:0:0:
448,192,81200,1,0,0:0:0:0:
64,192,81300,1,0,0:0:0:0:
448,192,81300,1,0,0:0:0:0:
320,192,81300,1,0,0:0:0:0:
320,192,81400,1,0,0:0:0:0:
448,192,81400,1,0,0:0:0:0:
64,192,81500,1,0,0:0:0:0:
448,192,81500,1,0,0:0:0:0:
320,192,81500,1,0,0:0:0:0:
192,192,81600,1,0,0:0:0:0:
64,192,81600,1,0,0:0:0:0:
448,192,81600,1,0,0:0:0:0:
320,192,81600,1,0,0:0:0:0:
320,192,81700,1,0,0:0:0:0:
192,192,81700,1,0,0:0:0:0:
64,192,81700,1,0,0:0:0:0:
64,192,81800,1,0,0:0:0:0:
192,192,81800,1,0,0:0:0:0:
64,192,81900,1,0,0:0:0:0:
448,192,82000,1,0,0:0:0:0:
320,192,82000,1,0,0:0:0:0:
320,192,82100,5,0,0:0:0:0:
192,192,82100,1,0,0:0:0:0:
64,192,82200,1,0,0:0:0:0:
192,192,82200,1,0,0:0:0:0:
320,192,82300,1,0,0:0:0:0:
64,192,82300,1,0,0:0:0:0:
64,192,82400,1,0,0:0:0:0:
192,192,82400,1,0,0:0:0:0:
448,192,82400,1,0,0:0:0:0:
320,192,82400,1,0,0:0:0:0:
448,192,82500,1,0,0:0:0:0:
64,192,82500,1,0,0:0:0:0:
192,192,82500,1,0,0:0:0:0:
448,192,82600,1,0,0:0:0:0:
320,192,82600,1,0,0:0:0:0:
64,192,82700,1,0,0:0:0:0:
192,192,82700,1,0,0:0:0:0:
64,192,82800,1,0,0:0:0:0:
320,192,82800,1,0,0:0:0:0:
448,192,82800,1,0,0:0:0:0:
192,192,82800,1,0,0:0:0:0:
64,192,82900,1,0,0:0:0:0:
192,192,82900,1,0,0:0:0:0:
320,192,82900,1,0,0:0:0:0:
192,192,83000,1,0,0:0:0:0:
448,192,83000,1,0,0:0:0:0:
320,192,83100,1,0,0:0:0:0:
64,192,83100,1,0,0:0:0:0:
64,192,83200,5,0,0:0:0:0:
448,192,83200,1,0,0:0:0:0:
320,192,83200,1,0,0:0:0:0:
192,192,83200,1,0,0:0:0:0:
448,192,83300,1,0,0:0:0:0:
320,192,83400,1,0,0:0:0:0:
192,192,83500,1,0,0:0:0:0:
64,192,83600,1,0,0:0:0:0:
192,192,83600,1,0,0:0:0:0:
320,192,83600,1,0,0:0:0:0:
448,192,83600,1,0,0:0:0:0:
64,192,83700,1,0,0:0:0:0:
192,192,83800,1,0,0:0:0:0:
320,192,83900,1,0,0:0:0:0:
64,192,84000,1,0,0:0:0:0:
192,192,84000,1,0,0:0:0:0:
320,192,84000,1,0,0:0:0:0:
448,192,84000,1,0,0:0:0:0:
192,192,84100,1,0,0:0:0:0:
320,192,84200,1,0,0:0:0:0:
448,192,84300,1,0,0:0:0:0:
448,192,84400,1,0,0:0:0:0:
320,192,84400,1,0,0:0:0:0:
192,192,84400,1,0,0:0:0:0:
64,192,84400,1,0,0:0:0:0:
64,192,84500,1,0,0:0:0:0:
448,192,84600,1,0,0:0:0:0:
192,192,84700,1,0,0:0:0:0:
448,192,84800,1,0,0:0:0:0:
320,192,84800,1,0,0:0:0:0:
192,192,84850,1,0,0:0:0:0:
64,192,84850,1,0,0:0:0:0:
320,192,84900,1,0,0:0:0:0:
448,192,84900,1,0,0:0:0:0:
192,192,84950,1,0,0:0:0:0:
64,192,84950,1,0,0:0:0:0:
320,192,85000,1,0,0:0:0:0:
448,192,85000,1,0,0:0:0:0:
192,192,85050,1,0,0:0:0:0:
64,192,85050,1,0,0:0:0:0:
320,192,85100,1,0,0:0:0:0:
448,192,85100,1,0,0:0:0:0:
192,192,85150,1,0,0:0:0:0:
64,192,85150,1,0,0:0:0:0:
320,192,85200,1,0,0:0:0:0:
448,192,85200,1,0,0:0:0:0:
192,192,85300,1,0,0:0:0:0:
64,192,85400,1,0,0:0:0:0:
192,192,85500,1,0,0:0:0:0:
320,192,85600,1,0,0:0:0:0:
448,192,85600,1,0,0:0:0:0:
192,192,85600,1,0,0:0:0:0:
64,192,85600,1,0,0:0:0:0:
320,192,85700,1,0,0:0:0:0:
448,192,85800,1,0,0:0:0:0:
320,192,85900,1,0,0:0:0:0:
320,192,86000,1,0,0:0:0:0:
448,192,86000,1,0,0:0:0:0:
192,192,86000,1,0,0:0:0:0:
64,192,86000,1,0,0:0:0:0:
320,192,86100,1,0,0:0:0:0:
64,192,86200,1,0,0:0:0:0:
448,192,86300,1,0,0:0:0:0:
64,192,86400,1,0,0:0:0:0:
192,192,86400,1,0,0:0:0:0:
320,192,86450,1,0,0:0:0:0:
448,192,86450,1,0,0:0:0:0:
192,192,86500,1,0,0:0:0:0:
64,192,86500,1,0,0:0:0:0:
320,192,86550,1,0,0:0:0:0:
448,192,86550,1,0,0:0:0:0:
192,192,86600,1,0,0:0:0:0:
64,192,86600,1,0,0:0:0:0:
320,192,86650,1,0,0:0:0:0:
448,192,86650,1,0,0:0:0:0:
192,192,86700,1,0,0:0:0:0:
64,192,86700,1,0,0:0:0:0:
320,192,86750,1,0,0:0:0:0:
448,192,86750,1,0,0:0:0:0:
192,192,86800,1,0,0:0:0:0:
64,192,86800,1,0,0:0:0:0:
448,192,86850,1,0,0:0:0:0:
320,192,86900,1,0,0:0:0:0:
192,192,86933,1,0,0:0:0:0:
64,192,86966,1,0,0:0:0:0:
448,192,87000,1,0,0:0:0:0:
320,192,87025,1,0,0:0:0:0:
192,192,87050,1,0,0:0:0:0:
64,192,87075,1,0,0:0:0:0:
448,192,87100,1,0,0:0:0:0:
320,192,87125,1,0,0:0:0:0:
192,192,87150,1,0,0:0:0:0:
64,192,87175,1,0,0:0:0:0:
320,192,87200,1,0,0:0:0:0:
448,192,87200,1,0,0:0:0:0:
64,192,87300,1,0,0:0:0:0:
448,192,87300,1,0,0:0:0:0:
320,192,87300,1,0,0:0:0:0:
64,192,87400,1,0,0:0:0:0:
448,192,87400,1,0,0:0:0:0:
192,192,87500,1,0,0:0:0:0:
320,192,87500,1,0,0:0:0:0:
448,192,87600,1,0,0:0:0:0:
320,192,87633,1,0,0:0:0:0:
192,192,87666,1,0,0:0:0:0:
64,192,87700,1,0,0:0:0:0:
448,192,87733,1,0,0:0:0:0:
320,192,87766,1,0,0:0:0:0:
192,192,87800,1,0,0:0:0:0:
64,192,87833,1,0,0:0:0:0:
448,192,87866,1,0,0:0:0:0:
320,192,87900,1,0,0:0:0:0:
192,192,87933,1,0,0:0:0:0:
64,192,88000,1,0,0:0:0:0:
320,192,88000,1,0,0:0:0:0:
448,192,88000,1,0,0:0:0:0:
192,192,88100,1,0,0:0:0:0:
320,192,88200,1,0,0:0:0:0:
448,192,88300,1,0,0:0:0:0:
64,192,88400,1,0,0:0:0:0:
192,192,88400,1,0,0:0:0:0:
320,192,88400,1,0,0:0:0:0:
448,192,88400,1,0,0:0:0:0:
320,192,88500,1,0,0:0:0:0:
192,192,88600,1,0,0:0:0:0:
64,192,88700,1,0,0:0:0:0:
64,192,88800,1,0,0:0:0:0:
192,192,88800,1,0,0:0:0:0:
320,192,88800,1,0,0:0:0:0:
448,192,88800,1,0,0:0:0:0:
320,192,88900,1,0,0:0:0:0:
448,192,88900,1,0,0:0:0:0:
192,192,89000,1,0,0:0:0:0:
64,192,89000,1,0,0:0:0:0:
320,192,89066,1,0,0:0:0:0:
448,192,89066,1,0,0:0:0:0:
64,192,89133,1,0,0:0:0:0:
192,192,89133,1,0,0:0:0:0:
320,192,89200,1,0,0:0:0:0:
448,192,89200,1,0,0:0:0:0:
192,192,89250,1,0,0:0:0:0:
64,192,89250,1,0,0:0:0:0:
448,192,89300,1,0,0:0:0:0:
320,192,89333,1,0,0:0:0:0:
192,192,89366,1,0,0:0:0:0:
64,192,89400,1,0,0:0:0:0:
448,192,89425,1,0,0:0:0:0:
320,192,89450,1,0,0:0:0:0:
192,192,89475,1,0,0:0:0:0:
64,192,89500,1,0,0:0:0:0:
448,192,89525,1,0,0:0:0:0:
320,192,89550,1,0,0:0:0:0:
192,192,89566,1,0,0:0:0:0:
64,192,89700,1,0,0:0:0:0:
192,192,89800,1,0,0:0:0:0:
320,192,89900,1,0,0:0:0:0:
448,192,90000,1,0,0:0:0:0:
320,192,90000,1,0,0:0:0:0:
192,192,90000,1,0,0:0:0:0:
64,192,90000,1,0,0:0:0:0:
448,192,90100,1,0,0:0:0:0:
320,192,90200,1,0,0:0:0:0:
192,192,90300,1,0,0:0:0:0:
448,192,90400,1,0,0:0:0:0:
320,192,90400,1,0,0:0:0:0:
192,192,90400,1,0,0:0:0:0:
64,192,90400,1,0,0:0:0:0:
320,192,90500,1,0,0:0:0:0:
192,192,90600,1,0,0:0:0:0:
64,192,90700,1,0,0:0:0:0:
64,192,90800,1,0,0:0:0:0:
192,192,90800,1,0,0:0:0:0:
320,192,90800,1,0,0:0:0:0:
448,192,90800,1,0,0:0:0:0:
448,192,90900,1,0,0:0:0:0:
64,192,91000,1,0,0:0:0:0:
320,192,91100,1,0,0:0:0:0:
64,192,91200,1,0,0:0:0:0:
192,192,91200,1,0,0:0:0:0:
320,192,91250,1,0,0:0:0:0:
448,192,91250,1,0,0:0:0:0:
192,192,91300,1,0,0:0:0:0:
64,192,91300,1,0,0:0:0:0:
320,192,91350,1,0,0:0:0:0:
448,192,91350,1,0,0:0:0:0:
192,192,91400,1,0,0:0:0:0:
64,192,91400,1,0,0:0:0:0:
320,192,91450,1,0,0:0:0:0:
448,192,91450,1,0,0:0:0:0:
192,192,91500,1,0,0:0:0:0:
64,192,91500,1,0,0:0:0:0:
320,192,91550,1,0,0:0:0:0:
448,192,91550,1,0,0:0:0:0:
192,192,91600,1,0,0:0:0:0:
64,192,91600,1,0,0:0:0:0:
320,192,91700,1,0,0:0:0:0:
448,192,91800,1,0,0:0:0:0:
320,192,91900,1,0,0:0:0:0:
192,192,92000,1,0,0:0:0:0:
64,192,92000,1,0,0:0:0:0:
320,192,92000,1,0,0:0:0:0:
448,192,92000,1,0,0:0:0:0:
192,192,92100,1,0,0:0:0:0:
64,192,92200,1,0,0:0:0:0:
192,192,92300,1,0,0:0:0:0:
192,192,92400,1,0,0:0:0:0:
64,192,92400,1,0,0:0:0:0:
320,192,92400,1,0,0:0:0:0:
448,192,92400,1,0,0:0:0:0:
192,192,92500,1,0,0:0:0:0:
448,192,92600,1,0,0:0:0:0:
64,192,92700,1,0,0:0:0:0:
448,192,92800,1,0,0:0:0:0:
320,192,92800,1,0,0:0:0:0:
192,192,92850,1,0,0:0:0:0:
64,192,92850,1,0,0:0:0:0:
320,192,92900,1,0,0:0:0:0:
448,192,92900,1,0,0:0:0:0:
192,192,92950,1,0,0:0:0:0:
64,192,92950,1,0,0:0:0:0:
320,192,93000,1,0,0:0:0:0:
448,192,93000,1,0,0:0:0:0:
192,192,93050,1,0,0:0:0:0:
64,192,93050,1,0,0:0:0:0:
320,192,93100,1,0,0:0:0:0:
448,192,93100,1,0,0:0:0:0:
192,192,93150,1,0,0:0:0:0:
64,192,93150,1,0,0:0:0:0:
320,192,93200,1,0,0:0:0:0:
448,192,93200,1,0,0:0:0:0:
64,192,93250,1,0,0:0:0:0:
192,192,93300,1,0,0:0:0:0:
320,192,93333,1,0,0:0:0:0:
448,192,93366,1,0,0:0:0:0:
64,192,93400,1,0,0:0:0:0:
192,192,93425,1,0,0:0:0:0:
320,192,93450,1,0,0:0:0:0:
448,192,93475,1,0,0:0:0:0:
64,192,93500,1,0,0:0:0:0:
192,192,93525,1,0,0:0:0:0:
320,192,93550,1,0,0:0:0:0:
448,192,93575,1,0,0:0:0:0:
192,192,93600,1,0,0:0:0:0:
64,192,93600,1,0,0:0:0:0:
448,192,93700,1,0,0:0:0:0:
64,192,93700,1,0,0:0:0:0:
192,192,93700,1,0,0:0:0:0:
448,192,93800,1,0,0:0:0:0:
64,192,93800,1,0,0:0:0:0:
320,192,93900,1,0,0:0:0:0:
192,192,93900,1,0,0:0:0:0:
64,192,94000,1,0,0:0:0:0:
192,192,94033,1,0,0:0:0:0:
320,192,94066,1,0,0:0:0:0:
448,192,94100,1,0,0:0:0:0:
64,192,94133,1,0,0:0:0:0:
192,192,94166,1,0,0:0:0:0:
320,192,94200,1,0,0:0:0:0:
448,192,94233,1,0,0:0:0:0:
64,192,94266,1,0,0:0:0:0:
192,192,94300,1,0,0:0:0:0:
320,192,94333,1,0,0:0:0:0:
448,192,94400,1,0,0:0:0:0:
192,192,94400,1,0,0:0:0:0:
64,192,94400,1,0,0:0:0:0:
320,192,94500,1,0,0:0:0:0:
192,192,94600,1,0,0:0:0:0:
64,192,94700,1,0,0:0:0:0:
448,192,94800,1,0,0:0:0:0:
320,192,94800,1,0,0:0:0:0:
192,192,94800,1,0,0:0:0:0:
64,192,94800,1,0,0:0:0:0:
192,192,94900,1,0,0:0:0:0:
320,192,95000,1,0,0:0:0:0:
448,192,95100,1,0,0:0:0:0:
448,192,95200,1,0,0:0:0:0:
320,192,95200,1,0,0:0:0:0:
192,192,95200,1,0,0:0:0:0:
64,192,95200,1,0,0:0:0:0:
192,192,95300,1,0,0:0:0:0:
64,192,95300,1,0,0:0:0:0:
320,192,95400,1,0,0:0:0:0:
448,192,95400,1,0,0:0:0:0:
192,192,95466,1,0,0:0:0:0:
64,192,95466,1,0,0:0:0:0:
448,192,95533,1,0,0:0:0:0:
320,192,95533,1,0,0:0:0:0:
192,192,95600,1,0,0:0:0:0:
64,192,95600,1,0,0:0:0:0:
320,192,95650,1,0,0:0:0:0:
448,192,95650,1,0,0:0:0:0:
64,192,95700,1,0,0:0:0:0:
192,192,95733,1,0,0:0:0:0:
320,192,95766,1,0,0:0:0:0:
448,192,95800,1,0,0:0:0:0:
64,192,95825,1,0,0:0:0:0:
192,192,95850,1,0,0:0:0:0:
320,192,95875,1,0,0:0:0:0:
448,192,95900,1,0,0:0:0:0:
64,192,95925,1,0,0:0:0:0:
192,192,95950,1,0,0:0:0:0:
320,192,95975,1,0,0:0:0:0:
448,192,96100,1,0,0:0:0:0:
192,192,96150,1,0,0:0:0:0:
64,192,96150,1,0,0:0:0:0:
320,192,96200,1,0,0:0:0:0:
448,192,96200,1,0,0:0:0:0:
64,192,96250,1,0,0:0:0:0:
192,192,96250,1,0,0:0:0:0:
320,192,96300,1,0,0:0:0:0:
448,192,96300,1,0,0:0:0:0:
64,192,96350,1,0,0:0:0:0:
192,192,96366,1,0,0:0:0:0:
320,192,96400,1,0,0:0:0:0:
448,192,96400,1,0,0:0:0:0:
64,192,96500,1,0,0:0:0:0:
320,192,96550,1,0,0:0:0:0:
448,192,96550,1,0,0:0:0:0:
192,192,96600,1,0,0:0:0:0:
64,192,96600,1,0,0:0:0:0:
320,192,96650,1,0,0:0:0:0:
448,192,96650,1,0,0:0:0:0:
192,192,96700,1,0,0:0:0:0:
64,192,96700,1,0,0:0:0:0:
448,192,96750,1,0,0:0:0:0:
320,192,96766,1,0,0:0:0:0:
64,192,96800,1,0,0:0:0:0:
192,192,96800,1,0,0:0:0:0:
192,192,96900,1,0,0:0:0:0:
64,192,96950,1,0,0:0:0:0:
320,192,97000,1,0,0:0:0:0:
448,192,97000,1,0,0:0:0:0:
192,192,97050,1,0,0:0:0:0:
64,192,97050,1,0,0:0:0:0:
320,192,97100,1,0,0:0:0:0:
448,192,97100,1,0,0:0:0:0:
64,192,97150,1,0,0:0:0:0:
192,192,97166,1,0,0:0:0:0:
448,192,97200,1,0,0:0:0:0:
320,192,97200,1,0,0:0:0:0:
64,192,97300,1,0,0:0:0:0:
192,192,97350,1,0,0:0:0:0:
448,192,97400,1,0,0:0:0:0:
320,192,97400,1,0,0:0:0:0:
64,192,97450,1,0,0:0:0:0:
192,192,97500,1,0,0:0:0:0:
320,192,97600,1,0,0:0:0:0:
448,192,97600,1,0,0:0:0:0:
64,192,97650,1,0,0:0:0:0:
192,192,97650,1,0,0:0:0:0:
448,192,97700,1,0,0:0:0:0:
320,192,97700,1,0,0:0:0:0:
64,192,97750,1,0,0:0:0:0:
192,192,97750,1,0,0:0:0:0:
448,192,97800,1,0,0:0:0:0:
320,192,97800,1,0,0:0:0:0:
64,192,97850,1,0,0:0:0:0:
192,192,97850,1,0,0:0:0:0:
448,192,97900,1,0,0:0:0:0:
320,192,97925,1,0,0:0:0:0:
192,192,97950,1,0,0:0:0:0:
64,192,97975,1,0,0:0:0:0:
448,192,98000,1,0,0:0:0:0:
320,192,98025,1,0,0:0:0:0:
192,192,98050,1,0,0:0:0:0:
64,192,98075,1,0,0:0:0:0:
448,192,98100,1,0,0:0:0:0:
320,192,98133,1,0,0:0:0:0:
64,192,98175,1,0,0:0:0:0:
192,192,98175,1,0,0:0:0:0:
448,192,98200,1,0,0:0:0:0:
320,192,98225,1,0,0:0:0:0:
192,192,98266,1,0,0:0:0:0:
64,192,98275,1,0,0:0:0:0:
448,192,98300,1,0,0:0:0:0:
320,192,98325,1,0,0:0:0:0:
192,192,98350,1,0,0:0:0:0:
64,192,98375,1,0,0:0:0:0:
320,192,98400,1,0,0:0:0:0:
448,192,98400,1,0,0:0:0:0:
192,192,98450,1,0,0:0:0:0:
64,192,98500,1,0,0:0:0:0:
448,192,98500,1,0,0:0:0:0:
320,192,98533,1,0,0:0:0:0:
448,192,98600,1,0,0:0:0:0:
320,192,98633,1,0,0:0:0:0:
192,192,98650,1,0,0:0:0:0:
64,192,98700,1,0,0:0:0:0:
320,192,98750,1,0,0:0:0:0:
192,192,98800,1,0,0:0:0:0:
64,192,98800,1,0,0:0:0:0:
448,192,98800,1,0,0:0:0:0:
320,192,98900,1,0,0:0:0:0:
64,192,99000,1,0,0:0:0:0:
192,192,99050,1,0,0:0:0:0:
320,192,99100,1,0,0:0:0:0:
448,192,99150,1,0,0:0:0:0:
192,192,99200,1,0,0:0:0:0:
64,192,99200,1,0,0:0:0:0:
448,192,99250,1,0,0:0:0:0:
320,192,99250,1,0,0:0:0:0:
64,192,99300,1,0,0:0:0:0:
192,192,99300,1,0,0:0:0:0:
448,192,99350,1,0,0:0:0:0:
320,192,99350,1,0,0:0:0:0:
64,192,99400,1,0,0:0:0:0:
192,192,99400,1,0,0:0:0:0:
448,192,99450,1,0,0:0:0:0:
320,192,99450,1,0,0:0:0:0:
64,192,99500,1,0,0:0:0:0:
192,192,99500,1,0,0:0:0:0:
448,192,99550,1,0,0:0:0:0:
320,192,99550,1,0,0:0:0:0:
64,192,99600,1,0,0:0:0:0:
192,192,99600,1,0,0:0:0:0:
448,192,99650,1,0,0:0:0:0:
320,192,99700,1,0,0:0:0:0:
192,192,99733,1,0,0:0:0:0:
64,192,99766,1,0,0:0:0:0:
448,192,99800,1,0,0:0:0:0:
320,192,99825,1,0,0:0:0:0:
192,192,99850,1,0,0:0:0:0:
64,192,99875,1,0,0:0:0:0:
448,192,99900,1,0,0:0:0:0:
320,192,99925,1,0,0:0:0:0:
192,192,99950,1,0,0:0:0:0:
64,192,99975,1,0,0:0:0:0:
448,192,100000,1,0,0:0:0:0:
320,192,100000,1,0,0:0:0:0:
320,192,100100,1,0,0:0:0:0:
448,192,100100,1,0,0:0:0:0:
64,192,100100,1,0,0:0:0:0:
448,192,100200,1,0,0:0:0:0:
64,192,100200,1,0,0:0:0:0:
320,192,100300,1,0,0:0:0:0:
192,192,100300,1,0,0:0:0:0:
448,192,100400,1,0,0:0:0:0:
320,192,100433,1,0,0:0:0:0:
192,192,100466,1,0,0:0:0:0:
64,192,100500,1,0,0:0:0:0:
448,192,100533,1,0,0:0:0:0:
320,192,100566,1,0,0:0:0:0:
192,192,100600,1,0,0:0:0:0:
64,192,100633,1,0,0:0:0:0:
448,192,100666,1,0,0:0:0:0:
320,192,100700,1,0,0:0:0:0:
192,192,100733,1,0,0:0:0:0:
448,192,100800,1,0,0:0:0:0:
320,192,100800,1,0,0:0:0:0:
64,192,100800,1,0,0:0:0:0:
192,192,100900,1,0,0:0:0:0:
320,192,100933,1,0,0:0:0:0:
448,192,100966,1,0,0:0:0:0:
64,192,101000,1,0,0:0:0:0:
192,192,101033,1,0,0:0:0:0:
320,192,101066,1,0,0:0:0:0:
448,192,101100,1,0,0:0:0:0:
64,192,101133,1,0,0:0:0:0:
192,192,101166,1,0,0:0:0:0:
320,192,101200,1,0,0:0:0:0:
448,192,101200,1,0,0:0:0:0:
448,192,101300,1,0,0:0:0:0:
320,192,101333,1,0,0:0:0:0:
192,192,101366,1,0,0:0:0:0:
64,192,101400,1,0,0:0:0:0:
448,192,101433,1,0,0:0:0:0:
320,192,101466,1,0,0:0:0:0:
192,192,101500,1,0,0:0:0:0:
64,192,101533,1,0,0:0:0:0:
448,192,101600,1,0,0:0:0:0:
320,192,101600,1,0,0:0:0:0:
448,192,101700,1,0,0:0:0:0:
320,192,101700,1,0,0:0:0:0:
64,192,101800,1,0,0:0:0:0:
192,192,101800,1,0,0:0:0:0:
448,192,101866,1,0,0:0:0:0:
320,192,101866,1,0,0:0:0:0:
192,192,101933,1,0,0:0:0:0:
64,192,101933,1,0,0:0:0:0:
448,192,102000,1,0,0:0:0:0:
320,192,102000,1,0,0:0:0:0:
64,192,102050,1,0,0:0:0:0:
192,192,102050,1,0,0:0:0:0:
448,192,102100,1,0,0:0:0:0:
320,192,102133,1,0,0:0:0:0:
192,192,102166,1,0,0:0:0:0:
64,192,102200,1,0,0:0:0:0:
448,192,102225,1,0,0:0:0:0:
320,192,102250,1,0,0:0:0:0:
192,192,102275,1,0,0:0:0:0:
64,192,102300,1,0,0:0:0:0:
448,192,102325,1,0,0:0:0:0:
320,192,102350,1,0,0:0:0:0:
192,192,102375,1,0,0:0:0:0:
64,192,102500,1,0,0:0:0:0:
448,192,102550,1,0,0:0:0:0:
320,192,102550,1,0,0:0:0:0:
64,192,102600,1,0,0:0:0:0:
192,192,102600,1,0,0:0:0:0:
320,192,102650,1,0,0:0:0:0:
448,192,102650,1,0,0:0:0:0:
64,192,102700,1,0,0:0:0:0:
192,192,102700,1,0,0:0:0:0:
448,192,102750,1,0,0:0:0:0:
320,192,102766,1,0,0:0:0:0:
64,192,102800,1,0,0:0:0:0:
192,192,102800,1,0,0:0:0:0:
448,192,102900,1,0,0:0:0:0:
64,192,102950,1,0,0:0:0:0:
192,192,102950,1,0,0:0:0:0:
448,192,103000,1,0,0:0:0:0:
320,192,103000,1,0,0:0:0:0:
64,192,103050,1,0,0:0:0:0:
192,192,103050,1,0,0:0:0:0:
448,192,103100,1,0,0:0:0:0:
320,192,103100,1,0,0:0:0:0:
64,192,103150,1,0,0:0:0:0:
192,192,103166,1,0,0:0:0:0:
320,192,103200,1,0,0:0:0:0:
448,192,103200,1,0,0:0:0:0:
320,192,103300,1,0,0:0:0:0:
448,192,103350,1,0,0:0:0:0:
64,192,103400,1,0,0:0:0:0:
192,192,103400,1,0,0:0:0:0:
448,192,103450,1,0,0:0:0:0:
320,192,103450,1,0,0:0:0:0:
64,192,103500,1,0,0:0:0:0:
192,192,103500,1,0,0:0:0:0:
448,192,103550,1,0,0:0:0:0:
320,192,103566,1,0,0:0:0:0:
192,192,103600,1,0,0:0:0:0:
64,192,103600,1,0,0:0:0:0:
448,192,103700,1,0,0:0:0:0:
320,192,103750,1,0,0:0:0:0:
192,192,103800,1,0,0:0:0:0:
64,192,103800,1,0,0:0:0:0:
448,192,103850,1,0,0:0:0:0:
320,192,103900,1,0,0:0:0:0:
64,192,104000,1,0,0:0:0:0:
192,192,104000,1,0,0:0:0:0:
320,192,104050,1,0,0:0:0:0:
448,192,104050,1,0,0:0:0:0:
192,192,104100,1,0,0:0:0:0:
64,192,104100,1,0,0:0:0:0:
320,192,104150,1,0,0:0:0:0:
448,192,104150,1,0,0:0:0:0:
192,192,104200,1,0,0:0:0:0:
64,192,104200,1,0,0:0:0:0:
320,192,104250,1,0,0:0:0:0:
448,192,104250,1,0,0:0:0:0:
64,192,104300,1,0,0:0:0:0:
192,192,104325,1,0,0:0:0:0:
320,192,104350,1,0,0:0:0:0:
448,192,104375,1,0,0:0:0:0:
64,192,104400,1,0,0:0:0:0:
192,192,104425,1,0,0:0:0:0:
320,192,104450,1,0,0:0:0:0:
448,192,104475,1,0,0:0:0:0:
64,192,104500,1,0,0:0:0:0:
192,192,104533,1,0,0:0:0:0:
320,192,104575,1,0,0:0:0:0:
448,192,104575,1,0,0:0:0:0:
64,192,104600,1,0,0:0:0:0:
192,192,104625,1,0,0:0:0:0:
320,192,104666,1,0,0:0:0:0:
448,192,104675,1,0,0:0:0:0:
64,192,104700,1,0,0:0:0:0:
192,192,104725,1,0,0:0:0:0:
320,192,104750,1,0,0:0:0:0:
448,192,104775,1,0,0:0:0:0:
64,192,104800,1,0,0:0:0:0:
192,192,104800,1,0,0:0:0:0:
320,192,104850,1,0,0:0:0:0:
64,192,104900,1,0,0:0:0:0:
448,192,104900,1,0,0:0:0:0:
192,192,104933,1,0,0:0:0:0:
64,192,105000,1,0,0:0:0:0:
192,192,105033,1,0,0:0:0:0:
320,192,105050,1,0,0:0:0:0:
448,192,105100,1,0,0:0:0:0:
192,192,105150,1,0,0:0:0:0:
64,192,105200,1,0,0:0:0:0:
448,192,105200,1,0,0:0:0:0:
320,192,105200,1,0,0:0:0:0:
192,192,105300,1,0,0:0:0:0:
448,192,105400,1,0,0:0:0:0:
320,192,105450,1,0,0:0:0:0:
192,192,105500,1,0,0:0:0:0:
64,192,105550,1,0,0:0:0:0:
448,192,105600,1,0,0:0:0:0:
320,192,105600,1,0,0:0:0:0:
192,192,105650,1,0,0:0:0:0:
64,192,105650,1,0,0:0:0:0:
320,192,105700,1,0,0:0:0:0:
448,192,105700,1,0,0:0:0:0:
192,192,105750,1,0,0:0:0:0:
64,192,105750,1,0,0:0:0:0:
320,192,105800,1,0,0:0:0:0:
448,192,105800,1,0,0:0:0:0:
192,192,105850,1,0,0:0:0:0:
64,192,105850,1,0,0:0:0:0:
320,192,105900,1,0,0:0:0:0:
448,192,105900,1,0,0:0:0:0:
192,192,105950,1,0,0:0:0:0:
64,192,105950,1,0,0:0:0:0:
320,192,106000,1,0,0:0:0:0:
448,192,106000,1,0,0:0:0:0:
64,192,106050,1,0,0:0:0:0:
192,192,106100,1,0,0:0:0:0:
320,192,106133,1,0,0:0:0:0:
448,192,106166,1,0,0:0:0:0:
64,192,106200,1,0,0:0:0:0:
192,192,106225,1,0,0:0:0:0:
320,192,106250,1,0,0:0:0:0:
448,192,106275,1,0,0:0:0:0:
64,192,106300,1,0,0:0:0:0:
192,192,106325,1,0,0:0:0:0:
320,192,106350,1,0,0:0:0:0:
448,192,106375,1,0,0:0:0:0:
192,192,106400,1,0,0:0:0:0:
64,192,106400,1,0,0:0:0:0:
448,192,106500,1,0,0:0:0:0:
64,192,106500,1,0,0:0:0:0:
192,192,106500,1,0,0:0:0:0:
448,192,106600,1,0,0:0:0:0:
64,192,106600,1,0,0:0:0:0:
320,192,106700,1,0,0:0:0:0:
192,192,106700,1,0,0:0:0:0:
64,192,106800,1,0,0:0:0:0:
192,192,106833,1,0,0:0:0:0:
320,192,106866,1,0,0:0:0:0:
448,192,106900,1,0,0:0:0:0:
64,192,106933,1,0,0:0:0:0:
192,192,106966,1,0,0:0:0:0:
320,192,107000,1,0,0:0:0:0:
448,192,107033,1,0,0:0:0:0:
64,192,107066,1,0,0:0:0:0:
192,192,107100,1,0,0:0:0:0:
320,192,107133,1,0,0:0:0:0:
448,192,107200,1,0,0:0:0:0:
192,192,107200,1,0,0:0:0:0:
64,192,107200,1,0,0:0:0:0:
320,192,107300,1,0,0:0:0:0:
192,192,107333,1,0,0:0:0:0:
64,192,107366,1,0,0:0:0:0:
448,192,107400,1,0,0:0:0:0:
320,192,107433,1,0,0:0:0:0:
192,192,107466,1,0,0:0:0:0:
64,192,107500,1,0,0:0:0:0:
448,192,107533,1,0,0:0:0:0:
320,192,107566,1,0,0:0:0:0:
64,192,107600,1,0,0:0:0:0:
192,192,107600,1,0,0:0:0:0:
64,192,107700,1,0,0:0:0:0:
192,192,107733,1,0,0:0:0:0:
320,192,107766,1,0,0:0:0:0:
448,192,107800,1,0,0:0:0:0:
64,192,107833,1,0,0:0:0:0:
192,192,107866,1,0,0:0:0:0:
320,192,107900,1,0,0:0:0:0:
448,192,107933,1,0,0:0:0:0:
192,192,108000,1,0,0:0:0:0:
64,192,108000,1,0,0:0:0:0:
192,192,108100,1,0,0:0:0:0:
64,192,108100,1,0,0:0:0:0:
320,192,108200,1,0,0:0:0:0:
448,192,108200,1,0,0:0:0:0:
192,192,108266,1,0,0:0:0:0:
64,192,108266,1,0,0:0:0:0:
448,192,108333,1,0,0:0:0:0:
320,192,108333,1,0,0:0:0:0:
192,192,108400,1,0,0:0:0:0:
64,192,108400,1,0,0:0:0:0:
320,192,108450,1,0,0:0:0:0:
448,192,108450,1,0,0:0:0:0:
64,192,108500,1,0,0:0:0:0:
192,192,108533,1,0,0:0:0:0:
320,192,108566,1,0,0:0:0:0:
448,192,108600,1,0,0:0:0:0:
64,192,108625,1,0,0:0:0:0:
192,192,108650,1,0,0:0:0:0:
320,192,108675,1,0,0:0:0:0:
448,192,108700,1,0,0:0:0:0:
64,192,108725,1,0,0:0:0:0:
192,192,108750,1,0,0:0:0:0:
320,192,108775,1,0,0:0:0:0:
448,192,121600,5,0,0:0:0:0:
448,192,121700,1,0,0:0:0:0:
64,192,121800,1,0,0:0:0:0:
64,192,121900,1,0,0:0:0:0:
448,192,122000,1,0,0:0:0:0:
448,192,122100,1,0,0:0:0:0:
64,192,122200,1,0,0:0:0:0:
64,192,122300,1,0,0:0:0:0:
448,192,122400,1,0,0:0:0:0:
448,192,122500,1,0,0:0:0:0:
64,192,122600,1,0,0:0:0:0:
64,192,122700,1,0,0:0:0:0:
448,192,122800,1,0,0:0:0:0:
448,192,122900,1,0,0:0:0:0:
64,192,123000,1,0,0:0:0:0:
64,192,123100,1,0,0:0:0:0:
448,192,123200,1,0,0:0:0:0:
448,192,123300,1,0,0:0:0:0:
192,192,123400,1,0,0:0:0:0:
192,192,123500,1,0,0:0:0:0:
320,192,123600,1,0,0:0:0:0:
320,192,123700,1,0,0:0:0:0:
64,192,123800,1,0,0:0:0:0:
64,192,123900,1,0,0:0:0:0:
320,192,124000,1,0,0:0:0:0:
320,192,124100,1,0,0:0:0:0:
64,192,124200,1,0,0:0:0:0:
64,192,124300,1,0,0:0:0:0:
448,192,124400,1,0,0:0:0:0:
448,192,124500,1,0,0:0:0:0:
192,192,124600,1,0,0:0:0:0:
192,192,124700,1,0,0:0:0:0:
320,192,124800,1,0,0:0:0:0:
320,192,124900,1,0,0:0:0:0:
448,192,125000,1,0,0:0:0:0:
448,192,125100,1,0,0:0:0:0:
192,192,125200,1,0,0:0:0:0:
192,192,125300,1,0,0:0:0:0:
320,192,125400,1,0,0:0:0:0:
320,192,125500,1,0,0:0:0:0:
192,192,125600,1,0,0:0:0:0:
192,192,125700,1,0,0:0:0:0:
320,192,125800,1,0,0:0:0:0:
320,192,125900,1,0,0:0:0:0:
64,192,126000,1,0,0:0:0:0:
64,192,126100,1,0,0:0:0:0:
192,192,126200,1,0,0:0:0:0:
192,192,126300,1,0,0:0:0:0:
320,192,126400,1,0,0:0:0:0:
320,192,126500,1,0,0:0:0:0:
448,192,126600,1,0,0:0:0:0:
448,192,126700,1,0,0:0:0:0:
64,192,126800,1,0,0:0:0:0:
64,192,126900,1,0,0:0:0:0:
192,192,127000,1,0,0:0:0:0:
192,192,127100,1,0,0:0:0:0:
448,192,127200,1,0,0:0:0:0:
448,192,127300,1,0,0:0:0:0:
192,192,127400,1,0,0:0:0:0:
192,192,127500,1,0,0:0:0:0:
64,192,127600,1,0,0:0:0:0:
64,192,127700,1,0,0:0:0:0:
320,192,127800,1,0,0:0:0:0:
320,192,127900,1,0,0:0:0:0:
64,192,128000,1,0,0:0:0:0:
64,192,128100,1,0,0:0:0:0:
320,192,128200,1,0,0:0:0:0:
320,192,128300,1,0,0:0:0:0:
448,192,128400,1,0,0:0:0:0:
448,192,128500,1,0,0:0:0:0:
192,192,128600,1,0,0:0:0:0:
192,192,128700,1,0,0:0:0:0:
320,192,128800,1,0,0:0:0:0:
320,192,128900,1,0,0:0:0:0:
64,192,129000,1,0,0:0:0:0:
64,192,129100,1,0,0:0:0:0:
448,192,129200,1,0,0:0:0:0:
448,192,129300,1,0,0:0:0:0:
192,192,129400,1,0,0:0:0:0:
192,192,129500,1,0,0:0:0:0:
448,192,129600,1,0,0:0:0:0:
448,192,129700,1,0,0:0:0:0:
64,192,129800,1,0,0:0:0:0:
64,192,129900,1,0,0:0:0:0:
320,192,130000,1,0,0:0:0:0:
320,192,130100,1,0,0:0:0:0:
192,192,130200,1,0,0:0:0:0:
192,192,130300,1,0,0:0:0:0:
320,192,130400,1,0,0:0:0:0:
320,192,130500,1,0,0:0:0:0:
64,192,130600,1,0,0:0:0:0:
64,192,130700,1,0,0:0:0:0:
448,192,130800,1,0,0:0:0:0:
448,192,130900,1,0,0:0:0:0:
192,192,131000,1,0,0:0:0:0:
192,192,131100,1,0,0:0:0:0:
448,192,131200,1,0,0:0:0:0:
448,192,131300,1,0,0:0:0:0:
64,192,131400,1,0,0:0:0:0:
64,192,131500,1,0,0:0:0:0:
320,192,131600,1,0,0:0:0:0:
320,192,131700,1,0,0:0:0:0:
192,192,131800,1,0,0:0:0:0:
192,192,131900,1,0,0:0:0:0:
64,192,132000,1,0,0:0:0:0:
64,192,132100,1,0,0:0:0:0:
192,192,132200,1,0,0:0:0:0:
192,192,132300,1,0,0:0:0:0:
320,192,132400,1,0,0:0:0:0:
320,192,132500,1,0,0:0:0:0:
448,192,132600,1,0,0:0:0:0:
448,192,132700,1,0,0:0:0:0:
320,192,132800,1,0,0:0:0:0:
320,192,132900,1,0,0:0:0:0:
192,192,133000,1,0,0:0:0:0:
192,192,133100,1,0,0:0:0:0:
64,192,133200,1,0,0:0:0:0:
64,192,133300,1,0,0:0:0:0:
448,192,133400,1,0,0:0:0:0:
448,192,133500,1,0,0:0:0:0:
320,192,133600,1,0,0:0:0:0:
320,192,133700,1,0,0:0:0:0:
192,192,133800,1,0,0:0:0:0:
192,192,133900,1,0,0:0:0:0:
64,192,134000,1,0,0:0:0:0:
64,192,134100,1,0,0:0:0:0:
320,192,134200,1,0,0:0:0:0:
320,192,134300,1,0,0:0:0:0:
64,192,140000,132,0,140400:0:0:0:0:
192,192,140000,128,0,140400:0:0:0:0:
320,192,140000,128,0,140400:0:0:0:0:
448,192,140000,128,0,140400:0:0:0:0:
183,191,140800,1,0,0:0:0:0:
428,134,140800,1,0,0:0:0:0:
356,240,140800,1,0,0:0:0:0:
55,192,140900,1,0,0:0:0:0:
183,191,140900,1,0,0:0:0:0:
183,191,141000,1,0,0:0:0:0:
55,192,141000,1,0,0:0:0:0:
356,240,141000,1,0,0:0:0:0:
356,240,141100,1,0,0:0:0:0:
428,134,141100,1,0,0:0:0:0:
183,191,141200,1,0,0:0:0:0:
64,192,141200,1,0,0:0:0:0:
320,192,141250,1,0,0:0:0:0:
448,192,141250,1,0,0:0:0:0:
55,192,141300,1,0,0:0:0:0:
183,191,141300,1,0,0:0:0:0:
320,192,141350,1,0,0:0:0:0:
448,192,141350,1,0,0:0:0:0:
183,191,141400,1,0,0:0:0:0:
55,192,141400,1,0,0:0:0:0:
320,192,141450,1,0,0:0:0:0:
448,192,141450,1,0,0:0:0:0:
192,192,141500,1,0,0:0:0:0:
64,192,141500,1,0,0:0:0:0:
320,192,141550,1,0,0:0:0:0:
448,192,141550,1,0,0:0:0:0:
183,191,141600,1,0,0:0:0:0:
64,192,141600,1,0,0:0:0:0:
55,192,141700,1,0,0:0:0:0:
320,192,141700,1,0,0:0:0:0:
183,191,141800,1,0,0:0:0:0:
356,240,141800,1,0,0:0:0:0:
55,192,141800,1,0,0:0:0:0:
356,240,141900,1,0,0:0:0:0:
428,134,141900,1,0,0:0:0:0:
183,191,142000,1,0,0:0:0:0:
356,240,142000,1,0,0:0:0:0:
428,134,142000,1,0,0:0:0:0:
55,192,142100,1,0,0:0:0:0:
183,191,142100,1,0,0:0:0:0:
55,192,142200,1,0,0:0:0:0:
183,191,142200,1,0,0:0:0:0:
320,192,142250,1,0,0:0:0:0:
448,192,142250,1,0,0:0:0:0:
64,192,142300,1,0,0:0:0:0:
192,192,142300,1,0,0:0:0:0:
320,192,142350,1,0,0:0:0:0:
448,192,142350,1,0,0:0:0:0:
183,191,142400,1,0,0:0:0:0:
183,191,142500,1,0,0:0:0:0:
55,192,142500,1,0,0:0:0:0:
428,134,142600,1,0,0:0:0:0:
356,240,142600,1,0,0:0:0:0:
192,192,142650,1,0,0:0:0:0:
64,192,142650,1,0,0:0:0:0:
428,134,142700,1,0,0:0:0:0:
356,240,142700,1,0,0:0:0:0:
55,192,142800,1,0,0:0:0:0:
183,191,142800,1,0,0:0:0:0:
428,134,142800,1,0,0:0:0:0:
55,192,142900,1,0,0:0:0:0:
183,191,142900,1,0,0:0:0:0:
428,134,143000,1,0,0:0:0:0:
356,240,143000,1,0,0:0:0:0:
192,192,143000,1,0,0:0:0:0:
428,134,143100,1,0,0:0:0:0:
356,240,143100,1,0,0:0:0:0:
55,192,143200,1,0,0:0:0:0:
183,191,143200,1,0,0:0:0:0:
428,134,143200,1,0,0:0:0:0:
183,191,143300,1,0,0:0:0:0:
55,192,143300,1,0,0:0:0:0:
428,134,143400,1,0,0:0:0:0:
356,240,143400,1,0,0:0:0:0:
192,192,143450,1,0,0:0:0:0:
64,192,143450,1,0,0:0:0:0:
428,134,143500,1,0,0:0:0:0:
356,240,143500,1,0,0:0:0:0:
428,134,143600,1,0,0:0:0:0:
55,192,143600,1,0,0:0:0:0:
183,191,143600,1,0,0:0:0:0:
183,191,143700,1,0,0:0:0:0:
55,192,143700,1,0,0:0:0:0:
55,192,143800,1,0,0:0:0:0:
428,134,143800,1,0,0:0:0:0:
356,240,143800,1,0,0:0:0:0:
428,134,143900,1,0,0:0:0:0:
356,240,143900,1,0,0:0:0:0:
55,192,144000,1,0,0:0:0:0:
183,191,144000,1,0,0:0:0:0:
356,240,144000,1,0,0:0:0:0:
183,191,144100,1,0,0:0:0:0:
356,240,144100,1,0,0:0:0:0:
55,192,144200,1,0,0:0:0:0:
183,191,144200,1,0,0:0:0:0:
320,192,144250,1,0,0:0:0:0:
448,192,144250,1,0,0:0:0:0:
55,192,144300,1,0,0:0:0:0:
183,191,144300,1,0,0:0:0:0:
320,192,144350,1,0,0:0:0:0:
448,192,144350,1,0,0:0:0:0:
183,191,144400,1,0,0:0:0:0:
64,192,144400,1,0,0:0:0:0:
183,191,144500,1,0,0:0:0:0:
356,240,144500,1,0,0:0:0:0:
55,192,144600,1,0,0:0:0:0:
428,134,144600,1,0,0:0:0:0:
356,240,144600,1,0,0:0:0:0:
428,134,144700,1,0,0:0:0:0:
356,240,144700,1,0,0:0:0:0:
55,192,144800,1,0,0:0:0:0:
183,191,144800,1,0,0:0:0:0:
356,240,144800,1,0,0:0:0:0:
183,191,144900,1,0,0:0:0:0:
356,240,144900,1,0,0:0:0:0:
55,192,145000,1,0,0:0:0:0:
183,191,145000,1,0,0:0:0:0:
448,192,145050,1,0,0:0:0:0:
320,192,145050,1,0,0:0:0:0:
55,192,145100,1,0,0:0:0:0:
183,191,145100,1,0,0:0:0:0:
428,134,145200,1,0,0:0:0:0:
183,191,145200,1,0,0:0:0:0:
356,240,145200,1,0,0:0:0:0:
183,191,145300,1,0,0:0:0:0:
356,240,145300,1,0,0:0:0:0:
428,134,145400,1,0,0:0:0:0:
356,240,145400,1,0,0:0:0:0:
64,192,145450,1,0,0:0:0:0:
192,192,145450,1,0,0:0:0:0:
428,134,145500,1,0,0:0:0:0:
356,240,145500,1,0,0:0:0:0:
192,192,145550,1,0,0:0:0:0:
64,192,145550,1,0,0:0:0:0:
356,240,145600,1,0,0:0:0:0:
428,134,145600,1,0,0:0:0:0:
64,192,145650,1,0,0:0:0:0:
192,192,145650,1,0,0:0:0:0:
356,240,145700,1,0,0:0:0:0:
448,192,145700,1,0,0:0:0:0:
192,192,145775,1,0,0:0:0:0:
55,192,145800,1,0,0:0:0:0:
356,240,145800,1,0,0:0:0:0:
55,192,145900,1,0,0:0:0:0:
448,192,145900,1,0,0:0:0:0:
320,192,145925,1,0,0:0:0:0:
192,192,145950,1,0,0:0:0:0:
55,192,146000,1,0,0:0:0:0:
428,134,146000,1,0,0:0:0:0:
320,192,146025,1,0,0:0:0:0:
183,191,146100,1,0,0:0:0:0:
55,192,146100,1,0,0:0:0:0:
183,191,146200,1,0,0:0:0:0:
356,240,146200,1,0,0:0:0:0:
55,192,146200,1,0,0:0:0:0:
356,240,146300,1,0,0:0:0:0:
183,191,146300,1,0,0:0:0:0:
428,134,146400,1,0,0:0:0:0:
356,240,146400,1,0,0:0:0:0:
183,191,146400,1,0,0:0:0:0:
428,134,146500,1,0,0:0:0:0:
356,240,146500,1,0,0:0:0:0:
428,134,146600,1,0,0:0:0:0:
356,240,146600,1,0,0:0:0:0:
192,192,146650,1,0,0:0:0:0:
64,192,146650,1,0,0:0:0:0:
428,134,146700,1,0,0:0:0:0:
356,240,146700,1,0,0:0:0:0:
192,192,146750,1,0,0:0:0:0:
64,192,146750,1,0,0:0:0:0:
356,240,146800,1,0,0:0:0:0:
428,134,146800,1,0,0:0:0:0:
183,191,146900,1,0,0:0:0:0:
356,240,146900,1,0,0:0:0:0:
448,192,147000,1,0,0:0:0:0:
320,192,147025,1,0,0:0:0:0:
192,192,147050,1,0,0:0:0:0:
64,192,147050,1,0,0:0:0:0:
448,192,147100,1,0,0:0:0:0:
320,192,147125,1,0,0:0:0:0:
192,192,147150,1,0,0:0:0:0:
64,192,147175,1,0,0:0:0:0:
356,240,147200,1,0,0:0:0:0:
428,134,147200,1,0,0:0:0:0:
356,240,147300,1,0,0:0:0:0:
428,134,147300,1,0,0:0:0:0:
356,240,147400,1,0,0:0:0:0:
55,192,147400,1,0,0:0:0:0:
428,134,147400,1,0,0:0:0:0:
428,134,147500,1,0,0:0:0:0:
356,240,147500,1,0,0:0:0:0:
55,192,147600,1,0,0:0:0:0:
183,191,147600,1,0,0:0:0:0:
320,192,147650,1,0,0:0:0:0:
448,192,147650,1,0,0:0:0:0:
55,192,147700,1,0,0:0:0:0:
183,191,147700,1,0,0:0:0:0:
320,192,147750,1,0,0:0:0:0:
448,192,147750,1,0,0:0:0:0:
55,192,147800,1,0,0:0:0:0:
183,191,147800,1,0,0:0:0:0:
320,192,147850,1,0,0:0:0:0:
448,192,147850,1,0,0:0:0:0:
55,192,147900,1,0,0:0:0:0:
183,191,147900,1,0,0:0:0:0:
320,192,147950,1,0,0:0:0:0:
448,192,147950,1,0,0:0:0:0:
183,191,148000,1,0,0:0:0:0:
64,192,148000,1,0,0:0:0:0:
428,134,148100,1,0,0:0:0:0:
356,240,148100,1,0,0:0:0:0:
55,192,148200,1,0,0:0:0:0:
428,134,148200,1,0,0:0:0:0:
356,240,148200,1,0,0:0:0:0:
428,134,148300,1,0,0:0:0:0:
356,240,148300,1,0,0:0:0:0:
55,192,148400,1,0,0:0:0:0:
183,191,148400,1,0,0:0:0:0:
320,192,148425,1,0,0:0:0:0:
448,192,148425,1,0,0:0:0:0:
55,192,148500,1,0,0:0:0:0:
183,191,148500,1,0,0:0:0:0:
320,192,148525,1,0,0:0:0:0:
448,192,148525,1,0,0:0:0:0:
55,192,148600,1,0,0:0:0:0:
183,191,148600,1,0,0:0:0:0:
448,192,148625,1,0,0:0:0:0:
320,192,148625,1,0,0:0:0:0:
183,191,148700,1,0,0:0:0:0:
55,192,148700,1,0,0:0:0:0:
320,192,148725,1,0,0:0:0:0:
448,192,148725,1,0,0:0:0:0:
55,192,148800,1,0,0:0:0:0:
183,191,148800,1,0,0:0:0:0:
428,134,148900,1,0,0:0:0:0:
55,192,148900,1,0,0:0:0:0:
183,191,148900,1,0,0:0:0:0:
356,240,149000,1,0,0:0:0:0:
448,192,149000,1,0,0:0:0:0:
64,192,149050,1,0,0:0:0:0:
192,192,149050,1,0,0:0:0:0:
320,192,149100,1,0,0:0:0:0:
448,192,149100,1,0,0:0:0:0:
192,192,149150,1,0,0:0:0:0:
64,192,149150,1,0,0:0:0:0:
428,134,149200,1,0,0:0:0:0:
356,240,149200,1,0,0:0:0:0:
428,134,149300,1,0,0:0:0:0:
320,192,149316,1,0,0:0:0:0:
192,192,149333,1,0,0:0:0:0:
55,192,149400,1,0,0:0:0:0:
192,192,149416,1,0,0:0:0:0:
320,192,149433,1,0,0:0:0:0:
55,192,149500,1,0,0:0:0:0:
428,134,149500,1,0,0:0:0:0:
356,240,149500,1,0,0:0:0:0:
55,192,149600,1,0,0:0:0:0:
192,192,149616,1,0,0:0:0:0:
320,192,149633,1,0,0:0:0:0:
428,134,149700,1,0,0:0:0:0:
55,192,149700,1,0,0:0:0:0:
183,191,149700,1,0,0:0:0:0:
183,191,149800,1,0,0:0:0:0:
356,240,149800,1,0,0:0:0:0:
55,192,149900,1,0,0:0:0:0:
183,191,149900,1,0,0:0:0:0:
356,240,149900,1,0,0:0:0:0:
428,134,150000,1,0,0:0:0:0:
320,192,150000,1,0,0:0:0:0:
64,192,150050,1,0,0:0:0:0:
192,192,150050,1,0,0:0:0:0:
428,134,150100,1,0,0:0:0:0:
356,240,150100,1,0,0:0:0:0:
192,192,150150,1,0,0:0:0:0:
64,192,150150,1,0,0:0:0:0:
428,134,150200,1,0,0:0:0:0:
192,192,150250,1,0,0:0:0:0:
55,192,150300,1,0,0:0:0:0:
428,134,150300,1,0,0:0:0:0:
356,240,150300,1,0,0:0:0:0:
428,134,150400,1,0,0:0:0:0:
356,240,150400,1,0,0:0:0:0:
192,192,150450,1,0,0:0:0:0:
428,134,150500,1,0,0:0:0:0:
356,240,150500,1,0,0:0:0:0:
64,192,150500,1,0,0:0:0:0:
192,192,150550,1,0,0:0:0:0:
428,134,150600,1,0,0:0:0:0:
356,240,150600,1,0,0:0:0:0:
64,192,150600,1,0,0:0:0:0:
356,240,150700,1,0,0:0:0:0:
428,134,150700,1,0,0:0:0:0:
183,191,150700,1,0,0:0:0:0:
55,192,150800,1,0,0:0:0:0:
183,191,150800,1,0,0:0:0:0:
320,192,150816,1,0,0:0:0:0:
448,192,150816,1,0,0:0:0:0:
183,191,150900,1,0,0:0:0:0:
55,192,150900,1,0,0:0:0:0:
320,192,150916,1,0,0:0:0:0:
448,192,150933,1,0,0:0:0:0:
55,192,151000,1,0,0:0:0:0:
183,191,151000,1,0,0:0:0:0:
320,192,151016,1,0,0:0:0:0:
448,192,151033,1,0,0:0:0:0:
183,191,151100,1,0,0:0:0:0:
55,192,151100,1,0,0:0:0:0:
320,192,151116,1,0,0:0:0:0:
448,192,151133,1,0,0:0:0:0:
428,134,151200,1,0,0:0:0:0:
356,240,151200,1,0,0:0:0:0:
192,192,151200,1,0,0:0:0:0:
64,192,151216,1,0,0:0:0:0:
428,134,151300,1,0,0:0:0:0:
356,240,151300,1,0,0:0:0:0:
192,192,151316,1,0,0:0:0:0:
64,192,151333,1,0,0:0:0:0:
428,134,151400,1,0,0:0:0:0:
356,240,151400,1,0,0:0:0:0:
192,192,151416,1,0,0:0:0:0:
64,192,151433,1,0,0:0:0:0:
428,134,151500,1,0,0:0:0:0:
356,240,151500,1,0,0:0:0:0:
192,192,151516,1,0,0:0:0:0:
64,192,151533,1,0,0:0:0:0:
183,191,151600,1,0,0:0:0:0:
55,192,151600,1,0,0:0:0:0:
320,192,151612,1,0,0:0:0:0:
448,192,151625,1,0,0:0:0:0:
55,192,151700,1,0,0:0:0:0:
183,191,151700,1,0,0:0:0:0:
320,192,151712,1,0,0:0:0:0:
448,192,151725,1,0,0:0:0:0:
183,191,151800,1,0,0:0:0:0:
55,192,151800,1,0,0:0:0:0:
320,192,151812,1,0,0:0:0:0:
448,192,151825,1,0,0:0:0:0:
55,192,151900,1,0,0:0:0:0:
183,191,151900,1,0,0:0:0:0:
320,192,151912,1,0,0:0:0:0:
448,192,151925,1,0,0:0:0:0:
428,134,152000,1,0,0:0:0:0:
356,240,152000,1,0,0:0:0:0:
192,192,152012,1,0,0:0:0:0:
64,192,152025,1,0,0:0:0:0:
356,240,152100,1,0,0:0:0:0:
428,134,152100,1,0,0:0:0:0:
192,192,152112,1,0,0:0:0:0:
64,192,152125,1,0,0:0:0:0:
428,134,152200,1,0,0:0:0:0:
356,240,152200,1,0,0:0:0:0:
192,192,152212,1,0,0:0:0:0:
64,192,152237,1,0,0:0:0:0:
192,192,152300,1,0,0:0:0:0:
320,192,152312,1,0,0:0:0:0:
448,192,152337,1,0,0:0:0:0:
55,192,152400,1,0,0:0:0:0:
183,191,152400,1,0,0:0:0:0:
448,192,152450,1,0,0:0:0:0:
320,192,152450,1,0,0:0:0:0:
192,192,152500,1,0,0:0:0:0:
64,192,152500,1,0,0:0:0:0:
448,192,152550,1,0,0:0:0:0:
320,192,152550,1,0,0:0:0:0:
192,192,152600,1,0,0:0:0:0:
64,192,152600,1,0,0:0:0:0:
356,240,152700,1,0,0:0:0:0:
55,192,152700,1,0,0:0:0:0:
55,192,152800,1,0,0:0:0:0:
192,192,152812,1,0,0:0:0:0:
320,192,152825,1,0,0:0:0:0:
448,192,152837,1,0,0:0:0:0:
428,134,152900,1,0,0:0:0:0:
320,192,152912,1,0,0:0:0:0:
192,192,152925,1,0,0:0:0:0:
64,192,152925,1,0,0:0:0:0:
55,192,153000,1,0,0:0:0:0:
183,191,153000,1,0,0:0:0:0:
428,134,153100,1,0,0:0:0:0:
356,240,153100,1,0,0:0:0:0:
183,191,153200,1,0,0:0:0:0:
428,134,153200,1,0,0:0:0:0:
356,240,153200,1,0,0:0:0:0:
55,192,153200,1,0,0:0:0:0:
55,192,153300,1,0,0:0:0:0:
428,134,153300,1,0,0:0:0:0:
356,240,153300,1,0,0:0:0:0:
428,134,153400,1,0,0:0:0:0:
320,192,153400,1,0,0:0:0:0:
192,192,153450,1,0,0:0:0:0:
64,192,153450,1,0,0:0:0:0:
448,192,153500,1,0,0:0:0:0:
320,192,153500,1,0,0:0:0:0:
192,192,153550,1,0,0:0:0:0:
64,192,153550,1,0,0:0:0:0:
320,192,153600,1,0,0:0:0:0:
448,192,153600,1,0,0:0:0:0:
320,191,153700,1,0,0:0:0:0:
448,192,153700,1,0,0:0:0:0:
192,240,153800,1,0,0:0:0:0:
448,192,153800,1,0,0:0:0:0:
320,191,153800,1,0,0:0:0:0:
64,134,153900,1,0,0:0:0:0:
192,240,153900,1,0,0:0:0:0:
448,192,154000,1,0,0:0:0:0:
320,191,154000,1,0,0:0:0:0:
64,192,154050,1,0,0:0:0:0:
192,192,154050,1,0,0:0:0:0:
320,191,154100,1,0,0:0:0:0:
448,192,154100,1,0,0:0:0:0:
64,192,154150,1,0,0:0:0:0:
192,192,154150,1,0,0:0:0:0:
448,192,154200,1,0,0:0:0:0:
320,191,154200,1,0,0:0:0:0:
64,192,154250,1,0,0:0:0:0:
192,192,154250,1,0,0:0:0:0:
448,192,154300,1,0,0:0:0:0:
320,192,154300,1,0,0:0:0:0:
64,192,154350,1,0,0:0:0:0:
192,192,154350,1,0,0:0:0:0:
448,192,154400,1,0,0:0:0:0:
320,191,154400,1,0,0:0:0:0:
192,192,154500,1,0,0:0:0:0:
448,192,154500,1,0,0:0:0:0:
448,192,154600,1,0,0:0:0:0:
192,240,154600,1,0,0:0:0:0:
320,191,154600,1,0,0:0:0:0:
64,134,154700,1,0,0:0:0:0:
192,240,154700,1,0,0:0:0:0:
64,134,154800,1,0,0:0:0:0:
192,240,154800,1,0,0:0:0:0:
320,191,154800,1,0,0:0:0:0:
320,191,154900,1,0,0:0:0:0:
448,192,154900,1,0,0:0:0:0:
320,191,155000,1,0,0:0:0:0:
448,192,155000,1,0,0:0:0:0:
64,192,155050,1,0,0:0:0:0:
192,192,155050,1,0,0:0:0:0:
320,192,155100,1,0,0:0:0:0:
448,192,155100,1,0,0:0:0:0:
64,192,155150,1,0,0:0:0:0:
192,192,155150,1,0,0:0:0:0:
320,191,155200,1,0,0:0:0:0:
448,192,155300,1,0,0:0:0:0:
320,191,155300,1,0,0:0:0:0:
192,240,155400,1,0,0:0:0:0:
64,134,155400,1,0,0:0:0:0:
448,192,155450,1,0,0:0:0:0:
320,192,155450,1,0,0:0:0:0:
192,240,155500,1,0,0:0:0:0:
64,134,155500,1,0,0:0:0:0:
64,134,155600,1,0,0:0:0:0:
320,191,155600,1,0,0:0:0:0:
448,192,155600,1,0,0:0:0:0:
320,191,155700,1,0,0:0:0:0:
448,192,155700,1,0,0:0:0:0:
320,192,155800,1,0,0:0:0:0:
192,240,155800,1,0,0:0:0:0:
64,134,155800,1,0,0:0:0:0:
192,240,155900,1,0,0:0:0:0:
64,134,155900,1,0,0:0:0:0:
64,134,156000,1,0,0:0:0:0:
320,191,156000,1,0,0:0:0:0:
448,192,156000,1,0,0:0:0:0:
448,192,156100,1,0,0:0:0:0:
320,191,156100,1,0,0:0:0:0:
192,240,156200,1,0,0:0:0:0:
64,134,156200,1,0,0:0:0:0:
448,192,156250,1,0,0:0:0:0:
320,192,156250,1,0,0:0:0:0:
192,240,156300,1,0,0:0:0:0:
64,134,156300,1,0,0:0:0:0:
320,191,156400,1,0,0:0:0:0:
448,192,156400,1,0,0:0:0:0:
64,134,156400,1,0,0:0:0:0:
448,192,156500,1,0,0:0:0:0:
320,191,156500,1,0,0:0:0:0:
192,240,156600,1,0,0:0:0:0:
64,134,156600,1,0,0:0:0:0:
448,192,156600,1,0,0:0:0:0:
192,240,156700,1,0,0:0:0:0:
64,134,156700,1,0,0:0:0:0:
192,240,156800,1,0,0:0:0:0:
320,191,156800,1,0,0:0:0:0:
448,192,156800,1,0,0:0:0:0:
192,240,156900,1,0,0:0:0:0:
320,191,156900,1,0,0:0:0:0:
320,191,157000,1,0,0:0:0:0:
448,192,157000,1,0,0:0:0:0:
64,192,157050,1,0,0:0:0:0:
192,192,157050,1,0,0:0:0:0:
320,191,157100,1,0,0:0:0:0:
448,192,157100,1,0,0:0:0:0:
64,192,157150,1,0,0:0:0:0:
192,192,157150,1,0,0:0:0:0:
448,192,157200,1,0,0:0:0:0:
320,191,157200,1,0,0:0:0:0:
192,240,157300,1,0,0:0:0:0:
320,191,157300,1,0,0:0:0:0:
192,240,157400,1,0,0:0:0:0:
64,134,157400,1,0,0:0:0:0:
448,192,157400,1,0,0:0:0:0:
192,240,157500,1,0,0:0:0:0:
64,134,157500,1,0,0:0:0:0:
192,240,157600,1,0,0:0:0:0:
320,191,157600,1,0,0:0:0:0:
448,192,157600,1,0,0:0:0:0:
192,240,157700,1,0,0:0:0:0:
320,191,157700,1,0,0:0:0:0:
320,191,157800,1,0,0:0:0:0:
448,192,157800,1,0,0:0:0:0:
192,192,157850,1,0,0:0:0:0:
64,192,157850,1,0,0:0:0:0:
320,191,157900,1,0,0:0:0:0:
448,192,157900,1,0,0:0:0:0:
192,240,158000,1,0,0:0:0:0:
320,191,158000,1,0,0:0:0:0:
64,134,158000,1,0,0:0:0:0:
192,240,158100,1,0,0:0:0:0:
320,191,158100,1,0,0:0:0:0:
192,240,158200,1,0,0:0:0:0:
64,134,158200,1,0,0:0:0:0:
320,192,158250,1,0,0:0:0:0:
448,192,158250,1,0,0:0:0:0:
192,240,158300,1,0,0:0:0:0:
64,134,158300,1,0,0:0:0:0:
320,192,158350,1,0,0:0:0:0:
448,192,158350,1,0,0:0:0:0:
64,134,158400,1,0,0:0:0:0:
192,240,158400,1,0,0:0:0:0:
448,192,158450,1,0,0:0:0:0:
320,192,158450,1,0,0:0:0:0:
64,192,158500,1,0,0:0:0:0:
192,240,158500,1,0,0:0:0:0:
320,192,158575,1,0,0:0:0:0:
192,240,158600,1,0,0:0:0:0:
448,192,158600,1,0,0:0:0:0:
64,192,158700,1,0,0:0:0:0:
448,192,158700,1,0,0:0:0:0:
192,192,158725,1,0,0:0:0:0:
320,192,158750,1,0,0:0:0:0:
64,134,158800,1,0,0:0:0:0:
448,192,158800,1,0,0:0:0:0:
192,192,158825,1,0,0:0:0:0:
448,192,158900,1,0,0:0:0:0:
320,191,158900,1,0,0:0:0:0:
448,192,159000,1,0,0:0:0:0:
192,240,159000,1,0,0:0:0:0:
320,191,159000,1,0,0:0:0:0:
320,191,159100,1,0,0:0:0:0:
192,240,159100,1,0,0:0:0:0:
320,191,159200,1,0,0:0:0:0:
192,240,159200,1,0,0:0:0:0:
64,134,159200,1,0,0:0:0:0:
192,240,159300,1,0,0:0:0:0:
64,134,159300,1,0,0:0:0:0:
192,240,159400,1,0,0:0:0:0:
64,134,159400,1,0,0:0:0:0:
448,192,159450,1,0,0:0:0:0:
320,192,159450,1,0,0:0:0:0:
192,240,159500,1,0,0:0:0:0:
64,134,159500,1,0,0:0:0:0:
448,192,159550,1,0,0:0:0:0:
320,192,159550,1,0,0:0:0:0:
64,134,159600,1,0,0:0:0:0:
192,240,159600,1,0,0:0:0:0:
192,240,159700,1,0,0:0:0:0:
320,191,159700,1,0,0:0:0:0:
64,192,159800,1,0,0:0:0:0:
192,192,159825,1,0,0:0:0:0:
448,192,159850,1,0,0:0:0:0:
320,192,159850,1,0,0:0:0:0:
64,192,159900,1,0,0:0:0:0:
192,192,159925,1,0,0:0:0:0:
320,192,159950,1,0,0:0:0:0:
448,192,159975,1,0,0:0:0:0:
64,134,160000,1,0,0:0:0:0:
192,240,160000,1,0,0:0:0:0:
64,134,160100,1,0,0:0:0:0:
192,240,160100,1,0,0:0:0:0:
64,134,160200,1,0,0:0:0:0:
448,192,160200,1,0,0:0:0:0:
192,240,160200,1,0,0:0:0:0:
192,240,160300,1,0,0:0:0:0:
64,134,160300,1,0,0:0:0:0:
320,191,160400,1,0,0:0:0:0:
448,192,160400,1,0,0:0:0:0:
64,192,160450,1,0,0:0:0:0:
192,192,160450,1,0,0:0:0:0:
320,191,160500,1,0,0:0:0:0:
448,192,160500,1,0,0:0:0:0:
64,192,160550,1,0,0:0:0:0:
192,192,160550,1,0,0:0:0:0:
320,191,160600,1,0,0:0:0:0:
448,192,160600,1,0,0:0:0:0:
64,192,160650,1,0,0:0:0:0:
192,192,160650,1,0,0:0:0:0:
320,191,160700,1,0,0:0:0:0:
448,192,160700,1,0,0:0:0:0:
64,192,160750,1,0,0:0:0:0:
192,192,160750,1,0,0:0:0:0:
448,192,160800,1,0,0:0:0:0:
320,191,160800,1,0,0:0:0:0:
192,240,160900,1,0,0:0:0:0:
64,134,160900,1,0,0:0:0:0:
192,240,161000,1,0,0:0:0:0:
64,134,161000,1,0,0:0:0:0:
448,192,161000,1,0,0:0:0:0:
192,240,161100,1,0,0:0:0:0:
64,134,161100,1,0,0:0:0:0:
320,191,161200,1,0,0:0:0:0:
448,192,161200,1,0,0:0:0:0:
64,192,161225,1,0,0:0:0:0:
192,192,161225,1,0,0:0:0:0:
320,191,161300,1,0,0:0:0:0:
448,192,161300,1,0,0:0:0:0:
64,192,161325,1,0,0:0:0:0:
192,192,161325,1,0,0:0:0:0:
320,191,161400,1,0,0:0:0:0:
448,192,161400,1,0,0:0:0:0:
192,192,161425,1,0,0:0:0:0:
64,192,161425,1,0,0:0:0:0:
448,192,161500,1,0,0:0:0:0:
320,191,161500,1,0,0:0:0:0:
64,192,161525,1,0,0:0:0:0:
192,192,161525,1,0,0:0:0:0:
320,191,161600,1,0,0:0:0:0:
448,192,161600,1,0,0:0:0:0:
320,191,161700,1,0,0:0:0:0:
448,192,161700,1,0,0:0:0:0:
64,134,161700,1,0,0:0:0:0:
64,192,161800,1,0,0:0:0:0:
192,240,161800,1,0,0:0:0:0:
320,192,161850,1,0,0:0:0:0:
448,192,161850,1,0,0:0:0:0:
64,192,161900,1,0,0:0:0:0:
192,192,161900,1,0,0:0:0:0:
448,192,161950,1,0,0:0:0:0:
320,192,161950,1,0,0:0:0:0:
192,240,162000,1,0,0:0:0:0:
64,134,162000,1,0,0:0:0:0:
64,134,162100,1,0,0:0:0:0:
192,192,162116,1,0,0:0:0:0:
320,192,162133,1,0,0:0:0:0:
448,192,162200,1,0,0:0:0:0:
320,192,162216,1,0,0:0:0:0:
192,192,162233,1,0,0:0:0:0:
192,240,162300,1,0,0:0:0:0:
64,134,162300,1,0,0:0:0:0:
448,192,162300,1,0,0:0:0:0:
448,192,162400,1,0,0:0:0:0:
320,192,162416,1,0,0:0:0:0:
192,192,162433,1,0,0:0:0:0:
320,191,162500,1,0,0:0:0:0:
448,192,162500,1,0,0:0:0:0:
64,134,162500,1,0,0:0:0:0:
192,240,162600,1,0,0:0:0:0:
320,191,162600,1,0,0:0:0:0:
192,240,162700,1,0,0:0:0:0:
320,191,162700,1,0,0:0:0:0:
448,192,162700,1,0,0:0:0:0:
192,192,162800,1,0,0:0:0:0:
64,134,162800,1,0,0:0:0:0:
320,192,162850,1,0,0:0:0:0:
448,192,162850,1,0,0:0:0:0:
192,240,162900,1,0,0:0:0:0:
64,134,162900,1,0,0:0:0:0:
448,192,162950,1,0,0:0:0:0:
320,192,162950,1,0,0:0:0:0:
64,134,163000,1,0,0:0:0:0:
320,192,163050,1,0,0:0:0:0:
192,240,163100,1,0,0:0:0:0:
64,134,163100,1,0,0:0:0:0:
448,192,163100,1,0,0:0:0:0:
192,240,163200,1,0,0:0:0:0:
64,134,163200,1,0,0:0:0:0:
320,192,163250,1,0,0:0:0:0:
448,192,163300,1,0,0:0:0:0:
192,240,163300,1,0,0:0:0:0:
64,134,163300,1,0,0:0:0:0:
320,192,163350,1,0,0:0:0:0:
448,192,163400,1,0,0:0:0:0:
192,240,163400,1,0,0:0:0:0:
64,134,163400,1,0,0:0:0:0:
320,191,163500,1,0,0:0:0:0:
64,134,163500,1,0,0:0:0:0:
192,240,163500,1,0,0:0:0:0:
320,191,163600,1,0,0:0:0:0:
448,192,163600,1,0,0:0:0:0:
64,192,163616,1,0,0:0:0:0:
192,192,163616,1,0,0:0:0:0:
448,192,163700,1,0,0:0:0:0:
320,191,163700,1,0,0:0:0:0:
192,192,163716,1,0,0:0:0:0:
64,192,163733,1,0,0:0:0:0:
320,191,163800,1,0,0:0:0:0:
448,192,163800,1,0,0:0:0:0:
192,192,163816,1,0,0:0:0:0:
64,192,163833,1,0,0:0:0:0:
448,192,163900,1,0,0:0:0:0:
320,191,163900,1,0,0:0:0:0:
192,192,163916,1,0,0:0:0:0:
64,192,163933,1,0,0:0:0:0:
320,192,164000,1,0,0:0:0:0:
192,240,164000,1,0,0:0:0:0:
64,134,164000,1,0,0:0:0:0:
448,192,164016,1,0,0:0:0:0:
192,240,164100,1,0,0:0:0:0:
64,134,164100,1,0,0:0:0:0:
320,192,164116,1,0,0:0:0:0:
448,192,164133,1,0,0:0:0:0:
192,240,164200,1,0,0:0:0:0:
64,134,164200,1,0,0:0:0:0:
320,192,164216,1,0,0:0:0:0:
448,192,164233,1,0,0:0:0:0:
192,240,164300,1,0,0:0:0:0:
64,134,164300,1,0,0:0:0:0:
320,192,164316,1,0,0:0:0:0:
448,192,164333,1,0,0:0:0:0:
448,192,164400,1,0,0:0:0:0:
320,191,164400,1,0,0:0:0:0:
192,192,164412,1,0,0:0:0:0:
64,192,164425,1,0,0:0:0:0:
320,191,164500,1,0,0:0:0:0:
448,192,164500,1,0,0:0:0:0:
192,192,164512,1,0,0:0:0:0:
64,192,164525,1,0,0:0:0:0:
448,192,164600,1,0,0:0:0:0:
320,191,164600,1,0,0:0:0:0:
192,192,164612,1,0,0:0:0:0:
64,192,164625,1,0,0:0:0:0:
320,191,164700,1,0,0:0:0:0:
448,192,164700,1,0,0:0:0:0:
192,192,164712,1,0,0:0:0:0:
64,192,164725,1,0,0:0:0:0:
192,240,164800,1,0,0:0:0:0:
64,134,164800,1,0,0:0:0:0:
320,192,164812,1,0,0:0:0:0:
448,192,164825,1,0,0:0:0:0:
64,134,164900,1,0,0:0:0:0:
192,240,164900,1,0,0:0:0:0:
320,192,164912,1,0,0:0:0:0:
448,192,164925,1,0,0:0:0:0:
192,240,165000,1,0,0:0:0:0:
64,134,165000,1,0,0:0:0:0:
320,192,165012,1,0,0:0:0:0:
448,192,165037,1,0,0:0:0:0:
320,192,165100,1,0,0:0:0:0:
192,192,165112,1,0,0:0:0:0:
64,192,165137,1,0,0:0:0:0:
320,191,165200,1,0,0:0:0:0:
448,192,165200,1,0,0:0:0:0:
64,192,165250,1,0,0:0:0:0:
192,192,165250,1,0,0:0:0:0:
320,192,165300,1,0,0:0:0:0:
448,192,165300,1,0,0:0:0:0:
64,192,165350,1,0,0:0:0:0:
192,192,165350,1,0,0:0:0:0:
448,192,165400,1,0,0:0:0:0:
320,192,165400,1,0,0:0:0:0:
448,192,165500,1,0,0:0:0:0:
192,240,165500,1,0,0:0:0:0:
448,192,165600,1,0,0:0:0:0:
320,192,165612,1,0,0:0:0:0:
192,192,165625,1,0,0:0:0:0:
64,192,165637,1,0,0:0:0:0:
64,134,165700,1,0,0:0:0:0:
192,192,165712,1,0,0:0:0:0:
448,192,165725,1,0,0:0:0:0:
320,192,165725,1,0,0:0:0:0:
320,191,165800,1,0,0:0:0:0:
448,192,165800,1,0,0:0:0:0:
192,240,165900,1,0,0:0:0:0:
64,134,165900,1,0,0:0:0:0:
192,240,166000,1,0,0:0:0:0:
448,192,166000,1,0,0:0:0:0:
320,191,166000,1,0,0:0:0:0:
64,134,166000,1,0,0:0:0:0:
64,192,166400,1,0,0:0:0:0:
448,192,166400,1,0,0:0:0:0:
192,192,166400,1,0,0:0:0:0:
64,192,166500,1,0,0:0:0:0:
192,192,166500,1,0,0:0:0:0:
448,192,166600,1,0,0:0:0:0:
192,192,166600,1,0,0:0:0:0:
64,192,166600,1,0,0:0:0:0:
320,192,166700,1,0,0:0:0:0:
448,192,166700,1,0,0:0:0:0:
448,192,166800,1,0,0:0:0:0:
64,192,166800,1,0,0:0:0:0:
320,192,166800,1,0,0:0:0:0:
64,192,166900,1,0,0:0:0:0:
192,192,166900,1,0,0:0:0:0:
192,192,167000,1,0,0:0:0:0:
64,192,167000,1,0,0:0:0:0:
448,192,167000,1,0,0:0:0:0:
448,192,167100,1,0,0:0:0:0:
320,192,167100,1,0,0:0:0:0:
320,192,167200,1,0,0:0:0:0:
64,192,167200,1,0,0:0:0:0:
448,192,167200,1,0,0:0:0:0:
192,192,167200,1,0,0:0:0:0:
64,192,167300,1,0,0:0:0:0:
192,192,167300,1,0,0:0:0:0:
192,192,167400,1,0,0:0:0:0:
448,192,167400,1,0,0:0:0:0:
64,192,167400,1,0,0:0:0:0:
320,192,167500,1,0,0:0:0:0:
448,192,167500,1,0,0:0:0:0:
320,192,167600,1,0,0:0:0:0:
448,192,167600,1,0,0:0:0:0:
64,192,167600,1,0,0:0:0:0:
64,192,167700,1,0,0:0:0:0:
192,192,167700,1,0,0:0:0:0:
448,192,167800,1,0,0:0:0:0:
64,192,167800,1,0,0:0:0:0:
192,192,167800,1,0,0:0:0:0:
448,192,167900,1,0,0:0:0:0:
320,192,167900,1,0,0:0:0:0:
64,192,168000,1,0,0:0:0:0:
320,192,168000,1,0,0:0:0:0:
192,192,168000,1,0,0:0:0:0:
448,192,168000,1,0,0:0:0:0:
192,192,168100,1,0,0:0:0:0:
64,192,168100,1,0,0:0:0:0:
448,192,168200,1,0,0:0:0:0:
320,192,168200,1,0,0:0:0:0:
192,192,168200,1,0,0:0:0:0:
448,192,168300,1,0,0:0:0:0:
320,192,168300,1,0,0:0:0:0:
320,192,168400,1,0,0:0:0:0:
64,192,168400,1,0,0:0:0:0:
192,192,168400,1,0,0:0:0:0:
64,192,168500,1,0,0:0:0:0:
192,192,168500,1,0,0:0:0:0:
448,192,168600,1,0,0:0:0:0:
320,192,168600,1,0,0:0:0:0:
192,192,168600,1,0,0:0:0:0:
448,192,168700,1,0,0:0:0:0:
320,192,168700,1,0,0:0:0:0:
320,192,168800,1,0,0:0:0:0:
64,192,168800,1,0,0:0:0:0:
192,192,168800,1,0,0:0:0:0:
448,192,168800,1,0,0:0:0:0:
192,192,168900,1,0,0:0:0:0:
64,192,168900,1,0,0:0:0:0:
448,192,169000,1,0,0:0:0:0:
320,192,169000,1,0,0:0:0:0:
192,192,169000,1,0,0:0:0:0:
448,192,169100,1,0,0:0:0:0:
320,192,169100,1,0,0:0:0:0:
64,192,169200,1,0,0:0:0:0:
192,192,169200,1,0,0:0:0:0:
320,192,169200,1,0,0:0:0:0:
192,192,169300,1,0,0:0:0:0:
64,192,169300,1,0,0:0:0:0:
448,192,169400,1,0,0:0:0:0:
320,192,169400,1,0,0:0:0:0:
192,192,169400,1,0,0:0:0:0:
448,192,169500,1,0,0:0:0:0:
320,192,169500,1,0,0:0:0:0:
448,192,169600,1,0,0:0:0:0:
64,192,169600,1,0,0:0:0:0:
192,192,169600,1,0,0:0:0:0:
320,192,169600,1,0,0:0:0:0:
448,192,169700,1,0,0:0:0:0:
64,192,169700,1,0,0:0:0:0:
64,192,169800,1,0,0:0:0:0:
192,192,169800,1,0,0:0:0:0:
320,192,169800,1,0,0:0:0:0:
64,192,169900,1,0,0:0:0:0:
192,192,169900,1,0,0:0:0:0:
448,192,170000,1,0,0:0:0:0:
64,192,170000,1,0,0:0:0:0:
320,192,170000,1,0,0:0:0:0:
448,192,170100,1,0,0:0:0:0:
64,192,170100,1,0,0:0:0:0:
448,192,170200,1,0,0:0:0:0:
320,192,170200,1,0,0:0:0:0:
192,192,170200,1,0,0:0:0:0:
448,192,170300,1,0,0:0:0:0:
320,192,170300,1,0,0:0:0:0:
448,192,170400,1,0,0:0:0:0:
64,192,170400,1,0,0:0:0:0:
192,192,170400,1,0,0:0:0:0:
320,192,170400,1,0,0:0:0:0:
448,192,170500,1,0,0:0:0:0:
64,192,170500,1,0,0:0:0:0:
64,192,170600,1,0,0:0:0:0:
320,192,170600,1,0,0:0:0:0:
192,192,170600,1,0,0:0:0:0:
64,192,170700,1,0,0:0:0:0:
192,192,170700,1,0,0:0:0:0:
448,192,170800,1,0,0:0:0:0:
64,192,170800,1,0,0:0:0:0:
320,192,170800,1,0,0:0:0:0:
448,192,170900,1,0,0:0:0:0:
64,192,170900,1,0,0:0:0:0:
448,192,171000,1,0,0:0:0:0:
320,192,171000,1,0,0:0:0:0:
192,192,171000,1,0,0:0:0:0:
448,192,171100,1,0,0:0:0:0:
320,192,171100,1,0,0:0:0:0:
320,192,171200,1,0,0:0:0:0:
448,192,171200,1,0,0:0:0:0:
64,192,171200,1,0,0:0:0:0:
192,192,171200,1,0,0:0:0:0:
448,192,171300,1,0,0:0:0:0:
64,192,171300,1,0,0:0:0:0:
64,192,171400,1,0,0:0:0:0:
448,192,171400,1,0,0:0:0:0:
192,192,171400,1,0,0:0:0:0:
64,192,171500,1,0,0:0:0:0:
192,192,171500,1,0,0:0:0:0:
320,192,171600,1,0,0:0:0:0:
64,192,171600,1,0,0:0:0:0:
192,192,171600,1,0,0:0:0:0:
192,192,171700,1,0,0:0:0:0:
64,192,171700,1,0,0:0:0:0:
192,192,171800,1,0,0:0:0:0:
448,192,171800,1,0,0:0:0:0:
64,192,171800,1,0,0:0:0:0:
64,192,171900,1,0,0:0:0:0:
448,192,171900,1,0,0:0:0:0:
64,192,172000,1,0,0:0:0:0:
448,192,172000,1,0,0:0:0:0:
320,192,172000,1,0,0:0:0:0:
192,192,172000,1,0,0:0:0:0:
448,192,172100,1,0,0:0:0:0:
320,192,172100,1,0,0:0:0:0:
192,192,172200,1,0,0:0:0:0:
448,192,172200,1,0,0:0:0:0:
320,192,172200,1,0,0:0:0:0:
448,192,172300,1,0,0:0:0:0:
320,192,172300,1,0,0:0:0:0:
320,192,172400,1,0,0:0:0:0:
64,192,172400,1,0,0:0:0:0:
448,192,172400,1,0,0:0:0:0:
448,192,172500,1,0,0:0:0:0:
64,192,172500,1,0,0:0:0:0:
448,192,172600,1,0,0:0:0:0:
64,192,172600,1,0,0:0:0:0:
192,192,172600,1,0,0:0:0:0:
192,192,172700,1,0,0:0:0:0:
64,192,172700,1,0,0:0:0:0:
64,192,172800,1,0,0:0:0:0:
320,192,172800,1,0,0:0:0:0:
448,192,172800,1,0,0:0:0:0:
192,192,172800,1,0,0:0:0:0:
320,192,172900,1,0,0:0:0:0:
448,192,172900,1,0,0:0:0:0:
320,192,173000,1,0,0:0:0:0:
192,192,173000,1,0,0:0:0:0:
448,192,173000,1,0,0:0:0:0:
448,192,173100,1,0,0:0:0:0:
320,192,173100,1,0,0:0:0:0:
64,192,173200,1,0,0:0:0:0:
192,192,173200,1,0,0:0:0:0:
448,192,173200,1,0,0:0:0:0:
64,192,173300,1,0,0:0:0:0:
192,192,173300,1,0,0:0:0:0:
64,192,173400,1,0,0:0:0:0:
192,192,173400,1,0,0:0:0:0:
320,192,173400,1,0,0:0:0:0:
64,192,173500,1,0,0:0:0:0:
192,192,173500,1,0,0:0:0:0:
448,192,173600,1,0,0:0:0:0:
64,192,173600,1,0,0:0:0:0:
320,192,173600,1,0,0:0:0:0:
192,192,173600,1,0,0:0:0:0:
448,192,173700,1,0,0:0:0:0:
320,192,173700,1,0,0:0:0:0:
448,192,173800,1,0,0:0:0:0:
320,192,173800,1,0,0:0:0:0:
192,192,173800,1,0,0:0:0:0:
448,192,173900,1,0,0:0:0:0:
320,192,173900,1,0,0:0:0:0:
64,192,174000,1,0,0:0:0:0:
192,192,174000,1,0,0:0:0:0:
448,192,174000,1,0,0:0:0:0:
64,192,174100,1,0,0:0:0:0:
192,192,174100,1,0,0:0:0:0:
64,192,174200,1,0,0:0:0:0:
192,192,174200,1,0,0:0:0:0:
320,192,174200,1,0,0:0:0:0:
192,192,174300,1,0,0:0:0:0:
64,192,174300,1,0,0:0:0:0:
64,192,174400,1,0,0:0:0:0:
192,192,174400,1,0,0:0:0:0:
320,192,174400,1,0,0:0:0:0:
448,192,174400,1,0,0:0:0:0:
64,192,174500,1,0,0:0:0:0:
192,192,174500,1,0,0:0:0:0:
320,192,174500,1,0,0:0:0:0:
448,192,174600,1,0,0:0:0:0:
64,192,174600,1,0,0:0:0:0:
448,192,174700,1,0,0:0:0:0:
192,192,174700,1,0,0:0:0:0:
64,192,174700,1,0,0:0:0:0:
448,192,174800,1,0,0:0:0:0:
320,192,174800,1,0,0:0:0:0:
64,192,174900,1,0,0:0:0:0:
448,192,174900,1,0,0:0:0:0:
320,192,174900,1,0,0:0:0:0:
320,192,175000,1,0,0:0:0:0:
192,192,175000,1,0,0:0:0:0:
448,192,175100,1,0,0:0:0:0:
320,192,175100,1,0,0:0:0:0:
192,192,175100,1,0,0:0:0:0:
64,192,175200,1,0,0:0:0:0:
192,192,175200,1,0,0:0:0:0:
320,192,175200,1,0,0:0:0:0:
448,192,175200,1,0,0:0:0:0:
64,192,175300,1,0,0:0:0:0:
192,192,175300,1,0,0:0:0:0:
320,192,175300,1,0,0:0:0:0:
448,192,175400,1,0,0:0:0:0:
64,192,175400,1,0,0:0:0:0:
448,192,175500,1,0,0:0:0:0:
64,192,175500,1,0,0:0:0:0:
192,192,175500,1,0,0:0:0:0:
448,192,175600,1,0,0:0:0:0:
320,192,175600,1,0,0:0:0:0:
64,192,175700,1,0,0:0:0:0:
448,192,175700,1,0,0:0:0:0:
320,192,175700,1,0,0:0:0:0:
320,192,175800,1,0,0:0:0:0:
192,192,175800,1,0,0:0:0:0:
448,192,175900,1,0,0:0:0:0:
320,192,175900,1,0,0:0:0:0:
192,192,175900,1,0,0:0:0:0:
448,192,176000,1,0,0:0:0:0:
320,192,176000,1,0,0:0:0:0:
192,192,176000,1,0,0:0:0:0:
64,192,176000,1,0,0:0:0:0:
64,192,176100,1,0,0:0:0:0:
448,192,176100,1,0,0:0:0:0:
320,192,176100,1,0,0:0:0:0:
448,192,176200,1,0,0:0:0:0:
320,192,176200,1,0,0:0:0:0:
64,192,176300,1,0,0:0:0:0:
320,192,176300,1,0,0:0:0:0:
448,192,176300,1,0,0:0:0:0:
64,192,176400,1,0,0:0:0:0:
192,192,176400,1,0,0:0:0:0:
448,192,176500,1,0,0:0:0:0:
192,192,176500,1,0,0:0:0:0:
64,192,176500,1,0,0:0:0:0:
64,192,176600,1,0,0:0:0:0:
192,192,176600,1,0,0:0:0:0:
448,192,176700,1,0,0:0:0:0:
192,192,176700,1,0,0:0:0:0:
64,192,176700,1,0,0:0:0:0:
448,192,176800,1,0,0:0:0:0:
320,192,176800,1,0,0:0:0:0:
192,192,176800,1,0,0:0:0:0:
64,192,176800,1,0,0:0:0:0:
64,192,176900,1,0,0:0:0:0:
448,192,176900,1,0,0:0:0:0:
320,192,176900,1,0,0:0:0:0:
448,192,177000,1,0,0:0:0:0:
320,192,177000,1,0,0:0:0:0:
64,192,177100,1,0,0:0:0:0:
448,192,177100,1,0,0:0:0:0:
320,192,177100,1,0,0:0:0:0:
192,192,177200,1,0,0:0:0:0:
64,192,177200,1,0,0:0:0:0:
448,192,177300,1,0,0:0:0:0:
64,192,177300,1,0,0:0:0:0:
192,192,177300,1,0,0:0:0:0:
192,192,177400,1,0,0:0:0:0:
64,192,177400,1,0,0:0:0:0:
448,192,177500,1,0,0:0:0:0:
64,192,177500,1,0,0:0:0:0:
192,192,177500,1,0,0:0:0:0:
320,192,177600,1,0,0:0:0:0:
448,192,177600,1,0,0:0:0:0:
64,192,177600,1,0,0:0:0:0:
192,192,177600,1,0,0:0:0:0:
192,192,177700,1,0,0:0:0:0:
320,192,177700,1,0,0:0:0:0:
448,192,177700,1,0,0:0:0:0:
448,192,177800,1,0,0:0:0:0:
320,192,177800,1,0,0:0:0:0:
448,192,177900,1,0,0:0:0:0:
64,192,178000,1,0,0:0:0:0:
192,192,178000,1,0,0:0:0:0:
192,192,178100,5,0,0:0:0:0:
320,192,178100,1,0,0:0:0:0:
448,192,178200,1,0,0:0:0:0:
320,192,178200,1,0,0:0:0:0:
192,192,178300,1,0,0:0:0:0:
448,192,178300,1,0,0:0:0:0:
448,192,178400,1,0,0:0:0:0:
320,192,178400,1,0,0:0:0:0:
64,192,178400,1,0,0:0:0:0:
192,192,178400,1,0,0:0:0:0:
64,192,178500,1,0,0:0:0:0:
448,192,178500,1,0,0:0:0:0:
320,192,178500,1,0,0:0:0:0:
64,192,178600,1,0,0:0:0:0:
192,192,178600,1,0,0:0:0:0:
320,192,178600,1,0,0:0:0:0:
448,192,178600,1,0,0:0:0:0:
448,192,178700,1,0,0:0:0:0:
320,192,178700,1,0,0:0:0:0:
448,192,178800,1,0,0:0:0:0:
192,192,178800,1,0,0:0:0:0:
64,192,178800,1,0,0:0:0:0:
320,192,178800,1,0,0:0:0:0:
448,192,178900,1,0,0:0:0:0:
320,192,178900,1,0,0:0:0:0:
192,192,178900,1,0,0:0:0:0:
320,192,179000,1,0,0:0:0:0:
64,192,179000,1,0,0:0:0:0:
192,192,179100,1,0,0:0:0:0:
448,192,179100,1,0,0:0:0:0:
64,192,179200,1,0,0:0:0:0:
192,192,179200,1,0,0:0:0:0:
448,192,179200,1,0,0:0:0:0:
320,192,179200,1,0,0:0:0:0:
448,192,179300,1,0,0:0:0:0:
320,192,179300,1,0,0:0:0:0:
64,192,179400,1,0,0:0:0:0:
320,192,179400,1,0,0:0:0:0:
448,192,179400,1,0,0:0:0:0:
192,192,179500,1,0,0:0:0:0:
64,192,179500,1,0,0:0:0:0:
64,192,179600,1,0,0:0:0:0:
448,192,179600,1,0,0:0:0:0:
192,192,179600,1,0,0:0:0:0:
448,192,179700,1,0,0:0:0:0:
320,192,179700,1,0,0:0:0:0:
320,192,179800,1,0,0:0:0:0:
448,192,179800,1,0,0:0:0:0:
64,192,179800,1,0,0:0:0:0:
64,192,179900,1,0,0:0:0:0:
192,192,179900,1,0,0:0:0:0:
192,192,180000,1,0,0:0:0:0:
448,192,180000,1,0,0:0:0:0:
64,192,180000,1,0,0:0:0:0:
320,192,180000,1,0,0:0:0:0:
448,192,180100,1,0,0:0:0:0:
320,192,180100,1,0,0:0:0:0:
320,192,180200,1,0,0:0:0:0:
64,192,180200,1,0,0:0:0:0:
448,192,180200,1,0,0:0:0:0:
192,192,180300,1,0,0:0:0:0:
64,192,180300,1,0,0:0:0:0:
192,192,180400,1,0,0:0:0:0:
64,192,180400,1,0,0:0:0:0:
448,192,180400,1,0,0:0:0:0:
448,192,180500,1,0,0:0:0:0:
320,192,180500,1,0,0:0:0:0:
64,192,180600,1,0,0:0:0:0:
448,192,180600,1,0,0:0:0:0:
320,192,180600,1,0,0:0:0:0:
64,192,180700,1,0,0:0:0:0:
192,192,180700,1,0,0:0:0:0:
448,192,180800,1,0,0:0:0:0:
192,192,180800,1,0,0:0:0:0:
320,192,180800,1,0,0:0:0:0:
64,192,180800,1,0,0:0:0:0:
320,192,180900,1,0,0:0:0:0:
448,192,180900,1,0,0:0:0:0:
64,192,181000,1,0,0:0:0:0:
192,192,181000,1,0,0:0:0:0:
320,192,181000,1,0,0:0:0:0:
64,192,181100,1,0,0:0:0:0:
192,192,181100,1,0,0:0:0:0:
192,192,181200,1,0,0:0:0:0:
448,192,181200,1,0,0:0:0:0:
320,192,181200,1,0,0:0:0:0:
448,192,181300,1,0,0:0:0:0:
320,192,181300,1,0,0:0:0:0:
64,192,181400,1,0,0:0:0:0:
192,192,181400,1,0,0:0:0:0:
320,192,181400,1,0,0:0:0:0:
64,192,181500,1,0,0:0:0:0:
192,192,181500,1,0,0:0:0:0:
192,192,181600,1,0,0:0:0:0:
448,192,181600,1,0,0:0:0:0:
320,192,181600,1,0,0:0:0:0:
64,192,181600,1,0,0:0:0:0:
320,192,181700,1,0,0:0:0:0:
448,192,181700,1,0,0:0:0:0:
64,192,181800,1,0,0:0:0:0:
192,192,181800,1,0,0:0:0:0:
320,192,181800,1,0,0:0:0:0:
64,192,181900,1,0,0:0:0:0:
192,192,181900,1,0,0:0:0:0:
448,192,182000,1,0,0:0:0:0:
320,192,182000,1,0,0:0:0:0:
192,192,182000,1,0,0:0:0:0:
320,192,182100,1,0,0:0:0:0:
448,192,182100,1,0,0:0:0:0:
64,192,182200,1,0,0:0:0:0:
192,192,182200,1,0,0:0:0:0:
320,192,182200,1,0,0:0:0:0:
64,192,182300,1,0,0:0:0:0:
192,192,182300,1,0,0:0:0:0:
64,192,182400,1,0,0:0:0:0:
448,192,182400,1,0,0:0:0:0:
320,192,182400,1,0,0:0:0:0:
192,192,182400,1,0,0:0:0:0:
64,192,182500,1,0,0:0:0:0:
448,192,182500,1,0,0:0:0:0:
448,192,182600,1,0,0:0:0:0:
320,192,182600,1,0,0:0:0:0:
192,192,182600,1,0,0:0:0:0:
448,192,182700,1,0,0:0:0:0:
320,192,182700,1,0,0:0:0:0:
64,192,182800,1,0,0:0:0:0:
448,192,182800,1,0,0:0:0:0:
192,192,182800,1,0,0:0:0:0:
64,192,182900,1,0,0:0:0:0:
448,192,182900,1,0,0:0:0:0:
64,192,183000,1,0,0:0:0:0:
192,192,183000,1,0,0:0:0:0:
320,192,183000,1,0,0:0:0:0:
64,192,183100,1,0,0:0:0:0:
192,192,183100,1,0,0:0:0:0:
64,192,183200,1,0,0:0:0:0:
448,192,183200,1,0,0:0:0:0:
320,192,183200,1,0,0:0:0:0:
192,192,183200,1,0,0:0:0:0:
64,192,183300,1,0,0:0:0:0:
448,192,183300,1,0,0:0:0:0:
448,192,183400,1,0,0:0:0:0:
192,192,183400,1,0,0:0:0:0:
320,192,183400,1,0,0:0:0:0:
448,192,183500,1,0,0:0:0:0:
320,192,183500,1,0,0:0:0:0:
64,192,183600,1,0,0:0:0:0:
448,192,183600,1,0,0:0:0:0:
192,192,183600,1,0,0:0:0:0:
64,192,183700,1,0,0:0:0:0:
448,192,183700,1,0,0:0:0:0:
64,192,183800,1,0,0:0:0:0:
192,192,183800,1,0,0:0:0:0:
320,192,183800,1,0,0:0:0:0:
64,192,183900,1,0,0:0:0:0:
192,192,183900,1,0,0:0:0:0:
192,192,184000,1,0,0:0:0:0:
64,192,184000,1,0,0:0:0:0:
448,192,184000,1,0,0:0:0:0:
320,192,184000,1,0,0:0:0:0:
64,192,184100,1,0,0:0:0:0:
448,192,184100,1,0,0:0:0:0:
448,192,184200,1,0,0:0:0:0:
64,192,184200,1,0,0:0:0:0:
320,192,184200,1,0,0:0:0:0:
448,192,184300,1,0,0:0:0:0:
320,192,184300,1,0,0:0:0:0:
192,192,184400,1,0,0:0:0:0:
448,192,184400,1,0,0:0:0:0:
320,192,184400,1,0,0:0:0:0:
320,192,184500,1,0,0:0:0:0:
448,192,184500,1,0,0:0:0:0:
320,192,184600,1,0,0:0:0:0:
64,192,184600,1,0,0:0:0:0:
448,192,184600,1,0,0:0:0:0:
448,192,184700,1,0,0:0:0:0:
64,192,184700,1,0,0:0:0:0:
448,192,184800,1,0,0:0:0:0:
64,192,184800,1,0,0:0:0:0:
192,192,184800,1,0,0:0:0:0:
320,192,184800,1,0,0:0:0:0:
64,192,184900,1,0,0:0:0:0:
192,192,184900,1,0,0:0:0:0:
320,192,185000,1,0,0:0:0:0:
64,192,185000,1,0,0:0:0:0:
192,192,185000,1,0,0:0:0:0:
64,192,185100,1,0,0:0:0:0:
192,192,185100,1,0,0:0:0:0:
192,192,185200,1,0,0:0:0:0:
448,192,185200,1,0,0:0:0:0:
64,192,185200,1,0,0:0:0:0:
64,192,185300,1,0,0:0:0:0:
448,192,185300,1,0,0:0:0:0:
64,192,185400,1,0,0:0:0:0:
448,192,185400,1,0,0:0:0:0:
320,192,185400,1,0,0:0:0:0:
320,192,185500,1,0,0:0:0:0:
448,192,185500,1,0,0:0:0:0:
448,192,185600,1,0,0:0:0:0:
192,192,185600,1,0,0:0:0:0:
64,192,185600,1,0,0:0:0:0:
320,192,185600,1,0,0:0:0:0:
192,192,185700,1,0,0:0:0:0:
64,192,185700,1,0,0:0:0:0:
192,192,185800,1,0,0:0:0:0:
320,192,185800,1,0,0:0:0:0:
64,192,185800,1,0,0:0:0:0:
64,192,185900,1,0,0:0:0:0:
192,192,185900,1,0,0:0:0:0:
448,192,186000,1,0,0:0:0:0:
320,192,186000,1,0,0:0:0:0:
64,192,186000,1,0,0:0:0:0:
448,192,186100,1,0,0:0:0:0:
320,192,186100,1,0,0:0:0:0:
448,192,186200,1,0,0:0:0:0:
320,192,186200,1,0,0:0:0:0:
192,192,186200,1,0,0:0:0:0:
448,192,186300,1,0,0:0:0:0:
320,192,186300,1,0,0:0:0:0:
64,192,186400,1,0,0:0:0:0:
448,192,186400,1,0,0:0:0:0:
192,192,186400,1,0,0:0:0:0:
320,192,186400,1,0,0:0:0:0:
64,192,186500,1,0,0:0:0:0:
192,192,186500,1,0,0:0:0:0:
64,192,186600,1,0,0:0:0:0:
192,192,186600,1,0,0:0:0:0:
320,192,186600,1,0,0:0:0:0:
64,192,186700,1,0,0:0:0:0:
192,192,186700,1,0,0:0:0:0:
448,192,186800,1,0,0:0:0:0:
320,192,186800,1,0,0:0:0:0:
64,192,186800,1,0,0:0:0:0:
448,192,186900,1,0,0:0:0:0:
320,192,186900,1,0,0:0:0:0:
448,192,187000,1,0,0:0:0:0:
320,192,187000,1,0,0:0:0:0:
192,192,187000,1,0,0:0:0:0:
320,192,187100,1,0,0:0:0:0:
448,192,187100,1,0,0:0:0:0:
448,192,187200,1,0,0:0:0:0:
320,192,187200,1,0,0:0:0:0:
64,192,187200,1,0,0:0:0:0:
192,192,187200,1,0,0:0:0:0:
448,192,187300,1,0,0:0:0:0:
320,192,187300,1,0,0:0:0:0:
192,192,187300,1,0,0:0:0:0:
64,192,187400,1,0,0:0:0:0:
448,192,187400,1,0,0:0:0:0:
64,192,187500,1,0,0:0:0:0:
320,192,187500,1,0,0:0:0:0:
448,192,187500,1,0,0:0:0:0:
64,192,187600,1,0,0:0:0:0:
192,192,187600,1,0,0:0:0:0:
448,192,187700,1,0,0:0:0:0:
64,192,187700,1,0,0:0:0:0:
192,192,187700,1,0,0:0:0:0:
192,192,187800,1,0,0:0:0:0:
320,192,187800,1,0,0:0:0:0:
64,192,187900,1,0,0:0:0:0:
192,192,187900,1,0,0:0:0:0:
320,192,187900,1,0,0:0:0:0:
448,192,188000,1,0,0:0:0:0:
320,192,188000,1,0,0:0:0:0:
192,192,188000,1,0,0:0:0:0:
64,192,188000,1,0,0:0:0:0:
448,192,188100,1,0,0:0:0:0:
320,192,188100,1,0,0:0:0:0:
192,192,188100,1,0,0:0:0:0:
64,192,188200,1,0,0:0:0:0:
448,192,188200,1,0,0:0:0:0:
64,192,188300,1,0,0:0:0:0:
448,192,188300,1,0,0:0:0:0:
320,192,188300,1,0,0:0:0:0:
64,192,188400,1,0,0:0:0:0:
192,192,188400,1,0,0:0:0:0:
448,192,188500,1,0,0:0:0:0:
64,192,188500,1,0,0:0:0:0:
192,192,188500,1,0,0:0:0:0:
192,192,188600,1,0,0:0:0:0:
320,192,188600,1,0,0:0:0:0:
64,192,188700,1,0,0:0:0:0:
192,192,188700,1,0,0:0:0:0:
320,192,188700,1,0,0:0:0:0:
64,192,188800,1,0,0:0:0:0:
192,192,188800,1,0,0:0:0:0:
320,192,188800,1,0,0:0:0:0:
448,192,188800,1,0,0:0:0:0:
448,192,188900,1,0,0:0:0:0:
64,192,188900,1,0,0:0:0:0:
192,192,188900,1,0,0:0:0:0:
64,192,189000,1,0,0:0:0:0:
192,192,189000,1,0,0:0:0:0:
448,192,189100,1,0,0:0:0:0:
192,192,189100,1,0,0:0:0:0:
64,192,189100,1,0,0:0:0:0:
448,192,189200,1,0,0:0:0:0:
320,192,189200,1,0,0:0:0:0:
64,192,189300,1,0,0:0:0:0:
320,192,189300,1,0,0:0:0:0:
448,192,189300,1,0,0:0:0:0:
448,192,189400,1,0,0:0:0:0:
320,192,189400,1,0,0:0:0:0:
64,192,189500,1,0,0:0:0:0:
320,192,189500,1,0,0:0:0:0:
448,192,189500,1,0,0:0:0:0:
64,192,189600,1,0,0:0:0:0:
192,192,189600,1,0,0:0:0:0:
320,192,189600,1,0,0:0:0:0:
448,192,189600,1,0,0:0:0:0:
448,192,189700,1,0,0:0:0:0:
64,192,189700,1,0,0:0:0:0:
192,192,189700,1,0,0:0:0:0:
64,192,189800,1,0,0:0:0:0:
192,192,189800,1,0,0:0:0:0:
448,192,189900,1,0,0:0:0:0:
64,192,189900,1,0,0:0:0:0:
192,192,189900,1,0,0:0:0:0:
320,192,190000,1,0,0:0:0:0:
448,192,190000,1,0,0:0:0:0:
64,192,190100,1,0,0:0:0:0:
448,192,190100,1,0,0:0:0:0:
320,192,190100,1,0,0:0:0:0:
320,192,190200,1,0,0:0:0:0:
448,192,190200,1,0,0:0:0:0:
64,192,190300,1,0,0:0:0:0:
448,192,190300,1,0,0:0:0:0:
320,192,190300,1,0,0:0:0:0:
192,192,190400,1,0,0:0:0:0:
64,192,190400,1,0,0:0:0:0:
448,192,190400,1,0,0:0:0:0:
320,192,190400,1,0,0:0:0:0:
320,192,190500,1,0,0:0:0:0:
192,192,190500,1,0,0:0:0:0:
64,192,190500,1,0,0:0:0:0:
64,192,190600,1,0,0:0:0:0:
192,192,190600,1,0,0:0:0:0:
64,192,190700,1,0,0:0:0:0:
448,192,190800,1,0,0:0:0:0:
320,192,190800,1,0,0:0:0:0:
320,192,190900,5,0,0:0:0:0:
192,192,190900,1,0,0:0:0:0:
64,192,191000,1,0,0:0:0:0:
192,192,191000,1,0,0:0:0:0:
320,192,191100,1,0,0:0:0:0:
64,192,191100,1,0,0:0:0:0:
64,192,191200,1,0,0:0:0:0:
192,192,191200,1,0,0:0:0:0:
448,192,191200,1,0,0:0:0:0:
320,192,191200,1,0,0:0:0:0:
448,192,191300,1,0,0:0:0:0:
64,192,191300,1,0,0:0:0:0:
192,192,191300,1,0,0:0:0:0:
448,192,191400,1,0,0:0:0:0:
320,192,191400,1,0,0:0:0:0:
64,192,191400,1,0,0:0:0:0:
192,192,191400,1,0,0:0:0:0:
64,192,191500,1,0,0:0:0:0:
192,192,191500,1,0,0:0:0:0:
64,192,191600,1,0,0:0:0:0:
320,192,191600,1,0,0:0:0:0:
448,192,191600,1,0,0:0:0:0:
192,192,191600,1,0,0:0:0:0:
64,192,191700,1,0,0:0:0:0:
192,192,191700,1,0,0:0:0:0:
320,192,191700,1,0,0:0:0:0:
192,192,191800,1,0,0:0:0:0:
448,192,191800,1,0,0:0:0:0:
320,192,191900,1,0,0:0:0:0:
64,192,191900,1,0,0:0:0:0:
64,192,192000,1,0,0:0:0:0:
192,192,192000,1,0,0:0:0:0:
320,192,192000,1,0,0:0:0:0:
448,192,192000,1,0,0:0:0:0:
