osu file format v14

[General]
AudioFilename: 06 - In For More (Feat. Renard).mp3
AudioLeadIn: 0
PreviewTime: 38381
Countdown: 0
SampleSet: Soft
StackLeniency: 0.7
Mode: 0
LetterboxInBreaks: 1
WidescreenStoryboard: 1

[Editor]
Bookmarks: 9581,19181,38381,47981,57581,76781,86381,95981,105581,115181,134381,153581
DistanceSpacing: 1
BeatDivisor: 4
GridSize: 8
TimelineZoom: 2.599999

[Metadata]
Title:In For More (Feat. Renard)
TitleUnicode:In For More (Feat. Renard)
Artist:The Quick Brown Fox
ArtistUnicode:The Quick Brown Fox
Creator:PrivatHansi1
Version:Insane
Source:
Tags:
BeatmapID:1201754
BeatmapSetID:567386

[Difficulty]
HPDrainRate:7
CircleSize:4
OverallDifficulty:7
ApproachRate:9.5
SliderMultiplier:1.8
SliderTickRate:1

[Events]
//Background and Video events
0,0,"1.jpg",0,0
//Break Periods
2,105781,114581
2,134581,143381
//Storyboard Layer 0 (Background)
//Storyboard Layer 1 (Fail)
//Storyboard Layer 2 (Pass)
//Storyboard Layer 3 (Foreground)
//Storyboard Sound Samples

[TimingPoints]
9581,300,4,2,0,55,1,0
19181,-80,4,2,0,55,0,0
38381,-66.6666666666667,4,2,0,55,0,1
47381,-66.6666666666667,4,2,0,55,0,0
47981,-66.6666666666667,4,2,0,55,0,1
57581,-100,4,2,0,55,0,0
85781,-200,4,2,0,55,0,0
86381,-50,4,2,0,55,0,0
95981,-133.333333333333,4,2,0,55,0,0
105281,-200,4,2,0,55,0,0
105581,-133.333333333333,4,2,0,55,0,0
115181,-83.3333333333333,4,2,0,55,0,0
129581,-66.6666666666667,4,2,0,55,0,0
143981,-100,4,2,0,55,0,0

[HitObjects]
48,80,9581,6,0,L|136:56,1,90
224,64,9881,1,0,0:0:0:0:
280,136,10031,1,0,0:0:0:0:
272,224,10181,2,0,L|56:184,1,180
32,128,10556,1,0,0:0:0:0:
39,149,10631,1,0,0:0:0:0:
16,328,10781,2,0,P|72:368|152:368,1,135
168,344,11081,2,0,L|184:256,1,90
224,176,11381,5,0,0:0:0:0:
224,88,11531,1,0,0:0:0:0:
288,24,11681,1,0,0:0:0:0:
376,24,11831,1,0,0:0:0:0:
448,72,11981,2,0,P|480:136|456:240,1,180
376,280,12431,1,0,0:0:0:0:
224,176,12581,1,0,0:0:0:0:
224,176,12731,1,0,0:0:0:0:
104,312,12881,5,0,0:0:0:0:
104,312,13031,1,0,0:0:0:0:
184,352,13181,2,0,L|280:360,1,90
328,288,13481,1,0,0:0:0:0:
312,200,13631,1,0,0:0:0:0:
232,160,13781,2,0,L|144:144,1,90
0,32,14081,1,0,0:0:0:0:
0,32,14231,1,0,0:0:0:0:
40,112,14381,6,0,P|64:160|64:200,1,90
16,272,14681,1,0,0:0:0:0:
88,320,14831,1,0,0:0:0:0:
192,176,14981,2,0,L|368:136,1,180
408,56,15356,1,0,0:0:0:0:
404,78,15431,1,0,0:0:0:0:
488,232,15581,1,0,0:0:0:0:
464,320,15731,1,0,0:0:0:0:
400,256,15881,1,0,0:0:0:0:
400,256,16031,5,0,0:0:0:0:
320,301,16181,1,0,0:0:0:0:
320,210,16331,1,0,0:0:0:0:
248,152,16481,2,0,L|152:160,1,90
88,104,16781,2,0,L|96:48,2,45
64,280,17081,1,0,0:0:0:0:
136,232,17231,2,0,L|169:186,2,45
28,373,17531,1,0,0:0:0:0:
200,320,17681,2,0,L|296:336,1,90
464,280,17981,5,0,0:0:0:0:
420,266,18056,1,0,0:0:0:0:
377,253,18131,1,0,0:0:0:0:
224,160,18281,1,0,0:0:0:0:
80,48,18431,1,0,0:0:0:0:
75,91,18506,1,0,0:0:0:0:
101,126,18581,1,0,0:0:0:0:
272,72,18731,1,0,0:0:0:0:
416,304,18881,2,0,L|448:232,2,45
416,80,19106,5,0,0:0:0:0:
368,152,19181,2,0,L|248:136,1,112.5
176,64,19481,1,0,0:0:0:0:
80,128,19631,1,0,0:0:0:0:
80,128,19781,1,0,0:0:0:0:
208,312,19931,2,0,L|328:328,1,112.5
424,280,20231,1,0,0:0:0:0:
208,328,20381,2,0,P|144:272|128:232,1,112.5
144,136,20681,1,0,0:0:0:0:
248,88,20831,1,0,0:0:0:0:
248,88,20981,5,0,0:0:0:0:
40,8,21131,1,0,0:0:0:0:
376,0,21281,1,0,0:0:0:0:
448,80,21431,2,0,L|456:112,4,28.125
224,96,21731,1,0,0:0:0:0:
336,120,21881,1,0,0:0:0:0:
184,192,22031,1,0,0:0:0:0:
184,192,22181,1,0,0:0:0:0:
392,272,22331,1,0,0:0:0:0:
176,344,22481,6,0,P|152:336|88:264,1,112.5
136,56,22781,2,0,L|256:40,1,112.5
376,328,23081,2,0,L|256:344,1,112.5
336,40,23381,2,0,P|360:48|424:120,1,112.5
410,135,23606,1,0,0:0:0:0:
407,163,23681,1,0,0:0:0:0:
410,191,23756,1,0,0:0:0:0:
420,217,23831,2,0,L|408:256,2,28.125
488,304,23981,1,0,0:0:0:0:
488,304,24131,5,0,0:0:0:0:
328,360,24281,2,0,L|304:248,1,112.5
192,224,24581,1,0,0:0:0:0:
120,136,24731,1,0,0:0:0:0:
152,32,24881,2,0,L|264:8,1,112.5
376,32,25181,2,0,P|360:112|384:144,1,112.5
456,216,25481,2,0,P|474:267|472:328,1,112.5
360,296,25781,1,0,0:0:0:0:
304,298,25856,1,0,0:0:0:0:
254,273,25931,5,0,0:0:0:0:
222,228,26006,1,0,0:0:0:0:
215,172,26081,2,0,L|232:120,1,56.25
216,95,26231,1,0,0:0:0:0:
196,75,26306,1,0,0:0:0:0:
173,60,26381,2,0,P|136:112|128:160,1,112.5
32,224,26681,1,0,0:0:0:0:
192,224,26831,2,0,P|184:279|154:325,1,112.5
58,377,27130,1,0,0:0:0:0:
272,304,27281,1,0,0:0:0:0:
272,304,27431,5,0,0:0:0:0:
488,376,27581,1,0,0:0:0:0:
440,152,27731,1,0,0:0:0:0:
360,232,27881,1,0,0:0:0:0:
472,256,28031,1,0,0:0:0:0:
160,128,28181,1,0,0:0:0:0:
127,327,28331,1,0,0:0:0:0:
127,327,28406,1,0,0:0:0:0:
127,327,28481,2,0,L|112:352,6,28.125
316,245,28781,5,0,0:0:0:0:
360,144,28931,2,0,L|336:32,1,112.5
112,56,29231,1,0,0:0:0:0:
68,157,29381,2,0,L|92:269,1,112.5
176,336,29681,1,0,0:0:0:0:
288,312,29831,1,0,0:0:0:0:
328,208,29981,2,0,P|368:184|432:176,1,112.5
496,88,30281,2,0,L|384:56,1,112.5
56,112,30581,1,0,0:0:0:0:
56,112,30731,1,0,0:0:0:0:
272,40,30881,5,0,0:0:0:0:
200,128,31031,2,0,L|176:144,4,28.125
248,232,31331,1,0,0:0:0:0:
360,240,31481,1,0,0:0:0:0:
440,160,31631,2,0,L|416:48,1,112.5
72,224,31931,2,0,L|96:336,1,112.5
208,344,32231,1,0,0:0:0:0:
320,353,32381,2,0,P|336:312|336:240,1,112.5
256,168,32681,2,0,P|248:96|256:56,1,112.5
352,0,32981,5,0,0:0:0:0:
16,32,33131,1,0,0:0:0:0:
50,60,33206,1,0,0:0:0:0:
76,97,33281,1,0,0:0:0:0:
92,139,33356,1,0,0:0:0:0:
96,184,33431,1,0,0:0:0:0:
88,228,33506,1,0,0:0:0:0:
69,268,33581,2,0,L|192:288,1,112.5
272,224,33881,1,0,0:0:0:0:
336,384,34031,2,0,L|448:344,1,112.5
264,208,34331,5,0,0:0:0:0:
296,104,34481,1,0,0:0:0:0:
368,256,34631,1,0,0:0:0:0:
336,32,34781,1,0,0:0:0:0:
336,32,34931,2,0,L|224:16,1,112.5
112,32,35231,1,0,0:0:0:0:
208,88,35381,5,0,0:0:0:0:
208,88,35456,1,0,0:0:0:0:
208,88,35531,2,0,P|232:160|232:208,1,112.5
200,304,35756,1,0,0:0:0:0:
200,304,35831,2,0,L|208:336,4,28.125
96,344,36131,1,0,0:0:0:0:
8,280,36281,1,0,0:0:0:0:
504,104,36431,1,0,0:0:0:0:
504,104,36581,2,0,L|392:80,1,112.5
280,96,36881,5,0,0:0:0:0:
256,208,37031,1,0,0:0:0:0:
296,312,37181,2,0,L|408:280,1,112.5
464,192,37481,1,0,0:0:0:0:
144,80,37631,1,0,0:0:0:0:
144,80,37781,1,0,0:0:0:0:
104,184,37931,1,0,0:0:0:0:
160,280,38081,2,0,L|216:272,1,56.25
264,376,38231,2,0,L|336:384,1,56.25
368,352,38381,5,0,0:0:0:0:
104,48,38681,1,0,0:0:0:0:
496,144,38981,1,0,0:0:0:0:
248,248,39281,1,0,0:0:0:0:
56,176,39506,1,0,0:0:0:0:
56,176,39581,5,0,0:0:0:0:
168,344,39806,1,0,0:0:0:0:
168,344,39881,1,0,0:0:0:0:
224,152,40106,1,0,0:0:0:0:
224,152,40181,1,0,0:0:0:0:
416,224,40406,2,0,L|488:208,1,67.5000025749208
352,56,40706,2,0,L|288:32,1,67.5000025749208
232,72,40856,5,0,0:0:0:0:
288,106,40931,1,0,0:0:0:0:
317,166,41006,1,0,0:0:0:0:
309,232,41081,2,0,P|336:296|320:360,1,135.000005149842
76,273,41381,2,0,L|208:304,1,135.000005149842
294,128,41681,2,0,L|168:176,1,135.000005149842
48,32,41906,1,0,0:0:0:0:
48,32,41981,1,0,0:0:0:0:
456,48,42206,1,0,0:0:0:0:
456,48,42281,5,0,0:0:0:0:
304,352,42506,1,0,0:0:0:0:
280,288,42581,1,0,0:0:0:0:
48,48,42806,1,0,0:0:0:0:
24,112,42881,2,0,P|56:192|40:240,1,135.000005149842
504,368,43181,2,0,L|368:376,1,135.000005149842
8,368,43481,2,0,L|144:376,1,135.000005149842
448,264,43781,6,0,P|504:208|512:144,1,135.000005149842
64,120,44081,2,0,P|8:176|0:240,1,135.000005149842
384,176,44381,2,0,P|360:112|400:48,1,135.000005149842
123,56,44681,2,0,P|152:115|128:176,1,135.000005149842
464,232,44981,2,0,P|488:304|472:368,1,135.000005149842
35,360,45281,2,0,P|24:294|48:232,1,135.000005149842
504,104,45581,6,0,L|372:134,1,135.000005149842
8,104,45881,2,0,L|144:136,1,135.000005149842
512,8,46181,2,0,L|380:38,1,135.000005149842
0,8,46481,2,0,L|136:40,1,135.000005149842
256,96,46781,1,0,0:0:0:0:
256,232,46931,1,0,0:0:0:0:
144,312,47081,2,0,P|248:368|384:264,1,270.000010299683
376,32,47531,1,0,0:0:0:0:
372,65,47606,1,0,0:0:0:0:
380,97,47681,5,0,0:0:0:0:
400,124,47756,1,0,0:0:0:0:
428,142,47831,2,0,L|496:120,1,67.5000025749208
448,248,47981,2,0,L|304:208,1,135.000005149842
120,32,48281,1,0,0:0:0:0:
120,32,48356,1,0,0:0:0:0:
120,32,48431,2,0,P|80:112|88:176,1,135.000005149842
192,232,48656,2,0,B|184:248|184:248|160:256|136:288,2,67.5000025749208
280,280,48881,6,0,P|304:344|368:376,1,135.000005149842
488,344,49181,2,0,P|512:232|496:184,1,135.000005149842
24,40,49481,2,0,P|0:152|16:200,1,135.000005149842
366,302,49781,1,0,0:0:0:0:
296,41,49931,1,0,0:0:0:0:
105,232,50081,1,0,0:0:0:0:
323,378,50231,1,0,0:0:0:0:
383,39,50381,1,0,0:0:0:0:
60,157,50531,1,0,0:0:0:0:
60,157,50606,5,0,0:0:0:0:
60,157,50681,2,0,L|80:224,3,67.5000025749208
192,184,50981,1,0,0:0:0:0:
192,184,51056,2,0,L|160:256,3,67.5000025749208
280,288,51431,1,0,0:0:0:0:
408,320,51581,1,0,0:0:0:0:
344,56,51731,1,0,0:0:0:0:
472,24,51881,1,0,0:0:0:0:
472,24,52031,5,0,0:0:0:0:
64,8,52181,2,0,P|16:104|40:264,1,270.000010299683
70,269,52556,1,0,0:0:0:0:
103,277,52631,1,0,0:0:0:0:
224,216,52781,1,0,0:0:0:0:
248,352,52931,1,0,0:0:0:0:
352,264,53081,5,0,0:0:0:0:
320,32,53231,1,0,0:0:0:0:
497,182,53381,1,0,0:0:0:0:
280,264,53531,1,0,0:0:0:0:
192,32,53681,1,0,0:0:0:0:
15,182,53831,1,0,0:0:0:0:
232,264,53981,2,0,L|368:224,1,135.000005149842
456,128,54281,2,0,L|320:72,1,135.000005149842
64,16,54581,5,0,0:0:0:0:
51,47,54656,1,0,0:0:0:0:
47,80,54731,1,0,0:0:0:0:
51,114,54806,1,0,0:0:0:0:
63,145,54881,2,0,L|136:160,1,67.5000025749208
264,184,55031,2,0,L|192:208,1,67.5000025749208
280,312,55181,2,0,P|360:360|496:264,2,270.000010299683
293,281,55856,5,0,0:0:0:0:
296,247,55931,1,0,0:0:0:0:
289,214,56006,1,0,0:0:0:0:
273,185,56081,2,0,L|200:168,1,67.5000025749208
80,216,56231,1,0,0:0:0:0:
88,80,56381,1,0,0:0:0:0:
88,80,56531,5,0,0:0:0:0:
352,32,56681,2,0,P|456:80|480:160,1,202.500007724762
424,200,56981,1,0,0:0:0:0:
386,255,57056,1,0,0:0:0:0:
382,321,57131,1,0,0:0:0:0:
413,381,57206,1,0,0:0:0:0:
413,381,57281,2,0,L|448:384,4,33.7500012874604
144,336,57581,5,0,0:0:0:0:
96,264,57731,2,0,L|112:160,1,90
56,104,58031,1,0,0:0:0:0:
120,40,58181,1,0,0:0:0:0:
208,32,58331,1,0,0:0:0:0:
280,80,58481,2,0,L|304:176,1,90
368,224,58781,1,0,0:0:0:0:
488,152,58931,1,0,0:0:0:0:
504,328,59081,1,0,0:0:0:0:
504,328,59231,6,0,P|512:280|512:232,2,90
424,368,59681,1,0,0:0:0:0:
248,328,59831,2,0,L|232:304,2,22.5
288,248,59981,1,0,0:0:0:0:
224,184,60131,1,0,0:0:0:0:
232,96,60281,1,0,0:0:0:0:
232,96,60431,1,0,0:0:0:0:
296,32,60581,2,0,L|400:16,1,90
464,64,60881,1,0,0:0:0:0:
464,64,61031,5,0,0:0:0:0:
104,16,61181,2,0,L|128:104,1,90
88,184,61481,1,0,0:0:0:0:
144,256,61631,1,0,0:0:0:0:
120,344,61781,2,0,L|24:352,1,90
21,330,62006,1,0,0:0:0:0:
14,309,62081,1,0,0:0:0:0:
9,287,62156,5,0,0:0:0:0:
7,265,62231,1,0,0:0:0:0:
8,242,62306,1,0,0:0:0:0:
11,220,62381,2,0,L|48:136,1,90
500,163,62681,2,0,L|464:248,1,90
376,272,62981,1,0,0:0:0:0:
136,112,63131,1,0,0:0:0:0:
176,312,63281,1,0,0:0:0:0:
336,72,63431,1,0,0:0:0:0:
336,72,63581,5,0,0:0:0:0:
400,288,63731,1,0,0:0:0:0:
160,336,63881,1,0,0:0:0:0:
111,96,64031,1,0,0:0:0:0:
352,47,64181,1,0,0:0:0:0:
396,42,64256,1,0,0:0:0:0:
437,59,64331,1,0,0:0:0:0:
465,94,64406,1,0,0:0:0:0:
472,138,64481,1,0,0:0:0:0:
416,208,64631,1,0,0:0:0:0:
248,264,64781,6,0,L|272:168,1,90
224,96,65081,1,0,0:0:0:0:
178,15,65231,1,0,0:0:0:0:
224,96,65381,2,0,L|139:146,1,90
122,231,65681,1,0,0:0:0:0:
97,321,65831,1,0,0:0:0:0:
122,231,65981,2,0,L|172:315,1,90
257,333,66281,1,0,0:0:0:0:
347,358,66431,1,0,0:0:0:0:
257,333,66581,6,0,L|341:282,1,90
359,197,66881,1,0,0:0:0:0:
356,193,66956,1,0,0:0:0:0:
353,189,67031,1,0,0:0:0:0:
351,186,67106,1,0,0:0:0:0:
348,182,67181,2,0,L|368:80,1,90
320,16,67481,2,0,L|272:64,1,45
200,48,67631,1,0,0:0:0:0:
104,304,67781,2,0,L|80:256,1,45
8,232,67931,5,0,0:0:0:0:
176,288,68081,1,0,0:0:0:0:
280,40,68231,1,0,0:0:0:0:
280,40,68381,1,0,0:0:0:0:
480,216,68531,2,0,L|392:240,1,90
128,176,68831,1,0,0:0:0:0:
200,128,68981,2,0,L|224:40,1,90
304,80,69281,1,0,0:0:0:0:
313,100,69356,1,0,0:0:0:0:
327,117,69431,5,0,0:0:0:0:
346,129,69506,1,0,0:0:0:0:
368,136,69581,2,0,P|424:120|456:96,2,90
192,176,70031,1,0,0:0:0:0:
360,240,70181,1,0,0:0:0:0:
112,344,70331,1,0,0:0:0:0:
112,344,70406,1,0,0:0:0:0:
112,344,70481,1,0,0:0:0:0:
68,177,70631,1,0,0:0:0:0:
68,177,70781,6,0,P|64:221|80:264,1,90
152,216,71081,2,0,L|232:168,1,90
304,216,71381,2,0,L|392:256,1,90
412,256,71606,1,0,0:0:0:0:
439,251,71681,1,0,0:0:0:0:
463,240,71756,1,0,0:0:0:0:
483,222,71831,5,0,0:0:0:0:
497,199,71906,1,0,0:0:0:0:
504,173,71981,2,0,P|496:104|480:80,1,90
400,80,72281,1,0,0:0:0:0:
320,112,72431,1,0,0:0:0:0:
232,104,72581,1,0,0:0:0:0:
168,40,72731,2,0,P|104:16|64:16,1,90
24,88,73031,5,0,0:0:0:0:
27,110,73106,1,0,0:0:0:0:
31,132,73181,2,0,B|48:136|48:136|32:176|48:208,1,90
128,176,73481,2,0,P|152:232|152:264,1,90
88,320,73781,1,0,0:0:0:0:
85,316,73856,1,0,0:0:0:0:
82,312,73931,1,0,0:0:0:0:
79,309,74006,1,0,0:0:0:0:
76,305,74081,5,0,0:0:0:0:
73,302,74156,1,0,0:0:0:0:
71,298,74231,1,0,0:0:0:0:
68,295,74306,1,0,0:0:0:0:
65,291,74381,1,0,0:0:0:0:
288,336,74531,1,0,0:0:0:0:
360,280,74681,2,0,L|456:272,1,90
496,192,74981,2,0,L|408:160,1,90
376,80,75281,5,0,0:0:0:0:
288,104,75431,1,0,0:0:0:0:
200,128,75581,1,0,0:0:0:0:
196,125,75656,1,0,0:0:0:0:
192,123,75731,1,0,0:0:0:0:
32,40,75881,2,0,L|16:128,1,90
72,296,76181,2,0,P|96:240|96:208,1,90
87,191,76406,1,0,0:0:0:0:
81,169,76481,1,0,0:0:0:0:
159,67,76631,6,0,P|160:96|168:112,1,45
256,24,76781,1,0,0:0:0:0:
392,16,76931,1,0,0:0:0:0:
304,120,77081,2,0,P|288:176|296:216,1,90
376,240,77381,1,0,0:0:0:0:
376,240,77531,2,0,L|336:344,1,90
160,312,77831,1,0,0:0:0:0:
166,267,77981,5,0,0:0:0:0:
120,96,78131,1,0,0:0:0:0:
140,55,78281,2,0,P|176:96|192:136,1,90
328,248,78581,1,0,0:0:0:0:
335,203,78731,2,0,P|360:152|400:128,1,90
424,216,79031,1,0,0:0:0:0:
272,320,79181,1,0,0:0:0:0:
256,144,79331,1,0,0:0:0:0:
264,56,79481,6,0,L|168:32,1,90
88,56,79781,1,0,0:0:0:0:
16,224,79931,2,0,L|104:192,1,90
192,176,80231,1,0,0:0:0:0:
272,216,80381,1,0,0:0:0:0:
356,187,80531,1,0,0:0:0:0:
394,107,80681,2,0,L|368:8,1,90
448,0,80981,1,0,0:0:0:0:
496,264,81131,2,0,L|472:352,1,90
360,208,81431,5,0,0:0:0:0:
392,296,81581,1,0,0:0:0:0:
392,296,81731,1,0,0:0:0:0:
216,344,81881,2,0,P|160:360|112:360,1,90
8,224,82181,1,0,0:0:0:0:
8,224,82331,2,0,P|56:184|88:168,1,90
344,232,82631,1,0,0:0:0:0:
208,112,82781,5,0,0:0:0:0:
280,56,82931,1,0,0:0:0:0:
370,67,83081,1,0,0:0:0:0:
425,138,83231,2,0,P|440:216|432:240,2,90
352,192,83681,1,0,0:0:0:0:
352,192,83831,1,0,0:0:0:0:
192,104,83981,2,0,L|104:136,1,90
56,208,84281,2,0,L|160:224,1,90
232,192,84581,1,0,0:0:0:0:
80,288,84731,6,0,L|184:304,1,90
232,192,85031,1,0,0:0:0:0:
304,360,85181,1,0,0:0:0:0:
328,272,85331,1,0,0:0:0:0:
472,160,85481,2,0,P|480:104|472:64,1,90
152,48,85781,2,0,L|328:32,1,157.5
192,208,86381,6,0,P|176:272|240:360,1,180
408,304,86681,1,0,0:0:0:0:
440,128,86831,2,0,L|256:88,1,180
88,64,87131,1,0,0:0:0:0:
240,168,87281,1,0,0:0:0:0:
64,200,87431,1,0,0:0:0:0:
208,312,87581,2,0,P|328:352|408:248,1,270
376,168,87881,1,0,0:0:0:0:
40,40,88031,6,0,L|312:24,1,270
384,72,88331,1,0,0:0:0:0:
472,232,88481,1,0,0:0:0:0:
296,192,88631,1,0,0:0:0:0:
128,312,88781,2,0,P|96:336|48:352,1,90
40,152,88931,2,0,P|72:156|131:182,1,90
216,192,89081,1,0,0:0:0:0:
384,72,89231,6,0,L|464:32,1,90
472,232,89381,2,0,P|416:216|384:192,1,90
296,192,89531,1,0,0:0:0:0:
200,40,89681,1,0,0:0:0:0:
104,296,89831,1,0,0:0:0:0:
40,128,89981,2,0,P|152:112|168:120,1,90
275,76,90131,2,0,L|208:136,1,90
304,168,90281,1,0,0:0:0:0:
472,256,90431,6,0,P|360:272|344:264,1,90
236,304,90581,2,0,P|262:269|304:248,1,90
320,336,90731,1,0,0:0:0:0:
320,336,90881,1,0,0:0:0:0:
160,40,91031,1,0,0:0:0:0:
160,40,91106,1,0,0:0:0:0:
160,40,91181,2,0,L|144:136,1,90
328,112,91331,2,0,L|344:224,1,90
416,256,91481,1,0,0:0:0:0:
352,344,91631,6,0,L|368:248,1,90
184,272,91781,2,0,L|168:160,1,90
96,128,91931,1,0,0:0:0:0:
464,168,92081,2,0,P|432:192|304:144,1,180
392,104,92306,1,0,0:0:0:0:
392,104,92381,2,0,P|280:48|136:72,1,270
96,144,92681,1,0,0:0:0:0:
120,280,92831,2,0,P|232:336|376:312,1,270
416,240,93131,1,0,0:0:0:0:
480,72,93281,5,0,0:0:0:0:
504,248,93431,1,0,0:0:0:0:
400,104,93581,2,0,P|272:24|152:40,1,270
80,88,93881,1,0,0:0:0:0:
48,176,93956,2,0,L|144:200,1,90
304,256,94106,2,0,L|200:272,1,90
56,360,94331,1,0,0:0:0:0:
75,341,94481,1,0,0:0:0:0:
88,318,94631,5,0,0:0:0:0:
94,291,94781,2,0,P|72:200|152:48,1,270
240,40,95081,1,0,0:0:0:0:
300,376,95231,2,0,P|405:296|431:166,1,270
374,95,95531,1,0,0:0:0:0:
359,79,95606,1,0,0:0:0:0:
352,58,95681,2,0,P|320:40|264:32,1,90
216,104,95831,6,0,L|232:152,4,45
80,104,96281,2,0,P|176:120|200:144,1,135.000005149842
88,312,96881,1,0,0:0:0:0:
88,312,96956,1,0,0:0:0:0:
88,312,97031,1,0,0:0:0:0:
152,328,97181,1,0,0:0:0:0:
208,294,97331,1,0,0:0:0:0:
223,230,97481,5,0,0:0:0:0:
278,195,97631,1,0,0:0:0:0:
341,209,97781,2,0,P|368:248|376:272,1,67.5000025749208
320,312,98081,2,0,P|352:336|408:328,1,67.5000025749208
440,312,98381,2,0,P|424:232|480:128,1,202.500007724762
408,16,99131,1,0,0:0:0:0:
352,48,99281,1,0,0:0:0:0:
289,31,99431,1,0,0:0:0:0:
232,63,99581,5,0,0:0:0:0:
214,125,99731,1,0,0:0:0:0:
245,181,99881,2,0,B|240:200|240:200|256:216|264:248,1,67.5000025749208
224,304,100181,1,0,0:0:0:0:
248,314,100256,1,0,0:0:0:0:
275,315,100331,1,0,0:0:0:0:
300,305,100406,1,0,0:0:0:0:
320,287,100481,5,0,0:0:0:0:
332,263,100556,1,0,0:0:0:0:
334,237,100631,1,0,0:0:0:0:
288,136,100781,2,0,L|376:120,1,67.5000025749208
400,72,101081,2,0,L|320:64,1,67.5000025749208
264,72,101381,2,0,P|240:112|216:128,1,67.5000025749208
160,96,101681,2,0,P|168:144|184:176,1,67.5000025749208
216,288,101981,6,0,L|288:304,1,67.5000025749208
456,328,102281,1,0,0:0:0:0:
336,264,102431,1,0,0:0:0:0:
448,192,102581,2,0,L|440:112,1,67.5000025749208
416,64,102881,2,0,L|376:128,1,67.5000025749208
216,87,103181,2,0,P|314:101|368:184,1,202.500007724762
256,192,103781,1,0,0:0:0:0:
32,24,104081,5,0,0:0:0:0:
32,24,104156,1,0,0:0:0:0:
32,24,104231,1,0,0:0:0:0:
120,80,104381,1,0,0:0:0:0:
142,181,104531,1,0,0:0:0:0:
86,267,104681,1,0,0:0:0:0:
107,367,104831,2,0,L|224:384,1,101.250003862381
232,360,105131,1,0,0:0:0:0:
368,368,105281,6,0,B|360:352|368:336|368:336|352:328|336:304,1,67.5
408,264,105581,1,0,0:0:0:0:
112,72,115181,5,0,0:0:0:0:
144,176,115331,1,0,0:0:0:0:
93,272,115481,1,0,0:0:0:0:
306,310,115631,1,0,0:0:0:0:
232,107,115781,1,0,0:0:0:0:
93,272,115931,1,0,0:0:0:0:
93,272,116006,1,0,0:0:0:0:
93,272,116081,6,0,P|144:304|240:272,1,161.999995056153
265,252,116381,1,0,0:0:0:0:
298,235,116456,1,0,0:0:0:0:
335,228,116531,1,0,0:0:0:0:
373,229,116606,1,0,0:0:0:0:
409,240,116681,2,0,P|456:184|464:144,1,107.999996704102
432,48,116981,1,0,0:0:0:0:
224,0,117131,1,0,0:0:0:0:
224,0,117281,5,0,0:0:0:0:
249,105,117431,2,0,L|264:128,3,26.9999991760254
191,194,117581,1,0,0:0:0:0:
87,217,117731,1,0,0:0:0:0:
96,328,117881,1,0,0:0:0:0:
6,270,118031,1,0,0:0:0:0:
305,337,118181,2,0,L|200:360,1,107.999996704102
350,161,118481,2,0,L|456:184,1,107.999996704102
280,80,118781,5,0,0:0:0:0:
254,87,118856,1,0,0:0:0:0:
228,94,118931,2,0,P|256:168|248:192,1,107.999996704102
152,160,119231,1,0,0:0:0:0:
40,344,119381,1,0,0:0:0:0:
256,336,119531,2,0,P|264:312|280:288,1,53.9999983520508
360,248,119681,1,0,0:0:0:0:
379,229,119756,1,0,0:0:0:0:
394,207,119831,5,0,0:0:0:0:
402,181,119906,1,0,0:0:0:0:
403,154,119981,2,0,L|376:96,1,53.9999983520508
392,56,120131,2,0,L|280:80,1,107.999996704102
184,32,120431,1,0,0:0:0:0:
88,88,120581,1,0,0:0:0:0:
152,176,120731,1,0,0:0:0:0:
135,283,120881,1,0,0:0:0:0:
47,346,121031,1,0,0:0:0:0:
264,376,121181,5,0,0:0:0:0:
47,346,121331,1,0,0:0:0:0:
360,280,121481,1,0,0:0:0:0:
360,280,121556,1,0,0:0:0:0:
360,280,121631,1,0,0:0:0:0:
392,176,121781,1,0,0:0:0:0:
400,144,121856,1,0,0:0:0:0:
396,112,121931,1,0,0:0:0:0:
380,84,122006,1,0,0:0:0:0:
355,65,122081,5,0,0:0:0:0:
324,56,122156,1,0,0:0:0:0:
273,72,122231,1,0,0:0:0:0:
221,58,122306,1,0,0:0:0:0:
185,19,122381,2,0,L|72:8,1,107.999996704102
8,216,122681,2,0,L|120:208,1,107.999996704102
396,175,122981,6,0,L|504:168,1,107.999996704102
434,375,123281,2,0,L|327:365,1,107.999996704102
288,48,123581,1,0,0:0:0:0:
224,336,123731,1,0,0:0:0:0:
371,217,123881,1,0,0:0:0:0:
140,166,124031,1,0,0:0:0:0:
303,266,124181,1,0,0:0:0:0:
208,117,124331,1,0,0:0:0:0:
216,91,124406,1,0,0:0:0:0:
232,70,124481,2,0,L|264:64,6,26.9999991760254
392,48,124781,5,12,0:0:0:0:
397,74,124856,1,12,0:0:0:0:
402,100,124931,1,12,0:0:0:0:
407,127,125006,1,0,0:0:0:0:
413,153,125081,1,0,0:0:0:0:
412,207,125156,1,0,0:0:0:0:
382,251,125231,1,12,0:0:0:0:
333,271,125306,1,12,0:0:0:0:
279,267,125381,1,12,0:0:0:0:
238,234,125456,1,0,0:0:0:0:
209,189,125531,5,0,0:0:0:0:
161,166,125606,1,0,0:0:0:0:
108,173,125681,1,0,0:0:0:0:
86,188,125756,1,0,0:0:0:0:
69,209,125831,1,0,0:0:0:0:
58,233,125906,1,0,0:0:0:0:
55,260,125981,1,12,0:0:0:0:
60,287,126056,1,12,0:0:0:0:
73,310,126131,1,12,0:0:0:0:
92,329,126206,1,0,0:0:0:0:
116,342,126281,1,0,0:0:0:0:
224,320,126356,5,0,0:0:0:0:
246,305,126431,1,12,0:0:0:0:
272,297,126506,1,4,0:0:0:0:
299,294,126581,1,12,0:0:0:0:
325,298,126656,1,0,0:0:0:0:
350,309,126731,1,0,0:0:0:0:
372,324,126806,1,0,0:0:0:0:
432,232,126881,1,0,0:0:0:0:
410,215,126956,1,0,0:0:0:0:
393,194,127031,1,0,0:0:0:0:
381,170,127106,1,0,0:0:0:0:
375,144,127181,1,12,0:0:0:0:
408,40,127256,5,12,0:0:0:0:
355,28,127331,1,12,0:0:0:0:
302,17,127406,1,0,0:0:0:0:
268,58,127481,1,0,0:0:0:0:
219,79,127556,1,0,0:0:0:0:
165,75,127631,1,12,0:0:0:0:
119,47,127706,1,12,0:0:0:0:
16,32,127781,1,12,0:0:0:0:
41,39,127856,1,0,0:0:0:0:
64,54,127931,1,12,0:0:0:0:
81,75,128006,1,0,0:0:0:0:
93,99,128081,1,12,0:0:0:0:
97,126,128156,5,0,0:0:0:0:
93,152,128231,1,12,0:0:0:0:
82,177,128306,1,0,0:0:0:0:
65,198,128381,1,12,0:0:0:0:
41,245,128456,1,12,0:0:0:0:
50,298,128531,1,12,0:0:0:0:
72,312,128606,1,0,0:0:0:0:
96,328,128681,1,0,0:0:0:0:
122,324,128756,1,0,0:0:0:0:
148,315,128831,1,12,0:0:0:0:
170,300,128906,1,12,0:0:0:0:
189,281,128981,5,12,0:0:0:0:
202,258,129056,1,0,0:0:0:0:
210,232,129131,1,0,0:0:0:0:
212,205,129206,1,0,0:0:0:0:
208,178,129281,2,0,P|216:120|296:56,1,161.999995056153,12|0,0:0|0:0,0:0:0:0:
312,161,129581,2,0,L|344:152,7,33.7500012874604,8|0|8|0|8|0|8|0,0:0|0:0|0:0|0:0|0:0|0:0|0:0|0:0,0:0:0:0:
376,160,129881,6,0,L|360:232,2,67.5000025749208,8|0|8,0:0|0:0|0:0,0:0:0:0:
272,248,130106,2,0,L|311:310,2,67.5000025749208,8|8|8,0:0|0:0|0:0,0:0:0:0:
208,232,130331,1,8,0:0:0:0:
201,235,130406,1,0,0:0:0:0:
195,238,130481,1,0,0:0:0:0:
189,241,130556,1,0,0:0:0:0:
183,244,130631,5,0,0:0:0:0:
177,247,130706,1,0,0:0:0:0:
171,250,130781,1,8,0:0:0:0:
165,253,130856,1,8,0:0:0:0:
160,256,130931,2,0,L|128:248,3,33.7500012874604,8|0|8|0,0:0|0:0|0:0|0:0,0:0:0:0:
160,152,131081,2,0,L|208:104,2,67.5000025749208,0|0|8,0:0|0:0|0:0,0:0:0:0:
264,328,131306,2,0,L|312:376,2,67.5000025749208,8|8|8,0:0|0:0|0:0,0:0:0:0:
280,264,131531,1,8,0:0:0:0:
293,262,131606,1,0,0:0:0:0:
306,259,131681,1,0,0:0:0:0:
319,254,131756,1,0,0:0:0:0:
331,248,131831,5,0,0:0:0:0:
342,241,131906,1,0,0:0:0:0:
352,232,131981,2,0,P|360:160|352:144,2,67.5000025749208,8|8|8,0:0|0:0|0:0,0:0:0:0:
360,96,132206,2,0,P|368:80|384:56,2,33.7500012874604,8|0|0,0:0|0:0|0:0,0:0:0:0:
296,128,132356,2,0,P|288:200|296:216,2,67.5000025749208,0|8|8,0:0|0:0|0:0,0:0:0:0:
312,264,132581,2,0,L|176:288,1,135.000005149842,8|8,0:0|0:0,0:0:0:0:
150,268,132806,1,0,0:0:0:0:
122,249,132881,2,0,L|128:216,7,33.7500012874604,8|0|0|0|0|0|0|0,0:0|0:0|0:0|0:0|0:0|0:0|0:0|0:0,0:0:0:0:
192,184,133181,5,4,0:0:0:0:
192,184,133256,1,0,0:0:0:0:
192,184,133331,2,0,B|272:152|272:152|304:112,1,135.000005149842,0|4,0:0|0:0,0:0:0:0:
416,40,133631,2,0,L|432:176,1,135.000005149842,0|4,0:0|0:0,0:0:0:0:
451,201,133856,1,0,0:0:0:0:
470,229,133931,1,0,0:0:0:0:
256,192,134081,6,0,L|240:160,4,33.7500012874604,4|0|0|0|4,0:0|0:0|0:0|0:0|0:0,0:0:0:0:
384,32,134381,1,4,0:0:0:0:
464,304,143981,6,0,L|376:328,1,90
288,320,144281,1,0,0:0:0:0:
232,248,144431,1,0,0:0:0:0:
240,160,144581,2,0,L|456:200,1,180
480,256,144956,1,0,0:0:0:0:
473,235,145031,1,0,0:0:0:0:
496,56,145181,2,0,P|440:16|360:16,1,135
344,40,145481,2,0,L|328:128,1,90
288,208,145781,5,0,0:0:0:0:
288,296,145931,1,0,0:0:0:0:
224,360,146081,1,0,0:0:0:0:
136,360,146231,1,0,0:0:0:0:
64,312,146381,2,0,P|32:248|56:144,1,180
136,104,146831,1,0,0:0:0:0:
288,208,146981,1,0,0:0:0:0:
288,208,147131,1,0,0:0:0:0:
408,72,147281,5,0,0:0:0:0:
408,72,147431,1,0,0:0:0:0:
328,32,147581,2,0,L|232:24,1,90
184,96,147881,1,0,0:0:0:0:
200,184,148031,1,0,0:0:0:0:
280,224,148181,2,0,L|368:240,1,90
512,352,148481,1,0,0:0:0:0:
512,352,148631,1,0,0:0:0:0:
472,272,148781,6,0,P|448:224|448:184,1,90
496,112,149081,1,0,0:0:0:0:
424,64,149231,1,0,0:0:0:0:
320,208,149381,2,0,L|144:248,1,180
104,328,149756,1,0,0:0:0:0:
108,306,149831,1,0,0:0:0:0:
24,152,149981,1,0,0:0:0:0:
48,64,150131,1,0,0:0:0:0:
112,128,150281,1,0,0:0:0:0:
112,128,150431,5,0,0:0:0:0:
192,83,150581,1,0,0:0:0:0:
192,174,150731,1,0,0:0:0:0:
264,232,150881,2,0,L|360:224,1,90
424,280,151181,2,0,L|416:336,2,45
448,104,151481,1,0,0:0:0:0:
376,152,151631,2,0,L|343:198,2,45
484,11,151931,5,0,0:0:0:0:
312,64,152081,2,0,L|216:48,1,90
48,104,152381,1,0,0:0:0:0:
92,118,152456,1,0,0:0:0:0:
135,131,152531,1,0,0:0:0:0:
288,224,152681,1,0,0:0:0:0:
432,336,152831,1,0,0:0:0:0:
437,293,152906,1,0,0:0:0:0:
411,258,152981,1,0,0:0:0:0:
240,312,153131,5,0,0:0:0:0:
96,80,153281,2,0,L|64:152,2,45
416,304,153581,2,0,L|304:318,1,112.5
