osu file format v14

[General]
AudioFilename: The Quick Brown Fox - Gotsta Terrify.mp3
AudioLeadIn: 0
PreviewTime: 58677
Countdown: 0
SampleSet: None
StackLeniency: 0.7
Mode: 0
LetterboxInBreaks: 1
EpilepsyWarning: 1
WidescreenStoryboard: 0

[Editor]
Bookmarks: 68277
DistanceSpacing: 1.2
BeatDivisor: 4
GridSize: 4
TimelineZoom: 1

[Metadata]
Title:Gotsta Terrify
TitleUnicode:
Artist:The Quick Brown Fox
ArtistUnicode:
Creator:Smoothie
Version:Ends
Source:
Tags:Speedkore 4 Kidz Hardcore Gabber Speedcore Splittercore Lapfox Renard
BeatmapID:1483395
BeatmapSetID:50019

[Difficulty]
HPDrainRate:5
CircleSize:4
OverallDifficulty:6
ApproachRate:10
SliderMultiplier:3.19999990463257
SliderTickRate:1

[Events]
//Background and Video events
0,0,"bg.jpg",0,0
//Break Periods
2,78152,87102
2,116552,124902
//Storyboard Layer 0 (Background)
//Storyboard Layer 1 (Fail)
//Storyboard Layer 2 (Pass)
//Storyboard Layer 3 (Foreground)
Sprite,Foreground,Centre,"Warning!!.png",320,240 S,0,57402,,0.8015999 F,0,57402,57664,0,1 F,0,57664,57889,1,0 F,0,57889,58152,0,1 F,0,58152,58377,1,0 F,0,58377,58602,0,1 F,0,58602,58789,1,0
Sprite,Foreground,Centre,"Warning!!.png",320,240 S,0,134427,,0.8016 F,0,134427,134614,0,1 F,0,134614,134802,1,0 F,0,134802,134989,0,1 F,0,134989,135177,1,0 F,0,135177,135364,0,1 F,0,135364,135552,1,0
Sprite,Foreground,Centre,"Black Fade.png",320,240 S,0,57402,,0.8016001 F,0,57402,58827,0,0.07116105 M,0,57402,78177,320,240 F,0,58827,59052,0.07116105,1 F,0,59052,77427,1 F,0,77427,77952,1 F,0,77952,78177,1,0
Sprite,Foreground,Centre,"Blah....jpg",320,240 M,0,77952,,320,240 S,0,77952,78027,0.5008,0.5278221 F,0,77952,78252,0,0.2896001 S,0,78027,78627,0.5278221,0.5711998 V,0,78027,78627,1.0128,1.3392,1.0704,1.48 F,0,78252,78702,0.2896001,0
Sprite,Foreground,Centre,"Black Fade.png",320,240 F,0,135477,135777,0,1 M,0,135927,154152,320,240
Sprite,Foreground,Centre,"Blah....jpg",320,240 M,0,154227,,320,240 F,0,154227,,1 S,0,154227,154302,0.5072,0.6288 S,0,154302,,0.6288 S,0,154302,154377,0.6288,0.5690666 S,0,154377,,0.5690666 V,0,154377,,0.9359999,0.9616002
//Storyboard Sound Samples

[TimingPoints]
10752,300,4,1,0,80,1,0
20352,-100,4,1,0,80,0,1
24852,-100,4,2,0,80,0,1
25152,-100,4,1,0,80,0,1
26052,-100,4,2,0,100,0,1
26352,-100,4,1,0,80,0,1
27252,-100,4,2,0,100,0,1
27552,-100,4,1,0,80,0,1
29652,-100,4,2,0,80,0,1
29952,-100,4,1,0,80,0,1
32052,-100,4,2,0,80,0,1
32302,-100,4,1,0,80,0,1
39552,-100,4,1,0,80,0,0
41652,-100,4,2,0,80,0,0
41952,-100,4,1,0,80,0,0
51252,-100,4,2,0,80,0,0
51552,-100,4,1,0,80,0,0
56052,-100,4,2,0,80,0,0
56352,-100,4,1,0,80,0,0
57402,-100,4,2,0,80,0,0
57852,-100,4,1,0,80,0,0
58152,-200,4,2,0,80,0,0
58452,-100,4,2,0,80,0,0
58752,-100,4,1,0,80,0,1
58752,-100,4,1,0,80,0,1
67752,-100,4,1,0,80,0,0
68277,-100,4,1,0,80,0,1
76752,-76.9230769230769,4,1,0,80,0,1
77352,-200,4,1,0,80,0,1
77952,-100,4,1,0,80,0,0
87552,-100,4,1,0,80,0,1
92052,-100,4,2,0,100,0,1
92352,-100,4,1,0,80,0,1
93252,-100,4,2,0,100,0,1
93552,-100,4,1,0,100,0,1
94452,-100,4,2,0,100,0,1
94752,-100,4,1,0,80,0,1
106752,-133.333333333333,4,1,0,80,0,0
125952,-100,4,1,0,80,0,0
135552,-100,4,1,0,80,0,1
144552,-100,4,1,0,80,0,0
145077,-100,4,1,0,80,0,1
153552,-200,4,1,0,80,0,0
154152,-100,4,1,0,80,0,1
154227,-100,4,1,0,80,0,0

[Colours]
Combo1 : 255,255,255
Combo2 : 255,185,185
Combo3 : 255,255,191
Combo4 : 198,198,255
Combo5 : 128,128,128
Combo6 : 217,255,217

[HitObjects]
64,160,10752,6,2,B|112:128|152:152|160:192|152:232|128:240,1,159.999995231628,2|0,0:0|0:0,0:0:0:0:
412,240,11052,2,2,B|360:232|352:192|360:152|400:128|448:160,1,159.999995231628,2|0,0:0|0:0,0:0:0:0:
344,332,11352,2,2,B|256:348|256:348|136:324,1,159.999995231628,2|0,0:0|0:0,0:0:0:0:
80,60,11652,2,2,B|256:28|256:28|464:68,1,319.999990463257,2|0,0:0|0:0,0:0:0:0:
416,152,12027,5,0,0:0:0:0:
344,216,12102,1,0,0:0:0:0:
256,240,12177,1,0,0:0:0:0:
168,216,12252,2,2,B|144:172|96:176|96:176|24:192|48:296,1,159.999995231628,2|0,0:0|0:0,0:0:0:0:
344,216,12552,2,2,B|368:260|416:256|416:256|488:240|464:136,1,159.999995231628,2|0,0:0|0:0,0:0:0:0:
192,96,12852,2,2,B|188:132|180:180|284:232|328:176|336:132|336:48|300:48,1,239.999992847443
144,40,13152,6,2,B|48:104,1,79.9999976158142,2|0,0:0|0:0,0:0:0:0:
368,344,13302,2,0,B|448:276,1,79.9999976158142,2|0,0:0|0:0,0:0:0:0:
168,252,13452,2,2,B|184:316|184:316|252:348|344:280,1,159.999995231628,2|0,0:0|0:0,0:0:0:0:
344,132,13752,2,2,B|328:68|328:68|260:36|180:100,1,159.999995231628,2|0,0:0|0:0,0:0:0:0:
80,200,14052,2,2,B|60:220|52:304|124:356|204:356|252:328|292:224,1,319.999990463257
280,184,14427,5,0,0:0:0:0:
232,128,14502,1,0,0:0:0:0:
156,128,14577,1,0,0:0:0:0:
92,168,14652,2,2,B|44:124|84:56|84:56|176:56,1,159.999995231628,2|0,0:0|0:0,0:0:0:0:
420,216,14952,2,2,B|468:260|428:328|428:328|332:328,1,159.999995231628
152,168,15252,2,0,B|147:118|179:72|251:39|338:55|376:140|360:184,2,319.999990463257,0|4|4,0:0|0:0|0:0,0:0:0:0:
256,192,16602,5,4,0:0:0:0:
48,192,16902,5,4,0:0:0:0:
464,192,17052,5,4,0:0:0:0:
140,44,19152,6,0,B|56:44,1,79.9999976158142
104,188,19302,2,0,B|192:188,1,79.9999976158142
332,108,19452,2,0,B|248:108,1,79.9999976158142
296,252,19602,2,0,B|384:252,1,79.9999976158142
400,324,19752,6,0,B|432:368,1,39.9999988079071,0|0,0:0|0:0,0:0:0:0:
436,292,19827,2,0,B|480:320,1,39.9999988079071
444,248,19902,2,0,B|492:248,1,39.9999988079071
436,204,19977,2,0,B|469:182,1,39.9999988079071
400,172,20052,2,0,B|423:139,1,39.9999988079071,0|0,0:0|0:0,0:0:0:0:
348,160,20127,2,0,B|348:96,4,39.9999988079071
296,252,20352,6,0,B|248:364,1,82.5
196,232,20502,2,0,B|76:176,1,82.5
216,132,20652,2,0,B|268:8,1,82.5
316,152,20802,2,0,B|432:204,1,82.5
296,252,20952,2,0,B|260:328|260:328|120:328,2,165
196,232,21402,5,0,0:0:0:0:
152,240,21477,1,0,0:0:0:0:
108,240,21552,1,0,0:0:0:0:
68,216,21627,1,0,0:0:0:0:
40,176,21702,1,0,0:0:0:0:
48,128,21777,1,0,0:0:0:0:
72,88,21852,1,0,0:0:0:0:
404,240,22002,5,0,0:0:0:0:
360,240,22077,1,0,0:0:0:0:
316,228,22152,2,0,B|288:360|120:304,2,165
316,228,22527,2,0,B|316:96,1,82.5
196,156,22677,2,0,B|196:288,1,82.5
260,344,22902,2,0,B|200:376|144:372|100:316|96:240,1,165
256,40,23202,2,0,B|316:8|372:12|416:68|408:148,2,165
166,264,23652,6,0,B|256:264,1,82.5
346,120,23802,2,0,B|256:120,1,82.5
184,102,23952,2,0,B|184:192,1,82.5
328,282,24102,2,0,B|328:192,1,82.5
147,56,24252,2,0,B|147:186,1,82.5
364,327,24402,2,0,B|364:196,1,82.5
256,120,24552,2,0,B|220:176|296:236|240:308,2,165,0|0|2,0:0|0:0|0:0,0:0:0:0:
300,88,24927,5,2,0:0:0:0:
280,32,25002,1,2,0:0:0:0:
228,32,25077,1,2,0:0:0:0:
212,88,25152,2,0,B|108:80,1,82.5,0|0,0:0|0:0,0:0:0:0:
300,88,25302,2,0,B|408:80,1,82.5
172,192,25452,2,0,B|32:236,1,82.5
340,192,25602,2,0,B|476:232,1,82.5
188,308,25752,2,0,B|248:308|256:348|256:348|264:308|360:300,1,165,0|0,0:0|0:0,0:0:0:0:
340,192,26052,5,2,0:0:0:0:
304,152,26127,1,2,0:0:0:0:
256,144,26202,1,2,0:0:0:0:
208,152,26277,1,2,0:0:0:0:
172,192,26352,2,0,B|36:192,1,82.5
172,292,26502,2,0,B|264:292,1,82.5
352,192,26652,2,0,B|236:192,1,82.5
352,292,26802,2,0,B|464:292,1,82.5
448,192,26952,2,0,B|488:152|488:152|448:124|408:88|448:4,2,165,0|0|2,0:0|0:0|0:0,0:0:0:0:
428,232,27327,5,2,0:0:0:0:
448,272,27402,1,2,0:0:0:0:
428,312,27477,1,2,0:0:0:0:
448,352,27552,2,0,B|336:352,1,82.5
184,352,27702,2,0,B|296:352,1,82.5
364,264,27852,2,0,B|252:264,1,82.5
100,264,28002,2,0,B|208:264,1,82.5
144,184,28152,2,0,B|80:216|36:176|20:112|84:80,2,165
184,120,28602,1,0,0:0:0:0:
108,132,28752,5,0,0:0:0:0:
84,156,28827,1,0,0:0:0:0:
64,184,28902,1,0,0:0:0:0:
52,220,28977,1,0,0:0:0:0:
52,256,29052,1,0,0:0:0:0:
404,252,29202,5,0,0:0:0:0:
428,228,29277,1,0,0:0:0:0:
448,200,29352,2,0,B|304:200,1,82.5
184,120,29502,2,0,B|328:120,1,82.5
256,312,29652,2,8,B|240:352,1,41.25
240,288,29727,2,8,B|208:320,1,41.25
216,264,29802,2,8,B|176:288,1,41.25
200,240,29877,2,8,B|152:256,1,41.25
184,216,29952,6,0,B|68:240,1,82.5
332,168,30102,2,0,B|448:144,1,82.5
200,144,30252,2,0,B|98:76,1,82.5
312,240,30402,2,0,B|413:307,1,82.5
272,120,30552,2,0,B|248:4,1,82.5
240,264,30702,2,0,B|264:380,1,82.5
328,168,30852,2,0,B|376:192|432:168|456:128|432:24,1,165
416,32,31077,5,0,0:0:0:0:
384,64,31152,1,0,0:0:0:0:
360,24,31227,1,0,0:0:0:0:
328,56,31302,1,0,0:0:0:0:
304,16,31377,1,0,0:0:0:0:
268,48,31452,2,0,B|236:8|152:8,1,82.5
104,192,31602,6,0,B|136:232|224:232,1,82.5
260,344,31752,2,0,B|296:312|296:228,1,82.5
408,192,31902,2,0,B|376:152|256:152,1,82.5
248,44,32052,2,8,B|232:4,1,41.25
232,68,32127,2,8,B|200:36,1,41.25
208,92,32202,2,8,B|168:68,1,41.25
192,120,32277,2,8,B|144:100,1,41.25,0|0,0:0|0:0,0:0:0:0:
184,148,32352,2,0,B|80:120,1,82.5,0|0,0:0|0:0,0:0:0:0:
128,244,32502,2,8,B|228:272,1,82.5,0|0,0:0|0:0,0:0:0:0:
412,124,32652,2,0,B|328:148,1,82.5,0|0,0:0|0:0,0:0:0:0:
304,264,32802,2,0,B|383:245,1,82.5,0|0,0:0|0:0,0:0:0:0:
320,152,32989,2,0,B|256:100|256:100|164:168,2,159.999995231628
380,264,33402,5,0,0:0:0:0:
360,300,33477,1,0,0:0:0:0:
328,324,33552,1,0,0:0:0:0:
292,340,33627,1,0,0:0:0:0:
256,352,33702,1,0,0:0:0:0:
220,340,33777,1,0,0:0:0:0:
184,324,33852,2,0,B|116:224|188:120,1,206.25
328,68,34152,2,0,B|328:172,1,82.5
256,208,34302,2,0,B|256:88,1,82.5
184,68,34452,2,0,B|184:188,1,82.5
256,124,34602,6,0,B|256:324,1,165,0|4,0:0|0:0,0:0:0:0:
380,264,34902,5,0,0:0:0:0:
400,232,34977,1,0,0:0:0:0:
416,200,35052,1,0,0:0:0:0:
96,200,35202,1,0,0:0:0:0:
112,232,35277,1,0,0:0:0:0:
132,264,35352,2,0,B|192:376|344:312,1,165
380,120,35652,2,0,B|320:8|172:68,1,165
216,192,35952,6,0,B|112:192,1,82.5
296,192,36102,2,0,B|392:192,1,82.5
320,68,36252,2,0,B|320:24|252:8|188:28|188:96,1,165
112,152,36552,6,0,B|92:164|92:192|92:192|92:224|144:260,1,82.5
408,232,36702,2,0,B|424:220|424:192|424:192|424:160|368:124,1,82.5
256,116,36852,2,0,B|200:164|256:192|304:212|236:296,1,165
192,328,37152,6,0,B|194:364|254:384|318:368|326:316,1,165
320,68,37452,2,0,B|320:24|260:4|196:20|192:88,1,165
256,288,37752,1,0,0:0:0:0:
256,96,37902,1,0,0:0:0:0:
176,192,38052,2,0,B|256:148|256:260|376:168,1,165
404,232,38352,6,0,B|384:244|384:272|384:272|384:304|448:336,1,82.5
492,232,38502,2,0,B|502:221|502:193|502:193|502:161|484:152,1,82.5
404,152,38652,2,0,B|372:128|348:128|324:136|304:172|304:172|220:172,1,165
184,228,38877,6,0,B|32:228,1,82.5
48,124,39027,2,0,B|138:124,1,82.5
140,268,39177,2,0,B|-16:268,1,82.5
180,56,39552,6,0,B|216:80|216:80|256:68|296:80|296:80|336:52,1,165
400,156,39777,2,0,B|380:208|300:220,1,82.5
288,204,39927,1,0,0:0:0:0:
240,220,40002,1,0,0:0:0:0:
220,252,40077,1,0,0:0:0:0:
224,300,40152,1,0,0:0:0:0:
252,340,40227,2,0,B|180:344|180:344|144:360|144:360|72:360,1,165
36,240,40452,2,0,B|72:192|160:212,1,82.5
248,120,40602,2,0,B|213:165|170:151,1,82.5
180,52,40752,6,0,B|236:52|236:52|272:92|372:92,1,165
372,160,40977,1,0,0:0:0:0:
432,208,41052,2,0,B|400:244|420:292|420:292|364:280|300:352,1,165
292,320,41277,2,0,B|316:220,1,82.5
220,60,41427,2,0,B|196:164,1,82.5
372,160,41652,5,2,0:0:0:0:
400,136,41727,1,2,0:0:0:0:
412,104,41802,1,2,0:0:0:0:
416,68,41877,1,2,0:0:0:0:
420,36,41952,2,0,B|344:52|288:8|288:8|224:52,1,165
228,180,42252,2,0,B|268:208|332:196,1,82.5
416,36,42402,2,0,B|376:8|312:20,1,82.5
252,88,42552,2,0,B|304:76|332:112|332:112|380:88|436:144,1,165
440,200,42777,1,0,0:0:0:0:
448,276,42852,2,0,B|412:284|404:332|404:332|240:332,1,165
204,332,43077,6,0,B|156:236,1,82.5
36,92,43227,2,0,B|84:188,1,82.5
120,176,43377,1,0,0:0:0:0:
156,176,43452,2,0,B|256:220|340:100,1,165
304,144,43677,2,0,B|376:272,1,82.5
252,88,43827,2,0,B|192:-32,1,82.5
348,132,43977,2,0,B|416:256,1,82.5
208,88,44127,2,0,B|148:-28,2,82.5
52,88,44352,6,0,B|36:160|64:212|124:208|208:172,1,165,4|0,0:0|0:0,0:0:0:0:
168,216,44577,1,0,0:0:0:0:
192,252,44652,2,0,B|180:296|180:296|100:312,1,82.5
264,280,44802,2,0,B|276:236|276:236|356:220,1,82.5
408,192,44952,2,0,B|512:192,1,82.5
448,112,45102,2,0,B|352:112,1,82.5
324,192,45252,2,0,B|428:192,1,82.5
368,112,45402,2,0,B|236:112,1,82.5
168,216,45552,6,0,B|228:208|224:260|224:260|264:212|352:296,1,165
384,312,45777,2,0,B|288:376,1,82.5
200,360,45927,2,0,B|128:312,1,82.5
256,280,46077,1,0,0:0:0:0:
328,216,46152,2,0,B|296:176|256:176|256:176|208:176|172:236,1,165
208,108,46452,2,0,B|144:104|132:40,1,82.5
360,64,46602,2,0,B|353:107|289:111,1,82.5
328,192,46752,6,0,B|296:228|256:228|256:228|208:228|182:183,1,165
120,228,47052,2,0,B|140:272|224:312,1,82.5
124,360,47202,2,0,B|88:344|60:300,1,82.5
40,220,47352,2,0,B|124:192|124:192|172:104,1,165
472,164,47652,2,0,B|388:192|388:192|340:284,1,165
268,360,47952,2,0,B|256:316|256:316|280:224,1,82.5
176,208,48102,2,0,B|188:248|188:248|164:340,1,82.5
104,244,48252,2,0,B|88:204|84:168|84:168|88:128|116:72,1,165
216,96,48477,6,0,B|256:88|256:88|332:100,1,82.5
344,236,48627,2,0,B|300:244|300:244|224:232,1,82.5
176,204,48814,2,8,B|124:180,1,41.25
168,236,48889,2,8,B|108:236,1,41.25
168,272,48964,2,8,B|112:288,1,41.25
176,304,49039,2,8,B|128:336,1,41.25
256,332,49152,6,0,B|316:276|388:316|388:316|432:264,1,165
452,204,49452,2,0,B|456:176|444:164|464:156|480:88,1,82.5
384,52,49602,2,0,B|380:80|392:92|372:100|356:168,1,82.5
344,236,49752,2,0,B|252:224|252:224|176:164,1,165
92,188,49977,2,0,B|44:280,1,82.5
116,340,50127,2,0,B|176:228,1,82.5
352,332,50352,6,0,B|432:264,1,82.5
412,176,50502,2,0,B|332:244,1,82.5
272,284,50652,2,0,B|216:276|216:276|188:272|188:272|212:216|120:184,1,165
68,200,50877,2,0,B|60:140|128:112,1,82.5
188,120,51027,2,0,B|196:180|128:208,1,82.5
188,272,51177,6,0,B|252:264|276:332,1,90,0|2,0:0|0:0,0:0:0:0:
308,320,51327,1,2,0:0:0:0:
348,316,51402,1,2,0:0:0:0:
384,300,51477,1,2,0:0:0:0:
408,268,51552,6,0,B|408:208|408:208|432:164|432:164|432:88,1,165
368,44,51777,2,0,B|252:44,1,82.5
236,132,51927,2,0,B|348:132,1,82.5
280,216,52077,2,0,B|176:216,1,82.5
144,304,52227,2,0,B|256:304,2,82.5
64,256,52452,2,0,B|56:212|16:188|16:188|56:160|24:72,1,165
108,96,52677,6,0,B|100:60|112:44|112:44|132:32|200:12,1,82.5
236,132,52827,2,0,B|244:168|232:184|232:184|212:196|144:220,1,82.5
232,36,52977,2,0,B|256:28|272:20|324:20|364:88,1,82.5
392,152,53202,6,0,B|492:136,1,82.5
376,232,53352,2,0,B|484:256,1,82.5
336,304,53502,2,0,B|420:376,1,82.5
176,304,53652,6,0,B|112:364,1,82.5,0|0,0:0|0:0,0:0:0:0:
136,232,53802,2,0,B|56:248,1,82.5
136,148,53952,2,0,B|160:108|208:96|208:96|260:104|304:200,1,165
256,192,54177,1,0,0:0:0:0:
236,236,54252,2,0,B|253:282|305:290|305:290|353:278|376:244,1,165
384,160,54477,2,0,B|476:128,1,82.5
348,92,54627,2,0,B|432:32,2,82.5
312,160,54852,2,0,B|256:176|232:224|232:224|104:224,1,165
64,188,55077,6,0,B|84:144|136:148,1,82.5
164,288,55227,2,0,B|120:268|124:212,1,82.5,0|0,0:0|0:0,0:0:0:0:
264,188,55377,2,0,B|244:232|192:224,1,82.5,0|0,0:0|0:0,0:0:0:0:
390,228,55602,6,0,B|444:232|464:188,1,82.5
404,161,55752,2,0,B|408:108|368:88,1,82.5,0|0,0:0|0:0,0:0:0:0:
336,148,55902,2,0,B|283:145|268:188,1,82.5,0|0,0:0|0:0,0:0:0:0:
328,216,56052,1,2,0:0:0:0:
320,260,56127,1,2,0:0:0:0:
300,300,56202,1,2,0:0:0:0:
272,332,56277,1,2,0:0:0:0:
240,360,56352,6,0,B|164:360|164:360|192:304|112:248,1,165
60,248,56577,2,0,B|68:192|116:184|164:188,1,82.5
244,156,56727,2,0,B|236:212|188:220|140:216,1,82.5
192,100,56877,2,0,B|195:95|235:103|247:155,1,82.5
252,260,57027,2,0,B|249:265|201:257|192:204,1,82.5
256,156,57177,2,0,B|320:152|320:152|348:180|380:180|380:180|428:240,1,165
312,292,57552,5,2,0:0:0:0:
296,252,57627,1,2,0:0:0:0:
256,272,57702,1,2,0:0:0:0:
244,228,57777,1,2,0:0:0:0:
204,256,57852,2,0,B|140:192|140:192|168:160|160:88,1,165
192,76,58077,1,0,0:0:0:0:
244,56,58152,6,0,B|284:132|180:132|272:224,1,159.999995231628,4|4,0:0|0:0,0:0:0:0:
444,112,58752,6,0,B|448:164|448:164|384:212|376:300|376:300|300:304,1,247.5,4|0,0:0|0:0,0:0:0:0:
256,272,59052,2,0,B|300:192|200:192|268:92,1,165
188,76,59352,2,0,B|164:128|172:176|172:176|128:152|48:204,1,165
56,256,59652,2,0,B|72:300|72:300|132:344,1,82.5
192,308,59802,2,0,B|176:268|176:268|120:224,1,82.5
56,256,59952,2,0,B|44:204|64:164|108:128|188:156,1,165,4|0,0:0|0:0,0:0:0:0:
236,324,60177,2,0,B|184:336|144:316|108:272|136:192,1,165
304,144,60402,2,0,B|316:192|296:232|252:268|172:240,1,165
160,144,60702,2,0,B|148:96|168:56|212:20|292:48,2,165
252,344,61152,6,0,B|299:365|343:329|363:289|351:237,1,165,4|0,0:0|0:0,0:0:0:0:
348,128,61377,2,0,B|300:108|256:144|236:184|248:236,1,165
356,240,61602,2,0,B|402:219|446:255|466:295|454:347,1,165
248,344,61902,2,0,B|197:364|153:328|133:288|145:236,2,165
288,264,62352,6,0,B|309:213|366:208|408:222|434:264,1,165,4|0,0:0|0:0,0:0:0:0:
400,144,62577,2,0,B|349:164|305:128|285:88|296:40,1,165,0|0,0:0|0:0,0:0:0:0:
248,136,62802,2,0,B|268:187|232:231|192:251|144:239,2,165
160,76,63252,2,0,B|116:84|56:148,1,82.5
84,216,63402,2,0,B|124:212|160:172,1,82.5
248,136,63552,6,0,B|232:168|232:168|224:220|224:220|252:280|252:280|316:312|316:312|372:312|372:312|408:296,1,247.5,4|0,0:0|0:0,0:0:0:0:
320,224,63852,2,0,B|268:320|268:320|168:340,1,165
192,160,64152,2,0,B|244:64|244:64|344:44,1,165
396,132,64452,2,0,B|416:172|416:172|408:248,1,82.5
336,304,64602,2,0,B|316:264|316:264|324:188,1,82.5
316,136,64752,6,0,B|132:116,1,165,4|0,0:0|0:0,0:0:0:0:
240,220,64977,2,0,B|36:232,1,165
176,308,65202,2,0,B|-28:372,2,165
280,328,65652,6,0,B|320:340|320:340|420:328,1,82.5
428,200,65802,2,0,B|388:188|388:188|296:200,1,82.5
336,272,65952,2,0,B|384:304|384:304|448:320|520:228,1,165,4|0,0:0|0:0,0:0:0:0:
280,328,66177,2,0,B|232:292|232:292|168:276|96:368,1,165
32,180,66402,2,0,B|90:222|74:286|74:286|38:334,2,165
68,156,66777,1,0,0:0:0:0:
88,128,66852,2,0,B|144:108|164:144|164:144|180:88|296:96,1,165
424,260,67152,6,0,B|368:276|348:240|348:240|332:296|228:296,1,165,4|0,0:0|0:0,0:0:0:0:
128,240,67377,2,0,B|196:184|196:184|212:56,1,165,4|0,0:0|0:0,0:0:0:0:
208,80,67602,1,4,0:0:0:0:
256,236,67752,2,0,B|256:276,6,41.25
256,156,68052,2,0,B|256:116,4,41.25
172,64,68277,6,0,B|20:52,1,82.5
132,136,68427,2,0,B|248:148,1,82.5
420,56,68577,6,0,B|336:64,1,82.5
296,144,68727,2,0,B|388:136,1,82.5
124,236,68877,6,0,B|64:220|28:312,1,82.5
132,340,69027,2,0,B|192:356|228:264,1,82.5
456,268,69177,6,0,B|448:220|389:234,1,82.5
308,312,69327,2,0,B|320:356|384:352,2,82.5
324,160,69552,6,0,B|299:197|257:211|200:205|163:129,1,165
364,76,69777,2,0,B|409:104|423:146|417:203|341:240,1,165,0|0,0:0|0:0,0:0:0:0:
144,224,70002,2,0,B|94:203|88:146|102:104|148:76,1,165,0|0,0:0|0:0,0:0:0:0:
256,140,70302,2,0,B|204:216|300:216|244:324,1,165
344,352,70527,2,0,B|440:304,1,82.5
168,348,70677,2,0,B|72:300,1,82.5
144,224,70902,5,0,0:0:0:0:
144,224,70977,1,0,0:0:0:0:
368,160,71127,1,0,0:0:0:0:
368,160,71202,1,0,0:0:0:0:
368,160,71277,1,0,0:0:0:0:
368,160,71352,2,0,B|364:208|324:264|232:248|192:180,1,165
144,224,71652,2,0,B|148:176|188:120|280:136|312:204,1,165
252,296,71952,6,0,B|452:320,1,165
236,196,72177,2,0,B|440:144,1,165
184,96,72402,2,0,B|360:0,2,165
120,172,72852,2,0,B|120:220|68:268,1,82.5
168,296,73002,2,0,B|138:329|86:329,1,82.5
24,288,73152,6,0,B|96:268|96:268|168:160|308:144,1,247.5
184,100,73452,2,0,B|148:140|148:140|156:224|264:280,1,165
328,284,73752,2,0,B|364:244|364:244|356:160|248:104,1,165
396,72,74052,2,0,B|431:104|444:144,1,82.5
448,244,74202,2,0,B|435:279|396:320,1,82.5
328,284,74352,6,0,B|256:324|188:276|196:208|232:152,1,165
184,100,74577,2,0,B|256:64|324:112|316:180|272:236,1,165
112,252,74802,2,0,B|45:231|44:132|111:107|172:104,2,165
400,252,75252,2,0,B|467:231|468:132|401:107|340:104,1,165
140,196,75552,6,0,B|204:248|204:248|252:216|304:264,1,165
372,192,75777,2,0,B|308:136|308:136|260:168|208:120,1,165
196,308,76002,2,0,B|196:340|220:364|296:372|324:332|312:268,2,159.999995231628
196,76,76452,2,0,B|196:44|220:20|296:12|324:52|312:116,1,159.999995231628
112,276,76752,6,0,B|140:196|140:196|56:176|44:28,1,207.999990081787
452,110,76977,2,0,B|456:176|372:196|372:196|400:276,1,207.999990081787
408,300,77202,1,0,0:0:0:0:
256,344,77352,6,0,B|192:280|256:200|256:200|328:120|240:40,1,319.999990463257,0|4,0:0|0:0,0:0:0:0:
216,132,87552,6,0,B|264:20,1,82.5
316,152,87702,2,0,B|436:208,1,82.5
296,252,87852,2,0,B|244:376,1,82.5
196,232,88002,2,0,B|80:180,1,82.5
216,132,88152,2,0,B|252:56|252:56|392:56,2,165
316,152,88602,5,0,0:0:0:0:
360,144,88677,1,0,0:0:0:0:
404,144,88752,1,0,0:0:0:0:
444,168,88827,1,0,0:0:0:0:
472,208,88902,1,0,0:0:0:0:
464,256,88977,1,0,0:0:0:0:
440,296,89052,1,0,0:0:0:0:
108,144,89202,5,0,0:0:0:0:
152,144,89277,1,0,0:0:0:0:
196,156,89352,2,0,B|224:24|392:80,2,165
196,156,89727,2,0,B|196:288,1,82.5
316,228,89877,2,0,B|316:96,1,82.5
252,40,90102,2,0,B|312:8|368:12|412:68|416:144,1,165
256,344,90402,2,0,B|196:376|140:372|96:316|104:236,2,165
346,120,90852,6,0,B|256:120,1,82.5
166,264,91002,2,0,B|256:264,1,82.5
328,282,91152,2,0,B|328:192,1,82.5
184,102,91302,2,0,B|184:192,1,82.5
365,328,91452,2,0,B|365:198,1,82.5
148,57,91602,2,0,B|148:188,1,82.5
256,264,91752,2,0,B|292:208|216:148|272:76,2,165,0|0|2,0:0|0:0|0:0,0:0:0:0:
212,296,92127,5,2,0:0:0:0:
232,352,92202,1,2,0:0:0:0:
284,352,92277,1,2,0:0:0:0:
300,296,92352,2,0,B|404:304,1,82.5,0|0,0:0|0:0,0:0:0:0:
212,296,92502,2,0,B|104:304,1,82.5
340,192,92652,2,0,B|480:148,1,82.5
172,192,92802,2,0,B|36:152,1,82.5
324,76,92952,2,0,B|264:76|256:36|256:36|248:76|152:84,1,165,0|0,0:0|0:0,0:0:0:0:
172,192,93252,5,2,0:0:0:0:
208,232,93327,1,2,0:0:0:0:
256,240,93402,1,2,0:0:0:0:
304,232,93477,1,2,0:0:0:0:
340,192,93552,2,0,B|476:192,1,82.5
340,92,93702,2,0,B|248:92,1,82.5
160,192,93852,2,0,B|276:192,1,82.5
160,92,94002,2,0,B|48:92,1,82.5
64,192,94152,2,0,B|24:232|24:232|64:260|104:296|64:380,2,165,0|0|2,0:0|0:0|0:0,0:0:0:0:
84,152,94527,5,2,0:0:0:0:
64,112,94602,1,2,0:0:0:0:
84,72,94677,1,2,0:0:0:0:
64,32,94752,2,0,B|176:32,1,82.5
328,32,94902,2,0,B|216:32,1,82.5
148,120,95052,2,0,B|260:120,1,82.5
412,120,95202,2,0,B|304:120,1,82.5
368,200,95352,2,0,B|432:168|476:208|492:272|428:304,2,165
328,264,95802,1,0,0:0:0:0:
404,252,95952,5,0,0:0:0:0:
428,228,96027,1,0,0:0:0:0:
448,200,96102,1,0,0:0:0:0:
460,164,96177,1,0,0:0:0:0:
460,128,96252,1,0,0:0:0:0:
108,132,96402,5,0,0:0:0:0:
84,156,96477,1,0,0:0:0:0:
64,184,96552,2,0,B|208:184,1,82.5
328,264,96702,2,0,B|184:264,1,82.5
256,72,96852,2,8,B|272:32,1,41.25
272,96,96927,2,8,B|304:64,1,41.25
296,120,97002,2,8,B|336:96,1,41.25
312,144,97077,2,8,B|360:128,1,41.25
328,168,97152,6,0,B|444:144,1,82.5
180,216,97302,2,0,B|64:240,1,82.5
312,240,97452,2,0,B|414:308,1,82.5
200,144,97602,2,0,B|99:77,1,82.5
240,264,97752,2,0,B|264:380,1,82.5
272,120,97902,2,0,B|248:4,1,82.5
184,216,98052,2,0,B|136:192|80:216|56:256|80:360,1,165
96,352,98277,5,0,0:0:0:0:
128,320,98352,1,0,0:0:0:0:
152,360,98427,1,0,0:0:0:0:
184,328,98502,1,0,0:0:0:0:
208,368,98577,1,0,0:0:0:0:
244,336,98652,2,0,B|276:376|360:376,1,82.5
408,192,98802,6,0,B|376:152|288:152,1,82.5
252,40,98952,2,0,B|216:72|216:156,1,82.5
104,192,99102,2,0,B|136:232|256:232,1,82.5
264,340,99252,2,8,B|280:380,1,41.25
280,316,99327,2,8,B|312:348,1,41.25
304,292,99402,2,8,B|344:316,1,41.25
320,264,99477,2,8,B|368:284,1,41.25,0|0,0:0|0:0,0:0:0:0:
328,236,99552,2,0,B|432:264,1,82.5,0|0,0:0|0:0,0:0:0:0:
384,140,99702,2,8,B|284:112,1,82.5,0|0,0:0|0:0,0:0:0:0:
100,260,99852,2,0,B|184:236,1,82.5,0|0,0:0|0:0,0:0:0:0:
208,120,100002,2,0,B|129:139,1,82.5,0|0,0:0|0:0,0:0:0:0:
192,236,100189,2,0,B|256:288|256:288|344:220,2,159.999995231628
132,120,100602,5,0,0:0:0:0:
152,84,100677,1,0,0:0:0:0:
184,60,100752,1,0,0:0:0:0:
220,44,100827,1,0,0:0:0:0:
256,32,100902,1,0,0:0:0:0:
292,44,100977,1,0,0:0:0:0:
328,60,101052,2,0,B|396:160|324:264,1,206.25
184,316,101352,2,0,B|184:212,1,82.5
256,176,101502,2,0,B|256:296,1,82.5
328,316,101652,2,0,B|328:196,1,82.5
256,260,101802,6,0,B|256:60,1,165,0|4,0:0|0:0,0:0:0:0:
132,120,102102,5,0,0:0:0:0:
112,152,102177,1,0,0:0:0:0:
96,184,102252,1,0,0:0:0:0:
416,184,102402,1,0,0:0:0:0:
400,152,102477,1,0,0:0:0:0:
380,120,102552,2,0,B|320:8|168:72,1,165
132,264,102852,2,0,B|192:376|340:316,1,165
296,192,103152,6,0,B|400:192,1,82.5
216,192,103302,2,0,B|120:192,1,82.5
192,316,103452,2,0,B|192:360|260:376|324:356|324:288,1,165
400,232,103752,6,0,B|420:220|420:192|420:192|420:160|368:124,1,82.5
104,152,103902,2,0,B|88:164|88:192|88:192|88:224|144:260,1,82.5
256,268,104052,2,0,B|312:220|256:192|208:172|276:88,1,165
320,56,104352,6,0,B|318:20|258:0|194:16|186:68,1,165
192,316,104652,2,0,B|192:360|252:380|316:364|320:296,1,165
256,96,104952,1,0,0:0:0:0:
256,288,105102,1,0,0:0:0:0:
336,192,105252,2,0,B|256:236|256:124|136:216,1,165
108,152,105552,6,0,B|128:140|128:112|128:112|128:80|64:48,1,82.5
20,152,105702,2,0,B|10:163|10:191|10:191|10:223|28:232,1,82.5
108,232,105852,2,0,B|140:256|164:256|188:248|208:212|208:212|292:212,1,165
328,156,106077,6,0,B|480:156,1,82.5
464,260,106227,2,0,B|374:260,1,82.5
372,116,106377,2,0,B|528:116,1,82.5
256,192,106752,5,4,0:0:0:0:
360,36,107052,6,0,B|388:68|388:68|424:48|492:80,1,119.999992847443
152,348,107502,6,0,B|124:316|124:316|88:336|20:304,1,119.999992847443
416,124,107952,6,0,B|452:116|488:156|500:220|428:260|428:260|344:260,1,239.999985694886
256,192,108402,1,0,0:0:0:0:
96,260,108552,2,0,B|60:268|24:228|12:164|84:124|84:124|168:124,1,239.999985694886
256,192,109002,1,0,0:0:0:0:
368,256,109152,6,0,B|440:296|416:376|344:416|288:376|256:304,1,239.999985694886
144,128,109602,2,0,B|72:88|96:8|168:-32|224:8|256:80,1,239.999985694886
368,128,110052,2,0,B|440:88|416:8|344:-32|288:8|256:80,1,239.999985694886
256,192,110652,5,0,0:0:0:0:
112,280,110802,2,0,B|168:320|168:320|264:340,1,119.999992847443
256,192,111252,5,0,0:0:0:0:
400,104,111402,2,0,B|344:64|344:64|240:40,1,119.999992847443
112,280,111852,6,0,B|200:136,1,119.999992847443
400,104,112302,2,0,B|312:248,1,119.999992847443
80,168,112752,6,0,B|120:152|88:80|88:80|176:84|144:8|96:0,1,239.999985694886
256,192,113202,1,0,0:0:0:0:
432,216,113352,2,0,B|392:232|424:304|424:304|336:300|368:376|416:384,1,239.999985694886
100,300,113802,6,0,B|56:256|56:256|80:232|48:176,1,119.999992847443
412,84,114252,6,0,B|456:128|456:128|432:152|464:208,1,119.999992847443
368,320,114702,6,0,B|320:368|320:368|296:344|248:368,1,119.999992847443
144,64,115152,6,0,B|192:16|192:16|216:40|272:12,1,119.999992847443
368,120,115452,1,0,0:0:0:0:
256,216,115602,1,0,0:0:0:0:
368,320,115752,2,0,B|320:368|320:368|296:344|244:376,1,119.999992847443
256,216,116052,5,0,0:0:0:0:
144,120,116202,5,0,0:0:0:0:
368,120,116352,5,4,0:0:0:0:
200,64,125952,6,0,B|192:92|228:108|256:136|340:112|312:0,1,159.999995231628
312,320,126252,2,0,B|320:292|284:276|256:248|172:272|200:384,1,159.999995231628
88,264,126552,2,0,B|88:216|120:192|120:192|88:168|88:92,1,159.999995231628
392,60,126852,2,0,B|392:112|392:112|448:128|464:192|464:192|456:248|400:280|400:280|400:368,1,319.999990463257
312,336,127227,2,0,B|312:208,1,79.9999976158142
312,48,127377,2,0,B|312:176,1,79.9999976158142
224,232,127602,2,0,B|88:216|80:92,1,159.999995231628
288,152,127902,2,0,B|424:168|432:292,1,159.999995231628
388,324,128127,6,0,B|352:352|352:352|304:332,1,79.9999976158142
124,60,128277,2,0,B|160:32|160:32|212:56,1,79.9999976158142
224,232,128427,2,0,B|200:192|200:192|224:120,1,79.9999976158142
288,152,128577,2,0,B|312:192|312:192|288:268,1,79.9999976158142
256,308,128727,2,0,B|224:360|124:356,1,79.9999976158142
256,76,128877,2,0,B|288:24|388:32,1,79.9999976158142
412,144,129027,2,0,B|424:188|408:248,2,79.9999976158142
328,188,129252,2,0,B|260:136|260:240|140:176,1,159.999995231628
44,128,129552,6,0,B|72:96|72:96|128:72,1,79.9999976158142
116,256,129702,2,0,B|88:288|88:288|28:312,1,79.9999976158142
48,216,129852,2,0,B|96:196|108:168|108:168|232:168,1,159.999995231628
464,168,130152,2,0,B|416:188|404:216|404:216|280:216,2,159.999995231628
256,192,130752,5,4,0:0:0:0:
256,192,131052,1,4,0:0:0:0:
256,192,131802,1,4,0:0:0:0:
256,192,132102,1,4,0:0:0:0:
256,192,132252,1,4,0:0:0:0:
256,192,132702,12,0,133902,0:0:0:0:
192,128,134352,6,0,B|136:32,1,79.9999976158142
320,128,134502,2,0,B|376:32,1,79.9999976158142
160,256,134652,2,0,B|32:224,1,79.9999976158142
352,256,134802,2,0,B|484:224,1,79.9999976158142
256,288,134952,2,0,B|196:320,1,39.9999988079071
256,256,135027,2,0,B|316:288,1,39.9999988079071
256,224,135102,2,0,B|192:256,1,39.9999988079071
256,192,135177,2,0,B|320:224,1,39.9999988079071
256,160,135252,2,0,B|192:192,1,39.9999988079071
256,128,135327,2,0,B|320:160,1,39.9999988079071
256,96,135402,2,0,B|192:128,1,39.9999988079071
256,64,135552,6,0,B|196:72|196:72|184:156|128:200|128:200|144:288,1,239.999992847443,4|0,0:0|0:0,0:0:0:0:
256,288,135852,2,0,B|312:192|212:192|272:112,1,159.999995231628
320,296,136152,2,0,B|344:260|336:212|336:212|380:236|464:188,1,159.999995231628
456,128,136452,2,0,B|440:84|440:84|380:40,1,82.5
320,76,136602,2,0,B|336:116|336:116|392:160,1,82.5
456,128,136752,2,0,B|468:180|448:220|404:256|324:228,1,165,4|0,0:0|0:0,0:0:0:0:
276,60,136977,2,0,B|328:48|368:68|404:112|376:192,1,165
208,240,137202,2,0,B|196:192|216:152|260:116|340:144,1,165
352,240,137502,2,0,B|364:288|344:328|300:364|220:336,2,165
260,40,137952,6,0,B|213:19|169:55|149:95|161:147,1,165,4|0,0:0|0:0,0:0:0:0:
164,256,138177,2,0,B|212:276|256:240|276:200|264:148,1,165
156,144,138402,2,0,B|110:165|66:129|46:89|58:37,1,165
264,40,138702,2,0,B|315:20|359:56|379:96|367:148,2,165
224,120,139152,6,0,B|203:171|146:176|104:162|78:120,1,165,4|0,0:0|0:0,0:0:0:0:
112,240,139377,2,0,B|163:220|207:256|227:296|216:344,1,165,0|0,0:0|0:0,0:0:0:0:
264,248,139602,2,0,B|244:197|280:153|320:133|368:145,2,165
352,308,140052,2,0,B|396:300|456:236,1,82.5
428,168,140202,2,0,B|388:172|352:212,1,82.5
264,248,140352,6,0,B|280:216|280:216|288:164|288:164|260:104|260:104|196:72|196:72|140:72|140:72|104:88,1,247.5,4|0,0:0|0:0,0:0:0:0:
192,160,140652,2,0,B|244:64|244:64|344:44,1,165
320,224,140952,2,0,B|268:320|268:320|168:340,1,165
116,252,141252,2,0,B|96:212|96:212|104:136,1,82.5
176,80,141402,2,0,B|196:120|196:120|188:196,1,82.5
196,248,141552,6,0,B|380:268,1,165,4|0,0:0|0:0,0:0:0:0:
272,164,141777,2,0,B|476:152,1,165
336,76,142002,2,0,B|540:12,2,165
232,56,142452,6,0,B|192:44|192:44|92:56,1,82.5
84,184,142602,2,0,B|124:196|124:196|216:184,1,82.5
176,112,142752,2,0,B|128:80|128:80|64:64|-8:156,1,165,4|0,0:0|0:0,0:0:0:0:
232,56,142977,2,0,B|280:92|280:92|344:108|416:16,1,165
480,204,143202,2,0,B|422:162|438:98|438:98|474:50,2,165
444,228,143577,1,0,0:0:0:0:
424,256,143652,2,0,B|368:276|348:240|348:240|332:296|216:288,1,165
88,124,143952,6,0,B|144:108|164:144|164:144|180:88|284:88,1,165,4|0,0:0|0:0,0:0:0:0:
384,144,144177,2,0,B|316:200|316:200|300:328,1,165,4|0,0:0|0:0,0:0:0:0:
304,304,144402,1,4,0:0:0:0:
256,148,144552,2,0,B|256:108,6,41.25
256,228,144852,2,0,B|256:268,4,41.25
340,320,145077,6,0,B|492:332,1,82.5
380,248,145227,2,0,B|264:236,1,82.5
92,328,145377,6,0,B|176:320,1,82.5
216,240,145527,2,0,B|124:248,1,82.5
388,148,145677,6,0,B|448:164|484:72,1,82.5
380,44,145827,2,0,B|320:28|284:120,1,82.5
56,116,145977,6,0,B|64:164|123:150,1,82.5
204,72,146127,2,0,B|192:28|128:32,2,82.5
188,224,146352,6,0,B|213:187|255:173|312:179|349:255,1,165
148,308,146577,2,0,B|103:280|89:238|95:181|171:144,1,165,0|0,0:0|0:0,0:0:0:0:
368,160,146802,2,0,B|418:181|424:238|410:280|364:308,1,165,0|0,0:0|0:0,0:0:0:0:
256,244,147102,2,0,B|308:168|212:168|268:60,1,165
168,32,147327,2,0,B|72:80,1,82.5
344,36,147477,2,0,B|440:84,1,82.5
368,160,147702,5,0,0:0:0:0:
368,160,147777,1,0,0:0:0:0:
144,224,147927,1,0,0:0:0:0:
144,224,148002,1,0,0:0:0:0:
144,224,148077,1,0,0:0:0:0:
144,224,148152,2,0,B|148:176|188:120|280:136|320:204,1,165
368,160,148452,2,0,B|364:208|324:264|232:248|200:180,1,165
260,88,148752,6,0,B|60:64,1,165
276,188,148977,2,0,B|72:240,1,165
328,288,149202,2,0,B|152:384,2,165
392,212,149652,2,0,B|392:164|444:116,1,82.5
344,88,149802,2,0,B|374:55|426:55,1,82.5
488,96,149952,6,0,B|416:116|416:116|344:224|204:240,1,247.5
328,284,150252,2,0,B|364:244|364:244|356:160|248:104,1,165
184,100,150552,2,0,B|148:140|148:140|156:224|264:280,1,165
116,312,150852,2,0,B|81:280|68:240,1,82.5
64,140,151002,2,0,B|77:105|116:64,1,82.5
184,100,151152,6,0,B|256:60|324:108|316:176|280:232,1,165
328,284,151377,2,0,B|256:320|188:272|196:204|240:148,1,165
400,132,151602,2,0,B|467:153|468:252|401:277|340:280,2,165
112,132,152052,2,0,B|45:153|44:252|111:277|172:280,1,165
176,336,152352,6,0,B|144:368|24:368,1,79.9999976158142
400,272,152502,2,0,B|432:304|432:424,1,79.9999976158142
336,48,152652,2,0,B|368:16|488:16,1,79.9999976158142
112,112,152802,2,0,B|80:80|80:-32,1,79.9999976158142
176,240,152952,6,0,B|130:240|48:156,1,79.9999976158142
304,272,153102,2,0,B|304:318|220:400,1,79.9999976158142
336,144,153252,2,0,B|382:144|464:228,1,79.9999976158142
208,112,153402,2,0,B|208:66|292:-16,1,79.9999976158142
196,232,153552,2,0,B|172:236|128:152|252:-8|388:156|344:244|288:248,1,319.999990463257,0|4,0:0|0:0,0:0:0:0:
