osu file format v14

[General]
AudioFilename: The Quick Brown Fox - Gotsta Terrify.mp3
AudioLeadIn: 0
PreviewTime: 58677
Countdown: 0
SampleSet: None
StackLeniency: 0.7
Mode: 0
LetterboxInBreaks: 1
EpilepsyWarning: 1
WidescreenStoryboard: 0

[Editor]
DistanceSpacing: 0.9
BeatDivisor: 4
GridSize: 4
TimelineZoom: 1

[Metadata]
Title:Gotsta Terrify
TitleUnicode:
Artist:The Quick Brown Fox
ArtistUnicode:
Creator:Smoothie
Version:Average
Source:
Tags:Speedkore 4 Kidz Hardcore Gabber Speedcore Splittercore Lapfox Renard [Luanny PhNyx] Foreverends
BeatmapID:1483394
BeatmapSetID:50019

[Difficulty]
HPDrainRate:2
CircleSize:4
OverallDifficulty:3
ApproachRate:5
SliderMultiplier:0.80000000596046
SliderTickRate:2

[Events]
//Background and Video events
0,0,"bg.jpg",0,0
//Break Periods
2,78151,83952
2,116552,124752
//Storyboard Layer 0 (Background)
//Storyboard Layer 1 (Fail)
//Storyboard Layer 2 (Pass)
//Storyboard Layer 3 (Foreground)
Sprite,Foreground,Centre,"Warning!!.png",320,240 S,0,57402,,0.8015999 F,0,57402,57664,0,1 F,0,57664,57889,1,0 F,0,57889,58152,0,1 F,0,58152,58377,1,0 F,0,58377,58602,0,1 F,0,58602,58789,1,0
Sprite,Foreground,Centre,"Warning!!.png",320,240 S,0,134427,,0.8016 F,0,134427,134614,0,1 F,0,134614,134802,1,0 F,0,134802,134989,0,1 F,0,134989,135177,1,0 F,0,135177,135364,0,1 F,0,135364,135552,1,0
Sprite,Foreground,Centre,"Black Fade.png",320,240 S,0,57402,,0.8016001 F,0,57402,58827,0,0.07116105 M,0,57402,78177,320,240 F,0,58827,59052,0.07116105,1 F,0,59052,77427,1 F,0,77427,77952,1 F,0,77952,78177,1,0
Sprite,Foreground,Centre,"Blah....jpg",320,240 M,0,77952,,320,240 S,0,77952,78027,0.5008,0.5278221 F,0,77952,78252,0,0.2896001 S,0,78027,78627,0.5278221,0.5711998 V,0,78027,78627,1.0128,1.3392,1.0704,1.48 F,0,78252,78702,0.2896001,0
Sprite,Foreground,Centre,"Black Fade.png",320,240 F,0,135477,135777,0,1 M,0,135927,154152,320,240
Sprite,Foreground,Centre,"Blah....jpg",320,240 M,0,154227,,320,240 F,0,154227,,1 S,0,154227,154302,0.5072,0.6288 S,0,154302,,0.6288 S,0,154302,154377,0.6288,0.5690666 S,0,154377,,0.5690666 V,0,154377,,0.9359999,0.9616002
//Storyboard Sound Samples

[TimingPoints]
10752,300,4,2,1,60,1,0
10752,-133.333333333333,4,2,1,60,0,0
20352,-100,4,1,1,60,0,1
34752,-100,4,2,1,60,0,1
39552,-100,4,1,1,60,0,0
58752,-76.9230769230769,4,1,1,60,0,1
62352,-76.9230769230769,4,2,1,60,0,1
63102,-76.9230769230769,4,1,1,60,0,1
71952,-76.9230769230769,4,2,1,100,0,1
72702,-76.9230769230769,4,1,1,60,0,1
77352,-133.333333333333,4,2,1,60,0,1
77952,-133.333333333333,4,2,1,60,0,0
77952,-133.333333333333,4,1,1,60,0,0
87552,-100,4,1,1,60,0,0
101952,-100,4,2,1,60,0,0
106752,-133.333333333333,4,2,1,60,0,0
115752,-100,4,1,1,60,0,0
116352,-100,4,1,1,60,0,0
125952,-133.333333333333,4,1,1,60,0,0
130752,-133.333333333333,4,1,1,60,0,0
134202,-133.333333333333,4,1,1,60,0,0
135552,-76.9230769230769,4,1,1,60,0,1
152202,-76.9230769230769,4,2,1,60,0,1
153552,-200,4,2,1,60,0,1
154152,-200,4,1,1,60,0,0

[Colours]
Combo1 : 255,255,255
Combo2 : 255,185,185
Combo3 : 255,255,191
Combo4 : 198,198,255
Combo5 : 128,128,128
Combo6 : 217,255,217

[HitObjects]
76,244,10752,6,0,B|108:304|180:304,1,120.000005471706
436,244,11952,2,0,B|404:304|332:304,1,120.000005471706
256,232,13152,2,0,B|256:112,1,120.000005471706
148,112,14352,6,0,B|88:136,1,60.000002735853
56,224,14952,2,0,B|116:224,1,60.000002735853
256,192,15552,5,8,0:0:0:0:
256,192,15852,1,4,0:0:0:0:
256,328,16602,6,0,B|256:264,1,60.000002735853,8|8,0:0|0:0,0:0:0:0:
256,268,17052,1,4,0:0:0:0:
452,56,19152,6,0,B|384:80,1,60.000002735853
396,128,19752,2,0,B|396:200,1,60.000002735853
448,336,20352,6,0,B|392:260|308:260,1,160.000001192092
64,336,21552,2,0,B|120:260|204:260,1,160.000001192092
256,332,22752,5,0,0:0:0:0:
256,188,23352,1,0,0:0:0:0:
300,52,23952,6,0,B|324:88|328:132,1,80.000000596046
348,176,24552,2,0,B|376:144|420:140,1,80.000000596046
412,212,25152,2,0,B|388:288|280:292,1,160.000001192092
100,212,26352,6,0,B|124:288|232:292,1,160.000001192092
184,196,27552,2,0,B|256:164|256:164|336:200,1,160.000001192092
256,320,28752,1,0,0:0:0:0:
256,320,29052,1,0,0:0:0:0:
256,248,29352,1,0,0:0:0:0:
256,248,29652,2,0,B|256:200,2,40.000000298023
156,144,30552,5,0,0:0:0:0:
356,144,31152,1,0,0:0:0:0:
256,40,31752,1,0,0:0:0:0:
176,152,32352,2,0,B|256:192|336:148,1,160.000001192092
360,292,33552,5,0,0:0:0:0:
292,316,33852,1,0,0:0:0:0:
220,316,34152,1,0,0:0:0:0:
152,292,34452,1,0,0:0:0:0:
120,228,34752,6,0,B|108:176|108:176|76:152|16:144|-4:156,1,160.000001192092,8|4,0:0|0:0,0:0:0:0:
176,156,35952,2,0,B|188:208|188:208|220:232|280:240|300:228,1,160.000001192092,8|4,0:0|0:0,0:0:0:0:
432,232,37152,2,0,B|420:180|420:180|388:156|328:148|308:160,1,160.000001192092,8|4,0:0|0:0,0:0:0:0:
164,52,38352,5,8,0:0:0:0:
220,100,38652,1,4,0:0:0:0:
292,100,38952,5,8,0:0:0:0:
348,52,39252,1,4,0:0:0:0:
256,32,39552,5,4,0:0:0:0:
204,164,40152,6,0,B|44:164,1,160.000001192092
116,288,41352,2,0,B|192:288|192:288|220:324|212:376,1,160.000001192092
298,367,42552,6,0,B|292:324|320:288|320:288|400:288,1,160.000001192092
468,164,43752,2,0,B|292:164,1,160.000001192092
188,80,44952,5,0,0:0:0:0:
256,208,45552,1,0,0:0:0:0:
320,80,46152,1,0,0:0:0:0:
196,156,46752,1,0,0:0:0:0:
316,156,47352,1,0,0:0:0:0:
256,48,47952,1,0,0:0:0:0:
256,48,48552,5,0,0:0:0:0:
256,48,48852,2,0,B|256:144,1,80.000000596046
316,260,49752,6,0,B|360:240|360:240|384:208|376:152|332:144,1,160.000001192092
256,192,50952,1,0,0:0:0:0:
196,260,51552,2,0,B|152:240|152:240|128:208|136:152|180:144,1,160.000001192092
272,68,52752,6,0,B|344:64|368:132|336:180,1,160.000001192092
240,316,53952,2,0,B|168:320|144:252|176:204,1,160.000001192092
316,200,55152,1,0,0:0:0:0:
416,96,55752,1,0,0:0:0:0:
316,200,56352,5,0,0:0:0:0:
284,60,56952,1,0,0:0:0:0:
316,200,57552,1,0,0:0:0:0:
256,332,58152,6,0,B|256:248,1,80.000000596046
256,160,58752,5,0,0:0:0:0:
208,92,59052,1,0,0:0:0:0:
160,160,59352,2,0,B|192:224|192:224|180:272|140:312|96:300,1,207.999992028236
76,204,60552,2,0,B|44:140|44:140|56:92|96:52|140:64,1,207.999992028236
208,224,61752,6,0,B|256:240|256:240|312:220,1,103.999996014118
256,156,62352,2,0,B|256:76,2,77.9999970105883,8|8|8,0:0|0:0|0:0,0:0:0:0:
256,156,62952,1,0,0:0:0:0:
256,156,63252,1,0,0:0:0:0:
256,240,63552,6,0,B|296:296|296:296|364:280|444:296,1,207.999992028236
384,192,64752,2,0,B|344:136|344:136|276:152|196:136,1,207.999992028236
132,276,65952,2,0,B|72:248|64:192,1,103.999996014118
68,116,66552,2,0,B|128:128|144:196,1,103.999996014118
200,124,67152,5,0,0:0:0:0:
200,124,67452,1,0,0:0:0:0:
256,64,67752,2,0,B|256:188,1,103.999996014118
268,260,68352,5,0,0:0:0:0:
352,224,68952,2,0,B|320:160|320:160|332:112|372:72|416:84,1,207.999992028236
436,180,70152,2,0,B|468:244|468:244|456:292|416:332|372:320,1,207.999992028236
304,160,71352,6,0,B|256:144|256:144|200:164,1,103.999996014118
256,228,71952,2,0,B|256:308,2,77.9999970105883,8|8|8,0:0|0:0|0:0,0:0:0:0:
256,228,72552,1,0,0:0:0:0:
256,228,72852,1,0,0:0:0:0:
256,144,73152,6,0,B|216:88|216:88|148:104|68:88,1,207.999992028236
48,168,74052,1,0,0:0:0:0:
128,192,74352,2,0,B|168:248|168:248|236:232|316:248,1,207.999992028236
380,108,75552,2,0,B|440:136|448:192,1,103.999996014118
444,268,76152,2,0,B|384:256|368:188,1,103.999996014118
312,260,76752,5,0,0:0:0:0:
312,260,77052,1,0,0:0:0:0:
256,320,77352,2,0,B|256:192,1,120.000005471706,0|4,0:0|0:0,0:0:0:0:
256,192,85152,12,0,86352,0:0:0:0:
256,192,86652,5,0,0:0:0:0:
188,228,86952,1,0,0:0:0:0:
120,192,87252,1,0,0:0:0:0:
64,48,87552,6,0,B|120:124|204:124,1,160.000001192092
448,48,88752,2,0,B|392:124|308:124,1,160.000001192092
256,52,89952,5,0,0:0:0:0:
256,196,90552,1,0,0:0:0:0:
212,332,91152,6,0,B|188:296|184:252,1,80.000000596046
164,208,91752,2,0,B|136:240|92:244,1,80.000000596046
100,172,92352,6,0,B|124:96|232:92,1,160.000001192092
412,172,93552,2,0,B|388:96|280:92,1,160.000001192092
328,188,94752,2,0,B|256:220|256:220|176:184,1,160.000001192092
256,64,95952,5,0,0:0:0:0:
256,64,96252,1,0,0:0:0:0:
256,136,96552,1,0,0:0:0:0:
256,136,96852,2,0,B|256:184,2,40.000000298023
356,240,97752,5,0,0:0:0:0:
156,240,98352,1,0,0:0:0:0:
256,344,98952,1,0,0:0:0:0:
336,232,99552,2,0,B|256:192|176:236,1,160.000001192092
152,92,100752,5,0,0:0:0:0:
220,68,101052,1,0,0:0:0:0:
292,68,101352,1,0,0:0:0:0:
360,92,101652,1,0,0:0:0:0:
392,156,101952,6,0,B|404:208|404:208|436:232|496:240|516:228,1,160.000001192092,8|4,0:0|0:0,0:0:0:0:
336,228,103152,2,0,B|324:176|324:176|292:152|232:144|212:156,1,160.000001192092,8|4,0:0|0:0,0:0:0:0:
140,152,104352,2,0,B|152:204|152:204|184:228|244:236|264:224,1,160.000001192092,8|4,0:0|0:0,0:0:0:0:
348,332,105552,5,8,0:0:0:0:
292,284,105852,1,4,0:0:0:0:
220,284,106152,5,8,0:0:0:0:
164,332,106452,1,4,0:0:0:0:
256,352,106752,5,4,0:0:0:0:
116,220,107952,6,0,B|56:176|56:108,1,120.000005471706,0|4,0:0|0:0,0:0:0:0:
108,40,109152,2,0,B|172:112,1,90.0000041037794,0|0,0:0|0:0,0:0:0:0:
216,160,110052,1,8,0:0:0:0:
248,196,110352,6,0,B|308:152|308:84,1,120.000005471706,0|4,0:0|0:0,0:0:0:0:
380,32,111552,2,0,B|380:128,1,90.0000041037794
352,188,112452,1,8,0:0:0:0:
316,252,112752,6,0,B|256:268|256:268|192:248,1,120.000005471706,0|4,0:0|0:0,0:0:0:0:
128,188,113952,2,0,B|96:276,1,90.0000041037794
144,328,114852,1,8,0:0:0:0:
212,352,115152,6,0,B|284:352,1,60.000002735853,4|4,0:0|0:0,0:0:0:0:
296,292,115752,2,0,B|376:292,1,80.000000596046
416,240,116352,1,4,0:0:0:0:
76,244,125952,6,0,B|108:304|180:304,1,120.000005471706
436,244,127152,2,0,B|404:304|332:304,1,120.000005471706
256,232,128352,2,0,B|256:112,1,120.000005471706
148,112,129552,6,0,B|88:136,1,60.000002735853
56,224,130152,2,0,B|116:224,1,60.000002735853
256,192,130752,5,0,0:0:0:0:
256,192,131052,1,4,0:0:0:0:
256,328,131802,6,0,B|256:264,1,60.000002735853
256,268,132252,1,4,0:0:0:0:
256,84,134352,5,0,0:0:0:0:
256,84,134652,1,0,0:0:0:0:
256,84,134952,2,0,B|256:156,1,60.000002735853
256,224,135552,5,0,0:0:0:0:
304,292,135852,1,0,0:0:0:0:
352,224,136152,2,0,B|320:160|320:160|332:112|372:72|416:84,1,207.999992028236
436,180,137352,2,0,B|468:244|468:244|456:292|416:332|372:320,1,207.999992028236
304,160,138552,6,0,B|256:144|256:144|200:164,1,103.999996014118
256,228,139152,2,0,B|256:308,2,77.9999970105883,8|8|8,0:0|0:0|0:0,0:0:0:0:
256,228,139752,1,0,0:0:0:0:
256,228,140052,1,0,0:0:0:0:
256,144,140352,6,0,B|216:88|216:88|148:104|68:88,1,207.999992028236
128,192,141552,2,0,B|168:248|168:248|236:232|316:248,1,207.999992028236
380,108,142752,2,0,B|440:136|448:192,1,103.999996014118
444,268,143352,2,0,B|384:256|368:188,1,103.999996014118
312,260,143952,5,0,0:0:0:0:
312,260,144252,1,0,0:0:0:0:
256,320,144552,2,0,B|256:196,1,103.999996014118
244,124,145152,1,0,0:0:0:0:
160,160,145752,6,0,B|192:224|192:224|180:272|140:312|96:300,1,207.999992028236
76,204,146952,2,0,B|44:140|44:140|56:92|96:52|140:64,1,207.999992028236
208,224,148152,6,0,B|256:240|256:240|312:220,1,103.999996014118
256,156,148752,2,0,B|256:76,2,77.9999970105883,8|8|8,0:0|0:0|0:0,0:0:0:0:
256,156,149352,1,0,0:0:0:0:
256,156,149652,1,0,0:0:0:0:
256,240,149952,6,0,B|296:296|296:296|364:280|444:296,1,207.999992028236
464,216,150852,1,0,0:0:0:0:
384,192,151152,2,0,B|344:136|344:136|276:152|196:136,1,207.999992028236
128,188,152052,1,0,0:0:0:0:
44,288,152352,6,0,B|112:288,2,51.9999980070589,0|0|4,0:0|0:0|0:0,0:0:0:0:
144,344,152802,5,0,0:0:0:0:
144,344,152952,1,0,0:0:0:0:
144,344,153102,1,4,0:0:0:0:
248,288,153252,6,0,B|180:288,1,51.9999980070589
148,236,153552,6,2,B|148:152,1,80.000000596046,4|4,0:0|0:0,0:0:0:0:
