osu file format v14

[General]
AudioFilename: The Quick Brown Fox - Gotsta Terrify.mp3
AudioLeadIn: 0
PreviewTime: 58677
Countdown: 0
SampleSet: None
StackLeniency: 0.7
Mode: 0
LetterboxInBreaks: 1
EpilepsyWarning: 1
WidescreenStoryboard: 0

[Editor]
DistanceSpacing: 1
BeatDivisor: 4
GridSize: 8
TimelineZoom: 1

[Metadata]
Title:Gotsta Terrify
TitleUnicode:
Artist:The Quick Brown Fox
ArtistUnicode:
Creator:Smoothie
Version:Raving
Source:
Tags:Speedkore 4 Kidz Hardcore Gabber Speedcore Splittercore Lapfox Renard [Luanny PhNyx] Foreverends
BeatmapID:1483398
BeatmapSetID:50019

[Difficulty]
HPDrainRate:5
CircleSize:4
OverallDifficulty:6
ApproachRate:9
SliderMultiplier:1.4
SliderTickRate:1

[Events]
//Background and Video events
0,0,"bg.jpg",0,0
//Break Periods
2,116551,125352
//Storyboard Layer 0 (Background)
//Storyboard Layer 1 (Fail)
//Storyboard Layer 2 (Pass)
//Storyboard Layer 3 (Foreground)
Sprite,Foreground,Centre,"Warning!!.png",320,240 S,0,57402,,0.8015999 F,0,57402,57664,0,1 F,0,57664,57889,1,0 F,0,57889,58152,0,1 F,0,58152,58377,1,0 F,0,58377,58602,0,1 F,0,58602,58789,1,0
Sprite,Foreground,Centre,"Warning!!.png",320,240 S,0,134427,,0.8016 F,0,134427,134614,0,1 F,0,134614,134802,1,0 F,0,134802,134989,0,1 F,0,134989,135177,1,0 F,0,135177,135364,0,1 F,0,135364,135552,1,0
Sprite,Foreground,Centre,"Black Fade.png",320,240 S,0,57402,,0.8016001 F,0,57402,58827,0,0.07116105 M,0,57402,78177,320,240 F,0,58827,59052,0.07116105,1 F,0,59052,77427,1 F,0,77427,77952,1 F,0,77952,78177,1,0
Sprite,Foreground,Centre,"Blah....jpg",320,240 M,0,77952,,320,240 S,0,77952,78027,0.5008,0.5278221 F,0,77952,78252,0,0.2896001 S,0,78027,78627,0.5278221,0.5711998 V,0,78027,78627,1.0128,1.3392,1.0704,1.48 F,0,78252,78702,0.2896001,0
Sprite,Foreground,Centre,"Black Fade.png",320,240 F,0,135477,135777,0,1 M,0,135927,154152,320,240
Sprite,Foreground,Centre,"Blah....jpg",320,240 M,0,154227,,320,240 F,0,154227,,1 S,0,154227,154302,0.5072,0.6288 S,0,154302,,0.6288 S,0,154302,154377,0.6288,0.5690666 S,0,154377,,0.5690666 V,0,154377,,0.9359999,0.9616002
//Storyboard Sound Samples

[TimingPoints]
10752,300,4,2,1,60,1,0
10752,-80,4,2,1,60,0,0
15777,-80,4,1,1,60,0,0
20352,-100,4,1,1,80,0,1
29277,-100,4,2,1,80,0,1
30102,-100,4,1,1,80,0,1
39552,-100,4,1,1,60,0,0
41652,-100,4,2,1,60,0,0
41952,-100,4,1,1,60,0,0
43152,-100,4,2,1,60,0,0
43602,-100,4,1,1,60,0,0
43902,-100,4,2,1,60,0,0
44352,-100,4,1,1,60,0,0
46452,-100,4,2,1,60,0,0
46902,-100,4,1,1,60,0,0
47952,-100,4,2,1,60,0,0
49152,-100,4,1,1,60,0,0
51252,-100,4,2,1,60,0,0
51552,-100,4,1,1,60,0,0
52752,-100,4,2,1,60,0,0
53202,-100,4,1,1,60,0,0
53502,-100,4,2,1,60,0,0
53952,-100,4,1,1,60,0,0
56052,-100,4,2,1,60,0,0
56352,-100,4,1,1,60,0,0
57552,-100,4,2,1,60,0,0
58752,-76.9230769230769,4,1,1,80,0,1
67752,-76.9230769230769,4,1,1,80,0,1
77352,-76.9230769230769,4,2,1,80,0,1
77952,-76.9230769230769,4,2,1,60,0,0
77952,-76.9230769230769,4,1,1,60,0,0
87552,-100,4,1,1,80,0,1
97302,-100,4,1,1,80,0,1
101952,-100,4,2,1,80,0,1
102102,-100,4,1,1,80,0,1
103152,-100,4,2,1,80,0,1
103302,-100,4,1,1,80,0,1
104352,-100,4,2,1,80,0,1
107052,-133.333333333333,4,2,1,60,0,0
115752,-100,4,1,1,60,0,0
116352,-100,4,1,1,60,0,0
125952,-80,4,1,1,60,0,0
130752,-80,4,2,1,60,0,0
134202,-80,4,1,1,60,0,0
135552,-76.9230769230769,4,1,1,80,0,1
152202,-76.9230769230769,4,2,1,80,0,1
153552,-200,4,2,1,80,0,1
154152,-200,4,1,1,60,0,0

[Colours]
Combo1 : 255,255,255
Combo2 : 255,185,185
Combo3 : 255,255,191
Combo4 : 198,198,255
Combo5 : 128,128,128
Combo6 : 217,255,217

[HitObjects]
184,192,10752,6,0,B|184:136|240:120,1,87.4999986961484
328,192,11052,2,0,B|328:248|272:264,1,87.4999986961484
192,264,11352,2,0,B|136:264|104:304,1,87.4999986961484
184,344,11652,2,0,B|272:344|320:248,1,174.999997392297
319,249,12027,2,0,B|384:248,2,43.7499993480742
319,249,12252,2,0,B|280:200|320:160,1,87.4999986961484
400,160,12552,2,0,B|408:112|368:64,1,87.4999986961484
304,128,12852,6,0,B|232:176|128:128,1,174.999997392297
112,216,13302,2,0,B|160:232|168:288,1,87.4999986961484
256,272,13602,1,0,0:0:0:0:
256,272,13752,1,0,0:0:0:0:
256,272,13902,1,0,0:0:0:0:
320,192,14052,2,0,B|392:264|328:352,1,174.999997392297
329,349,14427,2,0,B|256:352,3,43.7499993480742
200,344,14802,2,0,B|96:304,1,87.4999986961484
200,240,15102,1,0,0:0:0:0:
296,176,15252,2,0,B|120:96,1,174.999997392297
200,240,15852,1,0,0:0:0:0:
280,304,16602,2,0,B|424:208,1,174.999997392297
425,206,17052,1,0,0:0:0:0:
256,200,19152,6,0,B|256:144,7,43.7499993480742
256,156,19752,2,0,B|256:128,9,29.1666662320495
368,216,20352,6,0,B|424:280,1,70
304,272,20652,2,0,B|256:216,1,70
152,224,20952,2,0,B|200:280,1,70
88,280,21252,2,0,B|40:216,1,70
96,136,21552,1,0,0:0:0:0:
96,136,21702,1,0,0:0:0:0:
160,88,21852,1,0,0:0:0:0:
160,88,22002,1,0,0:0:0:0:
224,136,22152,1,0,0:0:0:0:
224,136,22302,1,0,0:0:0:0:
304,144,22452,2,0,B|328:184,4,35
304,64,22902,6,0,B|272:80|232:64,1,70
192,144,23202,2,0,B|152:136|120:144,1,70
96,216,23502,1,0,0:0:0:0:
136,280,23652,2,0,B|208:256|248:192,1,140
245,196,24027,2,0,B|296:232,3,35
328,160,24402,2,0,B|376:160|384:208,1,70
360,272,24702,1,0,0:0:0:0:
312,336,24852,2,0,B|240:288|160:344,1,140
120,272,25302,5,0,0:0:0:0:
56,216,25452,2,0,B|88:184|128:192,1,70
192,224,25752,2,0,B|192:280|224:312,1,70
280,248,26052,2,0,B|304:168|224:104,1,140
242,120,26427,2,0,B|192:144,3,35
136,176,26802,1,0,0:0:0:0:
96,248,26952,2,0,B|56:232|56:184,1,70
56,112,27252,2,0,B|136:80|208:112,1,140
200,192,27702,6,0,B|232:208|272:192,1,70
224,120,28002,2,0,B|184:112|136:128,1,70
200,192,28302,1,0,0:0:0:0:
136,256,28452,2,0,B|208:304|288:240,1,140
267,254,28827,2,0,B|312:288,3,35
352,208,29202,1,0,0:0:0:0:
424,160,29352,2,0,B|400:120|352:128,1,70
288,96,29652,2,0,B|280:112,8,17.5
200,96,30102,6,0,B|120:96,1,70
128,176,30402,2,0,B|40:176,1,70
128,264,30702,1,0,0:0:0:0:
192,320,30852,2,0,B|264:264|264:368|320:320,1,140
316,322,31227,2,0,B|368:320,3,35
384,240,31602,2,0,B|416:264|432:296,1,70
429,292,31902,1,0,0:0:0:0:
344,280,32052,2,0,B|344:200|448:200,1,140
440,112,32502,6,0,B|408:128|368:112,1,70
304,160,32802,2,0,B|272:192|288:224,1,70
368,208,33102,1,0,0:0:0:0:
464,216,33252,2,0,B|464:296|368:304,1,140
374,303,33627,2,0,B|352:352,3,35
272,328,34002,1,0,0:0:0:0:
232,256,34152,2,0,B|176:280|192:312,1,70
104,304,34452,2,0,B|40:256|56:176,1,140
120,128,34902,5,0,0:0:0:0:
152,208,35052,2,0,B|208:152,1,70
288,160,35352,2,0,B|344:208,1,70
312,288,35652,2,0,B|248:248|176:288,1,140
179,286,36027,2,0,B|136:264,3,35
80,216,36402,1,0,0:0:0:0:
64,136,36552,2,0,B|136:160,1,70
168,88,36852,2,0,B|224:152|200:224,1,140
256,288,37302,6,0,B|264:248|296:224,1,70
360,272,37602,2,0,B|384:240|392:200,1,70
320,160,37902,1,0,0:0:0:0:
392,120,38052,2,0,B|336:64|256:104,1,140
263,100,38427,2,0,B|208:80,3,35
144,88,38802,1,0,0:0:0:0:
80,40,38952,2,0,B|48:80|72:112,1,70
72,192,39252,2,0,B|136:168|224:200,1,140
264,256,39702,5,0,0:0:0:0:
344,288,39852,1,0,0:0:0:0:
424,264,40002,1,0,0:0:0:0:
448,184,40152,1,0,0:0:0:0:
424,104,40302,1,0,0:0:0:0:
352,56,40452,1,0,0:0:0:0:
272,56,40602,1,0,0:0:0:0:
224,120,40752,1,0,0:0:0:0:
232,200,40902,2,0,B|288:216|328:184,1,70
352,136,41202,2,0,B|384:168|384:208,1,70
336,264,41502,1,0,0:0:0:0:
256,264,41652,2,2,B|256:312,4,35,2|2|2|2|0,0:0|0:0|0:0|0:0|0:0,0:0:0:0:
112,184,42102,5,0,0:0:0:0:
120,96,42252,2,0,B|168:104|184:136,1,70
112,184,42552,1,0,0:0:0:0:
200,192,42702,2,0,B|192:240|160:264,1,70
112,184,43002,1,0,0:0:0:0:
72,264,43152,2,2,B|72:312,4,35
160,256,43602,1,0,0:0:0:0:
224,320,43752,1,0,0:0:0:0:
288,256,43902,2,2,B|288:192,4,35
376,232,44352,5,0,0:0:0:0:
448,176,44502,2,0,B|416:144|384:144,1,70
328,72,44802,1,0,0:0:0:0:
248,112,44952,2,0,B|224:64|248:32,1,70
328,72,45252,1,0,0:0:0:0:
416,96,45402,2,0,B|400:128|360:152,1,70
280,176,45702,1,0,0:0:0:0:
192,160,45852,2,0,B|192:208|216:232,1,70
120,232,46152,2,0,B|144:288|112:312,1,70
216,320,46452,2,2,B|264:320,4,35
248,232,46902,6,0,B|320:232,1,70
280,144,47202,1,0,0:0:0:0:
368,144,47352,2,0,B|368:64,1,70
280,144,47652,2,0,B|280:224,1,70
280,304,47952,1,2,0:0:0:0:
280,304,48027,1,2,0:0:0:0:
280,304,48102,1,2,0:0:0:0:
280,304,48177,1,2,0:0:0:0:
280,304,48252,1,2,0:0:0:0:
368,304,48402,2,2,B|432:304,4,35
403,304,48852,2,0,B|432:304,8,17.5
416,216,49302,6,0,B|360:144,1,70
304,216,49602,1,0,0:0:0:0:
280,128,49752,2,0,B|216:176,1,70
304,216,50052,1,0,0:0:0:0:
224,264,50202,2,0,B|280:320,1,70
304,216,50502,1,0,0:0:0:0:
368,280,50652,2,0,B|416:224,1,70
368,152,50952,2,0,B|320:72,1,70
240,104,51252,2,2,B|192:104,4,35,2|2|2|2|0,0:0|0:0|0:0|0:0|0:0,0:0:0:0:
200,184,51702,6,0,B|128:232,1,70
64,272,52002,2,0,B|120:320,1,70
208,320,52302,2,0,B|280:320,1,70
280,232,52602,1,0,0:0:0:0:
280,144,52752,2,2,B|280:96,4,35
192,144,53202,1,0,0:0:0:0:
192,144,53352,1,0,0:0:0:0:
104,144,53502,2,2,B|104:200,4,35
64,64,53952,6,0,B|112:48|144:72,1,70
152,152,54252,2,0,B|184:168|232:152,1,70
312,184,54552,2,0,B|336:160|336:120,1,70
264,64,54852,2,0,B|288:40|336:32,1,70
336,128,55152,2,0,B|376:144|368:192,1,70
280,200,55452,2,0,B|272:240|312:272,1,70
392,272,55752,2,0,B|384:312|352:344,1,70
272,336,56052,2,2,B|216:336,4,35,2|2|2|2|0,0:0|0:0|0:0|0:0|0:0,0:0:0:0:
248,248,56502,6,0,B|160:248,1,70
88,272,56802,2,0,B|80:232|96:192,1,70
144,128,57102,2,0,B|144:168|184:192,1,70
240,120,57402,1,0,0:0:0:0:
312,184,57552,2,2,B|344:136,4,35
400,184,58002,1,0,0:0:0:0:
464,256,58152,2,4,B|392:296|320:248,1,140
96,272,58752,6,0,B|152:208|152:136,1,136.49999755919
151,149,59052,2,0,B|208:184|248:168,1,90.9999983727932
237,171,59352,2,0,B|296:144|352:152,1,90.9999983727932
325,150,59652,2,0,B|368:208|400:216,1,90.9999983727932
336,320,59952,2,0,B|312:256|232:224,1,136.49999755919
240,227,60252,2,0,B|200:264|144:240,1,90.9999983727932
155,244,60552,2,0,B|112:200|72:192,1,90.9999983727932
81,194,60852,2,0,B|136:152|144:120,1,90.9999983727932
232,56,61152,6,0,B|304:112,1,90.9999983727932,0|0,0:0|0:0,0:0:0:0:
256,144,61377,2,0,B|336:208,1,90.9999983727932
280,232,61602,1,0,0:0:0:0:
320,312,61752,1,0,0:0:0:0:
232,328,61902,2,0,B|200:288|136:280,2,90.9999983727932
352,312,62352,1,8,0:0:0:0:
416,232,62502,2,0,B|432:176,1,45.4999991863966,0|8,0:0|0:0,0:0:0:0:
428,188,62727,2,0,B|400:120,1,45.4999991863966,0|8,0:0|0:0,0:0:0:0:
352,72,62952,2,0,B|312:104|264:96,1,90.9999983727932
176,96,63252,2,0,B|176:152,4,45.4999991863966
88,128,63702,6,0,B|112:168|80:216,1,90.9999983727932
168,232,64002,2,0,B|136:288|160:336,1,90.9999983727932
240,296,64302,1,0,0:0:0:0:
304,232,64452,1,0,0:0:0:0:
392,216,64602,2,0,B|360:160|320:144,1,90.9999983727932
232,192,64902,5,0,0:0:0:0:
232,192,64977,1,0,0:0:0:0:
168,104,65127,1,0,0:0:0:0:
168,104,65202,1,0,0:0:0:0:
72,176,65352,2,0,B|136:168|152:232,1,90.9999983727932
72,264,65652,1,0,0:0:0:0:
136,328,65802,1,0,0:0:0:0:
224,328,65952,2,0,B|272:288|304:288,1,90.9999983727932
303,287,66177,2,0,B|368:272|400:216,1,90.9999983727932
400,200,66402,1,0,0:0:0:0:
400,152,66552,1,0,0:0:0:0:
384,72,66702,6,0,B|336:96|272:72,1,90.9999983727932
264,152,67002,1,0,0:0:0:0:
192,112,67152,2,0,B|160:152|192:208,1,90.9999983727932,8|0,0:0|0:0,0:0:0:0:
208,232,67377,2,0,B|232:272|200:328,1,90.9999983727932,8|0,0:0|0:0,0:0:0:0:
168,320,67602,1,8,0:0:0:0:
80,278,67752,2,0,B|80:232,3,45.4999991863966
80,233,68052,2,0,B|96:184,3,45.4999991863966
120,144,68352,6,0,B|160:80|224:48,1,136.49999755919
248,96,68652,2,0,B|224:144|256:184,1,90.9999983727932
360,208,68952,2,0,B|360:272|312:288,1,90.9999983727932
208,288,69252,2,0,B|152:296|128:240,1,90.9999983727932
96,80,69552,2,0,B|160:72|192:104,1,90.9999983727932
200,136,69777,2,0,B|216:200|256:208,1,90.9999983727932
280,176,70002,2,0,B|312:136|360:128,1,90.9999983727932
424,192,70302,2,0,B|384:232|392:272,1,90.9999983727932
328,336,70602,1,0,0:0:0:0:
240,336,70752,6,0,B|160:280,1,90.9999983727932
200,248,70977,2,0,B|120:184,1,90.9999983727932
96,160,71202,1,0,0:0:0:0:
160,72,71352,1,0,0:0:0:0:
280,56,71502,2,0,B|312:96|376:104,2,90.9999983727932
160,72,71952,1,8,0:0:0:0:
64,120,72102,1,0,0:0:0:0:
64,120,72177,1,8,0:0:0:0:
80,224,72327,1,0,0:0:0:0:
80,224,72402,1,8,0:0:0:0:
160,312,72552,2,0,B|200:280|248:288,1,90.9999983727932
336,288,72852,2,0,B|336:232,4,45.4999991863966
424,256,73302,6,0,B|400:216|432:168,1,90.9999983727932
344,152,73602,2,0,B|376:96|352:48,1,90.9999983727932
272,88,73902,1,0,0:0:0:0:
208,152,74052,1,0,0:0:0:0:
120,168,74202,2,0,B|152:224|192:240,1,90.9999983727932
272,208,74502,6,0,B|312:256,1,45.4999991863966
302,243,74727,2,0,B|344:280,1,45.4999991863966
440,208,74952,2,0,B|376:216|360:152,1,90.9999983727932
440,120,75252,1,0,0:0:0:0:
376,56,75402,1,0,0:0:0:0:
288,56,75552,2,0,B|240:96|208:96,1,90.9999983727932
209,97,75777,2,0,B|144:112|112:168,1,90.9999983727932
131,141,76002,1,0,0:0:0:0:
64,224,76152,1,0,0:0:0:0:
128,312,76302,6,0,B|176:288|240:312,1,90.9999983727932
248,232,76602,1,0,0:0:0:0:
320,272,76752,2,0,B|352:232|320:176,1,90.9999983727932,8|0,0:0|0:0,0:0:0:0:
304,152,76977,2,0,B|280:112|312:56,1,90.9999983727932,8|0,0:0|0:0,0:0:0:0:
307,65,77202,1,8,0:0:0:0:
424,104,77352,2,0,B|424:136,13,22.7499995931983
360,96,77952,6,0,B|320:128|264:112,1,90.9999983727932
224,64,78252,2,0,B|176:48|136:72,1,90.9999983727932
112,144,78552,2,0,B|136:192|104:232,1,90.9999983727932
144,296,78852,2,0,B|208:232|312:208,1,181.999996745586
302,210,79227,2,0,B|344:256,3,45.4999991863966
408,232,79602,1,0,0:0:0:0:
456,168,79752,2,0,B|400:144|360:168,1,90.9999983727932
304,224,80052,6,0,B|296:320|176:352,1,181.999996745586
128,264,80502,2,0,B|176:280|184:352,1,90.9999983727932
96,344,80802,1,0,0:0:0:0:
96,344,80952,1,0,0:0:0:0:
96,344,81102,1,0,0:0:0:0:
56,272,81252,2,0,B|136:224|232:280,1,181.999996745586
228,278,81627,2,0,B|272:248,3,45.4999991863966
328,312,82002,2,0,B|400:240,1,90.9999983727932
368,168,82302,1,0,0:0:0:0:
464,136,82452,6,0,B|408:56|288:88,1,181.999996745586
200,240,83052,1,0,0:0:0:0:
208,136,83802,2,0,B|320:176|344:272,1,181.999996745586
264,288,84252,1,0,0:0:0:0:
256,192,84402,12,0,85152,0:0:0:0:
256,200,85752,5,0,0:0:0:0:
256,200,86352,2,0,B|256:144,7,43.7499993480742
256,156,86952,2,0,B|256:128,4,29.1666662320495
256,126,87252,2,0,B|256:88,4,22.7499995931983
256,104,87552,6,0,B|336:72,1,70
424,112,87852,2,0,B|352:144,1,70
304,240,88152,2,0,B|384:208,1,70
464,256,88452,2,0,B|400:288,1,70
320,312,88752,1,0,0:0:0:0:
256,264,88902,1,0,0:0:0:0:
192,312,89052,1,0,0:0:0:0:
160,232,89202,2,0,B|120:232|88:256,2,70
160,232,89652,2,0,B|184:200,4,35
80,208,90102,6,0,B|48:184|64:144,1,70
112,80,90402,2,0,B|128:128|176:128,1,70
216,64,90702,1,0,0:0:0:0:
256,136,90852,2,0,B|320:96|416:88,1,140
387,91,91227,2,0,B|432:120,3,35
360,176,91602,2,0,B|424:224,1,70
360,272,91902,1,0,0:0:0:0:
312,336,92052,2,0,B|240:288|160:344,1,140
120,272,92502,5,0,0:0:0:0:
56,216,92652,2,0,B|88:184|128:192,1,70
192,224,92952,2,0,B|192:280|224:312,1,70
280,248,93252,2,0,B|304:168|224:104,1,140
242,120,93627,2,0,B|192:144,3,35
136,176,94002,1,0,0:0:0:0:
96,248,94152,2,0,B|56:232|56:184,1,70
56,112,94452,2,0,B|136:80|208:112,1,140
200,192,94902,6,0,B|232:208|272:192,1,70
248,112,95202,2,0,B|296:96|328:112,1,70
352,184,95502,1,0,0:0:0:0:
416,128,95652,2,0,B|448:192|400:264,1,140
402,260,96027,2,0,B|432:296,3,35
352,328,96402,1,0,0:0:0:0:
272,336,96552,2,0,B|256:288|296:272,1,70
240,208,96852,2,0,B|256:192,8,17.5
200,136,97302,6,0,B|240:80,1,70
312,128,97602,2,0,B|392:128,1,70
400,208,97902,1,0,0:0:0:0:
464,264,98052,2,0,B|400:304|328:264,1,140
331,265,98427,2,0,B|304:288,3,35
224,304,98802,2,0,B|264:336|312:328,1,70
288,248,99102,1,0,0:0:0:0:
224,192,99252,2,0,B|288:136|368:152,1,140
416,96,99702,6,0,B|368:96|336:72,1,70
280,120,100002,2,0,B|272:168|224:176,1,70
176,224,100302,1,0,0:0:0:0:
160,304,100452,2,0,B|80:264|104:192,1,140
104,191,100827,2,0,B|80:160,3,35
144,104,101202,1,0,0:0:0:0:
208,48,101352,2,0,B|208:88|256:112,1,70
288,176,101652,2,0,B|368:144|368:64,1,140
448,96,102102,5,0,0:0:0:0:
432,176,102252,2,0,B|416:256,1,70
344,216,102552,2,0,B|280:248,1,70
264,168,102852,2,0,B|200:208|200:288,1,140
200,285,103227,2,0,B|160:312,3,35
96,256,103602,1,0,0:0:0:0:
48,184,103752,2,0,B|80:168|128:176,1,70
168,88,104052,2,0,B|224:152|200:224,1,140
256,288,104502,6,0,B|264:248|296:224,1,70
360,272,104802,2,0,B|384:240|392:200,1,70
320,160,105102,1,0,0:0:0:0:
392,120,105252,2,0,B|336:64|256:104,1,140
263,100,105627,2,0,B|208:80,3,35
144,88,106002,1,0,0:0:0:0:
80,40,106152,2,0,B|48:80|72:112,1,70
96,184,106452,2,0,B|192:160|256:176,1,140
256,296,107052,5,0,0:0:0:0:
200,224,107202,2,0,B|304:224,1,104.999996870756
376,160,107652,2,0,B|272:160,1,104.999996870756
80,160,108252,2,0,B|152:160,2,52.4999984353781
272,160,108852,2,0,B|216:160,2,52.4999984353781
120,272,109452,1,0,0:0:0:0:
152,184,109602,2,0,B|208:224|208:272,1,104.999996870756
304,272,110052,2,0,B|304:216|360:184,1,104.999996870756
352,96,110652,6,0,B|352:40,2,52.4999984353781
160,96,111252,2,0,B|160:40,2,52.4999984353781
160,288,111852,2,0,B|224:288,1,52.4999984353781
352,192,112302,2,0,B|288:192,1,52.4999984353781
112,168,112752,2,0,B|136:104|192:88,1,104.999996870756
216,184,113202,1,0,0:0:0:0:
288,120,113352,2,0,B|320:168|304:232,1,104.999996870756
216,240,113802,5,0,0:0:0:0:
136,312,113952,2,0,B|104:256|112:208,1,104.999996870756
136,120,114402,2,0,B|160:168|224:200,1,104.999996870756
248,104,114852,1,0,0:0:0:0:
312,40,115152,2,0,B|352:80|352:136,1,104.999996870756
272,184,115602,1,0,0:0:0:0:
232,280,115752,2,0,B|152:280|80:240,2,140
228,123,125952,6,0,B|208:176|160:184,1,87.4999986961484
288,120,126252,2,0,B|304:176|352:184,1,87.4999986961484
168,224,126552,2,0,B|224:240|232:288,1,87.4999986961484
319,249,126852,2,0,B|304:160|408:104,1,174.999997392297
400,108,127227,2,0,B|376:72,2,43.7499993480742
375,71,127452,2,0,B|328:96|288:88,1,87.4999986961484
160,64,127752,2,0,B|224:56|256:88,1,87.4999986961484
248,168,128052,6,0,B|160:200|72:136,1,174.999997392297
72,232,128502,2,0,B|72:280|136:320,1,87.4999986961484
176,240,128802,1,0,0:0:0:0:
256,208,128952,1,0,0:0:0:0:
264,296,129102,1,0,0:0:0:0:
352,280,129252,2,0,B|456:240|456:152,1,174.999997392297
455,153,129627,2,0,B|424:112,3,43.7499993480742
400,40,130002,6,0,B|352:64|344:112,1,87.4999986961484
264,72,130302,1,0,0:0:0:0:
176,64,130452,2,0,B|176:160|296:168,1,174.999997392297
296,280,131052,1,0,0:0:0:0:
416,272,131802,2,0,B|368:192|248:168,1,174.999997392297
272,88,132252,1,0,0:0:0:0:
256,200,134352,6,0,B|256:144,7,43.7499993480742
256,156,134952,2,0,B|256:128,5,29.1666662320495
256,126,135252,2,0,B|256:96,4,21.8749996740371
96,112,135552,6,0,B|152:176|152:248,1,136.49999755919
151,235,135852,2,0,B|208:200|248:216,1,90.9999983727932
237,213,136152,2,0,B|296:240|352:232,1,90.9999983727932
325,234,136452,2,0,B|368:176|400:168,1,90.9999983727932
336,64,136752,2,0,B|312:128|232:160,1,136.49999755919
240,157,137052,2,0,B|200:120|144:144,1,90.9999983727932
155,140,137352,2,0,B|112:184|72:192,1,90.9999983727932
81,190,137652,2,0,B|136:232|144:264,1,90.9999983727932
232,328,137952,2,0,B|304:272,1,90.9999983727932
256,240,138177,2,0,B|336:176,1,90.9999983727932
280,152,138402,1,0,0:0:0:0:
320,72,138552,1,0,0:0:0:0:
232,56,138702,6,0,B|200:96|136:104,2,90.9999983727932
352,72,139152,1,8,0:0:0:0:
416,152,139302,2,0,B|432:208,1,45.4999991863966,0|8,0:0|0:0,0:0:0:0:
428,196,139527,2,0,B|400:264,1,45.4999991863966,0|8,0:0|0:0,0:0:0:0:
352,312,139752,2,0,B|312:280|264:288,1,90.9999983727932
176,288,140052,2,0,B|176:232,4,45.4999991863966
88,256,140502,2,0,B|112:216|80:168,1,90.9999983727932
168,152,140802,2,0,B|136:96|160:48,1,90.9999983727932
240,88,141102,1,0,0:0:0:0:
304,152,141252,1,0,0:0:0:0:
392,168,141402,2,0,B|360:224|320:240,1,90.9999983727932
232,192,141702,5,0,0:0:0:0:
232,192,141777,1,0,0:0:0:0:
168,280,141927,1,0,0:0:0:0:
168,280,142002,1,0,0:0:0:0:
72,208,142152,2,0,B|136:216|152:152,1,90.9999983727932
72,120,142452,1,0,0:0:0:0:
136,56,142602,1,0,0:0:0:0:
224,56,142752,2,0,B|272:96|304:96,1,90.9999983727932
303,97,142977,2,0,B|368:112|400:168,1,90.9999983727932
400,184,143202,1,0,0:0:0:0:
400,232,143352,1,0,0:0:0:0:
384,312,143502,6,0,B|336:288|272:312,1,90.9999983727932
264,232,143802,1,0,0:0:0:0:
192,272,143952,2,0,B|160:232|192:176,1,90.9999983727932,8|0,0:0|0:0,0:0:0:0:
208,152,144177,2,0,B|232:112|200:56,1,90.9999983727932,8|0,0:0|0:0,0:0:0:0:
168,64,144402,1,8,0:0:0:0:
80,106,144552,2,0,B|80:152,3,45.4999991863966
80,151,144852,2,0,B|96:200,3,45.4999991863966
120,240,145152,6,0,B|160:304|224:336,1,136.49999755919
248,288,145452,2,0,B|224:240|256:200,1,90.9999983727932
360,176,145752,2,0,B|360:112|312:96,1,90.9999983727932
208,96,146052,2,0,B|152:88|128:144,1,90.9999983727932
96,304,146352,2,0,B|160:312|192:280,1,90.9999983727932
200,248,146577,2,0,B|216:184|256:176,1,90.9999983727932
280,208,146802,2,0,B|312:248|360:256,1,90.9999983727932
424,192,147102,6,0,B|384:152|392:112,1,90.9999983727932
328,48,147402,1,0,0:0:0:0:
240,48,147552,2,0,B|160:104,1,90.9999983727932
200,136,147777,2,0,B|120:200,1,90.9999983727932
96,224,148002,1,0,0:0:0:0:
160,312,148152,1,0,0:0:0:0:
280,328,148302,6,0,B|312:288|376:280,2,90.9999983727932
160,312,148752,1,8,0:0:0:0:
64,264,148902,1,0,0:0:0:0:
64,264,148977,1,8,0:0:0:0:
80,160,149127,1,0,0:0:0:0:
80,160,149202,1,8,0:0:0:0:
160,72,149352,2,0,B|200:104|248:96,1,90.9999983727932
336,96,149652,2,0,B|336:152,4,45.4999991863966
424,128,150102,2,0,B|400:168|432:216,1,90.9999983727932
344,232,150402,2,0,B|376:288|352:336,1,90.9999983727932
272,296,150702,1,0,0:0:0:0:
208,232,150852,1,0,0:0:0:0:
120,216,151002,2,0,B|152:160|192:144,1,90.9999983727932
272,176,151302,6,0,B|312:128,1,45.4999991863966
302,141,151527,2,0,B|344:104,1,45.4999991863966
440,176,151752,2,0,B|376:168|360:232,1,90.9999983727932
440,264,152052,1,0,0:0:0:0:
224,272,152352,6,4,B|160:272,1,45.4999991863966
208,216,152502,2,4,B|144:216,1,45.4999991863966
192,160,152652,2,4,B|136:160,1,45.4999991863966
320,160,152802,6,4,B|384:160,1,45.4999991863966
304,216,152952,2,4,B|368:216,1,45.4999991863966
288,272,153102,2,4,B|344:272,1,45.4999991863966
256,232,153252,2,4,B|256:176,1,45.4999991863966
256,144,153402,2,4,B|256:72,1,45.4999991863966
184,56,153552,2,2,B|256:16|320:56,1,140,2|4,0:0|0:0,0:0:0:0:
