osu file format v14

[General]
AudioFilename: The Quick Brown Fox - Gotsta Terrify.mp3
AudioLeadIn: 0
PreviewTime: 58677
Countdown: 0
SampleSet: None
StackLeniency: 0.9
Mode: 0
LetterboxInBreaks: 1
EpilepsyWarning: 1
WidescreenStoryboard: 0

[Editor]
Bookmarks: 10752,19152,30402,39552,48852,58752,68352,77952,83802,96852,106902,116352,125952,134202,145152,152352
DistanceSpacing: 0.6
BeatDivisor: 4
GridSize: 4
TimelineZoom: 1

[Metadata]
Title:Gotsta Terrify
TitleUnicode:
Artist:The Quick Brown Fox
ArtistUnicode:
Creator:Smoothie
Version:NutZ
Source:
Tags:Speedcore 4 Kidz Hardcore Gabber Splittercore Lapfox Renard [Luanny PhNyx] Foreverends Val0108
BeatmapID:1483396
BeatmapSetID:50019

[Difficulty]
HPDrainRate:5
CircleSize:4
OverallDifficulty:7
ApproachRate:10
SliderMultiplier:1.4
SliderTickRate:2

[Events]
//Background and Video events
0,0,"bg.jpg",0,0
//Break Periods
2,17252,18702
2,116551,125502
2,132452,133902
//Storyboard Layer 0 (Background)
//Storyboard Layer 1 (Fail)
//Storyboard Layer 2 (Pass)
//Storyboard Layer 3 (Foreground)
Sprite,Foreground,Centre,"Warning!!.png",320,240 S,0,57402,,0.8015999 F,0,57402,57664,0,1 F,0,57664,57889,1,0 F,0,57889,58152,0,1 F,0,58152,58377,1,0 F,0,58377,58602,0,1 F,0,58602,58789,1,0
Sprite,Foreground,Centre,"Warning!!.png",320,240 S,0,134427,,0.8016 F,0,134427,134614,0,1 F,0,134614,134802,1,0 F,0,134802,134989,0,1 F,0,134989,135177,1,0 F,0,135177,135364,0,1 F,0,135364,135552,1,0
Sprite,Foreground,Centre,"Black Fade.png",320,240 S,0,57402,,0.8016001 F,0,57402,58827,0,0.07116105 M,0,57402,78177,320,240 F,0,58827,59052,0.07116105,1 F,0,59052,77427,1 F,0,77427,77952,1 F,0,77952,78177,1,0
Sprite,Foreground,Centre,"Blah....jpg",320,240 M,0,77952,,320,240 S,0,77952,78027,0.5008,0.5278221 F,0,77952,78252,0,0.2896001 S,0,78027,78627,0.5278221,0.5711998 V,0,78027,78627,1.0128,1.3392,1.0704,1.48 F,0,78252,78702,0.2896001,0
Sprite,Foreground,Centre,"Black Fade.png",320,240 F,0,135477,135777,0,1 M,0,135927,154152,320,240
Sprite,Foreground,Centre,"Blah....jpg",320,240 M,0,154227,,320,240 F,0,154227,,1 S,0,154227,154302,0.5072,0.6288 S,0,154302,,0.6288 S,0,154302,154377,0.6288,0.5690666 S,0,154377,,0.5690666 V,0,154377,,0.9359999,0.9616002
//Storyboard Sound Samples

[TimingPoints]
10752,300,4,2,1,60,1,0
10752,-50,4,2,1,60,0,0
11652,-66.6666666666667,4,2,1,60,0,0
11952,-50,4,2,1,60,0,0
12852,-66.6666666666667,4,2,1,60,0,0
13152,-50,4,2,1,60,0,0
15552,-50,4,1,1,60,0,0
19752,-50,4,2,1,60,0,0
20352,-50,4,1,1,60,0,1
34752,-50,4,1,1,60,0,1
36102,-50,4,1,1,60,0,1
39552,-50,4,1,1,60,0,0
41652,-50,4,2,1,60,0,0
41952,-50,4,1,1,60,0,0
43152,-50,4,2,1,60,0,0
43602,-50,4,1,1,60,0,0
43902,-50,4,2,1,60,0,0
44352,-50,4,1,1,60,0,0
46452,-50,4,2,1,60,0,0
46902,-50,4,1,1,60,0,0
47952,-50,4,2,1,60,0,0
49152,-50,4,1,1,60,0,0
51252,-50,4,2,1,60,0,0
51552,-50,4,1,1,60,0,0
52752,-50,4,2,1,60,0,0
53202,-50,4,1,1,60,0,0
53502,-50,4,2,1,60,0,0
53952,-50,4,1,1,60,0,0
56052,-50,4,2,1,60,0,0
56352,-50,4,1,1,60,0,0
57552,-50,4,2,1,60,0,0
58752,-50,4,2,1,100,0,1
58977,-50,4,1,1,80,0,1
59952,-50,4,2,1,100,0,1
60102,-50,4,1,1,80,0,1
61152,-50,4,2,1,100,0,1
61302,-50,4,1,1,80,0,1
62352,-50,4,2,1,100,0,1
62952,-50,4,1,1,80,0,1
63552,-50,4,2,1,100,0,1
63702,-50,4,1,1,80,0,1
64752,-50,4,2,1,100,0,1
64902,-50,4,1,1,80,0,1
65577,-50,4,2,1,100,0,1
66102,-50,4,1,1,80,0,1
67152,-50,4,2,1,100,0,1
68577,-50,4,1,1,80,0,1
69552,-50,4,2,1,100,0,1
69702,-50,4,1,1,80,0,1
70752,-50,4,2,1,100,0,1
70902,-50,4,1,1,80,0,1
71952,-50,4,2,1,100,0,1
72552,-50,4,1,1,80,0,1
73152,-50,4,2,1,100,0,1
73302,-50,4,1,1,80,0,1
74352,-50,4,2,1,100,0,1
74502,-50,4,1,1,80,0,1
75252,-50,4,2,1,100,0,1
75702,-50,4,1,1,80,0,1
76752,-50,4,2,1,100,0,1
77952,-50,4,2,0,60,0,0
78852,-66.6666666666667,4,2,0,60,0,0
79152,-50,4,2,0,60,0,0
80052,-66.6666666666667,4,2,0,60,0,0
80352,-50,4,2,0,60,0,0
81252,-66.6666666666667,4,2,0,60,0,0
81552,-50,4,2,0,60,0,0
82452,-66.6666666666667,4,2,1,60,0,0
82752,-66.6666666666667,4,1,1,60,0,0
86952,-50,4,2,1,60,0,0
87552,-50,4,1,1,60,0,1
90852,-66.6666666666667,4,1,1,60,0,1
91152,-50,4,1,1,60,0,1
92052,-66.6666666666667,4,1,1,60,0,1
92502,-50,4,1,1,60,0,1
93252,-66.6666666666667,4,1,1,60,0,1
93552,-50,4,1,1,60,0,1
95652,-66.6666666666667,4,1,1,60,0,1
95952,-50,4,1,1,60,0,1
97302,-50,4,1,1,60,0,1
100452,-66.6666666666667,4,1,1,60,0,1
100752,-50,4,1,1,60,0,1
107052,-66.6666666666667,4,2,1,60,0,0
115752,-50,4,1,1,60,0,0
116352,-50,4,1,1,60,0,0
125952,-50,4,2,0,60,0,0
127977,-66.6666666666667,4,2,0,60,0,0
128652,-50,4,2,0,60,0,0
129252,-66.6666666666667,4,2,0,60,0,0
129552,-50,4,2,0,60,0,0
130452,-66.6666666666667,4,2,0,60,0,0
130752,-66.6666666666667,4,1,0,60,0,0
134202,-50,4,1,1,60,0,0
135552,-50,4,2,1,100,0,1
135777,-50,4,1,1,80,0,1
136752,-50,4,2,1,100,0,1
136902,-50,4,1,1,80,0,1
137952,-50,4,2,1,100,0,1
138102,-50,4,1,1,80,0,1
139152,-50,4,2,1,80,0,1
139752,-50,4,1,1,80,0,1
140352,-50,4,2,1,100,0,1
140502,-50,4,1,1,80,0,1
141552,-50,4,2,1,100,0,1
141702,-50,4,1,1,80,0,1
142452,-50,4,2,1,100,0,1
142902,-50,4,1,1,80,0,1
143952,-50,4,2,1,100,0,1
145377,-50,4,1,1,80,0,1
146352,-50,4,2,1,100,0,1
146502,-50,4,1,1,80,0,1
147552,-50,4,2,1,100,0,1
147702,-50,4,1,1,80,0,1
148752,-50,4,2,1,100,0,1
149352,-50,4,1,1,80,0,1
149952,-50,4,2,1,100,0,1
150102,-50,4,1,1,80,0,1
151152,-50,4,2,1,100,0,1
152352,-50,4,2,1,60,0,1
153552,-100,4,1,1,60,0,1
154152,-100,4,1,1,60,0,0

[Colours]
Combo1 : 255,255,255
Combo2 : 255,185,185
Combo3 : 255,255,191
Combo4 : 198,198,255
Combo5 : 128,128,128
Combo6 : 217,255,217

[HitObjects]
288,288,10752,2,0,B|360:320|424:288,1,140
328,168,11052,2,0,B|256:144|184:168,1,140
104,280,11352,2,0,B|176:312|240:288,1,140
336,248,11652,2,0,B|408:144|328:56,1,209.999993741512
288,40,12027,5,0,0:0:0:0:
248,32,12102,1,0,0:0:0:0:
208,40,12177,1,0,0:0:0:0:
168,56,12252,2,0,B|112:112|160:184,1,140
328,120,12552,2,0,B|384:176|336:248,1,140
412,320,12852,2,0,B|280:368|232:248,1,210.000008010865
236,257,13227,5,0,0:0:0:0:
236,257,13302,1,0,0:0:0:0:
236,257,13377,1,0,0:0:0:0:
236,257,13452,2,0,B|172:256|172:256|136:288|136:336,1,140
24,332,13752,2,0,B|20:256|68:176,1,140
0,104,14052,2,0,B|80:48|152:96|220:160|144:248,1,280
196,312,14427,6,0,B|247:238,1,70
364,180,14577,2,0,B|320:248,1,70
292,340,14802,1,0,0:0:0:0:
292,340,14952,2,0,B|368:296|440:352,1,140
436,244,15252,2,4,B|496:140|400:48|288:108,1,280
364,180,15852,1,4,0:0:0:0:
76,244,16602,6,4,B|16:140|112:48|224:108,1,280
148,180,17052,1,4,0:0:0:0:
136,304,19152,6,0,B|64:304,1,70
200,192,19302,2,0,B|128:192,1,70
376,304,19452,2,0,B|448:304,1,70
312,192,19602,2,0,B|384:192,1,70
208,56,19752,6,2,B|168:56,1,35
200,96,19827,2,2,B|160:112,1,35
224,136,19902,2,2,B|200:184,1,35
256,160,19977,2,2,B|256:200,1,35
288,136,20052,2,8,B|320:176,1,35
312,96,20127,2,8,B|352:112,1,35
304,56,20202,2,8,B|344:56,1,35
128,48,20352,6,0,B|72:40|40:96|72:144,1,140
384,340,20652,2,0,B|440:348|472:292|440:248,1,140
72,136,20952,2,0,B|19:157|16:224|72:240,1,140
440,248,21252,2,0,B|492:226|496:160|440:144,1,140
72,240,21552,6,0,B|43:285|75:341|131:333,1,140
440,144,21852,2,0,B|470:100|438:44|382:52,1,140
200,320,22152,2,0,B|224:368|287:370|310:319,1,140
184,192,22452,2,0,B|112:192,1,70
328,192,22602,2,0,B|400:192,1,70
312,64,22752,6,0,B|288:16|224:13|201:64,1,140
48,128,23052,2,0,B|96:192|48:264,1,140
248,288,23352,2,0,B|208:216|264:144,1,140
376,120,23652,2,0,B|304:24|200:24|136:136,1,280
128,152,24027,5,0,0:0:0:0:
104,184,24102,1,0,0:0:0:0:
120,224,24177,1,0,0:0:0:0:
144,256,24252,2,0,B|200:272|200:336|144:360,1,140
365,358,24552,2,0,B|312:336|312:272|360:248,1,140
128,48,24852,2,0,B|168:64|168:64|192:88|192:88|248:104|264:104|320:88|320:88|344:64|344:64|384:48,1,280
384,256,25302,6,0,B|320:272|320:344|400:352,1,140
128,256,25602,2,0,B|192:272|192:344|112:352,1,140
256,192,25902,1,0,0:0:0:0:
136,120,26052,2,0,B|208:24|312:24|376:136,1,280
392,144,26427,5,0,0:0:0:0:
400,184,26502,1,0,0:0:0:0:
392,216,26577,1,0,0:0:0:0:
368,248,26652,2,0,B|312:256|312:336|368:344,1,140
144,248,26952,2,0,B|200:256|200:336|144:344,1,140
336,64,27252,2,0,B|408:64,1,70
176,64,27402,2,0,B|96:64,1,70
200,192,27552,6,0,B|224:240|296:240|312:192,1,140
453,256,27777,1,0,0:0:0:0:
453,256,27852,2,0,B|384:288|344:344,1,140
167,342,28152,2,0,B|128:288|48:240,1,140
136,72,28452,2,0,B|184:80|184:80|208:112|208:112|240:144|272:144|304:112|304:112|320:80|320:80|384:72,1,280
400,88,28827,5,0,0:0:0:0:
416,128,28902,1,0,0:0:0:0:
400,168,28977,1,0,0:0:0:0:
368,192,29052,2,0,B|320:224|320:272|376:304,1,140
400,336,29277,5,0,0:0:0:0:
368,360,29352,1,0,0:0:0:0:
328,360,29427,1,0,0:0:0:0:
288,360,29502,1,0,0:0:0:0:
248,360,29577,1,0,0:0:0:0:
208,360,29652,6,0,B|160:360,1,35
168,328,29727,2,0,B|128:328,1,35
136,288,29802,2,0,B|88:288,1,35
104,248,29877,2,0,B|48:248,1,35
64,220,29952,2,0,B|20:220,1,35
20,100,30102,6,0,B|84:144|84:144|112:128|168:120,1,140
492,100,30402,2,0,B|428:144|428:144|400:128|344:120,1,140
217,87,30702,2,0,B|192:40|136:40|136:40|96:52,1,140
294,87,31002,2,0,B|320:40|376:40|376:40|416:52,1,140
416,92,31227,5,0,0:0:0:0:
400,130,31302,1,0,0:0:0:0:
399,172,31377,1,0,0:0:0:0:
416,212,31452,2,0,B|376:224|376:224|320:224|294:176,1,140
96,212,31752,2,0,B|136:224|136:224|192:224|217:176,1,140
256,256,32052,5,0,0:0:0:0:
256,256,32127,1,0,0:0:0:0:
256,256,32202,1,0,0:0:0:0:
304,144,32352,6,0,B|336:72|336:72|400:56,1,140
208,144,32652,2,0,B|176:72|176:72|112:56,1,140
372,144,32952,2,0,B|408:144|424:172|424:228|396:252|332:232,1,140
140,240,33252,2,0,B|104:240|88:212|88:156|116:132|180:152,1,140
264,232,33552,6,0,B|332:280,1,70
312,192,33702,2,0,B|396:192,1,70
348,132,33852,2,0,B|528:76,2,140
256,164,34302,5,0,0:0:0:0:
180,80,34452,1,0,0:0:0:0:
140,88,34527,1,0,0:0:0:0:
108,116,34602,1,0,0:0:0:0:
84,152,34677,1,0,0:0:0:0:
76,192,34752,6,0,B|108:256|108:256|96:316|100:344,1,140
412,323,35052,2,0,B|416:308|404:256|404:256|444:176,1,140
328,80,35352,2,0,B|256:96|256:96|172:76,1,140
128,292,35652,2,0,B|200:336|200:336|256:296|312:336|312:336|400:280,1,280
336,216,36027,6,0,B|400:176,1,70
176,216,36177,2,0,B|112:176,1,70
256,280,36402,1,0,0:0:0:0:
395,178,36552,1,0,0:0:0:0:
116,178,36702,1,0,0:0:0:0:
256,96,36852,1,0,0:0:0:0:
256,96,36927,1,0,0:0:0:0:
256,96,37002,1,0,0:0:0:0:
204,276,37152,6,0,B|152:328|152:328|124:308|60:312,1,140
308,276,37452,2,0,B|360:328|360:328|388:308|452:312,1,140
116,178,37752,1,0,0:0:0:0:
395,178,37902,1,0,0:0:0:0:
128,76,38052,2,0,B|200:32|200:32|256:72|312:32|312:32|400:88,1,280
348,112,38427,5,0,0:0:0:0:
332,152,38502,1,0,0:0:0:0:
332,192,38577,1,0,0:0:0:0:
348,232,38652,2,0,B|372:300|372:300|348:364,1,140
312,340,38877,5,0,0:0:0:0:
276,316,38952,1,0,0:0:0:0:
236,308,39027,1,0,0:0:0:0:
196,316,39102,1,0,0:0:0:0:
160,340,39177,1,0,0:0:0:0:
124,364,39252,2,0,B|69:305|69:305|157:249|125:105,1,280
129,127,39702,1,0,0:0:0:0:
360,48,39852,6,0,B|460:180,1,140
328,140,40152,2,0,B|388:300,1,140
152,48,40452,2,0,B|52:180,1,140
184,140,40752,2,0,B|124:300,1,140
352,324,41052,1,0,0:0:0:0:
160,324,41202,1,0,0:0:0:0:
256,248,41352,1,0,0:0:0:0:
256,356,41502,1,0,0:0:0:0:
256,140,41652,5,2,0:0:0:0:
256,140,41727,1,2,0:0:0:0:
256,140,41802,1,2,0:0:0:0:
256,140,41877,1,2,0:0:0:0:
256,140,41952,2,0,B|296:80|296:80|324:68|364:68,1,140
472,88,42252,2,0,B|432:148|432:148|404:160|364:160,1,140
146,159,42552,2,0,B|112:160|80:148|80:148|32:76,1,140
148,68,42852,2,0,B|182:67|214:79|214:79|262:151,1,140
328,224,43152,5,2,0:0:0:0:
328,224,43227,1,2,0:0:0:0:
328,224,43302,1,2,0:0:0:0:
328,224,43377,1,2,0:0:0:0:
328,224,43452,1,2,0:0:0:0:
320,336,43602,6,0,B|256:348|256:348|184:336,1,140
184,224,43902,5,2,0:0:0:0:
184,224,43977,1,2,0:0:0:0:
184,224,44052,1,2,0:0:0:0:
184,224,44127,1,2,0:0:0:0:
184,224,44202,1,2,0:0:0:0:
88,168,44352,6,0,B|136:112|216:120,1,140
424,216,44652,2,0,B|376:272|296:264,1,140
113,99,44952,2,0,B|181:68|250:109,1,140
398,284,45252,2,0,B|330:315|261:274,1,140
166,47,45552,2,0,B|240:48|285:115,1,140
345,336,45852,2,0,B|271:335|226:268,1,140
235,23,46152,2,0,B|302:55|315:134,1,140
256,276,46452,5,2,0:0:0:0:
256,276,46527,1,2,0:0:0:0:
256,276,46602,1,2,0:0:0:0:
256,276,46677,1,2,0:0:0:0:
256,276,46752,1,0,0:0:0:0:
256,80,46902,5,0,0:0:0:0:
256,276,47052,1,0,0:0:0:0:
164,136,47202,1,0,0:0:0:0:
348,136,47352,1,0,0:0:0:0:
164,224,47502,1,0,0:0:0:0:
348,224,47652,1,0,0:0:0:0:
164,224,47802,1,0,0:0:0:0:
368,300,47952,5,2,0:0:0:0:
368,300,48027,1,2,0:0:0:0:
368,300,48102,1,2,0:0:0:0:
368,300,48177,1,2,0:0:0:0:
368,300,48252,1,2,0:0:0:0:
144,84,48402,1,2,0:0:0:0:
144,84,48477,1,2,0:0:0:0:
144,84,48552,1,2,0:0:0:0:
144,84,48627,1,2,0:0:0:0:
144,84,48702,1,2,0:0:0:0:
216,328,48852,6,0,B|236:280,1,35
256,336,48927,2,0,B|256:288,1,35
296,328,49002,2,0,B|276:280,2,35
320,192,49152,6,0,B|388:164|388:164|464:164,1,140
192,192,49452,2,0,B|124:164|124:164|48:164,1,140
208,128,49752,2,0,B|188:208|188:208|136:260,1,140
304,128,50052,2,0,B|324:208|324:208|376:260,1,140
144,224,50352,5,0,0:0:0:0:
360,224,50502,1,0,0:0:0:0:
96,128,50652,1,0,0:0:0:0:
416,128,50802,1,0,0:0:0:0:
40,40,50952,1,0,0:0:0:0:
472,40,51102,1,0,0:0:0:0:
256,72,51252,5,2,0:0:0:0:
256,72,51327,1,2,0:0:0:0:
256,72,51402,1,2,0:0:0:0:
256,72,51477,1,2,0:0:0:0:
256,72,51552,6,0,B|204:48|204:48|176:84|120:84,1,140
24,108,51852,2,0,B|48:180|144:184,1,140
208,268,52152,2,0,B|128:271|80:327,1,140
304,268,52452,2,0,B|383:271|431:327,1,140
256,348,52752,5,2,0:0:0:0:
256,348,52827,1,2,0:0:0:0:
256,348,52902,1,2,0:0:0:0:
256,348,52977,1,2,0:0:0:0:
256,348,53052,1,2,0:0:0:0:
132,184,53202,5,0,0:0:0:0:
380,184,53352,1,0,0:0:0:0:
256,96,53502,1,2,0:0:0:0:
256,96,53577,1,2,0:0:0:0:
256,96,53652,1,2,0:0:0:0:
256,96,53727,1,2,0:0:0:0:
256,96,53802,1,2,0:0:0:0:
220,200,53952,6,0,B|188:272|88:268,1,140
56,68,54252,2,0,B|132:184,1,140
196,120,54552,2,0,B|228:80|288:80|320:124,1,140
380,184,54852,2,0,B|464:56,1,140
292,200,55152,2,0,B|324:272|424:268,1,140
472,360,55452,2,0,B|396:372|396:372|352:336|320:344,1,140
40,360,55752,2,0,B|116:372|116:372|160:336|192:344,1,140
256,268,56052,5,2,0:0:0:0:
256,268,56127,1,2,0:0:0:0:
256,268,56202,1,2,0:0:0:0:
256,268,56277,1,2,0:0:0:0:
256,268,56352,6,0,B|256:120,1,140
324,36,56652,2,0,B|372:52|372:52|360:112|380:156,1,140
200,352,56952,2,0,B|152:336|152:336|164:276|144:232,1,140
52,208,57252,2,0,B|100:148|192:156,1,140
256,152,57552,2,0,B|256:72,4,70,2|2|2|2|0,0:0|0:0|0:0|0:0|0:0,0:0:0:0:
256,152,58002,6,8,B|256:248,1,70
120,320,58152,2,0,B|256:248|256:376|400:296,1,280,4|4,0:0|0:0,0:0:0:0:
408,40,58752,6,0,B|408:120|336:160|336:160|272:160,1,210,4|0,0:0|0:0,0:0:0:0:
208,160,59052,2,0,B|128:160|88:248,1,140
304,224,59352,2,0,B|384:224|424:136,1,140
208,224,59652,2,0,B|128:224|88:136,1,140
424,80,59952,6,0,B|336:88|304:152,1,140,4|0,0:0|0:0,0:0:0:0:
88,80,60252,2,0,B|176:88|208:152,1,140
336,248,60552,2,0,B|480:248,1,140
176,248,60852,2,0,B|16:248,1,140
320,336,61152,6,0,B|384:296|392:216,1,140,4|0,0:0|0:0,0:0:0:0:
391,221,61377,1,0,0:0:0:0:
192,48,61527,1,0,0:0:0:0:
192,48,61602,2,0,B|128:88|120:168,1,140
392,136,61902,2,0,B|344:80|272:64,1,140
120,248,62202,2,0,B|168:304|240:320,1,140,0|4,0:0|0:0,0:0:0:0:
392,184,62502,5,0,0:0:0:0:
392,184,62577,2,0,B|384:256|304:288,1,140,4|0,0:0|0:0,0:0:0:0:
307,286,62802,2,0,B|256:240|176:256,1,140,4|4,0:0|0:0,0:0:0:0:
176,256,63102,1,0,0:0:0:0:
96,136,63252,5,0,0:0:0:0:
112,104,63327,1,0,0:0:0:0:
136,80,63402,1,0,0:0:0:0:
168,64,63477,1,0,0:0:0:0:
200,48,63552,6,0,B|288:24|352:48,1,140,4|0,0:0|0:0,0:0:0:0:
424,144,63777,2,0,B|360:112|288:136,1,140
288,136,64002,1,0,0:0:0:0:
80,296,64152,2,0,B|168:288|208:224,1,140
432,296,64452,2,0,B|344:288|304:224,1,140
112,152,64752,6,0,B|112:72|224:72,1,140,4|0,0:0|0:0,0:0:0:0:
304,72,64977,2,0,B|400:72|400:168,1,140,0|0,0:0|0:0,0:0:0:0:
320,248,65202,2,0,B|256:304|184:240,1,140
112,48,65502,5,0,0:0:0:0:
256,136,65652,1,4,0:0:0:0:
400,48,65802,1,4,0:0:0:0:
256,136,65952,1,4,0:0:0:0:
184,288,66102,5,0,0:0:0:0:
184,288,66177,1,0,0:0:0:0:
328,288,66327,1,0,0:0:0:0:
328,288,66402,1,0,0:0:0:0:
152,72,66552,6,0,B|96:112|88:200,1,140
360,312,66852,2,0,B|416:272|424:184,1,140
168,216,67152,6,0,B|200:296|280:280,1,140,4|0,0:0|0:0,0:0:0:0:
344,168,67377,2,0,B|312:88|232:104,1,140,4|0,0:0|0:0,0:0:0:0:
234,103,67602,1,4,0:0:0:0:
256,192,67752,6,0,B|256:232,6,35
256,192,68052,2,0,B|208:216,4,35
408,344,68352,6,0,B|408:264|336:224|336:224|272:224,1,210,4|0,0:0|0:0,0:0:0:0:
208,224,68652,2,0,B|128:224|88:136,1,140
304,160,68952,2,0,B|384:160|424:248,1,140
208,160,69252,2,0,B|128:160|88:248,1,140
424,304,69552,6,0,B|336:296|304:232,1,140,4|0,0:0|0:0,0:0:0:0:
88,304,69852,2,0,B|176:296|208:232,1,140
336,136,70152,2,0,B|480:136,1,140
176,136,70452,2,0,B|16:136,1,140
320,48,70752,6,0,B|384:88|392:168,1,140,4|0,0:0|0:0,0:0:0:0:
391,163,70977,1,0,0:0:0:0:
192,336,71127,1,0,0:0:0:0:
192,336,71202,2,0,B|128:296|120:216,1,140
392,248,71502,2,0,B|344:304|272:320,1,140
120,136,71802,2,0,B|168:80|240:64,1,140,0|4,0:0|0:0,0:0:0:0:
392,200,72102,5,0,0:0:0:0:
392,200,72177,2,0,B|384:128|304:96,1,140,4|0,0:0|0:0,0:0:0:0:
307,98,72402,2,4,B|256:144|176:128,1,140,4|4,0:0|0:0,0:0:0:0:
176,128,72702,1,0,0:0:0:0:
96,248,72852,5,0,0:0:0:0:
112,280,72927,1,0,0:0:0:0:
136,304,73002,1,0,0:0:0:0:
168,320,73077,1,0,0:0:0:0:
200,336,73152,6,0,B|288:360|352:336,1,140,4|0,0:0|0:0,0:0:0:0:
424,240,73377,2,0,B|360:272|288:248,1,140
288,248,73602,1,0,0:0:0:0:
80,88,73752,2,0,B|168:96|208:160,1,140
432,88,74052,2,0,B|344:96|304:160,1,140
112,232,74352,6,0,B|112:312|224:312,1,140,4|0,0:0|0:0,0:0:0:0:
304,312,74577,2,0,B|400:312|400:216,1,140,0|0,0:0|0:0,0:0:0:0:
320,136,74802,2,0,B|256:80|184:144,1,140
112,336,75102,5,0,0:0:0:0:
256,248,75252,1,4,0:0:0:0:
400,336,75402,1,4,0:0:0:0:
256,248,75552,1,4,0:0:0:0:
184,96,75702,5,0,0:0:0:0:
184,96,75777,1,0,0:0:0:0:
328,96,75927,1,0,0:0:0:0:
328,96,76002,1,0,0:0:0:0:
152,312,76152,6,0,B|96:272|88:184,1,140
360,72,76452,2,0,B|416:112|424:200,1,140
168,168,76752,6,0,B|200:88|280:104,1,140,4|0,0:0|0:0,0:0:0:0:
344,216,76977,2,0,B|312:296|232:280,1,140,4|0,0:0|0:0,0:0:0:0:
234,280,77202,1,4,0:0:0:0:
256,32,77352,6,0,B|216:32,1,35
256,72,77427,2,0,B|296:72,1,35
256,112,77502,2,0,B|208:112,1,35
256,152,77577,2,0,B|304:152,1,35
256,192,77652,2,0,B|208:192,1,35
256,232,77727,2,0,B|296:232,2,35
256,328,77952,6,0,B|328:368|392:328,1,140,2|2,0:0|0:0,0:0:0:0:
112,112,78252,2,0,B|72:184|120:264,1,140,2|2,0:0|0:0,0:0:0:0:
280,104,78552,2,0,B|200:48|128:104,1,140,2|2,0:0|0:0,0:0:0:0:
216,264,78852,2,0,B|328:272|400:176,1,209.999993741512,2|2,0:0|0:0,0:0:0:0:
408,136,79227,5,2,0:0:0:0:
392,96,79302,1,2,0:0:0:0:
360,64,79377,1,2,0:0:0:0:
320,64,79452,6,0,B|264:120|184:104,1,140,2|2,0:0|0:0,0:0:0:0:
80,248,79752,2,0,B|80:176|160:136,1,140,2|2,0:0|0:0,0:0:0:0:
264,72,80052,2,0,B|304:128|384:152|384:152|432:208,1,209.999993741512,2|2,0:0|0:0,0:0:0:0:
408,240,80427,5,2,0:0:0:0:
384,272,80502,1,2,0:0:0:0:
352,296,80577,1,2,0:0:0:0:
320,308,80652,6,0,B|256:348|160:324,1,140,2|2,0:0|0:0,0:0:0:0:
104,160,80952,2,0,B|176:200|176:280,1,140,2|2,0:0|0:0,0:0:0:0:
208,80,81252,2,0,B|288:104|336:80|336:80|416:80,1,209.999993741512,2|2,0:0|0:0,0:0:0:0:
368,176,81627,6,0,B|264:176,1,70,2|2,0:0|0:0,0:0:0:0:
208,248,81777,2,0,B|296:248,1,70,2|2,0:0|0:0,0:0:0:0:
296,344,82002,2,0,B|216:320|144:352,2,140,2|2|2,0:0|0:0|0:0,0:0:0:0:
120,112,82452,2,0,B|160:176|128:248|128:248|128:328,1,209.999993741512,2|4,0:0|0:0,0:0:0:0:
256,192,83052,1,4,0:0:0:0:
392,112,83802,2,0,B|352:176|384:248|384:248|384:328,1,209.999993741512
256,192,84252,1,4,0:0:0:0:
256,192,84402,12,4,85152,0:0:0:0:
256,192,85752,5,4,0:0:0:0:
136,80,86352,6,0,B|64:80,1,70
200,192,86502,2,0,B|128:192,1,70
376,80,86652,2,0,B|448:80,1,70
312,192,86802,2,0,B|384:192,1,70
208,256,86952,6,2,B|168:256,1,35
200,216,87027,2,2,B|160:200,1,35
224,176,87102,2,2,B|200:128,1,35
256,152,87177,2,2,B|256:112,1,35
288,176,87252,2,8,B|320:136,1,35
312,216,87327,2,8,B|352:200,1,35
304,256,87402,2,8,B|344:256,1,35
256,336,87552,6,0,B|304:352|352:336|352:336|400:336,1,140
208,152,87852,2,0,B|152:168|104:144|104:144|64:144,1,140
392,224,88152,2,0,B|336:240|288:216|288:216|248:216,1,140
88,136,88452,2,0,B|80:192|96:240|96:240|96:288,1,140
256,64,88752,2,0,B|232:112|184:128|184:128|136:128,1,140
256,320,89052,2,0,B|280:272|328:256|328:256|376:256,1,140
216,160,89352,2,0,B|200:208|160:232|160:232|128:272,1,140
184,336,89652,5,0,0:0:0:0:
224,352,89727,1,0,0:0:0:0:
264,352,89802,1,0,0:0:0:0:
304,336,89877,1,0,0:0:0:0:
336,312,89952,6,0,B|400:272|400:184,1,140
304,80,90252,2,0,B|240:128|232:216,1,140
368,176,90552,2,0,B|432:128|440:40,1,140
88,56,90852,2,0,B|108:152|161:189|161:189|186:239,1,209.999993741512
344,264,91227,5,0,0:0:0:0:
384,240,91302,1,0,0:0:0:0:
408,200,91377,1,0,0:0:0:0:
400,152,91452,2,0,B|384:88|336:72|336:72|312:48,1,140
112,232,91752,2,0,B|128:296|176:312|176:312|200:336,1,140
240,344,91977,5,0,0:0:0:0:
272,344,92052,1,0,0:0:0:0:
304,328,92127,1,0,0:0:0:0:
328,304,92202,1,0,0:0:0:0:
352,280,92277,1,0,0:0:0:0:
372,256,92352,1,0,0:0:0:0:
472,32,92502,6,0,B|432:32|432:32|392:56|336:32,1,140
176,136,92802,2,0,B|120:152|80:128|80:128|40:128,1,140
40,128,93102,1,0,0:0:0:0:
224,280,93252,2,0,B|320:304|384:272|384:272|448:272,1,209.999993741512
352,160,93627,6,0,B|440:160,1,70
344,80,93777,2,0,B|272:80,1,70
256,208,94002,1,0,0:0:0:0:
256,208,94152,2,0,B|184:224|160:208|160:208|104:208,2,140
248,248,94527,1,0,0:0:0:0:
248,288,94602,1,0,0:0:0:0:
264,328,94677,1,0,0:0:0:0:
296,344,94752,6,0,B|376:360|400:344|400:344|440:344,1,140
416,264,95052,2,0,B|414:176|470:128,1,140
256,64,95352,2,0,B|184:80|104:64,1,140
96,200,95652,2,0,B|192:216|248:200|248:200|312:200,1,209.999993741512
320,280,96027,6,0,B|392:280,1,70
192,96,96177,2,0,B|120:96,1,70
392,136,96402,2,0,B|392:216,1,70
120,240,96552,2,0,B|120:152,1,70
256,96,96702,2,0,B|256:168,1,70
192,304,96852,6,0,B|192:352,1,35
232,304,96927,2,0,B|232:352,1,35
272,304,97002,2,0,B|272:360,1,35
312,304,97077,2,0,B|312:352,2,35
432,344,97302,6,0,B|448:280|424:240|424:240|424:208,1,140
304,40,97602,2,0,B|288:104|312:144|312:144|312:176,1,140
192,344,97902,2,0,B|176:280|200:240|200:240|200:208,1,140
96,40,98202,2,0,B|112:104|88:144|88:144|88:176,1,140
232,272,98502,2,0,B|304:248|320:216|320:216|360:184,1,140
280,112,98802,2,0,B|208:136|192:168|192:168|152:200,1,140
200,304,99102,2,0,B|136:328|88:304|88:304|56:304,1,140
48,208,99327,1,0,0:0:0:0:
88,208,99402,1,0,0:0:0:0:
128,208,99477,1,0,0:0:0:0:
168,208,99552,6,0,B|232:224|280:208|280:208|320:208,1,140
448,344,99852,2,0,B|472:264|440:192,1,140
304,48,100152,2,0,B|280:112|296:192,1,140
88,288,100452,2,0,B|184:312|240:288|240:288|312:288,1,209.999993741512
304,208,100827,6,0,B|376:184,2,70
328,116,101052,2,0,B|508:60,2,140
256,164,101502,5,0,0:0:0:0:
180,80,101652,1,0,0:0:0:0:
140,88,101727,1,0,0:0:0:0:
108,116,101802,1,0,0:0:0:0:
84,152,101877,1,0,0:0:0:0:
76,192,101952,6,0,B|108:256|108:256|96:316|100:344,1,140
412,323,102252,2,0,B|416:308|404:256|404:256|444:176,1,140
328,80,102552,2,0,B|256:96|256:96|172:76,1,140
128,292,102852,2,0,B|200:336|200:336|256:296|312:336|312:336|400:280,1,280
336,216,103227,6,0,B|400:176,1,70
176,216,103377,2,0,B|112:176,1,70
256,280,103602,1,0,0:0:0:0:
395,178,103752,1,0,0:0:0:0:
116,178,103902,1,0,0:0:0:0:
256,32,104052,1,0,0:0:0:0:
256,80,104127,1,0,0:0:0:0:
256,128,104202,1,0,0:0:0:0:
256,176,104277,1,0,0:0:0:0:
204,276,104352,6,0,B|152:328|152:328|124:308|60:312,1,140
308,276,104652,2,0,B|360:328|360:328|388:308|452:312,1,140
116,178,104952,1,0,0:0:0:0:
395,178,105102,1,0,0:0:0:0:
128,76,105252,2,0,B|200:32|200:32|256:72|312:32|312:32|400:88,1,280
348,112,105627,5,0,0:0:0:0:
332,152,105702,1,0,0:0:0:0:
332,192,105777,1,0,0:0:0:0:
348,232,105852,2,0,B|372:300|372:300|348:364,1,140
308,364,106077,5,0,0:0:0:0:
268,368,106152,1,0,0:0:0:0:
228,360,106227,1,0,0:0:0:0:
192,336,106302,1,0,0:0:0:0:
168,300,106377,1,0,0:0:0:0:
144,152,106452,2,0,B|192:48|320:48|368:176,1,280
64,64,107052,6,0,B|96:80|128:64|128:64|176:64,1,104.999996870756,0|4,0:0|0:0,0:0:0:0:
416,296,107502,2,0,B|384:312|352:296|352:296|312:296,1,104.999996870756,0|2,0:0|0:0,0:0:0:0:
216,56,107952,2,0,B|120:96|120:96|152:136|120:208,1,209.999993741512,2|0,0:0|0:0,0:0:0:0:
256,192,108402,1,0,0:0:0:0:
296,56,108552,2,0,B|392:96|392:96|360:136|392:208,1,209.999993741512,4|0,0:0|0:0,0:0:0:0:
256,192,109002,1,0,0:0:0:0:
216,328,109152,6,0,B|120:288|120:288|152:248|120:176,1,209.999993741512,4|0,0:0|0:0,0:0:0:0:
296,328,109602,2,0,B|392:288|392:288|360:248|392:176,1,209.999993741512,4|0,0:0|0:0,0:0:0:0:
256,192,110052,1,4,0:0:0:0:
56,96,110352,6,0,B|96:160|168:136|168:136|184:88|248:88,1,209.999993741512,4|0,0:0|0:0,0:0:0:0:
256,192,110802,1,0,0:0:0:0:
456,288,110952,2,0,B|416:224|344:248|344:248|328:296|264:296,1,209.999993741512,4|0,0:0|0:0,0:0:0:0:
256,192,111402,1,0,0:0:0:0:
152,72,111552,6,0,B|184:136|152:208|152:208|88:248,1,209.999993741512,4|0,0:0|0:0,0:0:0:0:
360,72,112002,2,0,B|328:136|360:208|360:208|424:248,1,209.999993741512,4|0,0:0|0:0,0:0:0:0:
160,296,112452,2,0,B|256:232|360:296,1,209.999993741512,4|0,0:0|0:0,0:0:0:0:
256,192,113052,5,0,0:0:0:0:
256,192,113202,1,0,0:0:0:0:
357,89,113352,2,0,B|256:152|160:88,1,209.999993741512,4|0,0:0|0:0,0:0:0:0:
256,192,113802,5,0,0:0:0:0:
152,320,113952,2,0,B|256:352|320:320|320:320|368:320,1,209.999993741512,4|0,0:0|0:0,0:0:0:0:
360,64,114402,2,0,B|256:32|192:64|192:64|144:64,1,209.999993741512,4|0,0:0|0:0,0:0:0:0:
360,208,114852,2,0,B|288:120|240:264|152:184,1,209.999993741512,4|0,0:0|0:0,0:0:0:0:
256,104,115452,5,4,0:0:0:0:
256,288,115602,1,4,0:0:0:0:
400,72,115752,2,0,B|368:144|368:144|432:192|432:192|368:264|368:264|368:312,2,280,0|0|4,0:0|0:0|0:0,0:0:0:0:
256,56,125952,6,0,B|184:16|120:56,1,140,2|2,0:0|0:0,0:0:0:0:
400,272,126252,2,0,B|440:200|392:120,1,140,2|2,0:0|0:0,0:0:0:0:
232,280,126552,2,0,B|312:336|384:280,1,140,2|2,0:0|0:0,0:0:0:0:
296,120,126852,2,0,B|184:112|112:208,1,209.999993741512,2|2,0:0|0:0,0:0:0:0:
104,248,127227,5,2,0:0:0:0:
120,288,127302,1,2,0:0:0:0:
152,320,127377,1,2,0:0:0:0:
192,320,127452,2,0,B|248:264|328:280,1,140,2|2,0:0|0:0,0:0:0:0:
432,136,127752,2,0,B|432:208|352:248,1,140,2|2,0:0|0:0,0:0:0:0:
248,312,128052,2,0,B|208:256|128:232|128:232|80:176,1,209.999993741512,2|2,0:0|0:0,0:0:0:0:
104,144,128427,5,2,0:0:0:0:
128,112,128502,1,2,0:0:0:0:
160,88,128577,1,2,0:0:0:0:
192,76,128652,2,0,B|256:36|352:60,1,140,2|2,0:0|0:0,0:0:0:0:
408,224,128952,2,0,B|336:184|336:104,1,140,2|2,0:0|0:0,0:0:0:0:
304,304,129252,2,0,B|224:280|176:304|176:304|96:304,1,209.999993741512,2|2,0:0|0:0,0:0:0:0:
144,208,129627,6,0,B|248:208,1,70,2|2,0:0|0:0,0:0:0:0:
304,136,129777,2,0,B|216:136,1,70,2|2,0:0|0:0,0:0:0:0:
216,40,130002,2,0,B|296:64|368:32,2,140,2|2|2,0:0|0:0|0:0,0:0:0:0:
392,272,130452,6,0,B|352:208|384:136|384:136|384:56,1,209.999993741512,2|4,0:0|0:0,0:0:0:0:
256,192,131052,1,4,0:0:0:0:
120,272,131802,6,0,B|160:208|128:136|128:136|128:56,1,209.999993741512
256,192,132252,1,4,0:0:0:0:
256,328,134352,5,0,0:0:0:0:
256,312,134427,1,0,0:0:0:0:
256,296,134502,1,0,0:0:0:0:
256,280,134577,1,0,0:0:0:0:
256,264,134652,1,0,0:0:0:0:
256,248,134727,1,0,0:0:0:0:
256,232,134802,1,0,0:0:0:0:
256,216,134877,1,0,0:0:0:0:
196,96,134952,6,0,B|160:88,1,35
180,120,135027,2,0,B|144:136,1,35
196,152,135102,2,0,B|164:176,2,35
316,288,135252,6,0,B|352:296,1,35
332,264,135327,2,0,B|368:248,1,35
316,232,135402,2,0,B|348:208,2,35
104,40,135552,6,0,B|104:120|176:160|176:160|240:160,1,210,4|0,0:0|0:0,0:0:0:0:
304,160,135852,2,0,B|384:160|424:248,1,140
208,224,136152,2,0,B|128:224|88:136,1,140
304,224,136452,2,0,B|384:224|424:136,1,140
88,80,136752,6,0,B|176:88|208:152,1,140,4|0,0:0|0:0,0:0:0:0:
424,80,137052,2,0,B|336:88|304:152,1,140
176,248,137352,2,0,B|32:248,1,140
336,248,137652,2,0,B|496:248,1,140
192,336,137952,6,0,B|128:296|120:216,1,140,4|0,0:0|0:0,0:0:0:0:
121,221,138177,1,0,0:0:0:0:
320,48,138327,1,0,0:0:0:0:
320,48,138402,2,0,B|384:88|392:168,1,140
120,136,138702,2,0,B|168:80|240:64,1,140
392,248,139002,6,0,B|344:304|272:320,1,140,0|4,0:0|0:0,0:0:0:0:
120,184,139302,1,0,0:0:0:0:
120,184,139377,2,0,B|128:256|208:288,1,140,4|0,0:0|0:0,0:0:0:0:
205,286,139602,2,4,B|256:240|336:256,1,140,4|0,0:0|0:0,0:0:0:0:
336,256,139902,1,0,0:0:0:0:
416,136,140052,5,0,0:0:0:0:
400,104,140127,1,0,0:0:0:0:
376,80,140202,1,0,0:0:0:0:
344,64,140277,1,0,0:0:0:0:
312,48,140352,6,0,B|224:24|160:48,1,140,4|0,0:0|0:0,0:0:0:0:
88,144,140577,2,0,B|152:112|224:136,1,140
224,136,140802,1,0,0:0:0:0:
432,296,140952,2,0,B|344:288|304:224,1,140
80,296,141252,2,0,B|168:288|208:224,1,140
400,152,141552,6,0,B|400:72|288:72,1,140,4|0,0:0|0:0,0:0:0:0:
208,72,141777,2,0,B|112:72|112:168,1,140,0|0,0:0|0:0,0:0:0:0:
192,248,142002,2,0,B|256:304|328:240,1,140
400,48,142302,5,0,0:0:0:0:
256,136,142452,1,4,0:0:0:0:
112,48,142602,1,4,0:0:0:0:
256,136,142752,1,4,0:0:0:0:
328,288,142902,5,0,0:0:0:0:
328,288,142977,1,0,0:0:0:0:
184,288,143127,1,0,0:0:0:0:
184,288,143202,1,0,0:0:0:0:
360,72,143352,6,0,B|416:112|424:200,1,140
152,312,143652,2,0,B|96:272|88:184,1,140
344,216,143952,6,0,B|312:296|232:280,1,140,4|0,0:0|0:0,0:0:0:0:
168,168,144177,2,0,B|200:88|280:104,1,140,4|0,0:0|0:0,0:0:0:0:
278,103,144402,1,4,0:0:0:0:
256,192,144552,6,0,B|256:232,6,35
256,192,144852,2,0,B|208:216,4,35
104,344,145152,6,0,B|104:264|176:224|176:224|240:224,1,210,4|0,0:0|0:0,0:0:0:0:
304,224,145452,2,0,B|384:224|424:136,1,140
208,160,145752,2,0,B|128:160|88:248,1,140
304,160,146052,2,0,B|384:160|424:248,1,140
88,304,146352,6,0,B|176:296|208:232,1,140,4|0,0:0|0:0,0:0:0:0:
424,304,146652,2,0,B|336:296|304:232,1,140
176,136,146952,2,0,B|32:136,1,140
336,136,147252,2,0,B|496:136,1,140
192,48,147552,6,0,B|128:88|120:168,1,140,4|0,0:0|0:0,0:0:0:0:
121,163,147777,1,0,0:0:0:0:
320,336,147927,1,0,0:0:0:0:
320,336,148002,2,0,B|384:296|392:216,1,140
120,248,148302,2,0,B|168:304|240:320,1,140
392,136,148602,6,0,B|344:80|272:64,1,140,0|4,0:0|0:0,0:0:0:0:
120,200,148902,5,0,0:0:0:0:
120,200,148977,2,0,B|128:128|208:96,1,140,4|0,0:0|0:0,0:0:0:0:
205,98,149202,2,4,B|256:144|336:128,1,140,4|0,0:0|0:0,0:0:0:0:
336,128,149502,1,0,0:0:0:0:
416,248,149652,5,0,0:0:0:0:
400,280,149727,1,0,0:0:0:0:
376,304,149802,1,0,0:0:0:0:
344,320,149877,1,0,0:0:0:0:
312,336,149952,6,0,B|224:360|160:336,1,140,4|0,0:0|0:0,0:0:0:0:
88,240,150177,2,0,B|152:272|224:248,1,140
224,248,150402,1,0,0:0:0:0:
432,88,150552,2,0,B|344:96|304:160,1,140
80,88,150852,2,0,B|168:96|208:160,1,140
400,232,151152,6,0,B|400:312|288:312,1,140,4|0,0:0|0:0,0:0:0:0:
208,312,151377,2,0,B|112:312|112:216,1,140,4|0,0:0|0:0,0:0:0:0:
192,136,151602,2,0,B|256:80|328:144,1,140,4|0,0:0|0:0,0:0:0:0:
256,200,151902,1,8,0:0:0:0:
256,200,152052,1,8,0:0:0:0:
184,128,152352,6,4,B|128:72,1,70
328,256,152502,2,4,B|384:312,1,70
256,96,152652,2,4,B|256:16,1,70
256,288,152802,2,4,B|256:367,1,70
328,128,152952,6,4,B|384:72,1,70
184,256,153102,2,4,B|128:312,1,70
352,192,153252,2,4,B|423:192,1,70
160,192,153402,2,4,B|80:192,1,70
256,192,153552,6,2,B|376:64|376:320|488:192,1,280,0|4,0:0|0:0,0:0:0:0:
