osu file format v14

[General]
AudioFilename: The Quick Brown Fox - Gotsta Terrify.mp3
AudioLeadIn: 0
PreviewTime: 58677
Countdown: 0
SampleSet: Normal
StackLeniency: 0.7
Mode: 0
LetterboxInBreaks: 1
EpilepsyWarning: 1
WidescreenStoryboard: 0

[Editor]
Bookmarks: 52991,68277
DistanceSpacing: 1.3
BeatDivisor: 8
GridSize: 4
TimelineZoom: 2.799999

[Metadata]
Title:Gotsta Terrify
TitleUnicode:Gotsta Terrify
Artist:The Quick Brown Fox
ArtistUnicode:The Quick Brown Fox
Creator:Smoothie
Version:0108 style AR10
Source:
Tags:Speedkore 4 Kidz Hardcore Gabber Speedcore Splittercore Lapfox Renard
BeatmapID:173102
BeatmapSetID:50019

[Difficulty]
HPDrainRate:3
CircleSize:4
OverallDifficulty:7
ApproachRate:9.5
SliderMultiplier:3.19999990463257
SliderTickRate:1

[Events]
//Background and Video events
0,0,"bg.jpg",0,0
//Break Periods
2,106962,115837
//Storyboard Layer 0 (Background)
//Storyboard Layer 1 (Fail)
//Storyboard Layer 2 (Pass)
//Storyboard Layer 3 (Foreground)
Sprite,Foreground,Centre,"Warning!!.png",320,240 S,0,57402,,0.8015999 F,0,57402,57664,0,1 F,0,57664,57889,1,0 F,0,57889,58152,0,1 F,0,58152,58377,1,0 F,0,58377,58602,0,1 F,0,58602,58789,1,0
Sprite,Foreground,Centre,"Warning!!.png",320,240 S,0,134427,,0.8016 F,0,134427,134614,0,1 F,0,134614,134802,1,0 F,0,134802,134989,0,1 F,0,134989,135177,1,0 F,0,135177,135364,0,1 F,0,135364,135552,1,0
Sprite,Foreground,Centre,"Black Fade.png",320,240 S,0,57402,,0.8016001 F,0,57402,58827,0,0.07116105 M,0,57402,78177,320,240 F,0,58827,59052,0.07116105,1 F,0,59052,77427,1 F,0,77427,77952,1 F,0,77952,78177,1,0
Sprite,Foreground,Centre,"Blah....jpg",320,240 M,0,77952,,320,240 S,0,77952,78027,0.5008,0.5278221 F,0,77952,78252,0,0.2896001 S,0,78027,78627,0.5278221,0.5711998 V,0,78027,78627,1.0128,1.3392,1.0704,1.48 F,0,78252,78702,0.2896001,0
Sprite,Foreground,Centre,"Black Fade.png",320,240 F,0,135477,135777,0,1 M,0,135927,154152,320,240
Sprite,Foreground,Centre,"Blah....jpg",320,240 M,0,154227,,320,240 F,0,154227,,1 S,0,154227,154302,0.5072,0.6288 S,0,154302,,0.6288 S,0,154302,154377,0.6288,0.5690666 S,0,154377,,0.5690666 V,0,154377,,0.9359999,0.9616002
//Storyboard Sound Samples

[TimingPoints]
10762,300,4,1,0,80,1,0
15248,-200,4,1,0,80,0,0
17873,-200,4,2,0,80,0,0
18023,-100,4,1,0,80,0,0
20048,-66.6666666666667,4,1,0,80,0,0
20212,-50,4,1,0,80,0,0
20348,-100,4,1,0,80,0,1
21323,-66.6666666666667,4,1,0,80,0,1
21449,-66.6666666666667,4,1,0,5,0,1
21548,-100,4,1,0,80,0,1
23723,-66.6666666666667,4,1,0,80,0,1
23948,-100,4,1,0,80,0,1
26123,-66.6666666666667,4,1,0,100,0,1
26249,-66.6666666666667,4,2,0,5,0,1
26348,-100,4,1,0,80,0,1
28537,-66.6666666666667,4,1,0,80,0,1
28649,-66.6666666666667,4,2,0,5,0,1
28724,-100,4,1,0,80,0,1
30937,-66.6666666666667,4,1,0,80,0,1
31049,-66.6666666666667,4,1,0,5,0,1
31124,-100,4,1,0,75,0,1
33337,-66.6666666666667,4,1,0,75,0,1
33449,-66.6666666666667,4,1,0,5,0,1
33524,-100,4,1,0,75,0,1
35737,-66.6666666666667,4,1,0,75,0,1
35849,-66.6666666666667,4,1,0,5,0,1
35924,-100,4,1,0,75,0,1
38137,-66.6666666666667,4,1,0,75,0,1
38249,-100,4,1,0,5,0,1
38324,-100,4,1,0,75,0,1
39262,-66.6666666666667,4,1,0,75,0,1
39548,-100,4,1,0,80,0,0
44662,-200,4,1,0,80,0,0
48862,-100,4,1,0,80,0,0
50062,-200,4,1,0,80,0,0
52762,-100,4,1,0,80,0,0
53962,-200,4,1,0,80,0,0
57398,-100,4,2,0,80,0,0
57848,-100,4,1,0,80,0,0
58148,-200,4,2,0,80,0,0
58448,-100,4,2,0,80,0,0
58748,-100,4,1,0,80,0,1
58748,-100,4,1,0,80,0,1
67748,-100,4,1,0,80,0,0
68062,-66.6666666666667,4,1,0,80,0,0
68212,-50,4,1,0,80,0,0
68273,-100,4,1,0,80,0,1
68362,-100,4,1,0,80,0,1
77348,-200,4,1,0,80,0,1
77948,-100,4,1,0,80,0,0
80062,-66.6666666666667,4,1,0,80,0,0
80249,-66.6666666666667,4,1,0,5,0,0
80324,-100,4,1,0,75,0,0
82462,-200,4,1,0,75,0,0
82762,-100,4,1,0,75,0,0
86962,-80,4,1,0,75,0,0
87112,-66.6666666666667,4,1,0,75,0,0
87262,-57.1428571428571,4,1,0,75,0,0
87412,-50,4,1,0,75,0,0
87548,-100,4,1,0,80,0,1
88548,-66.6666666666667,4,1,0,80,0,1
88649,-66.6666666666667,4,1,0,5,0,1
88724,-100,4,1,0,75,0,1
90937,-66.6666666666667,4,1,0,75,0,1
91049,-66.6666666666667,4,1,0,5,0,1
91124,-100,4,1,0,75,0,1
93353,-66.6666666666667,4,1,0,75,0,1
93449,-100,4,1,0,5,0,1
93524,-100,4,1,0,75,0,1
95737,-66.6666666666667,4,1,0,75,0,1
95849,-66.6666666666667,4,1,0,5,0,1
95924,-100,4,1,0,75,0,1
102937,-66.6666666666667,4,1,0,75,0,1
103049,-100,4,1,0,5,0,1
103124,-100,4,1,0,75,0,1
105337,-66.6666666666667,4,1,0,75,0,1
105449,-66.6666666666667,4,1,0,5,0,1
105524,-100,4,1,0,75,0,1
106462,-50,4,1,0,75,0,1
106748,-133.333333333333,4,1,0,80,0,0
116287,-133.333333333333,4,1,0,5,0,0
125662,-66.6666666666667,4,1,0,70,0,0
125849,-66.6666666666667,4,1,0,5,0,0
125948,-100,4,1,0,80,0,0
126937,-66.6666666666667,4,1,0,80,0,0
127053,-66.6666666666667,4,1,0,5,0,0
127124,-100,4,1,0,75,0,0
128062,-66.6666666666667,4,1,0,75,0,0
128212,-66.6666666666667,4,1,0,5,0,0
128362,-100,4,1,0,75,0,0
129337,-66.6666666666667,4,1,0,75,0,0
129449,-100,4,1,0,5,0,0
129524,-100,4,1,0,75,0,0
130462,-200,4,1,0,75,0,0
133087,-200,4,2,0,75,0,0
133237,-100,4,1,0,75,0,0
134962,-80,4,1,0,75,0,0
135112,-66.6666666666667,4,1,0,75,0,0
135262,-57.1428571428571,4,1,0,75,0,0
135412,-50,4,1,0,75,0,0
135548,-66.6666666666667,4,1,0,80,0,1
139162,-50,4,1,0,80,0,1
139762,-66.6666666666667,4,1,0,80,0,1
142762,-50,4,1,0,80,0,1
144548,-100,4,1,0,80,0,0
144862,-66.6666666666667,4,1,0,80,0,0
145012,-50,4,1,0,80,0,0
145162,-50,4,1,0,80,0,1
152062,-200,4,1,0,80,0,1
152249,-200,4,1,0,5,0,1
152324,-100,4,1,0,75,0,1
153562,-50,4,1,0,80,0,0
154148,-100,4,1,0,80,0,1
154223,-133.333333333333,4,1,0,80,0,0

[Colours]
Combo1 : 255,255,255
Combo2 : 255,185,185
Combo3 : 255,255,191
Combo4 : 198,198,255
Combo5 : 128,128,128
Combo6 : 217,255,217

[HitObjects]
140,32,10762,6,0,B|177:90|118:158|37:121,1,159.999995231628
372,32,11062,2,0,B|334:90|393:158|474:121,1,159.999995231628
213,224,11362,2,0,B|264:175|264:175|245:175|245:175|304:229,1,159.999995231628
256,280,11587,1,0,0:0:0:0:
184,328,11662,2,0,B|256:360|256:360|348:316,1,159.999995231628
256,40,11962,5,0,0:0:0:0:
308,100,12037,1,0,0:0:0:0:
344,172,12112,1,0,0:0:0:0:
352,252,12187,1,0,0:0:0:0:
330,326,12262,2,0,B|256:364|256:364|166:318,1,159.999995231628
100,96,12562,6,0,B|132:169,1,79.9999976158142,0|0,0:0|0:0,0:0:0:0:
412,288,12712,2,0,B|379:214,1,79.9999976158142
256,95,12862,2,0,B|256:140|256:140|200:144|188:200|208:240|256:232|256:232|256:192,1,239.999992847443
332,72,13162,6,0,B|444:12|444:12|400:84,1,159.999995231628
452,116,13387,1,0,0:0:0:0:
371,147,13462,2,0,B|336:200|336:200|376:288,1,159.999995231628
140,147,13762,2,0,B|176:200|176:200|136:288,1,159.999995231628
56,196,13987,1,0,0:0:0:0:
60,116,14062,2,0,B|98:98|85:52|85:52|113:85|177:57,1,159.999995231628
256,220,14362,5,0,0:0:0:0:
312,280,14437,1,0,0:0:0:0:
296,360,14512,1,0,0:0:0:0:
216,360,14587,1,0,0:0:0:0:
200,280,14662,2,0,B|240:208|240:208|240:120,1,159.999995231628
392,60,14962,6,0,B|348:72|348:72|288:48,1,79.9999976158142
120,60,15112,2,0,B|164:72|164:72|224:48,1,79.9999976158142
272,130,15262,2,0,B|272:208|272:208|312:280,1,159.999995231628,0|0,0:0|0:0,0:0:0:0:
436,160,15862,1,0,0:0:0:0:
36,96,16612,1,0,0:0:0:0:
48,296,16912,1,0,0:0:0:0:
104,236,17062,1,0,0:0:0:0:
448,32,17962,5,2,0:0:0:0:
184,252,19162,6,0,B|224:232|296:240,1,79.9999976158142
184,132,19312,2,0,B|224:152|296:144,1,79.9999976158142,0|0,0:0|0:0,0:0:0:0:
136,312,19462,2,0,B|168:281|240:269,1,79.9999976158142,0|0,0:0|0:0,0:0:0:0:
136,72,19612,2,0,B|168:102|240:114,1,79.9999976158142,0|0,0:0|0:0,0:0:0:0:
356,104,19762,6,0,B|412:128,7,39.9999988079071
392,168,20062,6,0,B|452:196,3,60.0000005006791
432,232,20212,6,0,B|512:264,3,79.9999976158142
392,336,20362,6,0,B|356:312|356:312|344:240|292:248|292:248|284:280,1,159.999995231628
244,328,20587,1,0,0:0:0:0:
208,256,20662,2,0,B|204:160|204:160|152:96,1,159.999995231628
328,150,20962,2,0,B|240:136|240:136|192:84,1,159.999995231628
124,40,21187,1,0,0:0:0:0:
88,112,21262,1,0,0:0:0:0:
124,184,21337,6,0,B|140:212|140:212|120:224|120:224|140:248|140:248|116:268|116:268|140:288|140:288|120:312|120:312|140:336|140:336|124:364,1,240.000002002716
496,256,21562,6,0,B|441:197,1,79.9999976158142,0|0,0:0|0:0,0:0:0:0:
364,172,21712,2,0,B|309:113,1,79.9999976158142
300,36,21862,2,0,B|352:28|396:40|396:40|464:84,1,159.999995231628
264,260,22162,6,0,B|214:239|208:165,1,79.9999976158142
144,244,22312,2,0,B|119:196|162:136,1,79.9999976158142
48,208,22462,1,0,0:0:0:0:
48,128,22537,1,0,0:0:0:0:
88,60,22612,1,0,0:0:0:0:
158,26,22687,1,0,0:0:0:0:
232,36,22762,6,0,B|272:40|304:28|304:28|304:40|304:40|344:32|432:40,1,159.999995231628
388,116,22987,1,0,0:0:0:0:
316,148,23062,2,0,B|252:176|252:176|216:172|216:172|160:212,1,159.999995231628
344,192,23362,6,0,B|408:164|408:164|444:168|444:168|500:128,1,159.999995231628
492,220,23587,1,0,0:0:0:0:
492,299,23662,1,0,0:0:0:0:
432,352,23737,2,0,B|404:340|404:340|384:356|384:356|368:344|368:344|348:356|348:356|320:344|320:344|304:356|304:356|284:344|284:344|260:360|260:360|240:348|240:348|200:360,1,240.000002002716
332,264,23962,5,0,0:0:0:0:
252,264,24037,1,0,0:0:0:0:
172,264,24112,1,0,0:0:0:0:
91,264,24187,1,0,0:0:0:0:
11,264,24262,1,0,0:0:0:0:
440,80,24412,1,0,0:0:0:0:
80,192,24562,1,0,0:0:0:0:
432,192,24712,2,0,B|332:192,1,79.9999976158142
152,128,24862,2,0,B|240:172,1,79.9999976158142
360,256,25012,2,0,B|272:212,1,79.9999976158142
256,56,25162,6,0,B|256:216,1,159.999995231628
256,296,25387,1,0,0:0:0:0:
360,256,25462,2,0,B|426:211|426:111|378:153,1,159.999995231628
152,256,25762,2,0,B|85:211|85:111|133:153,1,159.999995231628
184,92,25987,2,0,B|220:60|268:52,1,79.9999976158142
416,40,26137,6,0,B|480:64|480:64|464:80|464:80|480:92|480:92|464:108|464:108|480:116|480:116|464:128|464:128|480:136|480:136|464:152|464:152|480:168|480:168|476:208|476:208,1,240.000002002716
480,256,26362,1,0,0:0:0:0:
448,328,26437,1,0,0:0:0:0:
372,348,26512,1,0,0:0:0:0:
292,340,26587,1,0,0:0:0:0:
236,280,26662,1,0,0:0:0:0:
276,104,26812,1,0,0:0:0:0:
112,352,26962,1,0,0:0:0:0:
400,32,27112,1,0,0:0:0:0:
52,244,27262,6,0,B|160:196,1,79.9999976158142
460,140,27412,2,0,B|352:188,1,79.9999976158142
52,140,27562,2,0,B|164:192|164:192|228:192,1,159.999995231628
256,252,27787,1,0,0:0:0:0:
256,132,27862,2,0,B|212:108|168:36|168:36|160:100,1,159.999995231628
256,252,28162,2,0,B|300:276|344:348|344:348|352:284,1,159.999995231628
424,300,28387,1,0,0:0:0:0:
392,228,28462,1,0,0:0:0:0:
320,192,28537,6,0,B|452:104|452:104|332:136,1,240.000002002716
360,36,28762,5,0,0:0:0:0:
288,68,28837,1,0,0:0:0:0:
216,108,28912,1,0,0:0:0:0:
148,148,28987,1,0,0:0:0:0:
80,192,29062,1,0,0:0:0:0:
360,348,29212,5,0,0:0:0:0:
288,316,29287,1,0,0:0:0:0:
216,276,29362,1,0,0:0:0:0:
148,236,29437,1,0,0:0:0:0:
80,192,29512,1,0,0:0:0:0:
344,196,29662,6,0,B|396:196,3,39.9999988079071
384,196,29812,2,0,B|436:196,3,39.9999988079071,0|0|0|0,0:0|0:0|0:0|0:0,0:0:0:0:
468,120,29962,6,0,B|364:52|364:52|336:100,1,159.999995231628
256,192,30187,1,0,0:0:0:0:
44,264,30262,2,0,B|148:332|148:332|176:284,1,159.999995231628
164,64,30562,2,0,B|104:36|104:36|36:52|52:132,1,159.999995231628
80,176,30787,1,0,0:0:0:0:
156,148,30862,1,0,0:0:0:0:
236,120,30937,6,0,B|264:104|264:104|276:124|276:124|300:104|300:104|320:128|320:128|340:104|340:104|364:124|364:124|388:104|388:104|416:120,1,240.000002002716
448,208,31162,5,0,0:0:0:0:
496,272,31237,1,0,0:0:0:0:
448,336,31312,1,0,0:0:0:0:
368,340,31387,1,0,0:0:0:0:
328,272,31462,2,0,B|368:204|368:204|460:208,1,159.999995231628
276,48,31762,6,0,B|228:140,1,79.9999976158142
144,80,31912,2,0,B|164:172,1,79.9999976158142
64,144,32062,1,0,0:0:0:0:
108,212,32137,1,0,0:0:0:0:
160,272,32212,1,0,0:0:0:0:
208,336,32287,1,0,0:0:0:0:
288,324,32362,6,0,B|416:207,1,159.999995231628
395,142,32587,1,0,0:0:0:0:
334,187,32662,2,0,B|345:345,1,159.999995231628
496,252,32962,1,0,0:0:0:0:
16,252,33112,1,0,0:0:0:0:
256,192,33262,1,0,0:0:0:0:
205,235,33337,6,0,B|220:248|220:248|216:272|216:272|240:288|240:288|256:336|256:336|272:288|272:288|292:272|292:272|292:248|292:248|312:220,1,240.000002002716
188,48,33562,5,0,0:0:0:0:
220,120,33637,1,0,0:0:0:0:
256,192,33712,1,0,0:0:0:0:
292,120,33787,1,0,0:0:0:0:
324,48,33862,1,0,0:0:0:0:
72,108,34012,1,0,0:0:0:0:
440,276,34162,1,0,0:0:0:0:
128,240,34312,6,0,B|168:152,1,79.9999976158142
384,144,34462,2,0,B|344:232,1,79.9999976158142,0|0,0:0|0:0,0:0:0:0:
208,344,34612,2,0,B|224:244,1,79.9999976158142
304,40,34762,6,0,B|288:140|288:140|252:200,1,159.999995231628
204,92,34987,1,0,0:0:0:0:
168,176,35062,2,0,B|168:260|168:260|124:288|88:252,1,159.999995231628
64,276,35362,2,0,B|116:324|172:304|172:304|244:336,1,159.999995231628
280,280,35587,1,0,0:0:0:0:
304,356,35662,1,0,0:0:0:0:
368,304,35737,6,0,B|504:240|504:240|392:232,1,240.000002002716
468,160,35962,1,0,0:0:0:0:
388,148,36037,1,0,0:0:0:0:
308,140,36112,1,0,0:0:0:0:
228,132,36187,1,0,0:0:0:0:
148,116,36262,2,0,B|120:72|136:24|136:24|220:24,1,159.999995231628
364,116,36562,2,0,B|392:72|376:24|376:24|292:24,1,159.999995231628
44,224,36862,1,0,0:0:0:0:
124,236,36937,1,0,0:0:0:0:
204,244,37012,1,0,0:0:0:0:
284,256,37087,1,0,0:0:0:0:
364,268,37162,6,0,B|392:312|376:360|376:360|292:360,1,159.999995231628
256,320,37387,1,0,0:0:0:0:
148,268,37462,2,0,B|120:312|136:360|136:360|220:360,1,159.999995231628
256,112,37762,2,0,B|228:68|168:60,1,79.9999976158142
40,44,37912,2,0,B|104:96,1,79.9999976158142
172,148,38062,1,0,0:0:0:0:
92,176,38137,6,0,B|68:200|40:260|40:260|48:272|48:272|36:280|36:280|48:296|48:296|44:304|44:304|44:312|44:312|44:316|40:320|40:320|40:328|44:332|48:336|48:340|40:348|40:352|48:360|48:360|56:364|76:368,1,240.000002002716
132,304,38362,6,0,B|220:312,1,79.9999976158142
232,348,38512,2,0,B|320:356,1,79.9999976158142
352,384,38662,1,0,0:0:0:0:
380,80,38812,2,0,B|292:72,1,79.9999976158142
280,36,38962,2,0,B|192:28,1,79.9999976158142
160,0,39112,1,0,0:0:0:0:
52,192,39262,6,0,B|56:188|56:188|56:196|56:196|56:188|56:188|56:196|56:196|60:188|60:188|60:196|60:196|60:188|60:188|60:196|60:196|68:188|68:188|64:196|64:196|64:188|64:188|64:196|64:196|68:188|68:188|68:196|68:196|68:188|68:188|68:196|68:196|68:188|68:188|68:196|68:196|64:188|64:188|72:196|72:196|72:188|72:188|76:196|76:196|76:188|76:188|72:188|72:188|72:196|72:196|76:188|76:188|64:188|64:188|76:196|76:196|56:188|56:188|72:196|72:196|68:188|68:188|56:196|56:196|76:188|76:188|84:192|84:192|132:192|132:192|144:184|144:184|156:204|156:204|172:192|172:192|252:192,1,480.000004005432
387,114,39712,5,0,0:0:0:0:
511,176,39862,1,0,0:0:0:0:
359,152,40012,1,0,0:0:0:0:
446,259,40162,1,0,0:0:0:0:
318,176,40312,1,0,0:0:0:0:
345,311,40462,1,0,0:0:0:0:
408,204,40612,1,0,0:0:0:0:
220,344,40762,5,0,0:0:0:0:
61,373,40912,1,0,0:0:0:0:
219,289,41062,1,0,0:0:0:0:
64,250,41212,1,0,0:0:0:0:
240,238,41362,1,0,0:0:0:0:
121,133,41512,1,0,0:0:0:0:
138,275,41662,1,0,0:0:0:0:
138,275,41737,1,0,0:0:0:0:
138,275,41812,1,0,0:0:0:0:
138,275,41887,1,0,0:0:0:0:
138,275,41962,6,0,B|156:200|192:176|192:176|188:124,1,159.999995231628
374,275,42262,2,0,B|356:200|320:176|320:176|324:124,1,159.999995231628
125,92,42562,2,0,B|205:92|205:92|261:160,1,159.999995231628
386,92,42862,2,0,B|306:92|306:92|250:160,1,159.999995231628
256,240,43162,5,0,0:0:0:0:
240,276,43237,1,0,0:0:0:0:
256,312,43312,1,0,0:0:0:0:
272,348,43387,1,0,0:0:0:0:
240,372,43462,2,0,B|292:276|292:276|251:236,1,159.999995231628
112,192,43762,1,0,0:0:0:0:
256,144,43912,1,0,0:0:0:0:
272,108,43987,1,0,0:0:0:0:
256,72,44062,1,0,0:0:0:0:
240,36,44137,1,0,0:0:0:0:
272,12,44212,2,0,B|220:108|220:108|261:148,1,159.999995231628
400,192,44512,1,0,0:0:0:0:
456,64,44662,6,0,B|444:104|444:104|392:120,1,79.9999976158142
56,64,44962,2,0,B|68:104|68:104|120:120,1,79.9999976158142
56,320,45262,2,0,B|68:280|68:280|120:264,1,79.9999976158142
456,320,45562,2,0,B|444:280|444:280|392:264,1,79.9999976158142
196,112,45862,5,0,0:0:0:0:
196,160,46012,1,0,0:0:0:0:
316,272,46162,5,0,0:0:0:0:
316,224,46312,1,0,0:0:0:0:
256,192,46462,5,0,0:0:0:0:
256,192,46537,1,0,0:0:0:0:
256,192,46612,1,0,0:0:0:0:
256,192,46687,1,0,0:0:0:0:
256,192,46762,1,0,0:0:0:0:
256,28,46912,5,0,0:0:0:0:
120,112,47062,6,0,B|128:156|128:156|120:208,1,79.9999976158142
256,356,47362,5,0,0:0:0:0:
256,28,47512,1,0,0:0:0:0:
392,272,47662,6,0,B|384:228|384:228|392:176,1,79.9999976158142
120,112,47962,5,0,0:0:0:0:
188,156,48037,1,0,0:0:0:0:
256,192,48112,1,0,0:0:0:0:
324,228,48187,1,0,0:0:0:0:
392,272,48262,1,0,0:0:0:0:
392,112,48412,5,0,0:0:0:0:
324,156,48487,1,0,0:0:0:0:
256,192,48562,1,0,0:0:0:0:
188,228,48637,1,0,0:0:0:0:
120,272,48712,1,0,0:0:0:0:
412,192,48862,6,0,B|452:192,3,39.9999988079071
448,164,49012,6,0,B|488:164,3,39.9999988079071
488,220,49162,5,0,0:0:0:0:
488,372,49312,1,0,0:0:0:0:
352,372,49462,1,0,0:0:0:0:
352,216,49612,1,0,0:0:0:0:
272,296,49762,1,0,0:0:0:0:
272,296,49912,1,0,0:0:0:0:
188,372,50062,2,0,B|96:372,1,79.9999976158142
24,164,50362,5,0,0:0:0:0:
160,4,50512,1,0,0:0:0:0:
320,172,50662,1,0,0:0:0:0:
240,88,50812,1,0,0:0:0:0:
160,168,50962,2,0,B|80:96,1,79.9999976158142
24,4,51262,1,0,0:0:0:0:
92,4,51337,1,0,0:0:0:0:
160,4,51412,1,0,0:0:0:0:
228,4,51487,1,0,0:0:0:0:
296,4,51562,5,0,0:0:0:0:
216,380,51712,1,0,0:0:0:0:
240,88,51862,1,0,0:0:0:0:
272,296,52012,1,0,0:0:0:0:
140,124,52162,1,0,0:0:0:0:
372,260,52312,1,0,0:0:0:0:
204,240,52462,1,0,0:0:0:0:
308,144,52612,1,0,0:0:0:0:
96,56,52762,5,0,0:0:0:0:
40,112,52837,1,0,0:0:0:0:
28,192,52912,1,0,0:0:0:0:
40,272,52987,1,0,0:0:0:0:
96,328,53062,2,0,B|132:276|104:220|104:220|136:176,1,159.999995231628
380,201,53362,2,0,B|408:164|408:164|380:108|416:56,1,159.999995231628
472,112,53587,1,0,0:0:0:0:
484,192,53662,1,0,0:0:0:0:
472,272,53737,1,0,0:0:0:0:
416,328,53812,1,0,0:0:0:0:
256,140,53962,5,0,0:0:0:0:
204,192,54112,1,0,0:0:0:0:
256,244,54262,1,0,0:0:0:0:
308,192,54412,1,0,0:0:0:0:
120,192,54562,1,0,0:0:0:0:
120,192,54712,1,0,0:0:0:0:
48,28,54862,2,0,B|48:124,1,79.9999976158142
256,140,55162,5,0,0:0:0:0:
308,192,55312,1,0,0:0:0:0:
256,244,55462,1,0,0:0:0:0:
204,192,55612,1,0,0:0:0:0:
392,192,55762,1,0,0:0:0:0:
392,192,55912,1,0,0:0:0:0:
464,32,56062,1,0,0:0:0:0:
464,112,56137,1,0,0:0:0:0:
464,192,56212,1,0,0:0:0:0:
464,272,56287,1,0,0:0:0:0:
464,352,56362,5,0,0:0:0:0:
356,320,56512,1,0,0:0:0:0:
248,296,56662,2,0,B|172:352,1,79.9999976158142
48,32,56962,5,0,0:0:0:0:
156,64,57112,1,0,0:0:0:0:
264,88,57262,2,0,B|332:40,1,79.9999976158142
392,128,57562,6,0,B|320:188,1,79.9999976158142
120,256,57712,2,0,B|192:196,1,79.9999976158142
276,248,57862,2,0,B|316:280|380:264,1,79.9999976158142
236,136,58012,2,0,B|196:104|132:120,1,79.9999976158142
132,112,58162,5,0,0:0:0:0:
104,120,58462,1,0,0:0:0:0:
72,132,58762,6,0,B|88:224|88:224|48:208|28:288|96:344|108:252,1,239.999992847443
184,252,59062,2,0,B|232:236|228:192|228:192|312:192,1,159.999995231628
352,72,59362,2,0,B|396:40|464:68|483:129,1,159.999995231628
352,312,59662,2,0,B|396:344|464:316|483:255,1,159.999995231628
192,124,59962,6,0,B|44:20,1,159.999995231628
240,196,60187,2,0,B|104:96,1,159.999995231628
296,264,60412,2,0,B|208:200,1,79.9999976158142
280,136,60562,6,0,B|344:92|344:92|428:148,1,159.999995231628
244,360,60862,1,0,0:0:0:0:
92,336,61012,1,0,0:0:0:0:
48,192,61162,2,0,B|64:184|64:184|72:200|72:200|104:176|104:176|136:192|136:192|212:192,1,159.999995231628
280,268,61387,2,0,B|317:360|365:354|400:286|326:266|334:294,1,159.999995231628
328,200,61612,2,0,B|308:160|308:160|324:104,1,79.9999976158142
376,32,61762,2,0,B|436:96|436:96|392:188,1,159.999995231628
136,32,62062,2,0,B|76:96|76:96|120:188,1,159.999995231628
296,312,62362,6,0,B|468:365,1,159.999995231628
229,258,62587,2,0,B|389:311,1,159.999995231628
154,210,62812,2,0,B|257:243,1,79.9999976158142
432,140,62962,1,0,0:0:0:0:
152,348,63112,1,0,0:0:0:0:
256,164,63262,1,0,0:0:0:0:
196,112,63337,1,0,0:0:0:0:
216,36,63412,1,0,0:0:0:0:
296,36,63487,1,0,0:0:0:0:
316,112,63562,6,0,B|340:76|380:56|380:56|416:64|476:104,1,159.999995231628,0|0,0:0|0:0,0:0:0:0:
400,200,63787,2,0,B|376:236|336:256|336:256|300:248|240:208,1,159.999995231628
183,173,64012,2,0,B|204:136|184:96,1,79.9999976158142
48,24,64162,2,0,B|96:76|112:124|112:124|76:168,1,159.999995231628
48,360,64462,2,0,B|96:308|112:260|112:260|76:216,1,159.999995231628
28,192,64762,6,0,B|112:192|112:192|136:172|136:172|160:192|160:192|188:192,1,159.999995231628
484,192,64987,2,0,B|400:192|400:192|376:212|376:212|352:192|352:192|324:192,1,159.999995231628
256,44,65212,2,0,B|264:64|264:64|244:104|244:104|280:136,1,79.9999976158142
256,264,65362,2,0,B|184:320,1,79.9999976158142
256,264,65512,2,0,B|256:344,1,79.9999976158142
256,264,65662,2,0,B|328:317,1,79.9999976158142
256,264,65812,2,0,B|256:172,1,79.9999976158142
176,180,65962,6,0,B|176:272|176:272|164:312|116:316,1,159.999995231628
88,216,66187,2,0,B|88:124|88:124|100:84|148:80,1,159.999995231628,0|0,0:0|0:0,0:0:0:0:
196,336,66412,2,0,B|132:380|68:364|40:296,1,159.999995231628
220,108,66712,1,0,0:0:0:0:
328,4,66862,1,0,0:0:0:0:
368,272,67012,1,0,0:0:0:0:
488,20,67162,6,0,B|500:204,1,159.999995231628
472,256,67387,2,0,B|456:72,1,159.999995231628
400,32,67612,2,0,B|408:120,1,79.9999976158142
368,272,67762,6,0,B|364:228,7,39.9999988079071
288,228,68062,6,0,B|280:156,3,60.0000005006791
208,180,68212,6,0,B|196:92,3,79.9999976158142
180,256,68362,6,0,B|200:336|128:372|52:360|48:264,1,239.999992847443
44,112,68662,2,0,B|80:84|80:84|120:96,1,79.9999976158142
132,176,68812,2,0,B|96:204|96:204|56:192,1,79.9999976158142
216,64,68962,2,0,B|256:48|256:48|300:68,1,79.9999976158142
289,148,69112,2,0,B|256:164|256:164|216:148,1,79.9999976158142
399,93,69262,2,0,B|432:84|432:84|468:112,1,79.9999976158142
448,194,69412,2,0,B|416:204|416:204|380:176,1,79.9999976158142
464,288,69562,6,0,B|388:316|388:316|324:252,1,159.999995231628
260,84,69787,2,0,B|268:116|248:152|248:152|272:152|272:152|252:196|264:240,1,159.999995231628
204,304,70012,2,0,B|292:344,1,79.9999976158142
168,228,70162,1,0,0:0:0:0:
136,72,70312,1,0,0:0:0:0:
44,204,70462,1,0,0:0:0:0:
124,340,70612,1,0,0:0:0:0:
292,88,70762,6,0,B|348:44|400:44|456:104,1,159.999995231628
412,192,70987,2,0,B|412:160|443:125|443:125|395:133|363:101,1,159.999995231628
252,200,71212,2,0,B|356:172,1,79.9999976158142
204,116,71362,6,0,B|176:76|204:24,1,79.9999976158142
308,268,71512,2,0,B|336:308|308:360,1,79.9999976158142
204,280,71662,2,0,B|152:208,1,79.9999976158142
52,216,71812,2,0,B|104:288,1,79.9999976158142
128,352,71962,6,0,B|160:308|224:296|304:352,1,159.999995231628
272,50,72187,2,0,B|224:88|160:76|128:32,1,159.999995231628
212,192,72412,2,0,B|240:184|240:184|256:208|256:208|296:188,1,79.9999976158142
356,192,72562,1,0,0:0:0:0:
64,192,72712,1,0,0:0:0:0:
448,194,72862,5,0,0:0:0:0:
406,255,72937,1,0,0:0:0:0:
334,288,73012,1,0,0:0:0:0:
253,289,73087,1,0,0:0:0:0:
181,251,73162,2,0,B|245:285|258:337|215:414,1,159.999995231628
120,196,73387,2,0,B|76:244|80:312|168:336,1,159.999995231628
352,200,73612,2,0,B|236:192,1,79.9999976158142
168,132,73762,6,0,B|178:35,1,79.9999976158142
74,8,73912,2,0,B|100:84,1,79.9999976158142
60,148,74062,2,0,B|2:74,1,79.9999976158142
8,244,74212,2,0,B|32:284|32:284|28:320,1,79.9999976158142
147,357,74362,6,0,B|312:284,1,159.999995231628
388,216,74587,2,0,B|220:280,1,159.999995231628
336,184,74812,2,0,B|436:148,1,79.9999976158142
464,216,74962,1,0,0:0:0:0:
344,80,75112,1,0,0:0:0:0:
168,80,75262,1,0,0:0:0:0:
48,216,75412,1,0,0:0:0:0:
256,364,75562,6,0,B|292:320|236:252|236:252|256:192,1,159.999995231628
176,208,75787,2,0,B|140:252|196:320|196:320|176:380,1,159.999995231628
92,276,76012,2,0,B|80:224|108:180,1,79.9999976158142
140,128,76162,6,0,B|104:48,1,79.9999976158142
372,128,76312,2,0,B|408:48,1,79.9999976158142
256,148,76462,2,0,B|256:68,1,79.9999976158142
256,228,76613,2,0,B|255:143,1,79.9999976158142
44,120,76762,6,0,B|196:220,1,159.999995231628
468,264,76987,2,0,B|316:164,1,159.999995231628
160,16,77212,2,0,B|184:112,1,79.9999976158142
256,372,77362,6,0,B|264:352|264:352|252:336|252:336|272:316|272:316|232:272|264:224,1,159.999995231628
256,148,77962,6,0,B|272:60|328:24|356:52,1,159.999995231628
396,116,78187,1,0,0:0:0:0:
360,188,78262,2,0,B|408:280|408:280|440:208,1,159.999995231628
152,188,78562,2,0,B|104:280|104:280|72:208,1,159.999995231628
336,320,78862,5,0,0:0:0:0:
336,320,78937,2,0,B|258:300|258:300|182:320,1,159.999995231628
204,236,79162,1,0,0:0:0:0:
308,236,79237,1,0,0:0:0:0:
256,176,79312,1,0,0:0:0:0:
256,95,79387,1,0,0:0:0:0:
200,36,79462,2,0,B|157:40|143:86|143:86|108:122|58:95,1,159.999995231628
312,36,79762,2,0,B|355:40|369:86|369:86|404:122|454:95,1,159.999995231628
495,270,80062,6,0,B|487:266|487:266|483:274|483:274|475:266|475:266|475:274|475:274|459:270|459:270|439:270|439:270|423:282|423:282|419:258|419:258|395:270|395:270|351:254|351:254|391:282|391:282|335:270|335:270|311:282|311:282|251:282,1,360.000003004074
180,280,80362,6,0,B|119:285|32:227|89:190,1,159.999995231628
160,194,80587,1,0,0:0:0:0:
245,198,80662,2,0,B|293:167|206:109|146:115,1,159.999995231628
20,288,80962,1,0,0:0:0:0:
56,116,81112,1,0,0:0:0:0:
312,52,81262,5,0,0:0:0:0:
312,52,81337,2,0,B|258:112|258:112|200:50,1,159.999995231628
176,140,81562,5,0,0:0:0:0:
208,212,81637,1,0,0:0:0:0:
256,276,81712,1,0,0:0:0:0:
304,212,81787,1,0,0:0:0:0:
336,140,81862,5,0,0:0:0:0:
140,76,82012,1,0,0:0:0:0:
372,76,82162,1,0,0:0:0:0:
456,232,82312,1,0,0:0:0:0:
56,232,82462,6,0,B|128:268|128:268|160:352,1,159.999995231628
88,128,83062,1,0,0:0:0:0:
400,128,83812,1,0,0:0:0:0:
200,312,84112,1,0,0:0:0:0:
152,252,84262,1,0,0:0:0:0:
432,292,85162,5,0,0:0:0:0:
468,36,85762,5,0,0:0:0:0:
236,8,86362,6,0,B|236:52,7,39.9999988079071
276,60,86662,6,0,B|276:100,7,39.9999988079071
236,100,86962,6,0,B|236:160,3,49.9999985098839
272,156,87112,6,0,B|272:216,3,60.0000005006791
236,200,87262,6,0,B|236:276,3,69.9999985814095
276,264,87412,6,0,B|276:344,3,79.9999976158142
244,316,87562,6,0,B|172:252|172:252|124:232|88:264,1,159.999995231628
28,244,87787,1,0,0:0:0:0:
80,176,87862,2,0,B|124:160|180:172|180:172|224:88,1,159.999995231628
32,136,88162,6,0,B|76:120|132:132|132:132|176:48,1,159.999995231628
84,48,88387,1,0,0:0:0:0:
152,4,88462,1,0,0:0:0:0:
228,24,88537,2,0,B|252:12|252:12|264:28|264:28|292:12|292:12|312:28|312:28|332:16|332:16|388:24,1,159.999995231628
428,116,88762,5,0,0:0:0:0:
356,84,88837,1,0,0:0:0:0:
304,144,88912,1,0,0:0:0:0:
340,216,88987,1,0,0:0:0:0:
420,212,89062,2,0,B|444:264|428:304|428:304|388:336|396:364,1,159.999995231628
92,212,89362,2,0,B|68:264|84:304|84:304|124:336|116:364,1,159.999995231628
184,312,89587,1,0,0:0:0:0:
164,236,89662,2,0,B|201:225|201:225|241:235,1,79.9999976158142
352,328,89812,2,0,B|315:339|315:339|274:328,1,79.9999976158142,0|0,0:0|0:0,0:0:0:0:
256,96,89962,6,0,B|180:40|92:32|88:64|176:80,1,159.999995231628
144,140,90187,1,0,0:0:0:0:
68,120,90262,2,0,B|24:312|88:200,1,159.999995231628
296,208,90562,2,0,B|228:232|228:232|240:196,1,79.9999976158142
344,136,90712,2,0,B|412:112|412:112|400:148,1,79.9999976158142
452,188,90862,1,0,0:0:0:0:
376,236,90937,6,0,B|320:368|320:368|412:296,1,240.000002002716
304,48,91162,5,0,0:0:0:0:
268,120,91237,1,0,0:0:0:0:
236,192,91312,1,0,0:0:0:0:
200,264,91387,1,0,0:0:0:0:
280,256,91462,1,0,0:0:0:0:
148,58,91612,1,0,0:0:0:0:
304,48,91762,1,0,0:0:0:0:
164,336,91912,5,0,0:0:0:0:
118,269,91987,1,0,0:0:0:0:
76,203,92062,1,0,0:0:0:0:
31,137,92137,1,0,0:0:0:0:
111,134,92212,1,0,0:0:0:0:
20,352,92362,6,0,B|84:184,1,159.999995231628
156,202,92587,1,0,0:0:0:0:
196,132,92662,2,0,B|212:76|152:24|80:64,1,159.999995231628
316,252,92962,2,0,B|300:308|360:360|432:320,1,159.999995231628
404,248,93187,1,0,0:0:0:0:
364,180,93262,1,0,0:0:0:0:
288,152,93337,6,0,B|296:132|296:132|328:120|328:120|324:96|324:96|356:88|356:88|360:64|360:64|420:32,1,159.999995231628
448,140,93562,6,0,B|468:244,1,79.9999976158142
64,140,93712,2,0,B|44:244,1,79.9999976158142,0|0,0:0|0:0,0:0:0:0:
72,360,93862,2,0,B|128:376|188:344|160:260,1,159.999995231628
92,8,94162,2,0,B|128:40|132:100|132:100|148:60|196:40,1,159.999995231628
244,32,94387,1,0,0:0:0:0:
324,20,94462,5,0,0:0:0:0:
324,100,94537,1,0,0:0:0:0:
324,180,94612,1,0,0:0:0:0:
324,260,94687,1,0,0:0:0:0:
324,340,94762,6,0,B|428:296|428:296|400:240,1,159.999995231628
460,192,94987,1,0,0:0:0:0:
408,132,95062,2,0,B|444:52,1,79.9999976158142
272,119,95212,2,0,B|240:192,1,79.9999976158142
92,260,95362,2,0,B|128:180,1,79.9999976158142
72,64,95512,2,0,B|39:136,1,79.9999976158142
24,216,95662,1,0,0:0:0:0:
141,107,95737,6,0,B|192:120|192:120|256:100|256:100|320:120|320:120|384:104,1,240.000002002716
392,196,95962,5,0,0:0:0:0:
328,248,96037,1,0,0:0:0:0:
256,248,96112,1,0,0:0:0:0:
184,248,96187,1,0,0:0:0:0:
120,196,96262,1,0,0:0:0:0:
99,304,96412,5,0,0:0:0:0:
172,344,96487,1,0,0:0:0:0:
256,344,96562,1,0,0:0:0:0:
336,344,96637,1,0,0:0:0:0:
412,304,96712,1,0,0:0:0:0:
436,104,96862,6,0,B|408:56,3,39.9999988079071
388,80,97012,2,0,B|369:39,3,39.9999988079071
336,80,97162,6,0,B|280:-4,1,79.9999976158142
324,140,97312,2,0,B|268:56,1,79.9999976158142,0|0,0:0|0:0,0:0:0:0:
304,192,97462,2,0,B|248:108,1,79.9999976158142
292,252,97612,2,0,B|236:168,1,79.9999976158142,0|0,0:0|0:0,0:0:0:0:
264,304,97762,6,0,B|208:388,1,79.9999976158142
252,244,97912,2,0,B|196:328,1,79.9999976158142,0|0,0:0|0:0,0:0:0:0:
232,192,98062,2,0,B|176:276,1,79.9999976158142
220,132,98212,2,0,B|164:216,1,79.9999976158142,0|0,0:0|0:0,0:0:0:0:
212,76,98362,6,0,B|176:52|176:52|128:60,1,79.9999976158142
36,136,98512,2,0,B|72:160|72:160|120:152,1,79.9999976158142
300,76,98662,2,0,B|336:52|336:52|384:60,1,79.9999976158142
476,136,98812,2,0,B|440:160|440:160|392:152,1,79.9999976158142
184,264,98962,6,0,B|84:276,3,79.9999976158142
328,264,99262,2,0,B|428:276,3,79.9999976158142
268,380,99562,6,0,B|268:284,1,79.9999976158142
244,4,99712,2,0,B|244:100,1,79.9999976158142,0|0,0:0|0:0,0:0:0:0:
268,380,99862,2,0,B|268:284,1,79.9999976158142
244,4,100012,2,0,B|244:100,1,79.9999976158142,0|0,0:0|0:0,0:0:0:0:
268,380,100162,2,0,B|268:284,1,79.9999976158142
244,4,100312,2,0,B|244:100,1,79.9999976158142,0|0,0:0|0:0,0:0:0:0:
268,380,100462,2,0,B|268:284,1,79.9999976158142
244,4,100612,2,0,B|244:100,1,79.9999976158142,0|0,0:0|0:0,0:0:0:0:
176,244,100762,5,0,0:0:0:0:
120,300,100837,1,0,0:0:0:0:
64,244,100912,1,0,0:0:0:0:
83,164,100987,1,0,0:0:0:0:
164,164,101062,1,0,0:0:0:0:
392,300,101212,1,0,0:0:0:0:
120,96,101362,1,0,0:0:0:0:
416,24,101512,5,0,0:0:0:0:
468,84,101587,1,0,0:0:0:0:
468,164,101662,1,0,0:0:0:0:
452,244,101737,1,0,0:0:0:0:
392,300,101812,1,0,0:0:0:0:
312,300,101887,1,0,0:0:0:0:
240,264,101962,6,0,B|216:200|232:136|308:92,1,159.999995231628
248,32,102187,1,0,0:0:0:0:
188,96,102262,2,0,B|212:140|200:192,1,79.9999976158142
152,244,102412,2,0,B|108:272|56:248,1,79.9999976158142
92,104,102562,2,0,B|84:20,1,79.9999976158142
420,280,102712,2,0,B|428:364,1,79.9999976158142,0|0,0:0|0:0,0:0:0:0:
348,352,102862,1,0,0:0:0:0:
268,344,102937,6,0,B|92:332|92:332|160:288,1,240.000002002716
8,280,103162,5,0,0:0:0:0:
80,240,103237,1,0,0:0:0:0:
148,200,103312,1,0,0:0:0:0:
216,160,103387,1,0,0:0:0:0:
288,120,103462,2,0,B|224:144|154:100|154:100|112:120,1,159.999995231628
224,264,103762,2,0,B|288:240|357:283|357:283|400:264,1,159.999995231628
376,192,103987,1,0,0:0:0:0:
380,112,104062,5,0,0:0:0:0:
384,32,104137,1,0,0:0:0:0:
464,40,104212,1,0,0:0:0:0:
460,120,104287,1,0,0:0:0:0:
380,112,104362,6,0,B|352:48|296:64|296:64|248:64|220:28,1,159.999995231628
172,16,104587,1,0,0:0:0:0:
96,40,104662,2,0,B|96:128,1,79.9999976158142
56,124,104812,2,0,B|60:208,1,79.9999976158142
96,216,104962,2,0,B|88:308,1,79.9999976158142
48,292,105112,2,0,B|60:388,1,79.9999976158142
136,376,105262,1,0,0:0:0:0:
200,316,105337,6,0,B|212:288|212:288|200:276|192:256|192:256|200:232|224:212|224:212|216:184|192:168|192:168|188:136|220:96,1,240.000002002716
260,48,105562,5,0,0:0:0:0:
324,96,105637,1,0,0:0:0:0:
392,140,105712,1,0,0:0:0:0:
392,220,105787,1,0,0:0:0:0:
392,300,105862,1,0,0:0:0:0:
260,48,106012,5,0,0:0:0:0:
196,96,106087,1,0,0:0:0:0:
128,140,106162,1,0,0:0:0:0:
128,220,106237,1,0,0:0:0:0:
128,300,106312,1,0,0:0:0:0:
260,128,106462,6,0,B|260:132|260:132|252:132|252:132|264:120|264:120|260:136|260:136|256:132|256:132|260:120|260:120|260:132|260:132|252:128|252:128|268:124|268:124|260:140|260:140|252:140|252:140|268:140|268:140|252:140|252:140|268:140|268:140|252:140|252:140|264:140|264:140|256:140|256:140|268:136|268:136|260:140|260:140|268:140|268:140|256:140|268:140|268:140|256:140|256:140|264:140|264:140|252:144|252:144|268:140|268:140|256:140|256:140|268:136|268:136|260:136|260:136|260:140|260:140|260:120|260:120|252:136|252:136|268:136|268:136|260:140|260:140|268:136|268:136|260:128|260:128|252:136|252:136|268:128|268:128|268:132|268:132|268:132|268:132|260:140|260:140|268:140|268:140|240:196|260:224|260:224|288:268|262:297,1,639.999980926514
208,112,116362,6,0,B|208:12|208:12|164:-20|132:44,1,180.000001502037
304,112,116662,2,0,B|304:12|304:12|348:-20|380:44,1,180.000001502037
304,272,116962,2,0,B|304:372|304:372|348:404|380:340,1,180.000001502037
208,272,117262,2,0,B|208:372|208:372|164:404|132:340,1,180.000001502037
48,288,117562,6,0,B|164:192|164:192|104:176,1,180.000001502037
464,96,117862,2,0,B|348:192|348:192|408:208,1,180.000001502037
188,124,118162,2,0,B|148:88|148:88|80:36|40:96,1,180.000001502037
324,260,118462,2,0,B|364:296|364:296|432:348|472:288,1,180.000001502037
296,144,118762,6,0,B|256:112|368:104|368:104|316:40,1,180.000001502037
216,240,119062,2,0,B|256:272|144:280|144:280|196:344,1,180.000001502037
307,226,119362,2,0,B|335:183|355:294|355:294|413:235,1,180.000001502037
204,157,119662,2,0,B|176:200|156:89|156:89|98:148,1,180.000001502037
32,80,119962,6,0,B|112:4|112:4|192:16,1,180.000001502037
331,14,120262,2,2,B|400:4|400:4|480:80,1,180.000001502037
480,304,120562,2,2,B|400:380|400:380|331:369,1,180.000001502037
180,369,120863,2,0,B|112:380|112:380|32:304,1,180.000001502037
208,308,121162,6,0,B|248:224|248:224|224:164|176:196,1,180.000001502037
208,76,121462,2,0,B|248:160|248:160|224:220|176:188,1,180.000001502037
304,308,121762,2,0,B|264:224|264:224|288:164|336:196,1,180.000001502037
304,76,122062,2,0,B|264:160|264:160|288:220|336:188,1,180.000001502037
380,128,122362,6,0,B|440:136|464:192|464:192|372:240,1,180.000001502037
132,128,122662,2,0,B|72:136|48:192|48:192|140:240,1,180.000001502037
200,252,122962,2,0,B|256:340|256:340|224:376|160:352,1,180.000001502037
312,252,123262,2,0,B|256:340|256:340|288:376|352:352,1,180.000001502037
444,352,123562,6,0,B|496:280|388:268|392:208|432:228|432:228|456:248,1,180.000001502037
68,352,123862,2,0,B|16:280|124:268|120:208|80:228|80:228|56:248,1,180.000001502037
328,216,124162,2,0,B|380:144|272:132|276:72|316:92|316:92|340:112,1,180.000001502037
184,216,124462,2,0,B|132:144|240:132|236:72|196:92|196:92|172:112,1,180.000001502037
40,12,124762,6,0,B|12:52|72:80|72:80|44:104|44:104|88:136|84:188,1,180.000001502037
472,12,125062,2,0,B|500:52|440:80|440:80|468:104|468:104|424:136|428:188,1,180.000001502037
256,188,125362,2,0,B|296:236|264:276|264:276|224:312|268:380,1,180.000001502037
253,352,125662,6,0,B|264:340|264:340|244:336|244:336|268:328|268:328|208:304|208:304|268:232|268:232|248:200|248:200|280:164|280:164|252:92,1,360.000003004074
16,156,125962,6,0,B|112:96|112:96|176:108|104:168,1,159.999995231628
100,192,126187,1,0,0:0:0:0:
16,228,126262,2,0,B|112:288|112:288|176:276|104:216,1,159.999995231628,0|0,0:0|0:0,0:0:0:0:
452,192,126562,2,0,B|421:186|421:186|408:208|408:208|384:192|384:192|300:192,1,159.999995231628
229,192,126787,1,0,0:0:0:0:
229,272,126862,1,0,0:0:0:0:
312,284,126937,2,0,B|376:284|376:284|412:260|412:260|448:308|448:308|468:280|468:280|540:280,1,240.000002002716
432,68,127162,5,0,0:0:0:0:
356,40,127237,1,0,0:0:0:0:
276,36,127312,1,0,0:0:0:0:
200,60,127387,1,0,0:0:0:0:
148,120,127462,2,0,B|155:200|248:214|248:214|215:257,1,159.999995231628
20,368,127762,2,0,B|-8:332|2:293,1,79.9999976158142
72,196,127912,2,0,B|100:232|90:271,1,79.9999976158142
40,112,128062,6,0,B|48:72|48:72|88:68|88:68|104:24|104:24|144:32|144:32|192:0|192:0|236:28|236:28|280:5|280:5|344:12,1,360.000003004074
320,88,128362,6,0,B|360:200|360:252|308:188,1,159.999995231628
248,172,128587,1,0,0:0:0:0:
180,216,128662,2,0,B|156:128,1,79.9999976158142
256,252,128812,2,0,B|277:330,1,79.9999976158142
344,372,128962,2,0,B|390:307,1,79.9999976158142
388,168,129112,2,0,B|341:232,1,79.9999976158142
472,200,129262,1,0,0:0:0:0:
472,112,129337,6,0,B|464:72|464:72|424:68|424:68|408:24|408:24|368:32|368:32|320:0|320:0|276:16,1,240.000002002716
256,56,129562,5,0,0:0:0:0:
256,136,129637,1,0,0:0:0:0:
256,216,129712,1,0,0:0:0:0:
256,296,129787,1,0,0:0:0:0:
256,376,129862,1,0,0:0:0:0:
136,88,130012,1,0,0:0:0:0:
376,296,130162,1,0,0:0:0:0:
56,192,130312,1,0,0:0:0:0:
456,192,130462,6,0,B|296:192,1,159.999995231628
296,192,131062,1,0,0:0:0:0:
64,44,131812,1,0,0:0:0:0:
76,312,132112,1,0,0:0:0:0:
136,276,132262,1,0,0:0:0:0:
408,280,133162,5,0,0:0:0:0:
280,48,134362,6,0,B|296:104,7,39.9999988079071
332,80,134662,2,0,B|372:116,7,39.9999988079071
400,72,134962,6,0,B|408:140,3,49.9999985098839
376,176,135112,6,0,B|328:224,3,60.0000005006791
276,180,135262,6,0,B|200:148,3,69.9999985814095
176,80,135412,6,0,B|100:120,3,79.9999976158142
28,236,135562,6,0,B|-17:306|23:377|123:389|160:277,1,240.000002002716
220,332,135787,2,0,B|265:261|224:190|124:178|87:290,1,240.000002002716,0|0,0:0|0:0,0:0:0:0:
220,332,136012,2,0,B|272:376|376:340,1,120.000001001358
472,340,136162,2,0,B|464:308|464:308|420:288|420:288|392:236,1,120.000001001358
40,44,136312,2,0,B|48:76|48:76|92:96|92:96|120:148,1,120.000001001358
232,124,136462,2,0,B|320:128|320:128|276:160,1,120.000001001358
280,260,136612,2,0,B|192:256|192:256|236:224,1,120.000001001358
332,56,136762,6,0,B|375:80|432:58|432:58|408:31|408:31|375:80|419:148,1,240.000002002716
180,56,136987,2,0,B|136:80|79:58|79:58|103:31|103:31|136:80|92:148,1,240.000002002716
256,376,137212,2,0,B|262:372|262:372|238:334|238:334|263:311|263:311|254:279,1,120.000001001358
48,200,137362,6,0,B|52:280|52:280|80:312|96:296,1,120.000001001358
427,301,137512,2,0,B|432:312|460:280|460:280|464:200,1,120.000001001358
160,144,137662,2,0,B|136:200|136:200|176:252,1,120.000001001358
339,246,137812,2,0,B|376:200|376:200|352:144,1,120.000001001358
28,56,137962,6,0,B|60:44|60:44|72:60|72:60|120:24|120:24|148:56|148:56|256:56,1,240.000002002716
484,328,138187,2,0,B|452:340|452:340|440:324|440:324|392:360|392:360|364:328|364:328|256:328,1,240.000002002716
88,136,138412,2,0,B|24:172|24:172|36:200|100:176,1,120.000001001358
80,298,138562,6,0,B|100:336|100:336|116:260,1,120.000001001358
188,218,138712,2,0,B|208:256|208:256|224:180,1,120.000001001358
292,126,138862,2,0,B|312:164|312:164|328:88,1,120.000001001358
388,38,139012,2,0,B|408:76|408:76|424:0,1,120.000001001358
40,264,139162,2,0,B|84:224|56:100|56:100|96:200|236:192,1,319.999990463257
472,264,139387,2,0,B|428:224|456:100|456:100|416:200|276:192,1,319.999990463257
256,32,139612,2,0,B|200:32|200:32|304:32,1,159.999995231628
124,340,139762,6,0,B|148:276|192:252|192:252|244:276,1,120.000001001358
388,44,139912,2,0,B|364:108|320:132|320:132|268:108,1,120.000001001358
124,340,140062,2,0,B|148:276|192:252|192:252|244:276,1,120.000001001358
388,44,140212,2,0,B|364:108|320:132|320:132|268:108,1,120.000001001358
318,277,140362,6,0,B|304:328|380:368|460:356|460:356|456:272|364:256,1,240.000002002716
340,184,140587,2,0,B|284:188|284:188|240:148|240:148|192:92|192:92|116:108,1,240.000002002716
32,176,140812,2,0,B|156:172,1,120.000001001358
400,151,140962,6,0,B|428:108|428:108|420:84|420:84|444:48,1,120.000001001358
111,232,141113,2,0,B|84:276|84:276|92:300|92:300|68:336,1,120.000001001358
256,300,141262,2,0,B|224:272|224:272|299:255,1,120.000001001358
256,84,141412,2,0,B|288:112|288:112|212:128,1,120.000001001358
416,324,141562,6,0,B|437:294|464:316|439:352|439:352|400:264|400:264|436:240|480:268,1,240.000002002716
96,60,141787,2,0,B|75:90|48:68|73:32|73:32|112:120|112:120|76:144|32:116,1,240.000002002716
256,192,142012,2,0,B|256:228|256:228|256:132,1,120.000001001358
336,36,142162,6,0,B|404:36|440:124,1,120.000001001358
336,348,142312,2,0,B|404:348|440:260,1,120.000001001358
176,104,142462,2,0,B|240:68|240:68|308:64,1,120.000001001358
176,280,142612,2,0,B|240:316|240:316|308:320,1,120.000001001358
400,192,142762,6,0,B|60:192,1,319.999990463257
84,168,142987,6,0,B|424:220,1,319.999990463257
395,236,143212,6,0,B|264:140,1,159.999995231628
32,36,143362,6,0,B|216:72,1,159.999995231628
488,144,143512,2,0,B|304:108,1,159.999995231628
24,144,143662,2,0,B|181:113,1,159.999995231628
480,36,143812,2,0,B|322:66,1,159.999995231628
104,344,143962,6,0,B|412:260,1,319.999990463257
408,344,144187,2,0,B|99:260,1,319.999990463257
256,144,144412,2,0,B|256:312,1,159.999995231628
172,192,144562,6,0,B|148:132,7,39.9999988079071
80,88,144862,6,0,B|136:64,3,60.0000005006791
208,80,145012,6,0,B|280:120,3,79.9999976158142
352,252,145162,6,0,B|408:300|408:300|404:256|404:256|448:268|312:312|348:384|456:300|456:300|456:364,1,319.999990463257
160,252,145387,2,0,B|104:300|104:300|108:256|108:256|64:268|200:312|164:384|56:300|56:300|56:364,1,319.999990463257
256,352,145612,2,0,B|268:324|268:324|236:276|236:276|232:224|280:232|264:268,1,159.999995231628
208,92,145762,6,0,B|164:92|144:44|144:44|156:88|124:120,1,159.999995231628
304,92,145912,2,0,B|348:92|368:44|368:44|356:88|388:120,1,159.999995231628
116,200,146062,2,0,B|72:200|52:248|52:248|64:204|72:160,1,159.999995231628
396,200,146212,2,0,B|440:200|460:248|460:248|448:204|440:160,1,159.999995231628
44,60,146362,6,0,B|96:60|96:60|96:112|96:112|156:112|156:112|156:164|156:164|204:116|272:176,1,319.999990463257
468,324,146587,2,0,B|416:324|416:324|416:272|416:272|356:272|356:272|356:220|356:220|308:268|240:208,1,319.999990463257
356,96,146812,2,0,B|428:48|428:48|424:132,1,159.999995231628
288,308,146962,6,0,B|288:364|288:364|232:320|184:392,1,159.999995231628
140,224,147112,2,0,B|84:224|84:224|128:168|56:120,1,159.999995231628
224,76,147262,2,0,B|224:20|224:20|280:64|328:-8,1,159.999995231628
372,160,147412,2,0,B|428:160|428:160|384:216|456:264,1,159.999995231628
424,360,147562,6,0,B|360:360|360:360|336:340|336:340|316:376|316:376|304:360|304:360|248:360|248:360|220:372|220:372|204:344|204:344|176:364|176:364|116:364,1,319.999990463257
88,24,147787,2,0,B|152:24|152:24|176:44|176:44|196:8|196:8|208:24|208:24|264:24|264:24|292:12|292:12|308:40|308:40|336:20|336:20|396:20,1,319.999990463257
352,252,148012,2,0,B|316:252|316:252|296:236|296:236|280:288|280:288|240:252,1,159.999995231628
68,244,148162,6,0,B|88:260|88:260|96:244|96:244|108:260|108:260|124:252|124:252|128:276|128:276|148:268|148:268|168:292|168:292|188:276,1,159.999995231628
308,380,148312,2,0,B|324:360|324:360|308:352|308:352|324:340|324:340|316:324|316:324|340:320|340:320|332:300|332:300|356:280|356:280|340:260,1,159.999995231628
444,140,148462,2,0,B|424:124|424:124|416:140|416:140|404:124|404:124|388:132|388:132|384:108|384:108|364:116|364:116|344:92|344:92|324:108,1,159.999995231628
204,4,148612,2,0,B|188:24|188:24|204:32|204:32|188:44|188:44|196:60|196:60|172:64|172:64|180:84|180:84|156:104|156:104|172:124,1,159.999995231628
141,139,148762,6,0,B|107:82|121:7|191:-30|249:21|260:74|216:150,1,319.999990463257
217,146,148987,2,0,B|179:201|187:277|255:320|317:272|331:220|292:141,1,319.999990463257
293,145,149212,2,0,B|259:88|273:12|343:-25|401:26|412:79|368:155,1,319.999990463257
256,344,149512,1,0,0:0:0:0:
168,252,149662,2,0,B|104:302|104:302|32:306|103:250,1,159.999995231628,0|0,2:0|2:0,2:0:0:0:
344,252,149812,2,0,B|407:302|407:302|479:306|408:250,1,159.999995231628,0|0,2:0|2:0,2:0:0:0:
168,252,149962,6,0,B|232:168|176:72|176:72|104:136|48:80|80:-8,1,319.999990463257
344,252,150187,2,0,B|280:168|336:72|336:72|408:136|464:80|432:-8,1,319.999990463257
256,256,150412,2,0,B|232:304|256:376|256:376|200:320,1,159.999995231628
40,128,150562,2,0,B|92:280,1,159.999995231628
40,368,150712,2,0,B|92:216,1,159.999995231628
472,128,150862,2,0,B|420:280,1,159.999995231628
472,368,151012,2,0,B|420:216,1,159.999995231628
224,32,151162,6,0,B|176:48|68:124|124:240|304:144,1,319.999990463257
260,92,151387,2,0,B|212:108|104:184|160:300|340:204,1,319.999990463257
284,156,151612,2,0,B|224:172|180:228|200:292,1,159.999995231628
312,304,151762,2,0,B|372:288|416:232|396:168,1,159.999995231628
492,100,151912,2,0,B|356:-8,1,159.999995231628
64,108,152062,6,0,B|96:152|24:184|76:240,1,119.999996423721
40,300,152362,5,0,0:0:0:0:
120,300,152437,1,0,0:0:0:0:
200,300,152512,1,0,0:0:0:0:
280,300,152587,1,0,0:0:0:0:
360,300,152662,1,0,0:0:0:0:
472,84,152812,5,0,0:0:0:0:
376,84,152887,1,0,0:0:0:0:
280,84,152962,1,0,0:0:0:0:
184,84,153037,1,0,0:0:0:0:
88,84,153112,1,0,0:0:0:0:
0,192,153262,5,0,0:0:0:0:
128,192,153337,5,0,0:0:0:0:
256,192,153412,5,0,0:0:0:0:
384,192,153487,5,0,0:0:0:0:
512,192,153562,6,0,B|464:192|464:192|504:204|504:204|464:192|464:192|496:200|496:200|464:192|464:192|496:188|496:188|464:192|464:192|512:192|512:192|464:192|464:192|488:204|488:204|464:192|464:192|504:184|504:184|464:192|464:192|488:184|488:184|464:192|464:192|358:191|358:191|392:184|392:184|360:192|360:192|392:200|392:200|360:192|360:192|412:192|412:192|360:192|360:192|400:192|400:192|360:192|360:192|410:176|410:176|360:192|360:192|410:206|410:206|360:192|360:192|236:192,1,1279.99996185303
