osu file format v14

[General]
AudioFilename: 07 Crush Everyone 1.mp3
AudioLeadIn: 0
PreviewTime: 52578
Countdown: 0
SampleSet: Normal
StackLeniency: 0.7
Mode: 3
LetterboxInBreaks: 0
SpecialStyle: 0
WidescreenStoryboard: 1

[Editor]
Bookmarks: 7578
DistanceSpacing: 0.5
BeatDivisor: 2
GridSize: 8
TimelineZoom: 1.600002

[Metadata]
Title:Crush Everyone
TitleUnicode:Crush Everyone
Artist:The Quick Brown Fox
ArtistUnicode:The Quick Brown Fox
Creator:Lokovodo
Version:7K EZ
Source:
Tags:LAPFOX TRAX tqbf 2006 Renard speedcore
BeatmapID:1459185
BeatmapSetID:190233

[Difficulty]
HPDrainRate:8
CircleSize:7
OverallDifficulty:8
ApproachRate:5
SliderMultiplier:1.4
SliderTickRate:1

[Events]
//Background and Video events
0,0,"06.jpg",0,0
//Break Periods
//Storyboard Layer 0 (Background)
//Storyboard Layer 1 (Fail)
//Storyboard Layer 2 (Pass)
//Storyboard Layer 3 (Foreground)
//Storyboard Sound Samples

[TimingPoints]
1578,187.5,4,1,0,30,1,0
28578,-100,4,1,0,30,0,1
39078,-100,4,1,0,30,0,0
40578,-100,4,1,0,30,0,1
51078,-100,4,1,0,30,0,0
67578,-100,4,1,0,30,0,1
78078,-100,4,1,0,30,0,0
79578,-100,4,1,0,30,0,1
90078,-100,4,1,0,30,0,0

[HitObjects]
36,192,1578,5,0,0:0:0:0:
329,192,2140,1,0,0:0:0:0:
109,192,2515,1,0,0:0:0:0:
402,192,2703,1,0,0:0:0:0:
36,192,3078,128,0,3828:0:0:0:0:
475,192,4578,1,0,0:0:0:0:
182,192,5140,1,0,0:0:0:0:
402,192,5515,1,0,0:0:0:0:
109,192,5703,1,0,0:0:0:0:
475,192,6078,128,0,6640:0:0:0:0:
36,192,7015,1,0,0:0:0:0:
329,192,7203,1,0,0:0:0:0:
109,192,7578,1,0,0:0:0:0:
402,192,8140,1,0,0:0:0:0:
36,192,8515,1,0,0:0:0:0:
329,192,8703,1,0,0:0:0:0:
182,192,9078,128,0,9828:0:0:0:0:
402,192,10578,1,0,0:0:0:0:
109,192,11140,1,0,0:0:0:0:
475,192,11515,1,0,0:0:0:0:
182,192,11703,1,0,0:0:0:0:
36,192,12078,128,0,12828:0:0:0:0:
402,192,13015,1,0,0:0:0:0:
109,192,13203,1,0,0:0:0:0:
475,192,13578,1,0,0:0:0:0:
329,192,13578,1,0,0:0:0:0:
329,192,14515,1,0,0:0:0:0:
182,192,15078,1,0,0:0:0:0:
36,192,15078,1,0,0:0:0:0:
402,192,16578,1,0,0:0:0:0:
256,192,16578,1,0,0:0:0:0:
256,192,18078,1,0,0:0:0:0:
109,192,18078,1,0,0:0:0:0:
36,192,19578,1,0,0:0:0:0:
182,192,19578,1,0,0:0:0:0:
256,192,20140,1,0,0:0:0:0:
109,192,20703,1,0,0:0:0:0:
329,192,21078,1,0,0:0:0:0:
475,192,21078,1,0,0:0:0:0:
402,192,21828,1,0,0:0:0:0:
109,192,22578,1,0,0:0:0:0:
256,192,22578,1,0,0:0:0:0:
329,192,23328,1,0,0:0:0:0:
109,192,23703,1,0,0:0:0:0:
256,192,24078,1,0,0:0:0:0:
402,192,24078,1,0,0:0:0:0:
109,192,24640,1,0,0:0:0:0:
329,192,25015,1,0,0:0:0:0:
36,192,25578,1,0,0:0:0:0:
256,192,25578,1,0,0:0:0:0:
256,192,26703,1,0,0:0:0:0:
475,192,26890,1,0,0:0:0:0:
109,192,27078,1,0,0:0:0:0:
329,192,27078,1,0,0:0:0:0:
256,192,28203,5,0,0:0:0:0:
475,192,28578,1,0,0:0:0:0:
329,192,28953,1,0,0:0:0:0:
182,192,29328,1,0,0:0:0:0:
402,192,29703,1,0,0:0:0:0:
36,192,30078,1,0,0:0:0:0:
182,192,30453,1,0,0:0:0:0:
329,192,30828,1,0,0:0:0:0:
109,192,31203,1,0,0:0:0:0:
402,192,31390,1,0,0:0:0:0:
329,192,31578,1,0,0:0:0:0:
182,192,31953,1,0,0:0:0:0:
329,192,32328,1,0,0:0:0:0:
36,192,32703,1,0,0:0:0:0:
109,192,33078,1,0,0:0:0:0:
329,192,33453,1,0,0:0:0:0:
256,192,33640,1,0,0:0:0:0:
182,192,33828,1,0,0:0:0:0:
475,192,34203,1,0,0:0:0:0:
329,192,34390,1,0,0:0:0:0:
109,192,34578,1,0,0:0:0:0:
256,192,34953,1,0,0:0:0:0:
475,192,35328,1,0,0:0:0:0:
329,192,35703,1,0,0:0:0:0:
402,192,36078,1,0,0:0:0:0:
256,192,36453,1,0,0:0:0:0:
36,192,36828,1,0,0:0:0:0:
182,192,37203,1,0,0:0:0:0:
329,192,37390,1,0,0:0:0:0:
475,192,37578,1,0,0:0:0:0:
329,192,37953,1,0,0:0:0:0:
182,192,38328,1,0,0:0:0:0:
36,192,38703,1,0,0:0:0:0:
256,192,39078,1,0,0:0:0:0:
402,192,40578,1,0,0:0:0:0:
256,192,40953,1,0,0:0:0:0:
329,192,41328,1,0,0:0:0:0:
182,192,41703,1,0,0:0:0:0:
256,192,42078,1,0,0:0:0:0:
109,192,42453,1,0,0:0:0:0:
182,192,42828,1,0,0:0:0:0:
36,192,43203,1,0,0:0:0:0:
329,192,43390,1,0,0:0:0:0:
109,192,43578,1,0,0:0:0:0:
256,192,43953,1,0,0:0:0:0:
182,192,44328,1,0,0:0:0:0:
329,192,44703,1,0,0:0:0:0:
256,192,45078,1,0,0:0:0:0:
402,192,45453,1,0,0:0:0:0:
182,192,45640,1,0,0:0:0:0:
329,192,45828,1,0,0:0:0:0:
475,192,46203,1,0,0:0:0:0:
182,192,46390,1,0,0:0:0:0:
402,192,46578,1,0,0:0:0:0:
256,192,46953,1,0,0:0:0:0:
329,192,47328,1,0,0:0:0:0:
182,192,47703,1,0,0:0:0:0:
256,192,48078,1,0,0:0:0:0:
109,192,48453,1,0,0:0:0:0:
182,192,48828,1,0,0:0:0:0:
36,192,49203,1,0,0:0:0:0:
256,192,49390,1,0,0:0:0:0:
475,192,49578,1,0,0:0:0:0:
329,192,49765,1,0,0:0:0:0:
182,192,49953,1,0,0:0:0:0:
36,192,50140,1,0,0:0:0:0:
475,192,50328,1,0,0:0:0:0:
329,192,50515,1,0,0:0:0:0:
182,192,50703,1,0,0:0:0:0:
36,192,50890,1,0,0:0:0:0:
256,192,51078,1,0,0:0:0:0:
402,192,51078,1,0,0:0:0:0:
182,192,52578,1,0,0:0:0:0:
36,192,52578,1,0,0:0:0:0:
402,192,54078,1,0,0:0:0:0:
256,192,55578,1,0,0:0:0:0:
109,192,55578,1,0,0:0:0:0:
329,192,57078,1,0,0:0:0:0:
109,192,57453,1,0,0:0:0:0:
402,192,57828,1,0,0:0:0:0:
109,192,58203,1,0,0:0:0:0:
182,192,58390,1,0,0:0:0:0:
329,192,58578,1,0,0:0:0:0:
475,192,58578,1,0,0:0:0:0:
256,192,59140,1,0,0:0:0:0:
402,192,59703,1,0,0:0:0:0:
36,192,60078,1,0,0:0:0:0:
182,192,60078,1,0,0:0:0:0:
256,192,61578,1,0,0:0:0:0:
402,192,61578,1,0,0:0:0:0:
182,192,62328,1,0,0:0:0:0:
402,192,62703,1,0,0:0:0:0:
109,192,63078,1,0,0:0:0:0:
256,192,63078,1,0,0:0:0:0:
402,192,63640,1,0,0:0:0:0:
182,192,64015,1,0,0:0:0:0:
256,192,64578,1,0,0:0:0:0:
475,192,64578,1,0,0:0:0:0:
256,192,65703,1,0,0:0:0:0:
36,192,65890,1,0,0:0:0:0:
402,192,66078,1,0,0:0:0:0:
182,192,66078,1,0,0:0:0:0:
256,192,67203,5,0,0:0:0:0:
109,192,67578,1,0,0:0:0:0:
256,192,67953,1,0,0:0:0:0:
182,192,68328,1,0,0:0:0:0:
329,192,68703,1,0,0:0:0:0:
256,192,69078,1,0,0:0:0:0:
402,192,69453,1,0,0:0:0:0:
329,192,69828,1,0,0:0:0:0:
475,192,70203,1,0,0:0:0:0:
182,192,70390,1,0,0:0:0:0:
402,192,70578,1,0,0:0:0:0:
256,192,70953,1,0,0:0:0:0:
329,192,71328,1,0,0:0:0:0:
182,192,71703,1,0,0:0:0:0:
256,192,72078,1,0,0:0:0:0:
109,192,72453,1,0,0:0:0:0:
329,192,72640,1,0,0:0:0:0:
182,192,72828,1,0,0:0:0:0:
36,192,73203,1,0,0:0:0:0:
329,192,73390,1,0,0:0:0:0:
109,192,73578,1,0,0:0:0:0:
256,192,73953,1,0,0:0:0:0:
182,192,74328,1,0,0:0:0:0:
329,192,74703,1,0,0:0:0:0:
256,192,75078,1,0,0:0:0:0:
402,192,75453,1,0,0:0:0:0:
329,192,75828,1,0,0:0:0:0:
475,192,76203,1,0,0:0:0:0:
256,192,76390,1,0,0:0:0:0:
36,192,76578,1,0,0:0:0:0:
182,192,76765,1,0,0:0:0:0:
329,192,76953,1,0,0:0:0:0:
475,192,77140,1,0,0:0:0:0:
36,192,77328,1,0,0:0:0:0:
182,192,77515,1,0,0:0:0:0:
329,192,77703,1,0,0:0:0:0:
475,192,77890,1,0,0:0:0:0:
256,192,78078,1,0,0:0:0:0:
182,192,79015,1,0,0:0:0:0:
402,192,79203,1,0,0:0:0:0:
36,192,79578,1,0,0:0:0:0:
182,192,79953,1,0,0:0:0:0:
475,192,80140,1,0,0:0:0:0:
329,192,80328,1,0,0:0:0:0:
109,192,80703,1,0,0:0:0:0:
256,192,80890,1,0,0:0:0:0:
475,192,81078,1,0,0:0:0:0:
329,192,81453,1,0,0:0:0:0:
36,192,81640,1,0,0:0:0:0:
182,192,81828,1,0,0:0:0:0:
402,192,82203,1,0,0:0:0:0:
182,192,82390,1,0,0:0:0:0:
109,192,82578,1,0,0:0:0:0:
329,192,82953,1,0,0:0:0:0:
109,192,83140,1,0,0:0:0:0:
182,192,83328,1,0,0:0:0:0:
475,192,83703,1,0,0:0:0:0:
256,192,83890,1,0,0:0:0:0:
402,192,84078,1,0,0:0:0:0:
182,192,84453,1,0,0:0:0:0:
256,192,84640,1,0,0:0:0:0:
329,192,84828,1,0,0:0:0:0:
36,192,85203,1,0,0:0:0:0:
182,192,85390,1,0,0:0:0:0:
402,192,85578,1,0,0:0:0:0:
256,192,85953,1,0,0:0:0:0:
402,192,86140,1,0,0:0:0:0:
36,192,86328,1,0,0:0:0:0:
182,192,86703,1,0,0:0:0:0:
402,192,86890,1,0,0:0:0:0:
109,192,87078,1,0,0:0:0:0:
329,192,87453,1,0,0:0:0:0:
182,192,87640,1,0,0:0:0:0:
475,192,87828,1,0,0:0:0:0:
329,192,88203,1,0,0:0:0:0:
36,192,88578,1,0,0:0:0:0:
256,192,88765,1,0,0:0:0:0:
109,192,88953,1,0,0:0:0:0:
329,192,89140,1,0,0:0:0:0:
182,192,89328,1,0,0:0:0:0:
402,192,89515,1,0,0:0:0:0:
256,192,89703,1,0,0:0:0:0:
475,192,89890,1,0,0:0:0:0:
36,192,90078,1,0,0:0:0:0:
182,192,91578,128,0,92328:0:0:0:0:
475,192,91578,128,0,92328:0:0:0:0:
