osu file format v14

[General]
AudioFilename: 07 Crush Everyone 1.mp3
AudioLeadIn: 0
PreviewTime: 52578
Countdown: 0
SampleSet: Normal
StackLeniency: 0.7
Mode: 3
LetterboxInBreaks: 0
SpecialStyle: 0
WidescreenStoryboard: 1

[Editor]
DistanceSpacing: 0.5
BeatDivisor: 4
GridSize: 8
TimelineZoom: 2.900001

[Metadata]
Title:Crush Everyone
TitleUnicode:Crush Everyone
Artist:The Quick Brown Fox
ArtistUnicode:The Quick Brown Fox
Creator:Lokovodo
Version:4K MX
Source:
Tags:LAPFOX TRAX tqbf 2006 Renard speedcore
BeatmapID:453067
BeatmapSetID:190233

[Difficulty]
HPDrainRate:8
CircleSize:4
OverallDifficulty:10
ApproachRate:5
SliderMultiplier:1.4
SliderTickRate:1

[Events]
//Background and Video events
0,0,"06.jpg",0,0
//Break Periods
//Storyboard Layer 0 (Background)
//Storyboard Layer 1 (Fail)
//Storyboard Layer 2 (Pass)
//Storyboard Layer 3 (Foreground)
//Storyboard Sound Samples

[TimingPoints]
1578,187.5,4,1,0,30,1,0
28578,-100,4,1,0,30,0,1
39078,-100,4,1,0,30,0,0
40578,-100,4,1,0,30,0,1
51078,-100,4,1,0,30,0,0
67578,-100,4,1,0,30,0,1
78078,-100,4,1,0,30,0,0
79578,-100,4,1,0,30,0,1
90078,-100,4,1,0,30,0,0

[HitObjects]
448,192,1578,5,0,0:0:0:0:
192,192,1578,1,0,0:0:0:0:
320,192,1859,1,0,0:0:0:0:
192,192,1859,1,0,0:0:0:0:
320,192,2140,1,0,0:0:0:0:
64,192,2140,1,0,0:0:0:0:
192,192,2515,128,0,2703:0:0:0:0:
448,192,2515,128,0,2703:0:0:0:0:
320,192,2703,128,0,3078:0:0:0:0:
64,192,2703,128,0,3078:0:0:0:0:
448,192,3078,128,0,3828:0:0:0:0:
192,192,3078,128,0,3828:0:0:0:0:
64,192,3453,1,0,0:0:0:0:
64,192,4203,1,0,0:0:0:0:
192,192,4578,1,0,0:0:0:0:
320,192,4578,1,0,0:0:0:0:
192,192,4859,1,0,0:0:0:0:
448,192,4859,1,0,0:0:0:0:
64,192,5140,1,0,0:0:0:0:
320,192,5140,1,0,0:0:0:0:
64,192,5515,128,0,5703:0:0:0:0:
192,192,5515,128,0,5703:0:0:0:0:
448,192,5703,128,0,6078:0:0:0:0:
320,192,5703,128,0,6078:0:0:0:0:
64,192,6078,128,0,6265:0:0:0:0:
192,192,6078,128,0,6265:0:0:0:0:
64,192,6359,1,0,0:0:0:0:
192,192,6359,1,0,0:0:0:0:
448,192,6453,1,0,0:0:0:0:
320,192,6453,1,0,0:0:0:0:
64,192,6640,1,0,0:0:0:0:
192,192,6640,1,0,0:0:0:0:
64,192,7015,1,0,0:0:0:0:
192,192,7015,1,0,0:0:0:0:
320,192,7015,1,0,0:0:0:0:
448,192,7203,1,0,0:0:0:0:
192,192,7203,1,0,0:0:0:0:
320,192,7203,1,0,0:0:0:0:
448,192,7578,1,0,0:0:0:0:
64,192,7578,1,0,0:0:0:0:
192,192,7859,1,0,0:0:0:0:
448,192,7859,1,0,0:0:0:0:
192,192,8140,1,0,0:0:0:0:
320,192,8140,1,0,0:0:0:0:
64,192,8515,128,0,8703:0:0:0:0:
192,192,8515,128,0,8703:0:0:0:0:
320,192,8703,128,0,9078:0:0:0:0:
448,192,8703,128,0,9078:0:0:0:0:
64,192,9078,128,0,9828:0:0:0:0:
192,192,9078,128,0,9828:0:0:0:0:
448,192,9453,1,0,0:0:0:0:
448,192,10203,1,0,0:0:0:0:
448,192,10578,1,0,0:0:0:0:
64,192,10578,1,0,0:0:0:0:
64,192,10859,1,0,0:0:0:0:
320,192,10859,1,0,0:0:0:0:
192,192,11140,1,0,0:0:0:0:
320,192,11140,1,0,0:0:0:0:
320,192,11515,128,0,11703:0:0:0:0:
448,192,11515,128,0,11703:0:0:0:0:
64,192,11703,128,0,12078:0:0:0:0:
192,192,11703,128,0,12078:0:0:0:0:
320,192,12078,128,0,12265:0:0:0:0:
448,192,12078,128,0,12265:0:0:0:0:
448,192,12359,1,0,0:0:0:0:
320,192,12359,1,0,0:0:0:0:
192,192,12453,1,0,0:0:0:0:
64,192,12453,1,0,0:0:0:0:
320,192,12640,1,0,0:0:0:0:
448,192,12640,1,0,0:0:0:0:
448,192,13015,1,0,0:0:0:0:
64,192,13015,1,0,0:0:0:0:
192,192,13015,1,0,0:0:0:0:
448,192,13203,1,0,0:0:0:0:
64,192,13203,1,0,0:0:0:0:
320,192,13203,1,0,0:0:0:0:
64,192,13578,1,0,0:0:0:0:
448,192,13578,1,0,0:0:0:0:
192,192,13671,1,0,0:0:0:0:
320,192,13765,1,0,0:0:0:0:
448,192,13859,1,0,0:0:0:0:
192,192,13953,1,0,0:0:0:0:
64,192,14046,1,0,0:0:0:0:
320,192,14140,1,0,0:0:0:0:
64,192,14234,1,0,0:0:0:0:
320,192,14328,1,0,0:0:0:0:
64,192,14515,1,0,0:0:0:0:
320,192,14703,1,0,0:0:0:0:
320,192,14796,1,0,0:0:0:0:
320,192,14890,1,0,0:0:0:0:
448,192,15078,1,0,0:0:0:0:
64,192,15078,1,0,0:0:0:0:
320,192,15171,1,0,0:0:0:0:
192,192,15265,1,0,0:0:0:0:
64,192,15359,1,0,0:0:0:0:
320,192,15453,1,0,0:0:0:0:
192,192,15546,1,0,0:0:0:0:
448,192,15640,1,0,0:0:0:0:
320,192,15734,1,0,0:0:0:0:
64,192,15828,1,0,0:0:0:0:
192,192,15874,1,0,0:0:0:0:
320,192,15921,1,0,0:0:0:0:
448,192,15968,1,0,0:0:0:0:
64,192,16015,1,0,0:0:0:0:
320,192,16203,1,0,0:0:0:0:
64,192,16390,1,0,0:0:0:0:
192,192,16437,1,0,0:0:0:0:
320,192,16484,1,0,0:0:0:0:
448,192,16531,1,0,0:0:0:0:
192,192,16578,1,0,0:0:0:0:
64,192,16578,1,0,0:0:0:0:
320,192,16671,1,0,0:0:0:0:
448,192,16765,1,0,0:0:0:0:
320,192,16859,1,0,0:0:0:0:
192,192,16953,1,0,0:0:0:0:
64,192,17046,1,0,0:0:0:0:
448,192,17140,1,0,0:0:0:0:
192,192,17234,1,0,0:0:0:0:
320,192,17328,1,0,0:0:0:0:
192,192,17515,1,0,0:0:0:0:
448,192,17703,1,0,0:0:0:0:
448,192,17796,1,0,0:0:0:0:
448,192,17890,1,0,0:0:0:0:
448,192,17984,1,0,0:0:0:0:
64,192,18078,1,0,0:0:0:0:
192,192,18078,1,0,0:0:0:0:
448,192,18171,1,0,0:0:0:0:
192,192,18265,1,0,0:0:0:0:
320,192,18359,1,0,0:0:0:0:
64,192,18453,1,0,0:0:0:0:
192,192,18546,1,0,0:0:0:0:
448,192,18640,1,0,0:0:0:0:
192,192,18734,1,0,0:0:0:0:
448,192,18828,1,0,0:0:0:0:
320,192,18874,1,0,0:0:0:0:
192,192,18921,1,0,0:0:0:0:
64,192,18968,1,0,0:0:0:0:
448,192,19015,1,0,0:0:0:0:
320,192,19062,1,0,0:0:0:0:
192,192,19109,1,0,0:0:0:0:
64,192,19156,1,0,0:0:0:0:
448,192,19203,1,0,0:0:0:0:
192,192,19484,1,0,0:0:0:0:
64,192,19578,1,0,0:0:0:0:
448,192,19578,1,0,0:0:0:0:
320,192,19765,1,0,0:0:0:0:
448,192,19859,1,0,0:0:0:0:
192,192,19859,1,0,0:0:0:0:
64,192,20046,1,0,0:0:0:0:
448,192,20140,1,0,0:0:0:0:
320,192,20140,1,0,0:0:0:0:
64,192,20515,128,0,20703:0:0:0:0:
192,192,20515,128,0,20703:0:0:0:0:
320,192,20703,128,0,21078:0:0:0:0:
448,192,20703,128,0,21078:0:0:0:0:
64,192,21078,128,0,21828:0:0:0:0:
192,192,21078,128,0,21828:0:0:0:0:
448,192,21453,1,0,0:0:0:0:
448,192,22203,1,0,0:0:0:0:
448,192,22578,1,0,0:0:0:0:
64,192,22578,1,0,0:0:0:0:
64,192,22859,1,0,0:0:0:0:
320,192,22859,1,0,0:0:0:0:
192,192,23140,1,0,0:0:0:0:
320,192,23140,1,0,0:0:0:0:
448,192,23515,1,0,0:0:0:0:
192,192,23515,1,0,0:0:0:0:
320,192,23515,1,0,0:0:0:0:
64,192,23703,1,0,0:0:0:0:
320,192,23703,1,0,0:0:0:0:
192,192,23703,1,0,0:0:0:0:
448,192,24078,1,0,0:0:0:0:
64,192,24078,1,0,0:0:0:0:
320,192,24359,1,0,0:0:0:0:
448,192,24359,1,0,0:0:0:0:
192,192,24453,1,0,0:0:0:0:
64,192,24453,1,0,0:0:0:0:
448,192,24640,1,0,0:0:0:0:
320,192,24640,1,0,0:0:0:0:
64,192,25015,1,0,0:0:0:0:
320,192,25015,1,0,0:0:0:0:
192,192,25015,1,0,0:0:0:0:
448,192,25203,1,0,0:0:0:0:
192,192,25203,1,0,0:0:0:0:
320,192,25203,1,0,0:0:0:0:
448,192,25578,1,0,0:0:0:0:
64,192,25578,1,0,0:0:0:0:
192,192,25578,1,0,0:0:0:0:
64,192,26703,1,0,0:0:0:0:
320,192,26796,1,0,0:0:0:0:
192,192,26890,1,0,0:0:0:0:
448,192,26984,1,0,0:0:0:0:
64,192,27078,128,0,27453:0:0:0:0:
192,192,27078,128,0,27453:0:0:0:0:
192,192,28203,1,0,0:0:0:0:
320,192,28203,1,0,0:0:0:0:
192,192,28578,1,0,0:0:0:0:
448,192,28578,1,0,0:0:0:0:
64,192,28671,1,0,0:0:0:0:
448,192,28765,1,0,0:0:0:0:
320,192,28859,1,0,0:0:0:0:
192,192,28953,1,0,0:0:0:0:
64,192,29046,1,0,0:0:0:0:
320,192,29140,1,0,0:0:0:0:
448,192,29234,1,0,0:0:0:0:
64,192,29328,1,0,0:0:0:0:
192,192,29328,1,0,0:0:0:0:
192,192,29515,1,0,0:0:0:0:
320,192,29515,1,0,0:0:0:0:
448,192,29703,1,0,0:0:0:0:
320,192,29703,1,0,0:0:0:0:
192,192,29890,1,0,0:0:0:0:
320,192,29984,1,0,0:0:0:0:
448,192,30078,1,0,0:0:0:0:
64,192,30171,1,0,0:0:0:0:
320,192,30265,1,0,0:0:0:0:
192,192,30359,1,0,0:0:0:0:
64,192,30453,1,0,0:0:0:0:
192,192,30546,1,0,0:0:0:0:
448,192,30640,1,0,0:0:0:0:
320,192,30734,1,0,0:0:0:0:
448,192,30828,1,0,0:0:0:0:
64,192,30828,1,0,0:0:0:0:
320,192,31015,1,0,0:0:0:0:
192,192,31015,1,0,0:0:0:0:
64,192,31203,1,0,0:0:0:0:
448,192,31203,1,0,0:0:0:0:
192,192,31296,1,0,0:0:0:0:
448,192,31390,1,0,0:0:0:0:
320,192,31437,1,0,0:0:0:0:
64,192,31484,1,0,0:0:0:0:
192,192,31531,1,0,0:0:0:0:
448,192,31578,1,0,0:0:0:0:
320,192,31578,1,0,0:0:0:0:
64,192,31671,1,0,0:0:0:0:
448,192,31765,1,0,0:0:0:0:
320,192,31859,1,0,0:0:0:0:
192,192,31953,1,0,0:0:0:0:
64,192,32046,1,0,0:0:0:0:
192,192,32140,1,0,0:0:0:0:
320,192,32234,1,0,0:0:0:0:
448,192,32328,1,0,0:0:0:0:
64,192,32328,1,0,0:0:0:0:
320,192,32515,1,0,0:0:0:0:
64,192,32515,1,0,0:0:0:0:
192,192,32703,1,0,0:0:0:0:
448,192,32703,1,0,0:0:0:0:
448,192,32890,1,0,0:0:0:0:
320,192,32984,1,0,0:0:0:0:
64,192,33078,1,0,0:0:0:0:
192,192,33078,1,0,0:0:0:0:
320,192,33171,1,0,0:0:0:0:
448,192,33265,1,0,0:0:0:0:
320,192,33359,1,0,0:0:0:0:
192,192,33453,1,0,0:0:0:0:
64,192,33453,1,0,0:0:0:0:
320,192,33546,1,0,0:0:0:0:
448,192,33546,1,0,0:0:0:0:
192,192,33640,1,0,0:0:0:0:
64,192,33640,1,0,0:0:0:0:
320,192,33734,1,0,0:0:0:0:
448,192,33734,1,0,0:0:0:0:
192,192,33828,1,0,0:0:0:0:
64,192,33828,1,0,0:0:0:0:
448,192,33921,1,0,0:0:0:0:
64,192,34015,1,0,0:0:0:0:
320,192,34109,1,0,0:0:0:0:
64,192,34203,1,0,0:0:0:0:
192,192,34296,1,0,0:0:0:0:
448,192,34390,1,0,0:0:0:0:
320,192,34437,1,0,0:0:0:0:
192,192,34484,1,0,0:0:0:0:
64,192,34531,1,0,0:0:0:0:
448,192,34578,1,0,0:0:0:0:
320,192,34578,1,0,0:0:0:0:
64,192,34671,1,0,0:0:0:0:
320,192,34765,1,0,0:0:0:0:
192,192,34859,1,0,0:0:0:0:
448,192,34953,1,0,0:0:0:0:
320,192,35046,1,0,0:0:0:0:
448,192,35140,1,0,0:0:0:0:
64,192,35234,1,0,0:0:0:0:
192,192,35328,1,0,0:0:0:0:
448,192,35328,1,0,0:0:0:0:
320,192,35515,1,0,0:0:0:0:
192,192,35515,1,0,0:0:0:0:
64,192,35703,1,0,0:0:0:0:
320,192,35703,1,0,0:0:0:0:
448,192,35890,1,0,0:0:0:0:
320,192,35984,1,0,0:0:0:0:
192,192,36078,1,0,0:0:0:0:
64,192,36078,1,0,0:0:0:0:
448,192,36171,1,0,0:0:0:0:
64,192,36265,1,0,0:0:0:0:
192,192,36359,1,0,0:0:0:0:
320,192,36453,1,0,0:0:0:0:
64,192,36546,1,0,0:0:0:0:
192,192,36640,1,0,0:0:0:0:
320,192,36734,1,0,0:0:0:0:
448,192,36828,1,0,0:0:0:0:
64,192,36828,1,0,0:0:0:0:
448,192,37015,1,0,0:0:0:0:
192,192,37015,1,0,0:0:0:0:
64,192,37109,1,0,0:0:0:0:
448,192,37203,1,0,0:0:0:0:
192,192,37249,1,0,0:0:0:0:
64,192,37296,1,0,0:0:0:0:
448,192,37343,1,0,0:0:0:0:
320,192,37390,1,0,0:0:0:0:
64,192,37437,1,0,0:0:0:0:
448,192,37484,1,0,0:0:0:0:
320,192,37531,1,0,0:0:0:0:
192,192,37578,1,0,0:0:0:0:
64,192,37578,1,0,0:0:0:0:
448,192,37671,1,0,0:0:0:0:
64,192,37765,1,0,0:0:0:0:
320,192,37859,1,0,0:0:0:0:
192,192,37953,1,0,0:0:0:0:
448,192,38046,1,0,0:0:0:0:
192,192,38140,1,0,0:0:0:0:
64,192,38234,1,0,0:0:0:0:
448,192,38328,1,0,0:0:0:0:
320,192,38328,1,0,0:0:0:0:
320,192,38515,1,0,0:0:0:0:
192,192,38515,1,0,0:0:0:0:
192,192,38703,1,0,0:0:0:0:
64,192,38703,1,0,0:0:0:0:
320,192,38796,1,0,0:0:0:0:
448,192,38890,1,0,0:0:0:0:
64,192,38890,1,0,0:0:0:0:
192,192,38984,1,0,0:0:0:0:
64,192,39078,1,0,0:0:0:0:
448,192,39078,1,0,0:0:0:0:
320,192,39078,1,0,0:0:0:0:
192,192,39828,1,0,0:0:0:0:
320,192,40109,1,0,0:0:0:0:
448,192,40390,1,0,0:0:0:0:
448,192,40578,1,0,0:0:0:0:
64,192,40578,1,0,0:0:0:0:
192,192,40671,1,0,0:0:0:0:
320,192,40765,1,0,0:0:0:0:
448,192,40859,1,0,0:0:0:0:
320,192,40953,1,0,0:0:0:0:
192,192,41046,1,0,0:0:0:0:
64,192,41140,1,0,0:0:0:0:
448,192,41234,1,0,0:0:0:0:
320,192,41328,1,0,0:0:0:0:
64,192,41421,1,0,0:0:0:0:
448,192,41515,1,0,0:0:0:0:
320,192,41609,1,0,0:0:0:0:
64,192,41703,1,0,0:0:0:0:
192,192,41796,1,0,0:0:0:0:
448,192,41890,1,0,0:0:0:0:
64,192,41984,1,0,0:0:0:0:
192,192,42078,1,0,0:0:0:0:
448,192,42171,1,0,0:0:0:0:
64,192,42265,1,0,0:0:0:0:
320,192,42359,1,0,0:0:0:0:
192,192,42453,1,0,0:0:0:0:
448,192,42546,1,0,0:0:0:0:
64,192,42640,1,0,0:0:0:0:
320,192,42734,1,0,0:0:0:0:
192,192,42828,1,0,0:0:0:0:
64,192,42921,1,0,0:0:0:0:
320,192,43015,1,0,0:0:0:0:
192,192,43109,1,0,0:0:0:0:
448,192,43203,1,0,0:0:0:0:
320,192,43296,1,0,0:0:0:0:
64,192,43390,1,0,0:0:0:0:
192,192,43437,1,0,0:0:0:0:
320,192,43484,1,0,0:0:0:0:
448,192,43531,1,0,0:0:0:0:
64,192,43578,1,0,0:0:0:0:
192,192,43671,1,0,0:0:0:0:
320,192,43765,1,0,0:0:0:0:
448,192,43859,1,0,0:0:0:0:
320,192,43953,1,0,0:0:0:0:
192,192,44046,1,0,0:0:0:0:
448,192,44140,1,0,0:0:0:0:
320,192,44234,1,0,0:0:0:0:
192,192,44328,1,0,0:0:0:0:
64,192,44421,1,0,0:0:0:0:
192,192,44515,1,0,0:0:0:0:
320,192,44609,1,0,0:0:0:0:
64,192,44703,1,0,0:0:0:0:
448,192,44796,1,0,0:0:0:0:
192,192,44890,1,0,0:0:0:0:
320,192,44984,1,0,0:0:0:0:
448,192,45078,1,0,0:0:0:0:
320,192,45171,1,0,0:0:0:0:
192,192,45265,1,0,0:0:0:0:
64,192,45359,1,0,0:0:0:0:
448,192,45453,1,0,0:0:0:0:
320,192,45499,1,0,0:0:0:0:
64,192,45546,1,0,0:0:0:0:
192,192,45593,1,0,0:0:0:0:
448,192,45640,1,0,0:0:0:0:
320,192,45687,1,0,0:0:0:0:
64,192,45734,1,0,0:0:0:0:
192,192,45781,1,0,0:0:0:0:
448,192,45828,1,0,0:0:0:0:
192,192,45921,1,0,0:0:0:0:
64,192,46015,1,0,0:0:0:0:
448,192,46109,1,0,0:0:0:0:
192,192,46203,1,0,0:0:0:0:
64,192,46203,1,0,0:0:0:0:
448,192,46296,1,0,0:0:0:0:
320,192,46296,1,0,0:0:0:0:
64,192,46390,1,0,0:0:0:0:
192,192,46390,1,0,0:0:0:0:
320,192,46484,1,0,0:0:0:0:
448,192,46484,1,0,0:0:0:0:
64,192,46578,1,0,0:0:0:0:
192,192,46578,1,0,0:0:0:0:
320,192,46671,1,0,0:0:0:0:
448,192,46765,1,0,0:0:0:0:
192,192,46859,1,0,0:0:0:0:
320,192,46953,1,0,0:0:0:0:
64,192,47046,1,0,0:0:0:0:
192,192,47140,1,0,0:0:0:0:
448,192,47234,1,0,0:0:0:0:
320,192,47328,1,0,0:0:0:0:
192,192,47421,1,0,0:0:0:0:
64,192,47515,1,0,0:0:0:0:
192,192,47609,1,0,0:0:0:0:
320,192,47703,1,0,0:0:0:0:
448,192,47796,1,0,0:0:0:0:
192,192,47890,1,0,0:0:0:0:
320,192,47984,1,0,0:0:0:0:
448,192,48078,1,0,0:0:0:0:
64,192,48171,1,0,0:0:0:0:
192,192,48265,1,0,0:0:0:0:
320,192,48359,1,0,0:0:0:0:
64,192,48453,1,0,0:0:0:0:
448,192,48546,1,0,0:0:0:0:
192,192,48640,1,0,0:0:0:0:
320,192,48734,1,0,0:0:0:0:
64,192,48828,1,0,0:0:0:0:
448,192,48921,1,0,0:0:0:0:
192,192,49015,1,0,0:0:0:0:
320,192,49109,1,0,0:0:0:0:
64,192,49203,1,0,0:0:0:0:
448,192,49296,1,0,0:0:0:0:
64,192,49390,1,0,0:0:0:0:
192,192,49437,1,0,0:0:0:0:
320,192,49484,1,0,0:0:0:0:
448,192,49531,1,0,0:0:0:0:
192,192,49578,1,0,0:0:0:0:
64,192,49578,1,0,0:0:0:0:
448,192,49671,1,0,0:0:0:0:
320,192,49671,1,0,0:0:0:0:
192,192,49765,1,0,0:0:0:0:
64,192,49765,1,0,0:0:0:0:
448,192,49859,1,0,0:0:0:0:
320,192,49859,1,0,0:0:0:0:
192,192,49953,1,0,0:0:0:0:
64,192,49953,1,0,0:0:0:0:
448,192,50046,1,0,0:0:0:0:
320,192,50046,1,0,0:0:0:0:
192,192,50140,1,0,0:0:0:0:
64,192,50140,1,0,0:0:0:0:
320,192,50234,1,0,0:0:0:0:
448,192,50234,1,0,0:0:0:0:
64,192,50328,1,0,0:0:0:0:
192,192,50374,1,0,0:0:0:0:
320,192,50421,1,0,0:0:0:0:
448,192,50468,1,0,0:0:0:0:
64,192,50515,1,0,0:0:0:0:
192,192,50562,1,0,0:0:0:0:
320,192,50609,1,0,0:0:0:0:
448,192,50656,1,0,0:0:0:0:
64,192,50703,1,0,0:0:0:0:
192,192,50749,1,0,0:0:0:0:
448,192,50796,1,0,0:0:0:0:
320,192,50843,1,0,0:0:0:0:
64,192,50890,1,0,0:0:0:0:
192,192,50937,1,0,0:0:0:0:
448,192,50984,1,0,0:0:0:0:
320,192,51031,1,0,0:0:0:0:
64,192,51078,1,0,0:0:0:0:
192,192,51078,1,0,0:0:0:0:
448,192,52578,1,0,0:0:0:0:
192,192,52578,1,0,0:0:0:0:
64,192,52765,1,0,0:0:0:0:
320,192,52859,1,0,0:0:0:0:
448,192,53046,1,0,0:0:0:0:
192,192,53140,1,0,0:0:0:0:
64,192,53234,1,0,0:0:0:0:
448,192,53328,1,0,0:0:0:0:
320,192,53328,1,0,0:0:0:0:
64,192,53515,1,0,0:0:0:0:
448,192,53703,1,0,0:0:0:0:
192,192,53703,1,0,0:0:0:0:
320,192,53890,1,0,0:0:0:0:
192,192,53984,1,0,0:0:0:0:
448,192,54078,1,0,0:0:0:0:
64,192,54078,1,0,0:0:0:0:
320,192,54265,1,0,0:0:0:0:
192,192,54359,1,0,0:0:0:0:
448,192,54546,1,0,0:0:0:0:
192,192,54640,1,0,0:0:0:0:
320,192,54734,1,0,0:0:0:0:
64,192,54828,1,0,0:0:0:0:
192,192,54874,1,0,0:0:0:0:
448,192,54921,1,0,0:0:0:0:
320,192,54968,1,0,0:0:0:0:
64,192,55015,1,0,0:0:0:0:
192,192,55109,1,0,0:0:0:0:
448,192,55203,1,0,0:0:0:0:
320,192,55296,1,0,0:0:0:0:
64,192,55390,1,0,0:0:0:0:
192,192,55437,1,0,0:0:0:0:
320,192,55484,1,0,0:0:0:0:
448,192,55531,1,0,0:0:0:0:
64,192,55578,1,0,0:0:0:0:
192,192,55578,1,0,0:0:0:0:
320,192,55765,1,0,0:0:0:0:
64,192,55859,1,0,0:0:0:0:
448,192,56046,1,0,0:0:0:0:
192,192,56140,1,0,0:0:0:0:
320,192,56234,1,0,0:0:0:0:
448,192,56328,1,0,0:0:0:0:
64,192,56328,1,0,0:0:0:0:
320,192,56515,1,0,0:0:0:0:
192,192,56703,1,0,0:0:0:0:
448,192,56703,1,0,0:0:0:0:
64,192,56796,1,0,0:0:0:0:
320,192,56890,1,0,0:0:0:0:
64,192,56984,1,0,0:0:0:0:
448,192,57078,1,0,0:0:0:0:
320,192,57078,1,0,0:0:0:0:
448,192,57453,1,0,0:0:0:0:
64,192,57453,1,0,0:0:0:0:
448,192,57734,1,0,0:0:0:0:
64,192,57734,1,0,0:0:0:0:
64,192,57828,1,0,0:0:0:0:
448,192,57828,1,0,0:0:0:0:
64,192,58015,1,0,0:0:0:0:
320,192,58015,1,0,0:0:0:0:
64,192,58203,1,0,0:0:0:0:
448,192,58203,1,0,0:0:0:0:
192,192,58390,1,0,0:0:0:0:
448,192,58390,1,0,0:0:0:0:
448,192,58578,1,0,0:0:0:0:
64,192,58578,1,0,0:0:0:0:
448,192,58859,1,0,0:0:0:0:
64,192,58859,1,0,0:0:0:0:
448,192,59140,1,0,0:0:0:0:
64,192,59140,1,0,0:0:0:0:
64,192,59515,128,0,59703:0:0:0:0:
448,192,59515,128,0,59703:0:0:0:0:
192,192,59703,128,0,60078:0:0:0:0:
320,192,59703,128,0,60078:0:0:0:0:
64,192,60078,128,0,60828:0:0:0:0:
448,192,60078,128,0,60828:0:0:0:0:
64,192,61578,1,0,0:0:0:0:
448,192,61578,1,0,0:0:0:0:
448,192,61859,1,0,0:0:0:0:
64,192,61859,1,0,0:0:0:0:
448,192,62140,1,0,0:0:0:0:
64,192,62140,1,0,0:0:0:0:
448,192,62515,128,0,62703:0:0:0:0:
64,192,62515,128,0,62703:0:0:0:0:
192,192,62703,128,0,63078:0:0:0:0:
320,192,62703,128,0,63078:0:0:0:0:
448,192,63078,1,0,0:0:0:0:
64,192,63078,1,0,0:0:0:0:
448,192,63359,1,0,0:0:0:0:
64,192,63359,1,0,0:0:0:0:
448,192,63640,1,0,0:0:0:0:
64,192,63640,1,0,0:0:0:0:
320,192,64015,1,0,0:0:0:0:
64,192,64015,1,0,0:0:0:0:
448,192,64203,1,0,0:0:0:0:
192,192,64203,1,0,0:0:0:0:
448,192,64390,1,0,0:0:0:0:
64,192,64390,1,0,0:0:0:0:
64,192,64578,1,0,0:0:0:0:
192,192,64578,1,0,0:0:0:0:
320,192,64578,1,0,0:0:0:0:
448,192,64578,1,0,0:0:0:0:
448,192,65703,1,0,0:0:0:0:
192,192,65796,1,0,0:0:0:0:
320,192,65890,1,0,0:0:0:0:
64,192,65984,1,0,0:0:0:0:
448,192,66078,128,0,66453:0:0:0:0:
320,192,66078,128,0,66453:0:0:0:0:
64,192,67203,1,0,0:0:0:0:
320,192,67203,1,0,0:0:0:0:
448,192,67578,1,0,0:0:0:0:
320,192,67578,1,0,0:0:0:0:
192,192,67671,1,0,0:0:0:0:
64,192,67765,1,0,0:0:0:0:
448,192,67859,1,0,0:0:0:0:
320,192,67953,1,0,0:0:0:0:
64,192,68046,1,0,0:0:0:0:
448,192,68140,1,0,0:0:0:0:
320,192,68234,1,0,0:0:0:0:
64,192,68328,1,0,0:0:0:0:
448,192,68421,1,0,0:0:0:0:
320,192,68515,1,0,0:0:0:0:
192,192,68609,1,0,0:0:0:0:
64,192,68703,1,0,0:0:0:0:
192,192,68796,1,0,0:0:0:0:
320,192,68890,1,0,0:0:0:0:
448,192,68984,1,0,0:0:0:0:
64,192,69078,1,0,0:0:0:0:
192,192,69171,1,0,0:0:0:0:
448,192,69265,1,0,0:0:0:0:
64,192,69359,1,0,0:0:0:0:
192,192,69453,1,0,0:0:0:0:
448,192,69546,1,0,0:0:0:0:
64,192,69640,1,0,0:0:0:0:
320,192,69734,1,0,0:0:0:0:
192,192,69828,1,0,0:0:0:0:
448,192,69921,1,0,0:0:0:0:
64,192,70015,1,0,0:0:0:0:
320,192,70109,1,0,0:0:0:0:
192,192,70203,1,0,0:0:0:0:
64,192,70296,1,0,0:0:0:0:
192,192,70390,1,0,0:0:0:0:
448,192,70437,1,0,0:0:0:0:
320,192,70484,1,0,0:0:0:0:
192,192,70531,1,0,0:0:0:0:
64,192,70578,1,0,0:0:0:0:
448,192,70671,1,0,0:0:0:0:
320,192,70765,1,0,0:0:0:0:
192,192,70859,1,0,0:0:0:0:
320,192,70953,1,0,0:0:0:0:
192,192,71046,1,0,0:0:0:0:
64,192,71140,1,0,0:0:0:0:
320,192,71234,1,0,0:0:0:0:
64,192,71328,1,0,0:0:0:0:
320,192,71421,1,0,0:0:0:0:
192,192,71515,1,0,0:0:0:0:
320,192,71609,1,0,0:0:0:0:
448,192,71703,1,0,0:0:0:0:
64,192,71796,1,0,0:0:0:0:
320,192,71890,1,0,0:0:0:0:
192,192,71984,1,0,0:0:0:0:
448,192,72078,1,0,0:0:0:0:
192,192,72171,1,0,0:0:0:0:
448,192,72265,1,0,0:0:0:0:
64,192,72359,1,0,0:0:0:0:
320,192,72453,1,0,0:0:0:0:
448,192,72453,1,0,0:0:0:0:
64,192,72546,1,0,0:0:0:0:
448,192,72640,1,0,0:0:0:0:
192,192,72640,1,0,0:0:0:0:
320,192,72734,1,0,0:0:0:0:
64,192,72828,1,0,0:0:0:0:
448,192,72828,1,0,0:0:0:0:
320,192,72921,1,0,0:0:0:0:
192,192,73015,1,0,0:0:0:0:
448,192,73109,1,0,0:0:0:0:
320,192,73203,1,0,0:0:0:0:
64,192,73203,1,0,0:0:0:0:
192,192,73296,1,0,0:0:0:0:
64,192,73390,1,0,0:0:0:0:
448,192,73390,1,0,0:0:0:0:
192,192,73484,1,0,0:0:0:0:
320,192,73578,1,0,0:0:0:0:
64,192,73578,1,0,0:0:0:0:
448,192,73671,1,0,0:0:0:0:
320,192,73765,1,0,0:0:0:0:
192,192,73859,1,0,0:0:0:0:
64,192,73953,1,0,0:0:0:0:
320,192,74046,1,0,0:0:0:0:
192,192,74140,1,0,0:0:0:0:
64,192,74234,1,0,0:0:0:0:
448,192,74328,1,0,0:0:0:0:
320,192,74421,1,0,0:0:0:0:
192,192,74515,1,0,0:0:0:0:
448,192,74609,1,0,0:0:0:0:
320,192,74703,1,0,0:0:0:0:
192,192,74796,1,0,0:0:0:0:
64,192,74890,1,0,0:0:0:0:
192,192,74984,1,0,0:0:0:0:
320,192,75078,1,0,0:0:0:0:
448,192,75171,1,0,0:0:0:0:
192,192,75265,1,0,0:0:0:0:
320,192,75359,1,0,0:0:0:0:
448,192,75453,1,0,0:0:0:0:
64,192,75546,1,0,0:0:0:0:
192,192,75640,1,0,0:0:0:0:
320,192,75734,1,0,0:0:0:0:
64,192,75828,1,0,0:0:0:0:
192,192,75921,1,0,0:0:0:0:
448,192,76015,1,0,0:0:0:0:
320,192,76109,1,0,0:0:0:0:
64,192,76203,1,0,0:0:0:0:
192,192,76296,1,0,0:0:0:0:
320,192,76390,1,0,0:0:0:0:
448,192,76484,1,0,0:0:0:0:
192,192,76578,1,0,0:0:0:0:
64,192,76578,1,0,0:0:0:0:
448,192,76671,1,0,0:0:0:0:
320,192,76671,1,0,0:0:0:0:
192,192,76765,1,0,0:0:0:0:
64,192,76765,1,0,0:0:0:0:
448,192,76859,1,0,0:0:0:0:
320,192,76859,1,0,0:0:0:0:
64,192,76953,1,0,0:0:0:0:
192,192,76953,1,0,0:0:0:0:
448,192,77046,1,0,0:0:0:0:
320,192,77046,1,0,0:0:0:0:
64,192,77140,1,0,0:0:0:0:
192,192,77140,1,0,0:0:0:0:
320,192,77234,1,0,0:0:0:0:
448,192,77234,1,0,0:0:0:0:
192,192,77328,1,0,0:0:0:0:
64,192,77328,1,0,0:0:0:0:
320,192,77421,1,0,0:0:0:0:
448,192,77515,1,0,0:0:0:0:
64,192,77515,1,0,0:0:0:0:
192,192,77515,1,0,0:0:0:0:
320,192,77609,1,0,0:0:0:0:
64,192,77703,1,0,0:0:0:0:
448,192,77703,1,0,0:0:0:0:
192,192,77796,1,0,0:0:0:0:
320,192,77796,1,0,0:0:0:0:
64,192,77890,1,0,0:0:0:0:
448,192,77890,1,0,0:0:0:0:
192,192,77984,1,0,0:0:0:0:
448,192,78078,1,0,0:0:0:0:
64,192,78078,1,0,0:0:0:0:
320,192,78078,1,0,0:0:0:0:
448,192,79015,1,0,0:0:0:0:
64,192,79015,1,0,0:0:0:0:
448,192,79203,1,0,0:0:0:0:
64,192,79203,1,0,0:0:0:0:
448,192,79578,1,0,0:0:0:0:
64,192,79578,1,0,0:0:0:0:
320,192,79671,1,0,0:0:0:0:
64,192,79765,1,0,0:0:0:0:
192,192,79859,1,0,0:0:0:0:
448,192,79953,1,0,0:0:0:0:
320,192,80046,1,0,0:0:0:0:
192,192,80140,1,0,0:0:0:0:
64,192,80234,1,0,0:0:0:0:
448,192,80328,1,0,0:0:0:0:
320,192,80328,1,0,0:0:0:0:
192,192,80421,1,0,0:0:0:0:
320,192,80515,1,0,0:0:0:0:
448,192,80515,1,0,0:0:0:0:
64,192,80609,1,0,0:0:0:0:
320,192,80703,1,0,0:0:0:0:
448,192,80703,1,0,0:0:0:0:
192,192,80796,1,0,0:0:0:0:
320,192,80890,1,0,0:0:0:0:
192,192,80984,1,0,0:0:0:0:
448,192,81078,1,0,0:0:0:0:
64,192,81078,1,0,0:0:0:0:
320,192,81171,1,0,0:0:0:0:
192,192,81265,1,0,0:0:0:0:
64,192,81359,1,0,0:0:0:0:
192,192,81453,1,0,0:0:0:0:
320,192,81546,1,0,0:0:0:0:
448,192,81640,1,0,0:0:0:0:
320,192,81734,1,0,0:0:0:0:
192,192,81828,1,0,0:0:0:0:
64,192,81828,1,0,0:0:0:0:
448,192,81921,1,0,0:0:0:0:
192,192,82015,1,0,0:0:0:0:
64,192,82015,1,0,0:0:0:0:
320,192,82109,1,0,0:0:0:0:
192,192,82203,1,0,0:0:0:0:
64,192,82203,1,0,0:0:0:0:
448,192,82296,1,0,0:0:0:0:
64,192,82390,1,0,0:0:0:0:
192,192,82437,1,0,0:0:0:0:
448,192,82484,1,0,0:0:0:0:
320,192,82531,1,0,0:0:0:0:
192,192,82578,1,0,0:0:0:0:
64,192,82671,1,0,0:0:0:0:
192,192,82765,1,0,0:0:0:0:
448,192,82859,1,0,0:0:0:0:
320,192,82953,1,0,0:0:0:0:
192,192,83046,1,0,0:0:0:0:
64,192,83140,1,0,0:0:0:0:
192,192,83234,1,0,0:0:0:0:
448,192,83328,1,0,0:0:0:0:
64,192,83328,1,0,0:0:0:0:
320,192,83421,1,0,0:0:0:0:
64,192,83515,1,0,0:0:0:0:
448,192,83515,1,0,0:0:0:0:
192,192,83609,1,0,0:0:0:0:
64,192,83703,1,0,0:0:0:0:
448,192,83703,1,0,0:0:0:0:
320,192,83796,1,0,0:0:0:0:
192,192,83890,1,0,0:0:0:0:
64,192,83984,1,0,0:0:0:0:
448,192,84078,1,0,0:0:0:0:
192,192,84078,1,0,0:0:0:0:
320,192,84171,1,0,0:0:0:0:
448,192,84265,1,0,0:0:0:0:
320,192,84359,1,0,0:0:0:0:
64,192,84453,1,0,0:0:0:0:
192,192,84453,1,0,0:0:0:0:
320,192,84546,1,0,0:0:0:0:
64,192,84640,1,0,0:0:0:0:
448,192,84640,1,0,0:0:0:0:
192,192,84734,1,0,0:0:0:0:
448,192,84828,1,0,0:0:0:0:
320,192,84828,1,0,0:0:0:0:
64,192,84921,1,0,0:0:0:0:
448,192,85015,1,0,0:0:0:0:
192,192,85109,1,0,0:0:0:0:
64,192,85203,1,0,0:0:0:0:
320,192,85249,1,0,0:0:0:0:
448,192,85296,1,0,0:0:0:0:
64,192,85343,1,0,0:0:0:0:
192,192,85390,1,0,0:0:0:0:
448,192,85437,1,0,0:0:0:0:
64,192,85484,1,0,0:0:0:0:
192,192,85531,1,0,0:0:0:0:
320,192,85578,1,0,0:0:0:0:
448,192,85578,1,0,0:0:0:0:
64,192,85671,1,0,0:0:0:0:
320,192,85765,1,0,0:0:0:0:
192,192,85859,1,0,0:0:0:0:
448,192,85953,1,0,0:0:0:0:
64,192,86046,1,0,0:0:0:0:
320,192,86140,1,0,0:0:0:0:
448,192,86234,1,0,0:0:0:0:
64,192,86328,1,0,0:0:0:0:
320,192,86328,1,0,0:0:0:0:
192,192,86421,1,0,0:0:0:0:
448,192,86515,1,0,0:0:0:0:
64,192,86515,1,0,0:0:0:0:
320,192,86609,1,0,0:0:0:0:
192,192,86703,1,0,0:0:0:0:
448,192,86703,1,0,0:0:0:0:
64,192,86796,1,0,0:0:0:0:
448,192,86890,1,0,0:0:0:0:
320,192,86984,1,0,0:0:0:0:
448,192,87078,1,0,0:0:0:0:
64,192,87078,1,0,0:0:0:0:
192,192,87171,1,0,0:0:0:0:
320,192,87265,1,0,0:0:0:0:
448,192,87359,1,0,0:0:0:0:
64,192,87453,1,0,0:0:0:0:
192,192,87546,1,0,0:0:0:0:
320,192,87640,1,0,0:0:0:0:
448,192,87734,1,0,0:0:0:0:
320,192,87828,1,0,0:0:0:0:
192,192,87828,1,0,0:0:0:0:
64,192,87921,1,0,0:0:0:0:
192,192,88015,1,0,0:0:0:0:
320,192,88015,1,0,0:0:0:0:
448,192,88109,1,0,0:0:0:0:
320,192,88203,1,0,0:0:0:0:
192,192,88203,1,0,0:0:0:0:
64,192,88296,1,0,0:0:0:0:
448,192,88390,1,0,0:0:0:0:
320,192,88437,1,0,0:0:0:0:
192,192,88484,1,0,0:0:0:0:
64,192,88531,1,0,0:0:0:0:
448,192,88578,1,0,0:0:0:0:
320,192,88578,1,0,0:0:0:0:
192,192,88671,1,0,0:0:0:0:
64,192,88765,1,0,0:0:0:0:
320,192,88765,1,0,0:0:0:0:
192,192,88859,1,0,0:0:0:0:
448,192,88953,1,0,0:0:0:0:
64,192,88953,1,0,0:0:0:0:
192,192,89046,1,0,0:0:0:0:
448,192,89140,1,0,0:0:0:0:
64,192,89140,1,0,0:0:0:0:
320,192,89234,1,0,0:0:0:0:
448,192,89328,1,0,0:0:0:0:
192,192,89328,1,0,0:0:0:0:
320,192,89421,1,0,0:0:0:0:
64,192,89515,1,0,0:0:0:0:
448,192,89515,1,0,0:0:0:0:
192,192,89609,1,0,0:0:0:0:
448,192,89703,1,0,0:0:0:0:
320,192,89703,1,0,0:0:0:0:
192,192,89749,1,0,0:0:0:0:
64,192,89749,1,0,0:0:0:0:
320,192,89796,1,0,0:0:0:0:
448,192,89796,1,0,0:0:0:0:
192,192,89843,1,0,0:0:0:0:
64,192,89843,1,0,0:0:0:0:
320,192,89890,1,0,0:0:0:0:
448,192,89890,1,0,0:0:0:0:
192,192,89937,1,0,0:0:0:0:
64,192,89937,1,0,0:0:0:0:
320,192,89984,1,0,0:0:0:0:
448,192,89984,1,0,0:0:0:0:
192,192,90031,1,0,0:0:0:0:
64,192,90031,1,0,0:0:0:0:
320,192,90078,1,0,0:0:0:0:
448,192,90078,1,0,0:0:0:0:
448,192,91578,128,0,92328:0:0:0:0:
320,192,91578,128,0,92328:0:0:0:0:
192,192,91578,128,0,92328:0:0:0:0:
64,192,91578,128,0,92328:0:0:0:0:
