osu file format v14

[General]
AudioFilename: audio.mp3
AudioLeadIn: 0
PreviewTime: 42698
Countdown: 0
SampleSet: Soft
StackLeniency: 0.7
Mode: 0
LetterboxInBreaks: 0
WidescreenStoryboard: 0

[Editor]
Bookmarks: 265161,269573
DistanceSpacing: 1.3
BeatDivisor: 4
GridSize: 4
TimelineZoom: 1

[Metadata]
Title:Our Special Place
TitleUnicode:Our Special Place
Artist:The Queenstons
ArtistUnicode:The Queenstons
Creator:Takuso-San
Version:This Game Is Nothing After All...
Source:
Tags:renard lapfox trax furries vulpvibe records furry the queenstons HALLEY LABS electronic english techno
BeatmapID:3242542
BeatmapSetID:1587693

[Difficulty]
HPDrainRate:5
CircleSize:3.7
OverallDifficulty:8.6
ApproachRate:9.2
SliderMultiplier:2.1
SliderTickRate:1

[Events]
//Background and Video events
0,0,"bg.png",0,0
//Break Periods
//Storyboard Layer 0 (Background)
//Storyboard Layer 1 (Fail)
//Storyboard Layer 2 (Pass)
//Storyboard Layer 3 (Foreground)
//Storyboard Layer 4 (Overlay)
//Storyboard Sound Samples

[TimingPoints]
456,441.176470588235,4,2,0,50,1,0
4426,-133.333333333333,4,2,0,50,0,0
4867,-200,4,2,0,50,0,0
7514,-100,4,2,0,50,0,0
8397,-200,4,2,0,50,0,0
9058,-100,4,2,0,50,0,0
9500,-133.333333333333,4,2,0,50,0,0
11485,-399.999999999997,4,2,0,50,0,0
11926,-200,4,2,0,50,0,0
12588,-400,4,2,0,50,0,0
12808,-200,4,2,0,50,0,0
13029,-133.333333333333,4,2,0,50,0,0
13250,-400,4,2,0,50,0,0
13911,-400,4,2,0,50,0,0
14573,-100,4,2,0,50,0,0
19647,-200,4,2,0,50,0,0
19867,-133.333333333333,4,2,0,50,0,0
20088,-100,4,2,0,50,0,0
20308,-200,4,2,0,50,0,0
21411,-100,4,2,0,50,0,0
22735,-200,4,2,0,50,0,0
23176,-100,4,2,0,50,0,0
23617,-200,4,2,0,50,0,0
24058,-66.6666666666667,4,2,0,50,0,0
24279,-100,4,2,0,50,0,0
32441,-80,4,2,0,50,0,0
32661,-153.846153846153,4,2,0,50,0,0
33103,-66.6666666666667,4,2,0,50,0,0
33764,-100,4,2,0,50,0,0
40823,-200,4,2,0,50,0,0
41044,-133.333333333333,4,2,0,50,0,0
41264,-100,4,2,0,50,0,0
42147,-100,4,2,0,50,0,0
43250,-133.333333333333,4,2,0,50,0,0
44794,-263.157894736842,4,2,0,50,0,0
45235,-133.333333333333,4,2,0,50,0,0
45676,-100,4,2,0,50,0,0
46779,-200,4,2,0,50,0,0
47882,-100,4,2,0,50,0,0
48544,-400,4,2,0,50,0,0
49867,-200,4,2,0,50,0,0
50088,-133.333333333333,4,2,0,50,0,0
51411,-200,4,2,0,50,0,0
51632,-133.333333333333,4,2,0,50,0,0
54279,-200,4,2,0,50,0,0
54941,-100,4,2,0,50,0,0
56926,-100,4,2,0,50,0,1
85161,-100,4,2,0,50,0,0
86044,-200,4,2,0,50,0,0
86926,-400,4,2,0,50,0,0
88691,-200,4,2,0,50,0,0
90455,-400,4,2,0,50,0,0
90897,-400,4,2,0,5,0,0
91338,-133.333333333333,4,2,0,50,0,0
91779,-133.333333333333,4,2,0,5,0,0
92220,-133.333333333333,4,2,0,50,0,0
93103,-200,4,2,0,50,0,0
93985,-400,4,2,0,50,0,0
94426,-400,4,2,0,5,0,0
94867,-400,4,2,0,30,0,0
95308,-200,4,2,0,50,0,0
97514,-133.333333333333,4,2,0,50,0,0
98397,-400,4,2,0,50,0,0
98838,-400,4,2,0,5,0,0
99279,-100,4,2,0,50,0,0
103691,-200,4,2,0,50,0,0
104353,-100,4,2,0,50,0,0
105676,-200,4,2,0,50,0,0
106117,-100,4,2,0,50,0,0
106558,-66.6666666666667,4,2,0,50,0,0
106779,-100,4,2,0,50,0,0
107220,-200,4,2,0,50,0,0
108103,-133.333333333333,4,2,0,50,0,0
108323,-100,4,2,0,50,0,0
109426,-200,4,2,0,50,0,0
110088,-133.333333333333,4,2,0,50,0,0
110308,-100,4,2,0,50,0,0
110970,-200,4,2,0,50,0,0
111411,-200,4,2,0,50,0,0
111632,-133.333333333333,4,2,0,50,0,0
111853,-100,4,2,0,50,0,0
112073,-200,4,2,0,50,0,0
112514,-100,4,2,0,50,0,0
112735,-100,4,2,0,50,0,0
114500,-200,4,2,0,50,0,0
115161,-100,4,2,0,50,0,0
115382,-66.6666666666667,4,2,0,50,0,0
116044,-100,4,2,0,50,0,0
116485,-133.333333333333,4,2,0,50,0,0
116926,-200,4,2,0,50,0,0
117147,-133.333333333333,4,2,0,50,0,0
117367,-100,4,2,0,50,0,0
118470,-66.6666666666667,4,2,0,50,0,0
118691,-80,4,2,0,50,0,0
118911,-100,4,2,0,50,0,0
119132,-200,4,2,0,50,0,0
120455,-200,4,2,0,50,0,0
120676,-100,4,2,0,50,0,0
123544,-200,4,2,0,50,0,0
125750,-133.333333333333,4,2,0,50,0,0
125970,-100,4,2,0,50,0,0
126191,-200,4,2,0,50,0,0
126632,-100,4,2,0,50,0,0
127514,-100,4,2,0,50,0,0
127955,-200,4,2,0,50,0,0
129279,-100,4,2,0,50,0,0
129500,-200,4,2,0,50,0,0
130823,-100,4,2,0,50,0,0
131485,-200,4,2,0,50,0,0
131926,-400,4,2,0,50,0,0
132588,-200,4,2,0,50,0,0
132808,-133.333333333333,4,2,0,50,0,0
133029,-100,4,2,0,50,0,0
133911,-200,4,2,0,50,0,0
134573,-100,4,2,0,50,0,0
136117,-133.333333333333,4,2,0,50,0,0
136338,-100,4,2,0,50,0,0
137882,-66.6666666666667,4,2,0,50,0,0
138544,-100,4,2,0,50,0,0
138985,-200,4,2,0,50,0,0
139647,-100,4,2,0,50,0,0
139867,-66.6666666666667,4,2,0,50,0,0
140088,-50,4,2,0,50,0,0
140308,-200,4,2,0,50,0,0
140750,-100,4,2,0,50,0,0
141632,-100,4,2,0,50,0,1
148250,-50,4,2,0,50,0,1
148691,-66.6666666666667,4,2,0,50,0,1
152220,-100,4,2,0,50,0,1
158838,-50,4,2,0,50,0,1
160161,-66.6666666666667,4,2,0,50,0,1
169867,-200,4,2,0,50,0,0
176044,-133.333333333333,4,2,0,50,0,0
176926,-100,4,2,0,50,0,0
177808,-200,4,2,0,50,0,0
183103,-400,4,2,0,50,0,0
183985,-100,4,2,0,50,0,0
187514,-66.6666666666667,4,2,0,50,0,0
187955,-100,4,2,0,50,0,0
189279,-133.333333333333,4,2,0,50,0,0
192588,-100,4,2,0,50,0,0
193691,-80,4,2,0,50,0,0
197220,-200,4,2,0,50,0,0
198397,-100,4,2,0,50,0,0
202514,-66.6666666666667,4,2,0,50,0,0
202955,-100,4,2,0,50,0,0
204279,-66.6666666666667,4,2,0,50,0,0
204720,-100,4,2,0,50,0,0
205161,-200,4,2,0,50,0,0
205603,-133.333333333333,4,2,0,50,0,0
205897,-100,4,2,0,50,0,0
206485,-66.6666666666667,4,2,0,50,0,0
206779,-133.333333333333,4,2,0,50,0,0
207367,-100,4,2,0,50,0,0
210448,-66.6666666666667,4,2,0,50,0,0
211338,-100,4,2,0,50,0,0
211779,-66.6666666666667,4,2,0,50,0,0
212220,-100,4,2,0,50,0,1
213103,-66.6666666666667,4,2,0,50,0,1
226191,-66.6666666666667,4,2,0,50,0,0
226338,-50,4,2,0,50,0,1
240308,-50,4,2,0,50,0,0
240455,-50,4,2,0,50,0,1
254573,-100,4,2,0,50,0,0
254904,-100,4,2,2,50,0,0
255014,-100,4,2,0,50,0,0
255345,-100,4,2,2,50,0,0
255455,-100,4,2,0,50,0,0
256117,-100,4,2,2,50,0,0
256338,-133.333333333333,4,2,0,50,0,0
257000,-133.333333333333,4,2,2,50,0,0
257220,-200,4,2,0,50,0,0
257882,-200,4,2,2,50,0,0
258103,-200,4,2,0,50,0,0
258433,-200,4,2,2,50,0,0
258544,-200,4,2,0,50,0,0
258875,-200,4,2,2,50,0,0
258985,-100,4,2,0,50,0,0
259316,-100,4,2,2,50,0,0
259426,-100,4,2,0,50,0,0
259757,-100,4,2,2,50,0,0
259867,-200,4,2,0,50,0,0
260529,-200,4,2,2,50,0,0
260750,-200,4,2,0,50,0,0
261522,-200,4,2,2,50,0,0
261632,-200,4,2,0,50,0,0
261963,-200,4,2,2,50,0,0
262073,-200,4,2,0,50,0,0
262404,-200,4,2,2,50,0,0
262514,-200,4,2,0,50,0,0
263176,-200,4,2,2,50,0,0
263397,-400,4,2,0,50,0,0
264169,-400,4,2,2,50,0,0
264279,-200,4,2,0,50,0,0
264610,-200,4,2,2,50,0,0
264720,-100,4,2,0,50,0,0
265051,-100,4,2,2,50,0,0
265161,-200,4,2,3,50,0,0
265603,-200,4,2,3,45,0,0
266044,-200,4,2,3,40,0,0
266485,-200,4,2,3,35,0,0
266926,-200,4,2,3,30,0,0
267367,-200,4,2,3,25,0,0
267808,-200,4,2,3,20,0,0
268250,-200,4,2,3,15,0,0
268691,-200,4,2,3,10,0,0
269132,-200,4,2,3,5,0,0
269573,-200,4,2,2,5,0,0

[HitObjects]
57,100,456,6,0,B|76:114|111:105|100:89|132:78|154:95,1,105
251,154,897,1,0,0:0:0:0:
108,243,1117,1,0,0:0:0:0:
260,279,1338,2,0,B|271:316|287:338|287:338|285:270|307:193,1,210
334,21,2000,5,0,0:0:0:0:
194,77,2220,1,0,0:0:0:0:
295,173,2441,2,0,P|297:212|201:252,1,157.5
122,255,2882,2,0,P|120:216|216:176,1,157.5
258,295,3323,2,0,B|338:287|317:339|409:322,1,157.5
512,238,3764,1,0,0:0:0:0:
366,113,3985,5,0,0:0:0:0:
225,198,4205,1,0,0:0:0:0:
345,324,4426,2,0,B|386:324|419:286,1,78.7500030040742
318,92,4867,2,0,B|275:127|297:193,1,105
342,335,5529,5,0,0:0:0:0:
167,322,5750,1,0,0:0:0:0:
408,235,5970,1,0,0:0:0:0:
79,210,6191,1,0,0:0:0:0:
138,143,6853,6,0,B|155:119|153:97|153:97|180:104|210:95,1,105
352,32,7514,6,0,P|344:60|347:90,1,52.5
460,169,7735,2,0,P|467:193|466:220,1,52.5
348,325,7955,1,0,0:0:0:0:
324,300,8176,1,0,0:0:0:0:
302,277,8397,2,0,P|264:246|196:251,1,105
68,56,9058,6,0,L|63:112,1,52.5
127,178,9279,2,0,L|132:234,1,52.5
60,326,9500,2,0,P|111:318|171:365,1,118.125004506111
237,266,9941,2,0,B|297:253|291:309|359:296,1,118.125004506111
456,368,10382,2,0,P|482:316|452:255,1,118.125004506111
412,99,10823,5,0,0:0:0:0:
321,157,11044,2,0,P|316:179|320:205,1,39.3750015020371
212,217,11264,2,0,P|224:236|245:252,1,39.3750015020371
178,338,11485,2,0,P|200:343|226:339,1,39.3750015020371
341,153,11926,2,0,P|384:160|354:198,1,105
41,277,12588,6,0,L|39:259,1,13.125
115,234,12808,2,0,L|130:214,1,26.25
205,227,13029,2,0,L|243:222,1,39.3750015020371
280,297,13250,6,0,L|320:329,1,52.5
396,241,13911,6,0,L|355:208,1,52.5
297,46,14573,6,0,P|241:57|222:103,1,105
160,192,15014,2,0,P|207:223|253:204,1,105
417,37,15455,2,0,B|408:90|455:87|445:146,1,105
448,268,15897,1,0,0:0:0:0:
240,294,16117,1,0,0:0:0:0:
325,86,16338,1,0,0:0:0:0:
355,361,16558,1,0,0:0:0:0:
157,165,16779,6,0,P|197:121|240:123,1,105
312,119,17110,1,0,0:0:0:0:
364,177,17220,1,0,0:0:0:0:
117,294,17441,1,0,0:0:0:0:
163,45,17661,2,0,B|108:63|108:63|93:112,1,105
86,323,18103,6,0,P|116:324|148:316,1,52.5
176,297,18323,1,0,0:0:0:0:
47,182,18544,1,0,0:0:0:0:
87,384,18764,1,0,0:0:0:0:
184,126,18985,2,0,B|235:114|235:114|270:166,1,105
261,283,19426,1,0,0:0:0:0:
408,314,19647,6,0,P|400:298|389:286,1,26.25
393,197,19867,2,0,P|373:190|355:189,1,39.3750015020371
293,110,20088,2,0,P|268:122|250:138,1,52.5
150,115,20308,2,0,P|141:140|140:165,1,52.5
141,214,20639,1,0,0:0:0:0:
173,242,20750,1,0,0:0:0:0:
273,253,20970,6,0,P|307:242|344:246,1,52.5
440,270,21411,2,0,L|435:209,1,52.5
424,109,21632,6,0,L|319:117,1,105
178,39,22073,2,0,B|160:79|160:79|166:108|166:108|149:144,1,105
59,251,22514,2,0,P|85:264|118:273,1,52.5
239,321,22735,2,0,P|213:308|180:299,1,52.5
213,50,23176,6,0,P|211:75|216:109,1,52.5
267,248,23397,2,0,P|269:223|264:189,1,52.5
137,149,23617,2,0,P|161:157|195:161,1,52.5,0|0,2:0|2:0,2:0:0:0:
412,40,24058,6,0,B|381:44|381:44|355:65,2,52.5000020027161
416,117,24279,2,0,B|436:134|436:134|346:159,1,105
260,184,24720,2,0,B|184:205|184:205|204:222,1,105
376,317,25161,5,0,0:0:0:0:
446,199,25382,1,0,0:0:0:0:
300,188,25603,1,0,0:0:0:0:
456,232,25823,2,0,P|428:232|401:240,1,52.5
335,272,26044,2,0,P|294:288|194:177,1,210
47,89,26705,6,0,P|76:80|115:90,1,52.5
104,169,26926,2,0,P|130:183|151:217,1,52.5
86,261,27147,2,0,P|95:290|84:329,1,52.5
182,349,27367,2,0,P|211:358|250:348,1,52.5
239,269,27588,2,0,P|265:254|286:220,1,52.5
221,177,27808,1,0,0:0:0:0:
163,53,28029,2,0,P|134:44|177:102,1,210
288,31,28691,6,0,P|328:36|293:58,1,105
133,157,29132,6,0,P|139:211|161:258,1,105
265,324,29573,2,0,B|289:266|357:264|336:304|403:310|443:236,1,210
453,84,30235,6,0,P|421:84|393:93,1,52.5
351,188,30455,2,0,P|376:194|402:193,1,52.5
305,98,30676,2,0,P|278:97|203:136,1,105
106,236,31117,5,0,0:0:0:0:
106,236,31191,1,0,0:0:0:0:
106,236,31264,1,0,0:0:0:0:
106,236,31338,2,0,P|151:268|229:263,1,105
337,268,31779,1,0,0:0:0:0:
168,113,32000,1,0,0:0:0:0:
383,38,32220,6,0,P|396:59|401:96,1,52.5
323,127,32441,2,0,P|317:152|293:182,1,65.625
221,127,32661,2,0,P|198:141|158:146,1,68.2499968757631
190,320,33103,2,0,B|256:238|291:356|361:347|410:289|399:214|338:196|305:243,1,315.000012016297
204,165,33764,6,0,L|148:172,1,52.5
139,79,33985,2,0,L|191:72,1,52.5
308,165,34205,2,0,L|360:171,1,52.5
373,79,34426,2,0,L|320:72,1,52.5
178,76,34647,1,0,0:0:0:0:
178,76,34720,1,0,0:0:0:0:
178,76,34794,1,0,0:0:0:0:
178,76,34867,2,0,P|142:91|117:110,1,52.5
86,245,35088,2,0,P|188:250|159:169,1,210
383,48,35750,6,0,B|391:102|391:102|368:155,1,105
334,270,36191,2,0,B|308:283|308:283|277:269,1,52.5
246,349,36411,2,0,B|218:339|218:339|206:307,1,52.5
133,343,36632,1,0,0:0:0:0:
234,223,36853,2,0,P|228:166|196:180,1,105
57,43,37294,6,0,L|65:105,1,52.5
150,89,37514,2,0,L|143:141,1,52.5
64,196,37735,2,0,L|72:258,1,52.5
165,298,37955,2,0,L|158:245,1,52.5
147,113,38176,1,0,0:0:0:0:
147,113,38250,1,0,0:0:0:0:
147,113,38323,1,0,0:0:0:0:
147,113,38397,2,0,B|192:139|192:139|244:103,1,105
352,42,38838,2,0,P|397:67|369:95,1,105
75,164,39279,5,0,0:0:0:0:
305,303,39500,1,0,0:0:0:0:
204,48,39720,1,0,0:0:0:0:
116,319,39941,2,0,P|125:297|151:275,1,52.5
227,228,40161,2,0,P|267:221|196:147,1,210
41,47,40823,6,0,L|37:78,1,26.25
109,111,41044,2,0,L|125:149,1,39.3750015020371
202,152,41264,2,0,L|253:173,1,52.5
318,125,41485,1,0,0:0:0:0:
436,57,41705,5,0,0:0:0:0:
436,57,41779,1,0,0:0:0:0:
436,57,41853,1,0,0:0:0:0:
436,57,41926,2,0,P|440:90|441:122,1,52.5
440,212,42147,2,0,B|365:232|404:294|309:307|309:307|330:285|336:246,1,210
79,63,42808,6,0,B|66:116|66:116|100:167,1,105
150,348,43250,6,0,P|165:308|161:272,1,78.7500030040742
250,254,43691,2,0,P|232:215|204:192,1,78.7500030040742
250,118,44132,2,0,P|210:103|174:107,1,78.7500030040742
156,18,44573,2,0,P|130:32|116:52,1,39.3750015020371
20,251,44794,6,0,P|42:242|60:217,1,39.8999995129395
130,261,45235,2,0,P|142:230|135:187,1,78.7500030040742
232,175,45676,2,0,P|215:133|168:99,1,105
89,48,46117,5,0,0:0:0:0:
39,172,46338,2,0,P|68:171|100:157,1,52.5
223,68,46558,2,0,P|194:69|162:83,1,52.5
79,28,46779,2,0,P|80:56|94:89,1,52.5
183,212,47220,2,0,B|203:165|150:157|171:113,1,105
301,37,47882,6,0,P|331:48|359:82,1,52.5
421,183,48103,2,0,P|391:172|363:138,1,52.5
434,49,48323,2,0,P|423:79|389:107,1,52.5
288,169,48544,2,0,P|299:139|333:111,1,52.5
411,293,49205,2,0,P|403:317|386:338,1,52.5
274,248,49867,6,0,L|240:258,1,26.25
190,184,50088,2,0,L|171:217,1,39.3750015020371
76,207,50308,2,0,L|98:281,1,78.7500030040742
201,382,50750,2,0,L|223:307,1,78.7500030040742
265,180,51191,1,0,0:0:0:0:
294,51,51411,6,0,L|263:57,1,26.25
170,145,51632,2,0,L|207:152,1,39.3750015020371
414,254,51853,6,0,P|379:269|337:268,1,78.7500030040742
165,318,52294,2,0,P|149:283|150:241,1,78.7500030040742
90,128,52735,2,0,P|125:112|166:113,1,78.7500030040742
326,102,53176,5,0,0:0:0:0:
428,31,53397,1,0,0:0:0:0:
403,212,53617,1,0,0:0:0:0:
333,29,53838,2,0,P|285:37|256:76,1,78.7500030040742
132,83,54279,2,0,L|161:185,1,105
191,294,54941,5,0,0:0:0:0:
406,264,55161,1,0,0:0:0:0:
224,169,55382,1,0,0:0:0:0:
288,379,55603,2,0,P|301:334|244:303,1,105
95,64,56044,5,0,0:0:0:0:
296,152,56264,1,0,0:0:0:0:
77,270,56485,1,0,0:0:0:0:
193,299,56926,6,0,P|228:294|272:313,1,70
368,357,57220,1,0,0:0:0:0:
450,216,57367,2,0,P|415:210|382:221,1,70
289,275,57661,1,0,0:0:0:0:
305,153,57808,2,0,B|308:116|308:116|297:76,1,70
183,139,58103,1,0,0:0:0:0:
93,298,58250,6,0,P|128:320|171:319,1,70
385,342,58544,1,0,0:0:0:0:
210,193,58691,1,0,0:0:0:0:
251,384,58838,1,0,0:0:0:0:
353,237,58985,1,0,0:0:0:0:
172,364,59132,1,0,0:0:0:0:
291,189,59279,1,0,0:0:0:0:
454,114,59426,6,0,P|419:112|370:142,1,70
222,140,59720,1,0,0:0:0:0:
221,285,59867,1,0,0:0:0:0:
221,285,59941,1,0,0:0:0:0:
221,285,60014,2,0,P|259:278|291:259,1,70
404,216,60308,1,0,0:0:0:0:
367,65,60455,6,0,P|323:72|295:90,1,70
219,163,60750,1,0,0:0:0:0:
121,15,60897,2,0,P|128:59|146:87,1,70
219,163,61191,1,0,0:0:0:0:
154,299,61338,6,0,P|195:309|240:303,1,70
341,235,61632,1,0,0:0:0:0:
245,130,61779,2,0,P|210:130|176:121,1,70
231,32,62073,1,0,0:0:0:0:
333,108,62220,2,0,P|333:142|324:176,1,70
234,141,62514,6,0,P|200:150|163:172,1,70
51,163,62808,2,0,P|60:197|82:234,1,70
84,339,63103,2,0,P|118:330|155:308,1,70
270,158,63397,1,0,0:0:0:0:
270,158,63470,1,0,0:0:0:0:
270,158,63544,2,0,P|300:146|345:153,1,70
431,221,63838,1,0,0:0:0:0:
327,312,63985,2,0,B|292:315|292:315|246:345,1,70
129,350,64279,5,0,0:0:0:0:
49,199,64426,1,0,0:0:0:0:
233,154,64573,1,0,0:0:0:0:
39,353,64720,1,0,0:0:0:0:
89,121,64867,1,0,0:0:0:0:
236,332,65014,1,0,0:0:0:0:
142,231,65161,6,0,P|137:191|149:160,1,70
263,123,65455,1,0,0:0:0:0:
355,203,65603,2,0,P|360:237|350:270,1,70
215,318,65897,1,0,0:0:0:0:
275,41,66044,2,0,P|293:69|291:104,1,70
285,327,66338,1,0,0:0:0:0:
149,286,66485,2,0,B|142:251|142:251|150:202,1,70
320,249,66779,1,0,0:0:0:0:
290,83,66926,5,0,0:0:0:0:
290,83,67000,1,0,0:0:0:0:
289,82,67073,2,0,P|303:113|306:168,1,70
338,348,67367,1,0,0:0:0:0:
215,317,67514,2,0,P|175:318|130:327,1,70
22,330,67808,1,0,0:0:0:0:
46,187,67955,2,0,P|81:187|116:192,1,70
253,208,68250,5,0,0:0:0:0:
394,374,68397,1,0,0:0:0:0:
379,145,68544,1,0,0:0:0:0:
250,331,68691,1,0,0:0:0:0:
470,281,68838,1,0,0:0:0:0:
97,142,68985,6,0,P|104:100|126:64,1,70
211,26,69279,1,0,0:0:0:0:
259,117,69426,6,0,P|254:151|239:183,1,70
144,236,69720,1,0,0:0:0:0:
92,349,69867,2,0,P|131:361|169:358,1,70
337,351,70161,1,0,0:0:0:0:
225,167,70308,1,0,0:0:0:0:
429,160,70455,1,0,0:0:0:0:
429,160,70529,1,0,0:0:0:0:
429,160,70603,2,0,P|425:209|399:249,1,70
297,330,70897,1,0,0:0:0:0:
149,305,71044,6,0,P|116:284|103:253,1,70
73,121,71338,1,0,0:0:0:0:
222,81,71485,2,0,B|245:110|245:110|245:146,1,70
248,256,71779,1,0,0:0:0:0:
214,366,71926,2,0,P|255:374|287:368,1,70
424,296,72220,1,0,0:0:0:0:
452,158,72367,2,0,P|420:150|386:160,1,70
293,225,72661,1,0,0:0:0:0:
234,127,72808,2,0,B|202:103|202:103|163:111,1,70
84,172,73103,5,0,0:0:0:0:
77,312,73250,2,0,P|131:326|160:310,1,70
238,281,73544,1,0,0:0:0:0:
314,55,73691,1,0,0:0:0:0:
112,123,73838,1,0,0:0:0:0:
388,253,73985,1,0,0:0:0:0:
388,253,74058,1,0,0:0:0:0:
388,253,74132,2,0,P|357:285|302:295,1,70
165,287,74426,1,0,0:0:0:0:
343,182,74573,6,0,P|322:205|287:221,1,70
181,226,74867,1,0,0:0:0:0:
286,293,75014,2,0,P|254:294|218:280,1,70
140,209,75308,1,0,0:0:0:0:
155,339,75455,2,0,P|132:318|116:283,1,70
111,176,75750,1,0,0:0:0:0:
160,43,75897,6,0,P|197:46|248:65,1,70
304,116,76191,1,0,0:0:0:0:
142,118,76338,2,0,P|176:130|221:162,1,70
262,225,76632,1,0,0:0:0:0:
116,188,76779,2,0,P|146:209|181:251,1,70
285,279,77073,1,0,0:0:0:0:
79,324,77220,5,0,0:0:0:0:
143,66,77367,1,0,0:0:0:0:
22,197,77514,1,0,0:0:0:0:
22,197,77588,1,0,0:0:0:0:
22,197,77661,2,0,P|62:185|112:196,1,70
263,184,77955,1,0,0:0:0:0:
149,354,78103,6,0,P|149:316|163:283,1,70
206,185,78397,1,0,0:0:0:0:
282,15,78544,2,0,P|282:49|270:82,1,70
88,183,78838,1,0,0:0:0:0:
41,32,78985,2,0,P|75:31|126:59,1,70
199,117,79279,1,0,0:0:0:0:
307,160,79426,2,0,P|341:161|392:133,1,70
467,54,79720,1,0,0:0:0:0:
351,57,79867,6,0,P|309:65|284:90,1,70
157,162,80161,1,0,0:0:0:0:
57,320,80308,2,0,P|100:324|144:311,1,70
346,274,80603,1,0,0:0:0:0:
243,161,80750,2,0,P|243:133|273:92,1,70
382,80,81044,1,0,0:0:0:0:
382,80,81117,1,0,0:0:0:0:
382,80,81191,2,0,P|380:119|361:153,1,70
281,238,81485,1,0,0:0:0:0:
66,248,81632,6,0,P|67:206|87:179,1,70
162,88,81926,1,0,0:0:0:0:
238,195,82073,2,0,P|221:225|223:260,1,70
314,363,82367,1,0,0:0:0:0:
413,270,82514,2,0,B|407:227|407:227|390:193,1,70
326,124,82808,1,0,0:0:0:0:
124,214,82955,1,0,0:0:0:0:
322,301,83103,1,0,0:0:0:0:
211,32,83250,1,0,0:0:0:0:
158,310,83397,6,0,P|201:313|236:293,1,70
336,201,83691,1,0,0:0:0:0:
270,344,83838,2,0,P|302:316|313:277,1,70
318,141,84132,1,0,0:0:0:0:
85,92,84279,1,0,0:0:0:0:
87,278,84426,1,0,0:0:0:0:
315,135,84573,1,0,0:0:0:0:
315,135,84647,1,0,0:0:0:0:
315,135,84720,2,0,P|317:168|297:210,1,70
231,301,85014,1,0,0:0:0:0:
85,117,85161,6,0,P|130:85|251:153,1,210
215,321,86044,2,0,P|265:331|323:304,1,105
442,272,86926,2,0,P|418:264|398:284,1,52.5
414,353,87808,2,0,P|437:361|457:344,1,52.5
441,213,88691,6,0,P|416:182|344:173,1,105
276,227,89573,2,0,P|311:264|362:270,1,105
467,126,90455,2,0,P|449:117|446:144,1,52.5
477,236,91338,2,0,P|475:259|366:272,1,157.500006008148
279,84,92220,6,0,P|239:91|276:174,1,157.500006008148
375,174,93103,2,0,P|394:176|356:215,1,105
199,231,93985,2,0,P|171:230|144:227,1,52.5
256,192,94867,1,0,0:0:0:0:
394,332,95308,6,0,P|409:297|384:230,1,105
330,155,96191,1,0,0:0:0:0:
320,140,96632,1,0,0:0:0:0:
88,63,97514,6,0,P|70:114|153:141,1,157.500006008148
263,83,98397,2,0,P|278:79|317:86,1,52.5
79,42,99279,6,0,P|71:64|71:100,1,52.5
175,156,99500,2,0,P|174:129|165:105,1,52.5
73,181,99720,2,0,P|64:205|64:232,1,52.5
184,302,99941,2,0,P|183:275|174:251,1,52.5
69,92,100161,1,0,0:0:0:0:
268,180,100382,2,0,B|279:163|279:163|292:180|292:180|304:163|304:163|316:180|316:180|329:163,1,105
348,323,100823,5,0,0:0:0:0:
336,329,100933,1,0,0:0:0:0:
324,337,101044,2,0,P|284:347|205:331,1,105
98,238,101485,1,0,0:0:0:0:
148,67,101705,5,0,0:0:0:0:
148,67,101816,1,0,0:0:0:0:
148,67,101926,2,0,P|173:75|204:96,1,52.5
233,220,102147,2,0,P|208:212|185:198,1,52.5
69,118,102367,2,0,P|104:104|184:111,1,105
202,120,102698,1,0,0:0:0:0:
246,134,102808,2,0,P|277:136|352:112,1,105
412,51,103250,1,0,0:0:0:0:
198,86,103470,5,0,0:0:0:0:
243,109,103580,1,0,0:0:0:0:
252,158,103691,2,0,P|254:192|176:206,1,105
28,103,104353,6,0,P|36:122|60:147,1,52.5
97,237,104573,2,0,P|116:229|141:205,1,52.5
228,157,104794,2,0,P|220:138|196:113,1,52.5,0|0,2:0|2:0,2:0:0:0:
154,12,105014,2,0,P|135:20|110:44,1,52.5,0|0,2:0|2:0,2:0:0:0:
92,81,105235,1,0,0:0:0:0:
97,129,105345,1,0,0:0:0:0:
146,133,105455,2,0,P|167:118|213:105,1,52.5
286,152,105676,2,0,P|270:173|240:188,1,52.5
20,280,106117,5,0,0:0:0:0:
37,285,106228,1,0,0:0:0:0:
54,291,106338,2,0,P|84:297|121:286,1,52.5
196,328,106558,2,0,P|203:292|190:248,1,78.7500030040742
172,151,106779,2,0,P|163:122|167:95,1,52.5
206,17,107000,1,0,0:0:0:0:
290,88,107220,2,0,P|307:93|324:105,1,26.25
346,228,107441,2,0,P|320:221|296:209,1,52.5
45,299,107882,6,0,P|53:284|63:274,1,26.25
46,196,108103,2,0,P|66:189|83:189,1,39.3750015020371,0|0,2:0|2:0,2:0:0:0:
114,103,108323,2,0,P|138:116|155:132,1,52.5,0|0,2:0|2:0,2:0:0:0:
259,217,108544,2,0,P|235:204|217:186,1,52.5,0|0,2:0|2:0,2:0:0:0:
196,95,108764,1,0,0:0:0:0:
264,59,108875,1,0,0:0:0:0:
317,116,108985,2,0,P|343:128|380:123,1,52.5
436,66,109205,1,0,0:0:0:0:
458,295,109426,2,0,L|442:353,1,52.5
109,347,109867,6,0,P|117:331|126:321,1,26.25
84,241,110088,2,0,P|105:233|122:232,1,39.3750015020371,0|0,1:0|0:0,1:0:0:0:
152,144,110308,2,0,P|178:157|195:172,1,52.5,0|0,1:0|0:0,1:0:0:0:
267,130,110529,5,0,0:0:0:0:
308,195,110639,1,0,0:0:0:0:
280,265,110750,2,0,P|266:293|247:312,1,52.5
151,280,110970,2,0,P|165:252|184:233,1,52.5
324,49,111411,6,0,L|299:71,1,26.25
333,161,111632,2,0,L|363:134,1,39.3750015020371
448,180,111853,2,0,L|408:214,1,52.5
300,310,112073,2,0,P|328:299|339:275,1,52.5
338,228,112404,1,0,0:0:0:0:
300,187,112514,2,0,P|272:184|249:188,1,52.5
150,212,112735,2,0,B|102:179|73:338|-11:248|-12:195|24:177|61:187,1,210
366,32,113397,6,0,P|353:60|334:81,1,52.5
325,153,113617,2,0,P|296:140|275:121,1,52.5
231,64,113838,2,0,P|214:84|204:108,1,52.5
178,182,114058,1,0,0:0:0:0:
196,253,114169,1,0,0:0:0:0:
128,282,114279,2,0,P|104:278|91:247,1,52.5
51,126,114500,2,0,B|86:116|126:113,1,52.5
338,52,114941,6,0,P|358:50|379:51,1,26.25
409,137,115161,2,0,P|381:139|353:138,1,52.5
294,44,115382,2,0,P|332:40|372:42,1,78.7500030040742
487,122,115603,1,0,0:0:0:0:
416,273,115823,5,0,0:0:0:0:
406,280,115933,1,0,0:0:0:0:
395,286,116044,2,0,P|369:301|290:310,1,105
179,293,116485,2,0,P|207:256|237:232,1,78.75
368,118,116926,6,0,L|340:126,1,26.25
329,222,117147,2,0,L|367:212,1,39.3750015020371
397,312,117367,2,0,P|351:332|296:340,1,105
237,353,117698,1,0,0:0:0:0:
180,329,117808,2,0,P|166:286|270:299,1,210
115,352,118470,6,0,P|80:354|39:336,1,78.7500030040742
86,270,118691,2,0,P|63:249|49:214,1,65.625
136,203,118911,2,0,P|134:178|147:149,1,52.5
215,188,119132,2,0,P|231:169|260:158,1,52.5
300,173,119463,1,0,0:0:0:0:
333,206,119573,1,0,0:0:0:0:
329,298,119794,6,0,P|276:305|243:254,1,105
41,204,120455,6,0,L|80:199,1,26.25
197,183,120676,2,0,L|138:190,1,52.5
58,111,120897,1,0,0:0:0:0:
143,51,121117,1,0,0:0:0:0:
143,51,121228,1,0,0:0:0:0:
143,51,121338,1,0,0:0:0:0:
199,142,121558,2,0,B|244:162|244:162|271:210,1,105
167,353,122000,6,0,P|151:328|139:302,1,52.5
233,305,122220,2,0,P|217:280|205:254,1,52.5
304,266,122441,2,0,P|288:241|276:215,1,52.5
364,206,122661,1,0,0:0:0:0:
401,66,122882,1,0,0:0:0:0:
375,62,122992,1,0,0:0:0:0:
347,68,123103,2,0,P|319:79|301:100,1,52.5
324,175,123323,2,0,P|352:164|370:143,1,52.5
306,39,123544,2,0,P|279:55|260:71,1,52.5
45,295,123985,6,0,L|47:262,1,26.25
126,246,124205,2,0,L|124:272,1,26.25
116,364,124426,2,0,P|149:364|188:349,1,52.5
213,338,124757,1,0,0:0:0:0:
256,319,124867,2,0,P|292:304|369:311,1,105
474,316,125529,6,0,L|464:282,1,26.25
447,213,125750,2,0,L|404:225,1,39.3750015020371
327,246,125970,2,0,L|310:191,1,52.5
292,103,126191,2,0,P|253:99|226:117,1,52.5
204,135,126522,1,0,0:0:0:0:
172,202,126632,1,0,0:0:0:0:
312,340,126853,2,0,P|326:275|215:266,1,210
93,49,127514,6,0,B|70:103|70:103|102:147,1,105
204,157,127955,6,0,P|201:190|195:223,1,52.5
108,235,128397,2,0,P|110:261|114:287,1,52.5
195,317,128838,2,0,P|192:343|188:369,1,52.5
114,287,129279,2,0,P|110:261|108:234,1,52.5
171,79,129500,6,0,P|198:71|227:78,1,52.5
327,179,129941,2,0,P|301:174|276:182,1,52.5
173,314,130382,2,0,P|200:306|229:313,1,52.5
391,318,130823,6,0,L|374:251,1,52.5
276,157,131044,2,0,L|288:207,1,52.5
406,88,131264,2,0,L|393:37,1,52.5
304,54,131485,2,0,L|253:66,1,52.5
111,107,131926,2,0,L|161:94,1,52.5
44,229,132588,6,0,L|59:265,1,26.25
91,353,132808,2,0,L|127:338,1,39.3750015020371
229,306,133029,2,0,L|206:251,1,52.5,0|0,3:0|3:0,3:0:0:0:
155,120,133250,2,0,B|286:111|251:10|133:62,1,210
62,222,133911,2,0,B|8:246|16:274|76:268,1,105
267,302,134573,6,0,P|296:303|339:283,1,52.5
346,179,134794,2,0,P|317:178|273:198,1,52.5
142,206,135014,1,0,0:0:0:0:
81,104,135235,1,0,0:0:0:0:
170,34,135455,2,0,B|229:27|266:83|232:93|290:145|349:132,1,210
447,108,136117,6,0,P|451:130|448:157,1,39.3750015020371
449,195,136338,2,0,P|444:220|447:250,1,52.5
438,336,136558,6,0,P|391:338|325:293,1,105
245,339,137000,2,0,P|243:292|288:226,1,105
245,145,137441,2,0,P|292:143|358:188,1,105
411,290,137882,2,0,P|377:291|335:264,1,78.7500030040742
287,341,138103,2,0,P|262:317|251:268,1,78.7500030040742
167,286,138323,2,0,P|166:251|192:209,1,78.7500030040742
115,164,138544,2,0,B|151:127|151:127|219:121,1,105
338,76,138985,2,0,B|302:113|302:113|234:119,1,105
45,68,139647,6,0,P|42:98|56:126,1,52.5
77,169,139867,2,0,P|104:202|147:217,1,78.7500030040742
189,225,140088,2,0,P|239:230|286:206,1,105
321,170,140308,2,0,P|336:147|337:118,1,52.5
23,182,140750,6,0,P|46:191|96:176,1,52.5
112,181,140970,2,0,B|141:175|141:175|173:183,1,52.5
206,195,141191,2,0,P|270:157|227:92,1,157.5
54,257,141632,6,0,L|114:301,1,70
188,353,141926,1,0,0:0:0:0:
182,225,142073,2,0,L|170:152,1,70
154,63,142367,1,0,0:0:0:0:
350,258,142514,2,0,P|383:271|421:247,1,70
494,164,142808,1,0,0:0:0:0:
344,71,142955,2,0,B|374:66|374:66|430:77,1,70
492,23,143250,1,0,0:0:0:0:
416,192,143397,6,0,B|383:200|383:200|344:200,1,70
217,198,143691,1,0,0:0:0:0:
283,350,143838,2,0,B|316:357|316:357|363:349,1,70
202,198,144132,1,0,0:0:0:0:
74,313,144279,2,0,B|98:328|98:328|148:346,1,70
335,339,144573,5,0,0:0:0:0:
332,327,144646,1,0,0:0:0:0:
329,316,144720,2,0,B|323:295|323:295|325:277|325:277|315:246,1,70
293,141,145014,1,0,0:0:0:0:
55,49,145161,6,0,L|69:126,1,70
93,238,145455,1,0,0:0:0:0:
181,89,145603,2,0,L|195:166,1,70
219,278,145897,1,0,0:0:0:0:
306,131,146044,2,0,L|320:208,1,70
344,320,146338,1,0,0:0:0:0:
458,265,146485,6,0,B|468:246|468:246|460:223|460:223|474:199,1,70
512,100,146779,1,0,0:0:0:0:
364,28,146926,2,0,B|355:61|355:61|371:105,1,70
477,319,147220,1,0,0:0:0:0:
334,129,147367,2,0,B|294:109|294:109|248:112,1,70
102,217,147661,1,0,0:0:0:0:
152,382,147808,2,0,B|185:382|185:382|240:371,1,70
364,322,148103,5,0,0:0:0:0:
387,304,148176,1,0,0:0:0:0:
361,291,148250,2,0,B|351:268|351:268|364:264|364:264|348:261|348:261|357:248|357:248|334:253|334:253|340:238|340:238|348:241|348:241|340:216,1,140
318,118,148544,1,0,0:0:0:0:
117,39,148691,6,0,B|86:77|86:77|91:152,1,105.000004005432
103,280,148985,1,0,0:0:0:0:
209,276,149132,2,0,B|240:238|240:238|235:163,1,105.000004005432
223,35,149426,1,0,0:0:0:0:
444,153,149573,2,0,B|420:178|420:178|412:210|412:210|379:239,1,105.000004005432
216,344,149867,1,0,0:0:0:0:
64,85,150014,6,0,B|64:121|64:121|77:154|77:154|80:192,1,105.000004005432
108,380,150308,1,0,0:0:0:0:
189,152,150455,1,0,0:0:0:0:
298,365,150603,1,0,0:0:0:0:
83,251,150750,1,0,0:0:0:0:
298,225,150897,2,0,P|331:209|383:160,1,105.000004005432
185,285,151191,1,0,0:0:0:0:
256,189,151338,2,0,B|279:142|279:142|226:113,1,105.000004005432
50,62,151632,5,0,0:0:0:0:
54,76,151705,1,0,0:0:0:0:
58,89,151779,2,0,L|91:209,1,105.000004005432
125,314,152073,1,0,0:0:0:0:
462,346,152220,6,0,P|470:308|442:289,1,70
306,228,152514,1,0,0:0:0:0:
471,110,152661,2,0,P|481:141|457:165,1,70
310,30,152955,1,0,0:0:0:0:
121,127,153103,2,0,B|137:157|137:157|170:179,1,70
346,223,153397,1,0,0:0:0:0:
495,20,153544,2,0,B|473:30|473:30|458:49|458:49|429:63,1,70
291,113,153838,1,0,0:0:0:0:
490,240,153985,6,0,P|451:236|412:252,1,70
261,296,154279,1,0,0:0:0:0:
154,88,154426,2,0,B|179:122|179:122|189:162,1,70
191,384,154720,1,0,0:0:0:0:
67,229,154867,1,0,0:0:0:0:
341,290,155014,1,0,0:0:0:0:
112,166,155161,5,0,0:0:0:0:
112,166,155235,1,0,0:0:0:0:
112,166,155308,2,0,P|136:194|151:234,1,70
187,330,155603,1,0,0:0:0:0:
371,351,155750,6,0,P|399:378|429:344,1,70
511,192,156044,1,0,0:0:0:0:
384,93,156191,2,0,P|357:121|391:151,1,70
360,300,156485,1,0,0:0:0:0:
441,295,156632,2,0,P|413:268|383:302,1,70
197,363,156926,1,0,0:0:0:0:
84,244,157073,2,0,B|79:221|79:221|91:228|91:228|86:206|86:206|99:198,1,70
131,79,157367,1,0,0:0:0:0:
253,243,157514,6,0,P|291:248|345:239,1,70
442,182,157808,1,0,0:0:0:0:
236,65,157955,1,0,0:0:0:0:
369,314,158103,1,0,0:0:0:0:
388,53,158250,1,0,0:0:0:0:
224,190,158397,1,0,0:0:0:0:
441,272,158544,1,0,0:0:0:0:
83,135,158691,5,0,0:0:0:0:
83,135,158764,1,0,0:0:0:0:
83,135,158838,2,0,B|87:157|112:172|112:172|100:207|100:207|135:225|135:259,1,140
183,327,159132,1,0,0:0:0:0:
257,263,159279,6,0,B|278:248|322:260|314:296|352:302|386:286,1,140
474,208,159573,1,0,0:0:0:0:
379,119,159720,2,0,B|345:110|324:73|324:73|315:111|284:129,1,140
366,236,160014,1,0,0:0:0:0:
211,231,160161,2,0,B|158:224|168:274|102:261,1,105.000004005432
17,267,160455,1,0,0:0:0:0:
51,163,160603,2,0,P|79:110|132:114,1,105.000004005432
227,112,160897,1,0,0:0:0:0:
427,194,161044,6,0,B|367:185|390:243|335:239,1,105.000004005432
177,255,161338,1,0,0:0:0:0:
302,375,161485,1,0,0:0:0:0:
261,152,161632,1,0,0:0:0:0:
96,348,161779,1,0,0:0:0:0:
367,241,161926,1,0,0:0:0:0:
192,103,162073,1,0,0:0:0:0:
250,274,162220,5,0,0:0:0:0:
250,274,162294,1,0,0:0:0:0:
250,274,162367,2,0,B|270:294|270:294|203:377,1,105.000004005432
279,173,162661,1,0,0:0:0:0:
453,16,162808,6,0,B|466:57|466:57|463:130,1,105.000004005432
457,248,163103,1,0,0:0:0:0:
387,141,163250,2,0,B|367:179|367:179|313:228,1,105.000004005432
225,307,163545,1,0,0:0:0:0:
246,175,163691,2,0,B|205:188|205:188|131:185,1,105.000004005432
14,177,163986,1,0,0:0:0:0:
50,326,164132,6,0,B|72:323|92:348|92:348|97:317|133:308,1,105.000004005432
405,358,164426,1,0,0:0:0:0:
491,223,164573,2,0,P|416:189|398:205,1,105.000004005432
231,281,164867,1,0,0:0:0:0:
315,101,165014,1,0,0:0:0:0:
355,340,165161,1,0,0:0:0:0:
172,127,165308,1,0,0:0:0:0:
428,189,165455,1,0,0:0:0:0:
229,331,165602,1,0,0:0:0:0:
82,207,165750,5,0,0:0:0:0:
82,207,165823,1,0,0:0:0:0:
82,207,165897,2,0,B|137:204|118:251|176:258,1,105.000004005432
285,250,166191,1,0,0:0:0:0:
253,14,166338,6,0,B|280:41|280:41|276:83|276:83|304:112,1,105.000004005432
381,182,166632,1,0,0:0:0:0:
218,323,166779,2,0,B|179:322|211:288|179:254|129:273|141:310,1,105.000004005432
315,364,167073,1,0,0:0:0:0:
302,222,167220,2,0,P|284:192|213:171,1,105.000004005432
141,377,167514,1,0,0:0:0:0:
361,306,167661,1,0,0:0:0:0:
195,127,167808,1,0,0:0:0:0:
284,360,167955,1,0,0:0:0:0:
427,171,168103,6,0,P|401:142|335:160,1,105.000004005432
399,299,168397,1,0,0:0:0:0:
334,72,168544,1,0,0:0:0:0:
228,298,168691,1,0,0:0:0:0:
390,154,168838,1,0,0:0:0:0:
256,374,168985,1,0,0:0:0:0:
191,58,169132,1,0,0:0:0:0:
182,177,169279,5,0,0:0:0:0:
182,177,169353,1,0,0:0:0:0:
182,177,169426,2,0,P|220:207|208:273,1,105.000004005432
157,353,169720,1,0,0:0:0:0:
21,233,169867,6,0,P|52:214|120:236,1,105
225,286,170750,2,0,P|261:300|327:261,1,105
384,156,171632,2,0,B|417:186|417:186|423:208|423:208|460:243,1,105
312,196,172514,2,0,P|299:152|331:96,1,105
496,17,173397,6,0,P|477:39|458:90,1,78.75
421,156,173838,2,0,P|440:178|459:229,1,78.75
436,373,174279,2,0,P|448:335|473:305,1,78.75
428,224,174720,2,0,P|401:248|381:272,1,52.5
317,363,175161,2,0,B|280:326|280:326|274:326|274:326|240:292,1,105
51,204,176044,2,0,B|87:173|132:196|132:196|192:171|208:123|187:80|133:68|110:100,1,275.62501051426
98,281,176926,6,0,P|157:285|253:198,1,157.5
243,129,177367,2,0,P|299:152|342:253,1,157.5
295,331,177808,2,0,B|317:329|346:343|346:343|385:313|444:303,1,157.5
477,36,178691,2,0,B|451:85|496:101|451:151|451:151|450:122|436:104,1,157.5
475,229,179573,2,0,P|434:227|385:203,1,78.75
486,368,180014,6,0,P|452:349|419:310,1,78.75
395,237,180455,2,0,P|361:256|328:294,1,78.75
315,368,180897,2,0,P|279:349|253:310,1,78.75
138,138,181338,2,0,B|177:167|212:105|257:104|292:160|277:198|230:191,1,183.75
178,240,182220,2,0,B|154:232|139:270|174:326|219:325|254:263|301:296,1,183.75
339,332,183103,2,0,L|320:243,1,91.875
298,127,183985,6,0,P|236:138|204:175,1,105
123,157,184426,2,0,P|134:219|171:251,1,105
195,269,184757,1,0,0:0:0:0:
203,274,184867,2,0,B|245:307|215:330|272:363,1,105
369,276,185308,6,0,L|347:228,1,52.5
399,152,185529,2,0,L|421:200,1,52.5
352,345,185750,2,0,L|330:297,1,52.5
430,80,185971,2,0,L|452:128,1,52.5
480,288,186191,2,0,P|441:307|372:299,1,105
369,299,186522,1,0,0:0:0:0:
357,292,186632,2,0,P|322:276|257:301,1,105
68,340,187073,6,0,L|45:288,1,52.5
132,268,187294,2,0,L|152:214,1,52.5
225,252,187514,2,0,B|266:283|303:239|288:221|335:172|376:200|376:200|348:211|335:235,1,236.250009012223
314,324,187955,2,0,P|376:322|416:283,1,105
414,288,188286,1,0,0:0:0:0:
419,281,188397,2,0,P|452:219|420:136,1,157.5
345,58,188838,2,0,B|291:79|291:79|276:117|276:117|222:141,1,157.5
107,58,189279,6,0,P|106:85|115:105,1,39.3750015020371
42,146,189500,2,0,P|60:165|80:173,1,39.3750015020371
45,257,189720,2,0,P|72:258|92:249,1,39.3750015020371
165,227,189941,1,0,0:0:0:0:
175,221,190051,1,0,0:0:0:0:
187,217,190161,2,0,P|217:197|275:201,1,78.7500030040742
344,216,190492,1,0,0:0:0:0:
419,129,190603,6,0,P|430:150|431:175,1,39.3750015020371
465,291,190823,2,0,P|455:273|452:254,1,39.3750015020371
484,374,191044,2,0,P|455:366|404:376,1,78.7500030040742
246,313,191485,2,0,B|259:272|259:272|297:256,1,78.7500030040742
304,256,191816,1,0,0:0:0:0:
312,251,191926,2,0,P|350:231|280:186,1,157.500006008148
175,198,192588,6,0,P|145:204|110:197,1,52.5
69,284,192808,2,0,P|94:289|120:287,1,52.5
172,372,193029,2,0,P|146:377|120:375,1,52.5
30,361,193250,1,0,0:0:0:0:
161,255,193470,1,0,0:0:0:0:
190,231,193580,1,0,0:0:0:0:
241,257,193691,2,0,B|287:231|340:285|315:306|370:342|418:302,1,196.875
428,302,194132,2,0,P|455:218|375:250,1,196.875
230,306,194573,2,0,B|253:283|287:324|287:324|315:272|359:330|404:232|315:176|298:223,1,262.5
251,100,195235,5,0,0:0:0:0:
203,57,195345,1,0,0:0:0:0:
176,70,195455,2,0,P|139:83|52:55,1,131.25
42,210,195897,2,0,B|58:237|58:237|51:275,1,65.625
135,252,196117,2,0,B|141:218|141:218|125:191,1,65.625
209,164,196338,2,0,P|222:212|206:293,1,131.25
24,353,196779,2,0,P|38:296|101:248,1,131.25
79,218,197110,1,0,0:0:0:0:
115,272,197220,2,0,P|179:272|255:210,1,157.5
148,151,198103,5,0,0:0:0:0:
404,127,198397,1,0,0:0:0:0:
404,127,198544,2,0,P|391:160|357:184,1,70
184,269,198838,1,0,0:0:0:0:
108,257,198985,2,0,P|121:224|155:200,1,70
192,70,199279,1,0,0:0:0:0:
199,71,199426,2,0,P|230:95|247:134,1,70
324,91,199720,1,0,0:0:0:0:
328,96,199867,2,0,P|333:135|317:174,1,70
281,260,200161,5,0,0:0:0:0:
235,325,200308,2,0,P|204:283|202:255,1,70
155,129,200603,1,0,0:0:0:0:
151,123,200750,2,0,B|130:92|127:51,1,70
220,88,201044,1,0,0:0:0:0:
224,94,201191,2,0,B|245:125|247:159,1,70
193,278,201485,5,0,0:0:0:0:
199,279,201632,2,0,B|232:294|232:294|230:298|230:298|270:314,1,70
401,350,201926,1,0,0:0:0:0:
398,343,202073,2,0,P|396:308|380:273,1,70
316,71,202367,1,0,0:0:0:0:
313,77,202514,2,0,B|292:127|250:174,1,105.000004005432
141,242,202808,1,0,0:0:0:0:
121,227,202955,2,0,B|90:249|90:249|55:278,1,70
53,373,203250,1,0,0:0:0:0:
59,371,203397,2,0,P|89:356|92:381,1,70
181,379,203691,5,0,0:0:0:0:
176,371,203838,2,0,P|154:323|137:298,1,70
36,231,204132,1,0,0:0:0:0:
46,223,204279,2,0,B|65:204|91:210|91:210|92:214|92:214|119:220|139:198,1,105.000004005432
266,162,204573,1,0,0:0:0:0:
268,167,204720,2,0,B|281:205|281:205|288:250,1,70
290,345,205014,1,0,0:0:0:0:
294,352,205161,2,0,L|309:392,1,35
425,346,205455,5,0,0:0:0:0:
423,339,205603,2,0,P|416:307|397:290,1,52.5000020027161
318,218,205897,1,0,0:0:0:0:
320,209,206044,2,0,P|324:174|346:148,1,70
429,32,206338,1,0,0:0:0:0:
424,41,206485,2,0,B|372:37|372:37|311:38,1,105.000004005432
222,142,206779,1,0,0:0:0:0:
231,141,206926,2,0,P|263:152|286:173,1,52.5000020027161
372,274,207220,5,0,0:0:0:0:
348,277,207367,2,0,P|302:283|269:275,1,70
168,230,207661,1,0,0:0:0:0:
144,227,207808,2,0,P|98:221|65:229,1,70
135,360,208103,1,0,0:0:0:0:
144,358,208250,2,0,P|179:353|213:347,1,70
327,292,208544,1,0,0:0:0:0:
335,294,208691,2,0,P|352:332|355:369,1,70
505,336,208985,5,0,0:0:0:0:
497,334,209132,2,0,P|480:296|477:259,1,70
501,161,209426,1,0,0:0:0:0:
492,118,209573,2,0,P|480:81|447:60,1,70
319,197,209867,1,0,0:0:0:0:
377,229,210014,2,0,P|415:243|460:247,1,70
492,130,210308,1,0,0:0:0:0:
489,118,210455,2,0,B|499:78|476:38|476:38|473:66|467:83,1,105.000004005432
345,118,210750,5,0,0:0:0:0:
295,146,210897,2,0,P|246:158|179:151,1,105.000004005432
102,134,211191,1,0,0:0:0:0:
59,257,211338,6,0,B|33:222|38:154,1,105
79,119,211632,1,0,0:0:0:0:
120,152,211705,1,0,0:0:0:0:
151,142,211779,2,0,B|188:99|263:58|320:84|324:176|277:183|260:170,1,236.250009012223
183,226,212220,6,0,P|208:254|256:274,1,70
344,265,212514,1,0,0:0:0:0:
314,172,212661,2,0,P|291:145|260:128,1,70
149,119,212955,1,0,0:0:0:0:
90,245,213103,2,0,B|141:250|120:298|176:303,1,105.000004005432
224,190,213397,1,0,0:0:0:0:
288,301,213544,6,0,P|327:289|364:341,1,105.000004005432
380,333,213838,1,0,0:0:0:0:
432,243,213985,2,0,B|408:250|408:250|416:202|455:154,1,105.000004005432
495,99,214279,1,0,0:0:0:0:
379,54,214426,6,0,B|362:39|330:49|330:49|331:55|331:55|307:63|276:51,1,105.000004005432
104,82,214720,1,0,0:0:0:0:
243,222,214867,2,0,P|206:174|199:126,1,105.000004005432
221,126,215161,5,0,0:0:0:0:
248,135,215234,1,0,0:0:0:0:
280,107,215308,2,0,B|304:103|319:79|319:79|336:84|336:84|354:66|387:52,1,105.000004005432
412,142,215603,1,0,0:0:0:0:
399,251,215750,6,0,B|352:269|352:269|296:261,1,105.000004005432
186,231,216044,1,0,0:0:0:0:
4,136,216191,2,0,B|51:154|51:154|105:146,1,105.000004005432
217,116,216485,1,0,0:0:0:0:
272,45,216632,2,0,P|211:25|155:49,1,105.000004005432
218,132,216926,1,0,0:0:0:0:
236,262,217073,1,0,0:0:0:0:
342,169,217220,1,0,0:0:0:0:
115,205,217367,1,0,0:0:0:0:
31,328,217514,6,0,P|92:352|142:343,1,105.000004005432
232,328,217808,1,0,0:0:0:0:
395,304,217955,2,0,P|346:286|311:247,1,105.000004005432
252,161,218249,1,0,0:0:0:0:
363,45,218397,2,0,B|391:48|417:32|417:32|406:56|426:84,1,105.000004005432
457,192,218691,1,0,0:0:0:0:
447,194,218764,1,0,0:0:0:0:
437,199,218838,6,0,P|391:210|326:213,1,105.000004005432
233,164,219132,1,0,0:0:0:0:
174,72,219279,2,0,P|216:55|294:82,1,105.000004005432
235,178,219573,1,0,0:0:0:0:
282,318,219720,2,0,B|303:303|306:274|306:274|336:268|356:241,1,105.000004005432
417,357,220014,1,0,0:0:0:0:
488,200,220161,6,0,B|443:196|443:196|429:205|429:205|365:201,1,105.000004005432
278,200,220455,1,0,0:0:0:0:
152,190,220603,1,0,0:0:0:0:
219,331,220750,1,0,0:0:0:0:
219,127,220897,1,0,0:0:0:0:
78,293,221044,6,0,P|64:241|58:182,1,105.000004005432
66,173,221338,1,0,0:0:0:0:
107,58,221485,2,0,P|142:50|205:83,1,105.000004005432
261,167,221779,1,0,0:0:0:0:
335,251,221926,2,0,P|363:211|365:148,1,105.000004005432
293,37,222220,1,0,0:0:0:0:
287,37,222293,1,0,0:0:0:0:
280,38,222367,2,0,P|222:50|175:70,1,105.000004005432
268,149,222661,1,0,0:0:0:0:
307,290,222808,6,0,P|266:307|202:301,1,105.000004005432
113,235,223103,1,0,0:0:0:0:
54,113,223250,2,0,P|95:130|159:124,1,105.000004005432
248,58,223545,1,0,0:0:0:0:
365,111,223691,5,0,0:0:0:0:
446,136,223838,1,0,0:0:0:0:
370,232,223985,1,0,0:0:0:0:
411,44,224132,1,0,0:0:0:0:
505,229,224279,1,0,0:0:0:0:
297,78,224426,1,0,0:0:0:0:
439,231,224573,6,0,P|413:287|372:301,1,105.000004005432
252,302,224867,1,0,0:0:0:0:
67,183,225014,2,0,P|113:161|161:178,1,105.000004005432
249,265,225308,1,0,0:0:0:0:
160,360,225455,2,0,P|142:314|103:271,1,105.000004005432
28,183,225750,1,0,0:0:0:0:
27,176,225823,1,0,0:0:0:0:
25,170,225897,2,0,P|31:119|82:90,1,105.000004005432
148,190,226191,1,0,0:0:0:0:
231,49,226338,6,0,B|267:39|301:75|277:84|313:119|356:110,1,140
456,39,226632,1,0,0:0:0:0:
426,161,226779,2,0,P|366:204|286:182,1,140
208,132,227073,1,0,0:0:0:0:
106,230,227220,2,0,B|133:235|146:268|146:268|145:273|145:273|163:327|211:333,1,140
58,342,227514,1,0,0:0:0:0:
5,227,227661,2,0,B|10:172|50:181|42:112|42:112|37:127|27:141,1,140
24,35,227955,1,0,0:0:0:0:
156,82,228103,6,0,B|214:68|214:68|215:73|215:73|292:54,1,140
267,165,228397,1,0,0:0:0:0:
329,286,228544,1,0,0:0:0:0:
165,260,228691,1,0,0:0:0:0:
357,149,228838,1,0,0:0:0:0:
285,356,228985,2,0,B|257:309|213:300|191:311|191:311|213:314|217:334,1,140
84,346,229279,1,0,0:0:0:0:
51,297,229353,1,0,0:0:0:0:
58,281,229426,6,0,B|81:237|81:237|79:207|79:207|115:143,1,140
164,60,229720,1,0,0:0:0:0:
260,147,229867,2,0,B|291:202|308:277,1,140
340,365,230161,1,0,0:0:0:0:
220,315,230308,2,0,B|189:260|172:185,1,140
140,97,230602,1,0,0:0:0:0:
294,161,230750,1,0,0:0:0:0:
101,216,230897,1,0,0:0:0:0:
245,44,231044,1,0,0:0:0:0:
206,211,231191,6,0,B|185:219|308:332|261:318,1,140
132,288,231485,1,0,0:0:0:0:
329,134,231632,2,0,P|365:141|455:215,1,140
486,306,231926,1,0,0:0:0:0:
226,131,232073,2,0,P|256:110|372:99,1,140
458,142,232367,1,0,0:0:0:0:
152,203,232514,2,0,P|159:167|233:76,1,140
324,46,232808,1,0,0:0:0:0:
336,46,232881,1,0,0:0:0:0:
349,47,232955,6,0,P|415:74|495:124,1,140
503,10,233250,1,0,0:0:0:0:
377,165,233397,2,0,B|319:202|376:235|307:281,1,140
467,242,233691,1,0,0:0:0:0:
335,376,233838,2,0,P|252:362|216:311,1,140
163,207,234132,1,0,0:0:0:0:
139,85,234279,2,0,B|99:101|99:101|58:141|58:141|13:161,1,140
179,249,234573,1,0,0:0:0:0:
252,142,234720,2,0,B|280:113|332:120|310:150|356:165|384:130,1,140
433,35,235014,1,0,0:0:0:0:
440,204,235161,6,0,P|463:259|483:349,1,140
351,288,235455,1,0,0:0:0:0:
259,332,235603,2,0,P|201:329|115:354,1,140
19,301,235897,1,0,0:0:0:0:
106,239,236044,2,0,P|172:219|242:220,1,140
368,194,236338,1,0,0:0:0:0:
367,183,236411,1,0,0:0:0:0:
367,172,236485,2,0,B|386:118|336:116|360:53|360:53|361:68|375:78,1,140
460,126,236779,1,0,0:0:0:0:
421,259,236926,6,0,B|386:283|347:284|314:254|314:254|326:283|316:292,1,140
346,384,237220,1,0,0:0:0:0:
238,308,237367,2,0,B|226:245|185:202|185:202|188:227|184:243,1,140
136,328,237661,1,0,0:0:0:0:
38,192,237808,1,0,0:0:0:0:
210,152,237955,1,0,0:0:0:0:
46,318,238103,1,0,0:0:0:0:
112,111,238250,2,0,P|165:71|260:68,1,140
333,125,238544,1,0,0:0:0:0:
462,258,238691,6,0,B|406:251|406:251|388:266|388:266|308:256,1,140
207,241,238985,1,0,0:0:0:0:
0,142,239132,2,0,B|56:135|56:135|74:150|74:150|133:142,1,140
255,125,239426,1,0,0:0:0:0:
451,102,239573,2,0,B|427:99|412:62|412:62|390:59|390:59|374:37|331:42,1,140
218,46,239867,1,0,0:0:0:0:
201,47,239940,1,0,0:0:0:0:
183,47,240014,2,0,B|117:49|133:105|55:102,1,140
28,240,240308,1,0,0:0:0:0:
147,338,240455,6,0,P|202:328|298:339,1,140
418,384,240750,1,0,0:0:0:0:
312,245,240897,2,0,P|243:234|173:242,1,140
40,290,241192,1,0,0:0:0:0:
23,175,241338,2,0,B|55:148|92:182|74:195|120:225|154:197,1,140
216,120,241632,1,0,0:0:0:0:
166,36,241779,2,0,P|243:26|307:76,1,140
274,154,242073,1,0,0:0:0:0:
247,256,242220,2,0,B|280:264|295:277|295:277|336:279|336:279|352:300|380:304,1,140
447,215,242514,5,0,0:0:0:0:
459,81,242661,2,0,B|394:76|360:138|360:138|376:130|386:134,1,140
389,266,242955,1,0,0:0:0:0:
300,369,243103,2,0,P|268:314|211:249,1,140
161,187,243397,1,0,0:0:0:0:
156,181,243470,1,0,0:0:0:0:
149,176,243544,2,0,B|121:133|68:104|68:104|84:117|82:135,1,140
47,226,243838,1,0,0:0:0:0:
11,376,243985,6,0,P|71:333|149:299,1,140
216,368,244279,1,0,0:0:0:0:
302,289,244426,2,0,P|242:246|164:212,1,140
80,168,244720,1,0,0:0:0:0:
203,62,244867,1,0,0:0:0:0:
164,264,245014,1,0,0:0:0:0:
93,71,245161,1,0,0:0:0:0:
235,156,245308,2,0,P|285:166|363:218,1,140
404,305,245603,1,0,0:0:0:0:
484,205,245750,6,0,P|470:152|426:79,1,140
345,167,246044,1,0,0:0:0:0:
249,257,246191,2,0,P|268:323|306:382,1,140
355,200,246485,1,0,0:0:0:0:
199,164,246632,2,0,B|162:164|139:208|155:206|131:243|71:235,1,140
14,364,246926,1,0,0:0:0:0:
14,364,247000,1,0,0:0:0:0:
14,364,247073,2,0,P|76:351|161:378,1,140
228,260,247367,1,0,0:0:0:0:
282,153,247514,6,0,B|320:143|343:183|324:196|347:229|385:228,1,140
470,166,247808,1,0,0:0:0:0:
376,102,247955,2,0,P|314:76|233:86,1,140
149,165,248250,1,0,0:0:0:0:
63,44,248397,1,0,0:0:0:0:
57,261,248544,1,0,0:0:0:0:
160,69,248691,1,0,0:0:0:0:
179,242,248838,2,0,P|236:268|323:282,1,140
271,173,249132,1,0,0:0:0:0:
351,89,249279,6,0,P|362:142|366:236,1,140
271,342,249573,1,0,0:0:0:0:
183,274,249720,2,0,B|161:273|145:251|145:251|119:252|119:252|83:223|52:223,1,140
31,87,250014,1,0,0:0:0:0:
184,52,250161,2,0,P|240:59|309:116,1,140
208,164,250455,1,0,0:0:0:0:
208,164,250529,1,0,0:0:0:0:
208,164,250603,2,0,B|260:184|260:184|281:212|281:212|328:232,1,140
453,286,250897,1,0,0:0:0:0:
337,381,251044,6,0,P|302:347|218:307,1,140
91,350,251338,1,0,0:0:0:0:
34,253,251485,2,0,P|81:211|144:261,1,140
215,350,251779,1,0,0:0:0:0:
231,201,251926,1,0,0:0:0:0:
317,371,252073,1,0,0:0:0:0:
113,250,252220,1,0,0:0:0:0:
331,156,252367,2,0,B|377:175|377:175|405:204|405:204|453:222,1,140
456,98,252661,1,0,0:0:0:0:
256,37,252808,6,0,P|205:40|121:77,1,140
225,152,253103,1,0,0:0:0:0:
126,249,253250,2,0,P|195:256|257:286,1,140
156,364,253545,1,0,0:0:0:0:
328,366,253691,2,0,P|357:316|346:231,1,140
319,132,253985,1,0,0:0:0:0:
313,115,254058,1,0,0:0:0:0:
302,98,254132,2,0,P|279:62|186:41,1,140
76,221,254426,1,0,0:0:0:0:
80,106,254573,6,0,P|122:119|196:211,1,157.5
263,175,255014,2,0,P|201:81|155:51,1,157.5
301,22,255455,2,0,P|342:59|207:78,1,315
128,118,256338,2,0,P|144:165|314:239,1,236.250009012223
337,149,257220,2,0,B|358:175|358:175|368:177|368:177|404:221|404:221|398:222|398:222|369:278,1,157.5
202,341,258103,6,0,B|189:310|189:310|191:301|191:301|178:264,1,78.75
89,240,258544,2,0,B|99:200|121:186|153:173,1,78.75
274,115,258985,2,0,B|249:94|224:103|200:133|226:174|284:202,1,157.5
320,114,259426,2,0,B|344:93|369:102|393:132|367:173|316:197,1,157.5
245,247,259867,2,0,P|204:274|144:366,1,157.5
77,320,260750,2,0,P|115:251|206:183,1,183.75
99,164,261632,6,0,P|74:127|71:77,1,78.75
123,25,262073,2,0,P|148:62|151:112,1,78.75
173,179,262514,2,0,P|222:208|191:155,1,157.5
116,251,263397,2,0,P|153:285|198:296,1,91.875
300,254,264279,2,0,P|267:224|227:214,1,78.75
149,170,264720,6,0,B|119:147|102:120|107:77|111:66|150:129|160:155|179:167,1,157.5
218,105,265161,6,0,B|125:-62|-22:21|-21:224|136:191|164:337|164:337|235:203|372:331|473:140|372:-13|216:103,1,1050
