osu file format v14

[General]
AudioFilename: The Qemists - Stompbox (Spor Remix) HD.mp3
AudioLeadIn: 0
PreviewTime: 45023
Countdown: 0
SampleSet: Soft
StackLeniency: 0.7
Mode: 0
LetterboxInBreaks: 1
WidescreenStoryboard: 0

[Editor]
Bookmarks: 163889
DistanceSpacing: 2.7
BeatDivisor: 4
GridSize: 8
TimelineZoom: 4.159999

[Metadata]
Title:Stompbox (Spor Remix)
TitleUnicode:Stompbox (Spor Remix)
Artist:The Qemists
ArtistUnicode:The Qemists
Creator:Neurofunk
Version:Paralysis
Source:
Tags:neurofunk hardcore drum and bass spor the qemists join the q
BeatmapID:828245
BeatmapSetID:378402

[Difficulty]
HPDrainRate:6
CircleSize:4.3
OverallDifficulty:9
ApproachRate:9.4
SliderMultiplier:2.3
SliderTickRate:2

[Events]
//Background and Video events
0,0,"050 - UuWQIco.jpg",0,0
//Break Periods
2,90920,98901
2,106966,108669
//Storyboard Layer 0 (Background)
//Storyboard Layer 1 (Fail)
//Storyboard Layer 2 (Pass)
//Storyboard Layer 3 (Foreground)
//Storyboard Sound Samples

[TimingPoints]
372,348.837209302326,4,2,0,60,1,0
3685,-133.333333333333,4,2,0,60,0,0
3860,-100,4,2,0,60,0,0
22697,-100,4,1,0,70,0,0
45023,-83.3333333333333,4,1,0,100,0,1
58104,-100,4,1,0,100,0,1
58366,-83.3333333333333,4,1,0,100,0,1
67087,-83.3333333333333,4,1,0,100,0,0
69092,-100,4,1,0,100,0,0
70662,-83.3333333333333,4,1,0,100,0,0
96651,-83.3333333333333,4,1,0,80,0,0
101011,-200,4,1,0,55,0,0
106418,-133.333333333333,4,1,0,80,0,0
109209,-100,4,1,0,80,0,0
112959,-100,4,1,0,5,0,0
113133,-100,4,1,0,80,0,0
133976,-50,4,1,0,80,0,0
134499,-76.9230769230769,4,1,0,80,0,1
138337,-100,4,1,0,80,0,1
138598,-76.9230769230769,4,1,0,80,0,1
145837,-66.6666666666667,4,1,0,80,0,1
149674,-76.9230769230769,4,1,0,80,0,1
178976,-83.3333333333333,4,1,0,80,0,0
206895,-133.333333333333,4,1,0,80,0,0
223640,-83.3333333333333,4,1,0,80,0,0
268627,-100,4,1,0,80,0,1
271069,-100,4,1,0,80,0,1
271343,-76.9230769230769,4,1,0,80,0,1
282232,-133.333333333333,4,1,0,80,0,1
288523,-66.6666666666667,4,1,0,80,0,1
290778,-76.9230769230769,4,1,0,80,0,0
307348,-100,4,1,0,80,0,0
307784,-76.9230769230769,4,1,0,80,0,0
308569,-100,4,1,0,80,0,0
313278,-133.333333333333,4,1,0,80,0,0
323569,-100,4,1,0,60,0,0
335255,-200,4,1,0,45,0,1
338395,-200,4,1,0,5,0,0

[Colours]
Combo1 : 197,39,173
Combo2 : 86,29,165

[HitObjects]
64,136,372,6,0,P|136:112|192:144,1,115,0|0,1:0|1:0,1:0:0:0:
248,272,721,1,0,0:0:0:0:
344,216,895,1,0,0:0:0:0:
344,216,982,1,0,0:0:0:0:
344,216,1070,1,0,0:0:0:0:
432,144,1244,1,0,0:0:0:0:
176,96,1418,2,0,P|115:93|56:88,1,115
96,280,1767,6,0,P|192:344|304:288,1,230
392,192,2290,5,0,0:0:0:0:
392,192,2465,1,0,0:0:0:0:
264,120,2639,1,0,0:0:0:0:
264,120,2726,1,0,0:0:0:0:
264,120,2813,1,0,0:0:0:0:
208,256,2988,1,0,0:0:0:0:
96,144,3163,6,0,P|96:72|144:40,1,115
272,88,3511,1,0,0:0:0:0:
432,136,3686,2,0,L|360:128,1,43.1250016450883
336,200,3860,2,0,P|400:224|456:208,1,115
248,336,4209,5,0,0:0:0:0:
128,248,4383,1,0,0:0:0:0:
184,136,4558,2,0,B|224:88|248:104|280:112|304:112|304:96|296:56|328:48|384:112,1,230
416,224,5081,5,0,0:0:0:0:
416,224,5168,1,0,0:0:0:0:
416,224,5256,1,0,0:0:0:0:
304,128,5430,1,0,0:0:0:0:
184,272,5604,2,0,L|104:272,1,57.5
40,184,5778,2,0,L|104:184,1,57.5
192,176,5953,5,0,0:0:0:0:
304,80,6127,1,0,0:0:0:0:
192,176,6302,1,0,0:0:0:0:
344,240,6476,1,0,0:0:0:0:
344,240,6563,1,0,0:0:0:0:
344,240,6651,1,0,0:0:0:0:
232,96,6825,1,0,0:0:0:0:
344,328,6999,1,0,0:0:0:0:
232,96,7174,1,0,0:0:0:0:
360,192,7348,6,0,P|424:192|496:200,1,115
360,328,7697,2,0,P|280:336|224:328,1,115
128,304,8046,2,0,L|112:240,1,57.5
192,152,8220,2,0,L|208:224,1,57.5
256,264,8395,2,0,P|320:248|368:256,1,115
464,136,8744,2,0,B|432:120|384:160|336:128,1,115
208,128,9093,5,0,0:0:0:0:
208,128,9267,2,0,L|208:232,2,57.5
384,128,9616,2,0,L|384:256,1,115
120,120,9965,2,0,L|120:256,2,115
472,128,10488,2,0,L|472:280,1,115
296,64,10837,5,0,0:0:0:0:
248,72,10924,1,0,0:0:0:0:
208,72,11011,2,0,P|176:64|136:56,1,57.5
40,120,11185,2,0,L|104:136,1,57.5
168,208,11360,1,0,0:0:0:0:
168,208,11447,1,0,0:0:0:0:
168,208,11535,2,0,P|136:272|160:320,1,115
320,264,11883,1,0,0:0:0:0:
392,160,12058,6,0,L|352:96,1,57.5
320,48,12232,2,0,P|288:104|312:168,1,115
152,136,12581,1,0,0:0:0:0:
424,304,12756,1,0,0:0:0:0:
304,264,12930,2,0,B|224:224|144:304|80:288,1,230
72,168,13453,1,0,0:0:0:0:
72,168,13540,1,0,0:0:0:0:
72,168,13628,1,0,0:0:0:0:
208,104,13802,2,0,P|296:48|344:64,1,115
472,104,14151,1,0,0:0:0:0:
384,216,14325,6,0,L|304:264,1,57.5
344,328,14499,2,0,P|264:312|248:272,1,115
200,208,14848,2,0,P|168:224|128:224,1,57.5
56,176,15023,2,0,P|80:152|112:144,1,57.5
248,104,15197,1,0,0:0:0:0:
448,80,15372,2,0,P|464:176|440:216,1,115
304,240,15720,2,0,B|288:176|288:176|248:136,1,115
192,88,16069,1,0,0:0:0:0:
120,64,16244,5,0,0:0:0:0:
112,104,16331,1,0,0:0:0:0:
112,136,16418,2,0,B|144:192|144:192|192:224,1,115
320,144,16767,1,0,0:0:0:0:
440,224,16941,1,0,0:0:0:0:
440,224,17028,1,0,0:0:0:0:
440,224,17116,1,0,0:0:0:0:
320,304,17290,2,0,P|288:240|304:192,1,115
384,80,17639,2,0,P|416:144|384:200,1,115
280,96,17988,5,0,0:0:0:0:
280,96,18075,1,0,0:0:0:0:
280,96,18163,1,0,0:0:0:0:
152,176,18337,1,0,0:0:0:0:
376,288,18511,2,0,P|416:232|384:168,1,115
256,136,18860,1,0,0:0:0:0:
112,80,19035,1,0,0:0:0:0:
112,80,19122,1,0,0:0:0:0:
112,80,19209,1,0,0:0:0:0:
112,264,19383,2,0,P|200:272|232:248,1,115
400,216,19732,6,0,P|328:168|288:176,1,115
384,72,20081,1,0,0:0:0:0:
384,72,20168,2,0,L|448:112,1,57.5
384,248,20430,1,0,0:0:0:0:
384,248,20517,1,0,0:0:0:0:
384,248,20604,1,0,0:0:0:0:
240,216,20779,2,0,P|264:112|296:96,1,115
408,144,21128,1,0,0:0:0:0:
408,144,21215,1,0,0:0:0:0:
408,144,21302,1,0,0:0:0:0:
328,272,21477,5,0,0:0:0:0:
296,296,21564,1,0,0:0:0:0:
264,304,21651,1,0,0:0:0:0:
72,216,21825,1,0,0:0:0:0:
128,88,22000,1,0,0:0:0:0:
168,72,22087,1,0,0:0:0:0:
208,64,22174,1,0,0:0:0:0:
248,72,22261,1,0,0:0:0:0:
288,88,22349,1,0,0:0:0:0:
288,232,22523,5,0,0:0:0:0:
384,80,22697,2,0,P|432:136|432:184,1,115
344,296,23046,1,0,0:0:0:0:
200,240,23221,1,0,0:0:0:0:
200,240,23308,1,0,0:0:0:0:
200,240,23395,1,0,0:0:0:0:
144,104,23570,2,0,B|57:99|88:72|16:104,1,115
224,48,23918,2,0,P|272:40|360:48,1,115
424,200,24267,2,0,B|363:198|363:198|312:224|312:224,1,115
152,232,24616,5,0,0:0:0:0:
152,232,24703,1,0,0:0:0:0:
152,232,24790,1,0,0:0:0:0:
328,152,24965,1,0,0:0:0:0:
192,104,25139,2,0,P|104:96|56:112,1,115
271,57,25488,2,0,P|327:47|384:56,1,115
344,248,25837,1,0,0:0:0:0:
144,288,26011,6,0,P|128:224|152:168,1,115
296,120,26360,1,0,0:0:0:0:
296,120,26447,1,0,0:0:0:0:
296,120,26535,2,0,P|376:112|400:80,1,115
472,232,26883,1,0,0:0:0:0:
472,232,27232,5,0,0:0:0:0:
304,240,27407,1,0,0:0:0:0:
312,248,27494,1,0,0:0:0:0:
312,248,27581,1,0,0:0:0:0:
360,96,27756,2,0,P|280:80|248:96,1,115
252,92,28017,1,0,0:0:0:0:
252,92,28104,1,0,0:0:0:0:
128,200,28279,1,0,0:0:0:0:
304,256,28453,6,0,P|368:280|408:240,1,115
464,112,28802,1,0,0:0:0:0:
464,112,28889,1,0,0:0:0:0:
464,112,28977,1,0,0:0:0:0:
216,136,29151,2,0,L|136:184,1,57.5
208,240,29325,2,0,P|144:248|88:208,1,115
48,64,29674,1,0,0:0:0:0:
48,64,30023,1,0,0:0:0:0:
56,168,30197,5,0,0:0:0:0:
96,136,30284,1,0,0:0:0:0:
144,136,30372,2,0,L|176:272,1,115
416,128,30721,2,0,L|448:264,1,115
192,72,31070,6,0,P|112:80|72:48,1,115
72,224,31418,1,0,0:0:0:0:
232,184,31593,1,0,0:0:0:0:
232,184,31680,1,0,0:0:0:0:
232,184,31767,1,0,0:0:0:0:
112,80,31942,1,0,0:0:0:0:
144,376,32116,2,0,P|184:320|192:248,1,115
400,280,32465,2,0,L|336:248,1,57.5
384,176,32639,2,0,L|456:208,1,57.5
440,112,32813,1,0,0:0:0:0:
408,80,32901,1,0,0:0:0:0:
368,64,32988,1,0,0:0:0:0:
256,80,33163,5,0,0:0:0:0:
216,112,33337,2,0,L|160:168,1,57.5
112,216,33511,1,0,1:3:0:0:
264,88,33686,1,0,0:0:0:0:
264,88,33773,1,0,0:0:0:0:
264,88,33860,1,0,0:0:0:0:
384,216,34035,2,0,P|408:152|392:104,1,115
224,64,34383,5,0,0:0:0:0:
208,88,34470,1,0,0:0:0:0:
200,112,34558,1,0,0:0:0:0:
200,136,34645,1,0,0:0:0:0:
200,160,34732,1,0,0:0:0:0:
208,280,34907,1,0,0:0:0:0:
304,152,35081,2,0,P|256:80|208:64,1,115
200,224,35430,2,0,P|256:288|304:288,1,115
472,232,35778,6,0,L|432:192,3,57.5
384,120,36127,2,0,P|344:112|304:128,1,57.5
264,168,36302,2,0,P|240:144|232:96,1,57.5
184,56,36476,1,0,0:0:0:0:
112,200,36651,1,0,0:0:0:0:
272,256,36825,5,0,0:0:0:0:
272,256,36913,1,0,0:0:0:0:
272,256,37000,1,0,0:0:0:0:
392,176,37174,1,0,0:0:0:0:
392,176,37261,1,0,0:0:0:0:
392,176,37348,1,0,0:0:0:0:
256,80,37523,1,0,0:0:0:0:
112,128,37697,2,0,P|128:208|152:232,1,115
368,336,38046,2,0,P|344:272|264:232,1,115
360,152,38395,5,0,0:0:0:0:
184,96,38570,1,0,0:0:0:0:
184,96,38657,1,0,0:0:0:0:
184,96,38744,1,0,0:0:0:0:
320,192,38918,2,0,P|400:168|424:120,1,115
448,56,39267,1,0,0:0:0:0:
416,48,39354,1,0,0:0:0:0:
376,48,39442,1,0,0:0:0:0:
304,88,39616,5,0,0:0:0:0:
272,104,39703,1,0,0:0:0:0:
240,120,39790,2,0,P|176:128|144:88,1,115
88,232,40139,2,0,P|136:280|200:264,1,115
240,320,40488,1,0,0:0:0:0:
408,200,40662,1,0,0:0:0:0:
408,200,40749,1,0,0:0:0:0:
408,200,40837,1,0,0:0:0:0:
344,48,41011,5,0,0:0:0:0:
344,48,41098,1,0,0:0:0:0:
344,48,41185,1,0,0:0:0:0:
56,120,41360,2,0,L|160:120,1,57.5
200,192,41534,2,0,L|128:192,1,57.5
200,264,41709,5,0,0:0:0:0:
256,272,41796,1,0,0:0:0:0:
296,256,41883,1,0,0:0:0:0:
336,232,41971,1,0,0:0:0:0:
368,200,42058,1,0,0:0:0:0:
392,176,42145,1,0,0:0:0:0:
424,136,42232,2,0,L|480:176,1,57.5
456,80,42407,2,0,L|400:40,1,57.5
352,96,42581,5,0,0:0:0:0:
376,120,42668,1,0,0:0:0:0:
392,152,42756,1,0,0:0:0:0:
400,184,42843,1,0,0:0:0:0:
400,216,42930,1,0,0:0:0:0:
384,248,43017,1,0,0:0:0:0:
352,264,43104,1,0,0:0:0:0:
320,248,43192,1,0,0:0:0:0:
304,216,43279,1,0,0:0:0:0:
296,184,43366,5,0,0:0:0:0:
312,144,43453,1,0,0:0:0:0:
352,120,43540,1,0,0:0:0:0:
368,80,43628,1,0,0:0:0:0:
344,40,43715,1,0,0:0:0:0:
296,40,43802,1,0,0:0:0:0:
256,64,43889,1,0,0:0:0:0:
232,104,43977,1,0,0:0:0:0:
232,152,44064,1,0,0:0:0:0:
264,184,44151,5,0,0:0:0:0:
304,208,44238,1,0,0:0:0:0:
352,208,44325,1,0,0:0:0:0:
392,184,44413,1,0,0:0:0:0:
400,136,44500,1,0,0:0:0:0:
376,96,44587,1,0,0:0:0:0:
344,88,44674,2,0,L|344:152,2,57.5
184,160,45023,6,0,P|144:152|112:160,1,68.9999978942872
40,232,45197,2,0,P|96:240|128:232,1,68.9999978942872
200,240,45372,2,0,B|240:224|288:232|288:312,1,137.999995788574
432,280,45720,2,0,P|392:248|384:216,1,68.9999978942872
464,208,45895,2,0,P|464:176|424:144,1,68.9999978942872
376,112,46069,1,0,0:0:0:0:
352,96,46156,1,0,0:0:0:0:
328,88,46244,1,0,0:0:0:0:
304,80,46331,1,0,0:0:0:0:
280,80,46418,5,0,0:0:0:0:
160,192,46592,2,0,P|128:192|80:216,1,68.9999978942872
48,272,46767,1,0,0:0:0:0:
48,272,46854,1,0,0:0:0:0:
48,272,46941,1,0,0:0:0:0:
216,336,47116,1,0,0:0:0:0:
112,168,47290,1,0,0:0:0:0:
296,264,47465,6,0,P|336:272|384:272,1,68.9999978942872
488,192,47639,2,0,P|448:184|392:192,1,68.9999978942872
336,184,47813,1,0,0:0:0:0:
312,176,47901,1,0,0:0:0:0:
288,160,47988,1,0,0:0:0:0:
264,144,48075,1,0,0:0:0:0:
240,136,48162,1,0,0:0:0:0:
216,136,48249,1,0,0:0:0:0:
192,136,48337,6,0,P|128:112|72:152,1,137.999995788574
72,296,48685,2,0,P|112:312|144:304,2,68.9999978942872
192,248,48947,2,0,P|224:272|240:304,1,68.9999978942872
280,352,49122,2,0,P|320:344|352:312,1,68.9999978942872
344,296,49296,1,0,0:0:0:0:
320,264,49383,2,0,P|320:216|400:168,1,137.999995788574
480,168,49732,1,0,0:0:0:0:
384,344,49906,5,0,0:0:0:0:
168,320,50081,1,0,0:0:0:0:
208,104,50255,1,0,0:0:0:0:
376,88,50430,2,0,P|408:112|416:160,1,68.9999978942872
368,240,50604,5,0,0:0:0:0:
336,256,50691,1,0,0:0:0:0:
304,264,50778,1,0,0:0:0:0:
48,176,50953,2,0,P|64:96|136:40,1,137.999995788574
288,128,51302,1,0,0:0:0:0:
440,56,51476,1,0,0:0:0:0:
440,56,51563,1,0,0:0:0:0:
440,56,51651,1,0,0:0:0:0:
360,256,51825,5,0,0:0:0:0:
112,288,51999,2,0,P|40:208|64:128,1,137.999995788574
232,72,52349,5,0,0:0:0:0:
39,184,52523,1,0,0:0:0:0:
39,184,52610,1,0,0:0:0:0:
39,184,52697,1,0,0:0:0:0:
256,240,52872,2,0,P|264:160|224:120,1,137.999995788574
48,88,53221,1,0,0:0:0:0:
48,304,53395,2,0,P|136:304|192:280,1,137.999995788574
272,208,53744,2,0,P|376:192|456:224,1,137.999995788574
456,56,54092,1,0,0:0:0:0:
176,280,54267,6,0,P|152:208|176:128,1,137.999995788574
344,80,54616,1,0,0:0:0:0:
368,96,54703,1,0,0:0:0:0:
392,120,54790,1,0,0:0:0:0:
416,144,54878,1,0,0:0:0:0:
432,176,54965,1,0,0:0:0:0:
424,208,55052,1,0,0:0:0:0:
400,232,55139,1,0,0:0:0:0:
368,248,55227,1,0,0:0:0:0:
336,248,55314,5,0,0:0:0:0:
304,232,55401,1,0,0:0:0:0:
280,208,55488,1,0,0:0:0:0:
264,176,55575,1,0,0:0:0:0:
240,152,55662,2,0,B|208:120|168:128,1,68.9999978942872
144,120,55837,1,0,0:0:0:0:
40,208,56011,5,0,0:0:0:0:
232,304,56185,6,0,P|336:304|376:264,1,137.999995788574
280,96,56535,2,0,P|376:64|432:80,1,137.999995788574
472,40,56883,1,0,0:0:0:0:
320,336,57058,1,0,0:0:0:0:
320,336,57145,1,0,0:0:0:0:
320,336,57232,1,0,0:0:0:0:
80,192,57406,1,0,0:0:0:0:
272,104,57581,2,0,P|368:112|392:176,1,137.999995788574
280,224,57930,1,0,0:0:0:0:
128,248,58104,6,0,P|112:192|128:152,1,57.5
200,48,58278,2,0,P|208:88|192:120,1,57.5
344,112,58453,1,0,0:0:0:0:
440,296,58628,1,0,0:0:0:0:
256,208,58802,1,0,0:0:0:0:
440,112,58977,1,0,0:0:0:0:
232,312,59151,2,0,L|168:336,1,68.9999978942872
96,296,59325,2,0,P|96:256|192:272,1,137.999995788574
272,320,59674,1,0,0:0:0:0:
272,320,59761,1,0,0:0:0:0:
272,320,59848,1,0,0:0:0:0:
328,128,60023,6,0,P|384:64|440:56,1,137.999995788574
248,112,60372,1,0,0:0:0:0:
440,256,60546,1,0,0:0:0:0:
304,312,60721,6,0,P|168:288|120:160,1,275.999991577149
120,144,61156,2,0,P|136:112|176:96,2,68.9999978942872
224,96,61418,2,0,P|232:120|216:184,1,68.9999978942872
200,248,61593,1,0,0:0:0:0:
384,104,61767,1,0,0:0:0:0:
224,216,61942,2,0,P|120:176|104:112,1,137.999995788574
296,96,62290,1,0,0:0:0:0:
296,96,62377,1,0,0:0:0:0:
296,96,62465,1,0,0:0:0:0:
448,216,62639,1,0,0:0:0:0:
208,272,62813,6,0,L|168:344,1,68.9999978942872
112,232,62988,2,0,L|160:160,1,68.9999978942872
264,120,63162,1,0,0:0:0:0:
400,280,63337,1,0,0:0:0:0:
400,280,63424,1,0,0:0:0:0:
400,280,63511,1,0,0:0:0:0:
208,208,63686,5,0,0:0:0:0:
224,192,63773,1,0,0:0:0:0:
248,176,63860,2,0,P|320:144|384:152,1,137.999995788574
424,328,64209,1,0,0:0:0:0:
424,328,64383,1,0,0:0:0:0:
144,136,64558,5,0,0:0:0:0:
168,112,64645,1,0,0:0:0:0:
200,96,64732,1,0,0:0:0:0:
232,96,64820,1,0,0:0:0:0:
264,112,64907,1,0,0:0:0:0:
280,144,64994,1,0,0:0:0:0:
296,176,65081,1,0,0:0:0:0:
312,208,65168,1,0,0:0:0:0:
344,224,65256,1,0,0:0:0:0:
376,224,65343,1,0,0:0:0:0:
408,208,65430,5,0,0:0:0:0:
432,176,65517,1,0,0:0:0:0:
448,136,65604,1,0,0:0:0:0:
432,96,65692,1,0,0:0:0:0:
400,72,65779,1,0,0:0:0:0:
360,56,65866,1,0,0:0:0:0:
320,56,65953,5,0,0:0:0:0:
280,80,66040,1,0,0:0:0:0:
248,120,66128,1,0,0:0:0:0:
240,168,66215,1,0,0:0:0:0:
256,216,66302,1,0,0:0:0:0:
296,240,66389,1,0,0:0:0:0:
344,248,66477,1,0,0:0:0:0:
376,224,66564,1,0,0:0:0:0:
368,176,66651,5,0,0:0:0:0:
328,152,66738,1,0,0:0:0:0:
280,152,66825,1,0,0:0:0:0:
232,160,66913,1,0,0:0:0:0:
192,184,67000,1,0,0:0:0:0:
80,296,67174,5,0,0:0:0:0:
248,312,67348,2,0,B|288:336|320:280|392:296,1,137.999995788574
464,176,67697,1,0,0:0:0:0:
384,64,67872,1,0,0:0:0:0:
384,64,67959,1,0,0:0:0:0:
384,64,68046,1,0,0:0:0:0:
232,72,68220,5,0,0:0:0:0:
192,64,68308,1,0,0:0:0:0:
160,64,68395,2,0,P|72:96|48:136,1,137.999995788574
192,296,68744,1,0,0:0:0:0:
392,192,68918,1,0,0:0:0:0:
192,296,69092,6,0,P|104:256|80:88,1,230
296,32,69616,2,0,P|256:128|80:128,1,287.5
88,168,70139,2,0,P|112:232|280:272,1,230
136,288,70663,5,0,0:0:0:0:
72,128,70837,2,0,L|112:64,1,68.9999978942872
192,80,71011,2,0,L|224:16,1,68.9999978942872
288,88,71186,2,0,P|320:184|288:232,1,137.999995788574
120,304,71534,2,0,P|96:224|120:160,1,137.999995788574
240,56,71883,1,0,0:0:0:0:
376,312,72058,2,0,B|304:328|304:328|208:304,1,137.999995788574
104,256,72406,5,0,0:0:0:0:
248,152,72581,1,0,0:0:0:0:
248,152,72668,1,0,0:0:0:0:
248,152,72756,1,0,0:0:0:0:
96,128,72930,1,0,0:0:0:0:
96,128,73017,2,0,L|152:72,1,68.9999978942872
296,96,73279,5,0,0:0:0:0:
328,104,73366,1,0,0:0:0:0:
360,128,73453,1,0,0:0:0:0:
368,168,73540,1,0,0:0:0:0:
336,192,73628,1,0,0:0:0:0:
288,184,73715,1,0,0:0:0:0:
256,160,73802,1,0,0:0:0:0:
216,144,73889,1,0,0:0:0:0:
176,152,73977,1,0,0:0:0:0:
80,248,74151,5,0,0:0:0:0:
296,320,74325,1,0,0:0:0:0:
440,176,74499,1,0,0:0:0:0:
440,176,74586,1,0,0:0:0:0:
440,176,74674,1,0,0:0:0:0:
296,96,74848,1,0,0:0:0:0:
296,96,75023,1,0,0:0:0:0:
176,168,75197,1,0,0:0:0:0:
176,168,75285,1,0,0:0:0:0:
176,168,75372,1,0,0:0:0:0:
312,152,75546,5,0,0:0:0:0:
416,312,75721,1,0,0:0:0:0:
416,312,75808,1,0,0:0:0:0:
416,312,75895,1,0,0:0:0:0:
400,176,76070,2,0,P|360:96|312:80,1,137.999995788574
280,80,76331,1,0,0:0:0:0:
240,80,76418,2,0,L|112:80,1,68.9999978942872
104,88,76593,5,0,0:0:0:0:
104,88,76680,1,0,0:0:0:0:
104,88,76768,1,0,0:0:0:0:
40,280,76942,1,0,0:0:0:0:
224,264,77116,1,0,0:0:0:0:
224,264,77203,1,0,0:0:0:0:
224,264,77290,1,0,0:0:0:0:
288,160,77465,1,0,0:0:0:0:
440,136,77639,1,0,0:0:0:0:
440,136,77727,1,0,0:0:0:0:
440,136,77814,1,0,0:0:0:0:
384,72,77901,6,0,L|328:32,1,68.9999978942872
192,64,78075,2,0,L|264:112,1,68.9999978942872
328,136,78250,1,0,0:0:0:0:
344,160,78337,1,0,0:0:0:0:
352,192,78424,1,0,0:0:0:0:
344,216,78511,2,0,P|296:256|224:240,1,137.999995788574
136,160,78860,1,0,0:0:0:0:
232,88,79035,2,0,P|320:80|352:112,1,137.999995788574
464,272,79383,1,0,0:0:0:0:
464,272,79471,1,0,0:0:0:0:
464,272,79558,2,0,P|392:304|312:272,1,137.999995788574
184,256,79907,5,0,0:0:0:0:
304,216,80081,2,0,B|392:200|368:176|384:144|424:176,1,137.999995788574
424,208,80343,1,0,0:0:0:0:
424,248,80430,1,0,0:0:0:0:
280,296,80604,1,0,0:0:0:0:
176,184,80779,1,0,0:0:0:0:
168,32,80953,1,0,0:0:0:0:
328,80,81128,1,0,0:0:0:0:
368,88,81215,1,0,0:0:0:0:
408,104,81303,2,0,B|400:184|320:176|328:240,1,137.999995788574
200,272,81651,6,0,P|104:232|88:200,1,137.999995788574
232,144,82000,1,0,0:0:0:0:
344,240,82174,1,0,0:0:0:0:
352,208,82261,1,0,0:0:0:0:
360,176,82348,1,0,0:0:0:0:
152,272,82523,1,0,0:0:0:0:
176,48,82697,1,0,0:0:0:0:
384,104,82872,5,0,0:0:0:0:
384,104,82959,1,0,0:0:0:0:
384,104,83046,1,0,0:0:0:0:
360,312,83221,5,0,0:0:0:0:
360,312,83308,1,0,0:0:0:0:
360,312,83395,2,0,B|384:240|368:208|312:200|312:200|320:184|368:160|368:160|384:160|392:160|416:128,1,275.999991577149
280,64,83918,1,0,0:0:0:0:
144,136,84093,1,0,0:0:0:0:
360,72,84267,1,0,0:0:0:0:
112,192,84442,5,0,0:0:0:0:
224,288,84616,2,0,P|272:224|256:152,1,137.999995788574
408,104,84965,1,0,0:0:0:0:
280,184,85139,2,0,L|128:112,1,137.999995788574
192,304,85488,1,0,0:0:0:0:
192,304,85662,1,0,0:0:0:0:
192,304,85837,2,0,P|328:296|368:152,1,275.999991577149
256,128,86360,6,0,P|208:112|152:128,1,68.9999978942872
96,96,86534,2,0,P|128:160|208:192,1,137.999995788574
296,288,86883,2,0,P|376:256|400:208,1,137.999995788574
280,64,87232,1,0,0:0:0:0:
280,64,87407,1,0,0:0:0:0:
136,104,87581,1,0,0:0:0:0:
104,256,87756,6,0,P|168:200|256:184,1,137.999995788574
360,240,88104,1,0,0:0:0:0:
136,112,88279,2,0,P|232:72|296:96,1,137.999995788574
384,192,88627,2,0,P|336:192|304:216,1,68.9999978942872
216,256,88802,2,0,P|256:272|288:272,1,68.9999978942872
240,160,88976,2,0,P|200:160|160:184,1,68.9999978942872
80,168,89151,1,0,0:0:0:0:
200,96,89325,1,0,0:0:0:0:
200,96,89413,1,0,0:0:0:0:
200,96,89500,1,0,0:0:0:0:
360,240,89674,5,0,0:0:0:0:
128,192,89849,1,0,0:0:0:0:
304,88,90023,2,0,P|432:128|224:248,1,551.999983154297
152,304,99441,5,0,0:0:0:0:
200,312,99528,1,0,0:0:0:0:
248,320,99616,1,0,0:0:0:0:
296,312,99703,1,0,0:0:0:0:
336,288,99790,1,0,0:0:0:0:
368,256,99877,1,0,0:0:0:0:
376,208,99965,1,0,0:0:0:0:
368,160,100052,1,0,0:0:0:0:
344,120,100139,5,0,0:0:0:0:
304,144,100226,1,0,0:0:0:0:
272,184,100313,1,0,0:0:0:0:
224,200,100401,1,0,0:0:0:0:
176,184,100488,1,0,0:0:0:0:
136,152,100575,1,0,0:0:0:0:
128,104,100662,1,0,0:0:0:0:
152,64,100749,1,0,0:0:0:0:
192,32,100837,6,0,P|296:16|440:136,1,275.999991577149
424,224,101360,5,0,0:0:0:0:
256,320,101534,2,0,P|208:320|176:304,1,57.5
88,232,101883,2,0,P|136:224|160:240,1,57.5
264,288,102232,1,0,0:0:0:0:
360,240,102406,1,0,0:0:0:0:
360,240,102581,2,0,L|376:192|384:168,1,57.5
296,160,102930,2,0,P|328:120|448:120,1,172.5
48,280,103627,6,0,B|88:232|128:240|144:264|176:280|184:264|200:240,1,172.5
296,208,104325,2,0,P|320:176|320:160,1,57.5
280,96,104674,2,0,P|314:87|344:96,1,57.5
432,192,105023,1,0,0:0:0:0:
336,288,105197,1,0,0:0:0:0:
336,288,105372,1,0,0:0:0:0:
336,288,105720,1,0,0:0:0:0:
128,304,106418,6,0,B|200:248|64:240|128:136,1,172.500006580353
424,144,109209,6,0,P|376:104|304:104,1,115
184,104,109558,1,0,0:0:0:0:
112,224,109732,1,0,0:0:0:0:
112,224,109819,1,0,0:0:0:0:
112,224,109906,2,0,P|184:232|240:200,1,115
360,224,110255,2,0,P|312:144|272:128,1,115
168,88,110604,5,0,0:0:0:0:
168,88,110691,1,0,0:0:0:0:
168,88,110778,1,0,0:0:0:0:
168,88,110866,1,0,0:0:0:0:
200,88,110953,1,0,0:0:0:0:
232,96,111040,1,0,0:0:0:0:
256,104,111128,1,0,0:0:0:0:
280,120,111215,1,0,0:0:0:0:
296,144,111302,1,0,0:0:0:0:
296,176,111389,1,0,0:0:0:0:
272,192,111477,5,0,0:0:0:0:
240,200,111564,1,0,0:0:0:0:
216,192,111651,1,0,0:0:0:0:
192,176,111738,1,0,0:0:0:0:
176,152,111825,1,0,0:0:0:0:
168,128,111913,1,0,0:0:0:0:
168,96,112000,1,0,0:0:0:0:
368,272,112348,6,0,B|424:256|416:224|392:184|432:152|424:128,1,115
344,192,112697,2,0,B|304:232|304:232|256:208|216:224|208:296|208:296|208:360,1,230
232,152,113744,6,0,B|192:176|192:176|144:208|144:208|192:264,1,172.5
208,280,114092,2,0,B|184:272|144:304|80:288|104:248|80:192,1,172.5
88,192,114441,6,0,P|136:128|216:120,1,115
440,240,114790,6,0,P|384:200|328:192,1,115
312,208,115052,1,0,0:0:0:0:
280,224,115139,2,0,P|216:208|184:112,1,172.5
208,96,115488,2,0,B|272:128|320:40|448:112,1,230
144,224,116185,5,0,0:0:0:0:
144,224,116272,1,0,0:0:0:0:
144,224,116359,1,0,0:0:0:0:
144,224,116446,1,0,0:0:0:0:
144,224,116534,2,0,L|136:104,1,115
288,176,116882,1,0,0:0:0:0:
288,176,116970,1,0,0:0:0:0:
288,176,117057,1,0,0:0:0:0:
392,64,117231,5,0,0:0:0:0:
368,216,117406,1,0,0:0:0:0:
256,120,117580,1,0,0:0:0:0:
400,144,117755,1,0,0:0:0:0:
400,144,117929,2,0,B|344:112|344:112|336:112|320:120|320:192|344:208|280:208|240:168|240:168|240:152|240:152,1,230
88,160,118627,6,0,P|128:104|184:96,1,115
192,232,118976,2,0,B|192:296|144:312|120:304|96:288|72:232|88:200,1,172.5
96,224,119325,1,0,0:0:0:0:
112,208,119412,1,0,0:0:0:0:
136,192,119499,2,0,P|184:160|248:168,1,115
280,176,119760,1,0,0:0:0:0:
312,192,119848,2,0,P|360:248|352:296,1,115
176,304,120371,1,0,0:0:0:0:
104,136,120720,6,0,B|136:72|168:80|176:112|168:152|160:168|184:184|200:176|224:176|224:160|232:152|232:144|232:128|232:120|240:112|248:96|256:88|264:88,1,230
272,104,121156,1,0,0:0:0:0:
312,96,121243,1,0,0:0:0:0:
352,96,121330,1,0,0:0:0:0:
392,112,121417,1,0,0:0:0:0:
416,144,121505,1,0,0:0:0:0:
424,184,121592,1,0,0:0:0:0:
400,216,121679,1,0,0:0:0:0:
360,232,121766,1,0,0:0:0:0:
312,240,121853,6,0,L|312:152,1,57.5
240,208,122028,2,0,L|240:104,1,57.5
176,176,122202,2,0,L|176:112,1,57.5
136,248,122376,1,0,0:0:0:0:
136,248,122464,2,0,L|136:336,1,57.5
216,240,122638,5,0,0:0:0:0:
248,232,122726,1,0,0:0:0:0:
280,216,122813,1,0,0:0:0:0:
304,184,122900,1,0,0:0:0:0:
328,152,122987,1,0,0:0:0:0:
360,128,123074,1,0,0:0:0:0:
400,136,123162,1,0,0:0:0:0:
352,288,123510,5,0,0:0:0:0:
352,288,123685,1,0,0:0:0:0:
192,288,124034,1,0,0:0:0:0:
192,288,124121,1,0,0:0:0:0:
192,288,124208,1,0,0:0:0:0:
80,192,124383,2,0,P|104:96|152:80,1,115
272,104,124906,6,0,B|344:112|352:184|320:168,1,115
320,184,125168,1,0,0:0:0:0:
304,192,125255,2,0,B|240:184|192:176|168:232,1,115
176,224,125517,1,0,0:0:0:0:
168,248,125604,2,0,B|264:256|272:264|288:272|296:272|312:264|328:264|344:248|352:240|368:224|360:168,1,230
416,96,126301,1,0,0:0:0:0:
416,96,126476,1,0,0:0:0:0:
256,120,126824,5,0,0:0:0:0:
256,120,126912,1,0,0:0:0:0:
256,120,126999,1,0,0:0:0:0:
112,192,127174,2,0,P|88:240|112:320,1,115
272,272,127696,1,0,0:0:0:0:
272,272,127872,1,0,0:0:0:0:
456,208,128046,1,0,0:0:0:0:
360,104,128220,5,0,0:0:0:0:
328,80,128308,1,0,0:0:0:0:
288,64,128395,1,0,0:0:0:0:
248,64,128482,1,0,0:0:0:0:
208,72,128569,1,0,0:0:0:0:
176,96,128656,1,0,0:0:0:0:
144,120,128744,2,0,P|104:176|104:232,1,115
144,288,129092,5,0,0:0:0:0:
184,288,129180,1,0,0:0:0:0:
216,264,129267,1,0,0:0:0:0:
224,224,129354,1,0,0:0:0:0:
200,192,129441,1,0,0:0:0:0:
160,176,129528,1,0,0:0:0:0:
152,136,129616,1,0,0:0:0:0:
184,112,129703,1,0,0:0:0:0:
224,104,129790,2,0,L|224:176,3,57.5
320,80,130139,5,0,0:0:0:0:
360,64,130226,1,0,0:0:0:0:
400,72,130313,1,0,0:0:0:0:
432,88,130401,1,0,0:0:0:0:
456,120,130488,1,0,0:0:0:0:
456,160,130575,1,0,0:0:0:0:
432,192,130662,1,0,0:0:0:0:
400,208,130749,1,0,0:0:0:0:
368,184,130837,2,0,L|368:112,4,57.5
320,72,131273,5,0,0:0:0:0:
275,60,131360,1,0,0:0:0:0:
229,62,131447,1,0,0:0:0:0:
185,74,131534,1,0,0:0:0:0:
144,95,131621,1,0,0:0:0:0:
112,127,131709,1,0,0:0:0:0:
93,169,131796,1,0,0:0:0:0:
95,214,131883,1,0,0:0:0:0:
123,250,131970,1,0,0:0:0:0:
167,257,132057,1,0,0:0:0:0:
205,232,132145,1,0,0:0:0:0:
225,191,132232,5,0,0:0:0:0:
264,160,132319,1,0,0:0:0:0:
296,136,132406,2,0,L|296:208,2,57.5
368,88,132668,5,0,0:0:0:0:
336,56,132755,1,0,0:0:0:0:
288,40,132842,1,0,0:0:0:0:
240,48,132930,1,0,0:0:0:0:
200,72,133017,1,0,0:0:0:0:
168,104,133104,1,0,0:0:0:0:
152,144,133191,1,0,0:0:0:0:
168,184,133278,1,0,0:0:0:0:
208,208,133366,1,0,0:0:0:0:
256,200,133453,1,0,0:0:0:0:
280,160,133540,1,0,0:0:0:0:
280,112,133627,6,0,L|280:48,3,57.5
304,120,133976,2,0,L|344:64,4,57.5
320,136,134238,2,0,L|384:128,6,57.5
464,64,134673,6,0,P|336:72|296:48,1,149.499993156433
160,56,135022,1,0,0:0:0:0:
128,216,135197,2,0,P|216:144|288:128,1,149.499993156433
416,144,135545,1,0,0:0:0:0:
232,344,135719,1,0,0:0:0:0:
64,160,135895,1,0,0:0:0:0:
64,160,135982,1,0,0:0:0:0:
64,160,136069,1,0,0:0:0:0:
264,32,136244,1,0,0:0:0:0:
416,184,136418,6,0,L|328:184,1,74.7499965782167
240,296,136592,2,0,L|328:296,1,74.7499965782167
400,240,136767,1,0,0:0:0:0:
424,208,136854,1,0,0:0:0:0:
440,176,136941,1,0,0:0:0:0:
432,136,137028,1,0,0:0:0:0:
408,104,137116,1,0,0:0:0:0:
224,64,137290,1,0,0:0:0:0:
432,184,137464,5,0,0:0:0:0:
288,264,137638,1,0,0:0:0:0:
288,264,137726,1,0,0:0:0:0:
288,264,137813,1,0,0:0:0:0:
96,208,137987,2,0,P|96:72|152:48,1,149.499993156433
280,72,138337,2,0,L|352:40,1,57.5
392,120,138511,2,0,L|304:160,1,57.5
256,192,138685,1,0,0:0:0:0:
224,304,138860,6,0,P|168:304|104:272,1,74.7499965782167
40,224,139034,2,0,P|80:216|128:224,1,74.7499965782167
256,112,139209,1,0,0:0:0:0:
336,320,139383,1,0,0:0:0:0:
336,320,139470,1,0,0:0:0:0:
336,320,139558,1,0,0:0:0:0:
192,192,139732,1,0,0:0:0:0:
432,152,139906,5,0,0:0:0:0:
296,48,140080,1,0,0:0:0:0:
64,112,140254,1,0,0:0:0:0:
152,232,140429,1,0,0:0:0:0:
152,232,140516,1,0,0:0:0:0:
152,232,140603,1,0,0:0:0:0:
328,120,140778,6,0,L|232:224,1,74.7499965782167
216,128,140952,2,0,L|304:40,1,74.7499965782167
384,64,141127,2,0,P|424:88|432:128,1,74.7499965782167
448,184,141302,1,0,0:0:0:0:
488,256,141476,2,0,P|448:272|400:256,2,74.7499965782167
200,200,141824,1,0,0:0:0:0:
192,160,141912,1,0,0:0:0:0:
184,120,141999,1,0,0:0:0:0:
224,32,142174,1,0,0:0:0:0:
384,144,142348,1,0,0:0:0:0:
136,216,142523,1,0,0:0:0:0:
384,320,142697,1,0,0:0:0:0:
152,368,142871,5,0,0:0:0:0:
80,160,143046,5,0,0:0:0:0:
120,112,143133,1,0,0:0:0:0:
176,88,143220,1,0,0:0:0:0:
232,80,143308,1,0,0:0:0:0:
288,96,143395,1,0,0:0:0:0:
192,272,143569,1,0,0:0:0:0:
192,272,143656,1,0,0:0:0:0:
192,272,143743,1,0,0:0:0:0:
192,272,143830,1,0,0:0:0:0:
192,272,143917,1,0,0:0:0:0:
352,232,144092,5,0,0:0:0:0:
392,208,144179,1,0,0:0:0:0:
416,168,144266,1,0,0:0:0:0:
424,128,144353,1,0,0:0:0:0:
416,88,144441,1,0,0:0:0:0:
384,56,144528,5,0,0:0:0:0:
344,40,144615,1,0,0:0:0:0:
304,48,144702,1,0,0:0:0:0:
272,80,144789,1,0,0:0:0:0:
280,128,144877,1,0,0:0:0:0:
304,168,144964,5,0,0:0:0:0:
320,208,145051,1,0,0:0:0:0:
304,248,145138,1,0,0:0:0:0:
264,264,145226,1,0,0:0:0:0:
224,240,145313,1,0,0:0:0:0:
112,184,145487,6,0,P|72:112|88:32,1,149.499993156433
272,128,145837,6,0,B|312:112|328:96|376:112,1,86.2500032901765
472,112,146011,2,0,B|440:120|440:120|424:192|360:152|328:216,1,172.500006580353
240,256,146360,2,0,B|280:264|280:264|288:280|312:312,1,86.2500032901765
208,328,146534,2,0,B|176:312|160:312|160:288|160:288|144:272,1,86.2500032901765
96,200,146709,1,0,0:0:0:0:
96,200,146796,1,0,0:0:0:0:
96,200,146883,1,0,0:0:0:0:
328,136,147058,6,0,B|360:136|376:120|376:120|416:112,1,86.2500032901765
360,56,147232,2,0,B|400:40|440:32|480:72,1,86.2500032901765
480,112,147406,1,0,0:0:0:0:
472,144,147494,1,0,0:0:0:0:
456,176,147581,1,0,0:0:0:0:
440,200,147668,1,0,0:0:0:0:
416,216,147755,1,0,0:0:0:0:
384,320,147930,6,0,B|328:304|376:232|256:208,1,172.500006580353
240,280,148191,2,0,P|184:248|176:208,1,86.2500032901765
224,168,148366,2,0,P|184:144|128:144,1,86.2500032901765
80,176,148540,2,0,L|104:224,2,43.1250016450883
136,272,148715,5,0,0:0:0:0:
168,288,148802,1,0,0:0:0:0:
200,288,148889,1,0,0:0:0:0:
232,272,148976,1,0,0:0:0:0:
256,248,149063,1,0,0:0:0:0:
192,96,149151,2,0,P|240:56|352:64,1,172.500006580353
352,104,149412,2,0,P|400:144|448:128,1,86.2500032901765
368,256,149674,5,0,0:0:0:0:
464,80,149848,5,0,0:0:0:0:
464,80,149935,1,0,0:0:0:0:
464,80,150023,1,0,0:0:0:0:
112,48,150197,1,0,0:0:0:0:
304,328,150372,1,0,0:0:0:0:
72,216,150545,1,0,0:0:0:0:
352,200,150720,1,0,0:0:0:0:
352,200,150807,1,0,0:0:0:0:
352,200,150894,1,0,0:0:0:0:
184,104,151069,6,0,P|112:168|112:224,1,149.499993156433
288,288,151417,2,0,L|312:216,1,74.7499965782167
384,240,151592,2,0,P|368:160|304:128,1,149.499993156433
120,88,151941,1,0,0:0:0:0:
192,264,152115,1,0,0:0:0:0:
312,112,152289,1,0,0:0:0:0:
352,120,152377,1,0,0:0:0:0:
392,136,152464,2,0,P|448:192|448:272,1,149.499993156433
264,320,152813,5,0,0:0:0:0:
72,208,152988,1,0,0:0:0:0:
72,208,153075,1,0,0:0:0:0:
72,208,153162,1,0,0:0:0:0:
280,48,153337,1,0,0:0:0:0:
272,336,153511,1,0,0:0:0:0:
64,128,153685,1,0,0:0:0:0:
352,64,153859,5,0,0:0:0:0:
392,72,153946,1,0,0:0:0:0:
424,96,154034,1,0,0:0:0:0:
440,128,154121,1,0,0:0:0:0:
448,168,154208,1,0,0:0:0:0:
440,208,154295,5,0,0:0:0:0:
408,224,154382,1,0,0:0:0:0:
368,216,154470,1,0,0:0:0:0:
336,192,154557,1,0,0:0:0:0:
304,168,154644,1,0,0:0:0:0:
272,152,154731,1,0,0:0:0:0:
232,152,154819,1,0,0:0:0:0:
192,152,154906,5,0,0:0:0:0:
160,168,154993,1,0,0:0:0:0:
136,200,155080,1,0,0:0:0:0:
144,240,155167,1,0,0:0:0:0:
176,264,155255,1,0,0:0:0:0:
208,272,155342,1,0,0:0:0:0:
248,288,155429,2,0,P|280:304|328:296,1,74.7499965782167
400,280,155603,5,0,0:0:0:0:
392,240,155691,1,0,0:0:0:0:
376,208,155778,1,0,0:0:0:0:
344,184,155865,1,0,0:0:0:0:
304,168,155952,1,0,0:0:0:0:
272,176,156039,1,0,0:0:0:0:
232,176,156127,1,0,0:0:0:0:
192,152,156214,5,0,0:0:0:0:
176,120,156301,1,0,0:0:0:0:
192,88,156388,1,0,0:0:0:0:
224,72,156476,1,0,0:0:0:0:
456,176,156651,6,0,P|416:240|336:256,1,149.499993156433
176,264,156999,1,0,0:0:0:0:
136,248,157086,1,0,0:0:0:0:
104,224,157173,2,0,P|64:160|72:80,1,149.499993156433
240,72,157522,1,0,0:0:0:0:
384,200,157696,1,0,0:0:0:0:
384,200,157871,2,0,P|408:256|360:336,1,149.499993156433
152,280,158220,2,0,P|200:272|240:288,1,74.7499965782167
136,184,158395,2,0,P|88:176|48:192,1,74.7499965782167
80,88,158569,5,0,0:0:0:0:
128,88,158656,1,0,0:0:0:0:
168,88,158743,2,0,L|320:88,1,149.499993156433
472,200,159092,1,0,0:0:0:0:
296,112,159266,1,0,0:0:0:0:
400,280,159441,1,0,0:0:0:0:
424,88,159615,1,0,0:0:0:0:
424,88,159702,1,0,0:0:0:0:
424,88,159789,1,0,0:0:0:0:
192,88,159964,6,0,L|96:88,1,74.7499965782167
216,176,160138,2,0,L|304:176,1,74.7499965782167
290,176,160312,1,0,0:0:0:0:
312,320,160487,1,0,0:0:0:0:
480,224,160662,2,0,B|448:264|376:200|328:272,1,149.499993156433
176,280,161011,5,0,0:0:0:0:
368,112,161185,1,0,0:0:0:0:
184,64,161359,2,0,P|88:80|40:128,1,149.499993156433
80,312,161708,1,0,0:0:0:0:
80,312,161795,1,0,0:0:0:0:
80,312,161882,1,0,0:0:0:0:
240,304,162058,2,0,L|192:216,1,74.7499965782167
296,184,162232,2,0,L|336:248,1,74.7499965782167
400,176,162406,2,0,P|384:80|336:48,1,149.499993156433
312,40,162667,5,0,0:0:0:0:
272,64,162755,1,0,0:0:0:0:
224,56,162842,1,0,0:0:0:0:
192,56,162929,2,0,B|104:64|120:120|160:120|208:128|208:152|192:160|144:160|112:144|112:144|72:136|80:152|80:152|80:184,1,298.999986312867
192,312,163452,5,0,0:0:0:0:
288,168,163627,1,0,0:0:0:0:
288,168,163801,1,0,0:0:0:0:
400,296,163976,1,0,0:0:0:0:
184,208,164150,1,0,0:0:0:0:
456,224,164325,6,0,P|472:192|456:128,1,74.7499965782167
368,48,164499,2,0,P|344:96|360:144,1,74.7499965782167
336,224,164674,1,0,0:0:0:0:
96,128,164847,1,0,0:0:0:0:
192,312,165022,1,0,0:0:0:0:
384,288,165196,1,0,0:0:0:0:
472,192,165371,5,0,0:0:0:0:
456,160,165458,1,0,0:0:0:0:
432,128,165545,1,0,0:0:0:0:
400,104,165632,1,0,0:0:0:0:
368,80,165719,1,0,0:0:0:0:
336,72,165807,1,0,0:0:0:0:
296,72,165894,1,0,0:0:0:0:
200,112,166069,5,0,0:0:0:0:
96,176,166243,1,0,0:0:0:0:
96,176,166417,1,0,0:0:0:0:
160,264,166592,2,0,L|200:200,1,74.7499965782167
288,160,166766,2,0,L|248:240,1,74.7499965782167
296,248,166941,1,0,0:0:0:0:
336,264,167028,1,0,0:0:0:0:
384,264,167115,1,0,0:0:0:0:
424,248,167202,1,0,0:0:0:0:
456,216,167289,1,0,0:0:0:0:
472,176,167377,5,0,0:0:0:0:
464,136,167464,1,0,0:0:0:0:
424,112,167551,1,0,0:0:0:0:
376,112,167638,1,0,0:0:0:0:
176,176,167813,5,0,0:0:0:0:
400,32,168162,1,0,0:0:0:0:
368,296,168510,2,0,P|392:184|360:128,1,149.499993156433
176,96,168859,1,0,0:0:0:0:
64,272,169034,1,0,0:0:0:0:
64,272,169121,1,0,0:0:0:0:
64,272,169208,1,0,0:0:0:0:
376,272,169382,1,0,0:0:0:0:
56,272,169558,1,0,0:0:0:0:
56,40,169731,5,0,0:0:0:0:
312,64,169906,2,0,P|352:64|400:80,1,74.7499965782167
360,144,170081,2,0,P|312:144|264:128,1,74.7499965782167
184,136,170255,1,0,0:0:0:0:
184,136,170342,1,0,0:0:0:0:
184,136,170430,1,0,0:0:0:0:
216,48,170604,1,0,0:0:0:0:
48,112,170778,5,0,0:0:0:0:
48,112,170866,1,0,0:0:0:0:
48,112,170953,1,0,0:0:0:0:
160,328,171127,1,0,0:0:0:0:
160,328,171302,1,0,0:0:0:0:
248,64,171476,5,0,0:0:0:0:
248,64,171650,1,0,0:0:0:0:
352,144,171825,1,0,0:0:0:0:
464,224,171999,5,0,0:0:0:0:
320,288,172173,1,0,0:0:0:0:
280,272,172261,1,0,0:0:0:0:
256,232,172348,1,0,0:0:0:0:
280,200,172435,1,0,0:0:0:0:
304,176,172522,2,0,P|328:96|288:16,1,149.499993156433
272,32,172784,1,0,0:0:0:0:
272,32,172871,5,0,0:0:0:0:
96,216,173045,1,0,0:0:0:0:
96,216,173133,1,0,0:0:0:0:
96,216,173220,1,0,0:0:0:0:
280,128,173394,1,0,0:0:0:0:
96,216,173569,1,0,0:0:0:0:
312,344,173743,2,0,P|392:336|448:280,1,149.499993156433
344,160,174092,2,0,P|296:120|240:112,1,74.7499965782167
248,24,174266,2,0,P|224:64|192:80,1,74.7499965782167
168,80,174441,1,0,0:0:0:0:
136,80,174528,1,0,0:0:0:0:
104,80,174615,2,0,B|32:104|80:160|136:216,1,149.499993156433
200,272,174964,5,0,0:0:0:0:
200,272,175051,1,0,0:0:0:0:
280,128,175138,1,0,0:0:0:0:
352,208,175313,1,0,0:0:0:0:
136,136,175487,1,0,0:0:0:0:
120,120,175574,1,0,0:0:0:0:
104,104,175662,2,0,P|192:64|240:80,1,149.499993156433
400,176,176010,5,0,0:0:0:0:
416,200,176098,1,0,0:0:0:0:
432,224,176185,2,0,P|400:296|312:280,1,149.499993156433
88,344,176534,2,0,P|160:296|136:216,1,149.499993156433
72,152,176882,1,0,0:0:0:0:
176,112,177057,2,0,P|40:64|8:96,1,149.499993156433
208,280,177406,2,0,P|136:176|152:128,1,149.499993156433
192,88,177755,5,0,0:0:0:0:
240,80,177842,1,0,0:0:0:0:
288,88,177929,1,0,0:0:0:0:
328,112,178016,1,0,0:0:0:0:
360,144,178103,1,0,0:0:0:0:
352,200,178191,5,0,0:0:0:0:
304,224,178278,1,0,0:0:0:0:
256,208,178365,1,0,0:0:0:0:
232,160,178452,1,0,0:0:0:0:
264,112,178539,1,0,0:0:0:0:
304,64,178627,5,0,0:0:0:0:
360,40,178714,1,0,0:0:0:0:
416,56,178801,1,0,0:0:0:0:
472,232,178976,6,0,B|424:248|432:312|368:320,1,137.999995788574
240,256,179324,1,0,0:0:0:0:
112,304,179498,1,0,0:0:0:0:
112,304,179586,1,0,0:0:0:0:
112,304,179673,1,0,0:0:0:0:
56,168,179847,1,0,0:0:0:0:
120,48,180022,1,0,0:0:0:0:
256,16,180197,1,0,0:0:0:0:
368,48,180371,5,0,0:0:0:0:
344,152,180546,1,0,0:0:0:0:
336,184,180633,1,0,0:0:0:0:
328,216,180719,1,0,0:0:0:0:
320,248,180807,1,0,0:0:0:0:
312,280,180894,1,0,0:0:0:0:
304,312,180981,1,0,0:0:0:0:
296,344,181068,1,0,0:0:0:0:
192,232,181243,5,0,0:0:0:0:
200,200,181330,1,0,0:0:0:0:
208,168,181417,1,0,0:0:0:0:
216,136,181505,1,0,0:0:0:0:
224,104,181592,1,0,0:0:0:0:
336,64,181767,6,0,P|416:64|424:256,1,275.999991577149
336,208,182289,1,0,0:0:0:0:
184,288,182464,1,0,0:0:0:0:
104,192,182639,1,0,0:0:0:0:
112,168,182726,1,0,0:0:0:0:
128,144,182813,1,0,0:0:0:0:
144,120,182901,1,0,0:0:0:0:
168,104,182988,1,0,0:0:0:0:
192,88,183075,1,0,0:0:0:0:
216,80,183162,2,0,L|216:152,3,68.9999978942872
288,176,183511,6,0,P|336:176|400:104,1,137.999995788574
56,328,184209,5,0,0:0:0:0:
112,208,184557,5,0,0:0:0:0:
136,216,184644,1,0,0:0:0:0:
160,216,184731,5,0,0:0:0:0:
184,216,184819,1,0,0:0:0:0:
208,208,184906,1,0,0:0:0:0:
328,112,185080,2,0,P|392:168|392:240,1,137.999995788574
280,320,185429,1,0,0:0:0:0:
280,320,185516,1,0,0:0:0:0:
280,320,185603,1,0,0:0:0:0:
136,264,185778,2,0,P|112:176|136:112,1,137.999995788574
264,72,186127,5,0,0:0:0:0:
408,128,186301,1,0,0:0:0:0:
408,128,186388,1,0,0:0:0:0:
408,128,186476,1,0,0:0:0:0:
328,256,186650,1,0,0:0:0:0:
184,200,186824,1,0,0:0:0:0:
184,200,186912,1,0,0:0:0:0:
184,200,186999,1,0,0:0:0:0:
304,112,187173,5,0,0:0:0:0:
336,96,187260,1,0,0:0:0:0:
368,80,187348,2,0,B|464:112|400:176|360:160|320:184|328:184,1,137.999995788574
312,320,187696,2,0,L|368:256,1,68.9999978942872
272,232,187871,2,0,L|216:296,1,68.9999978942872
226,283,188045,1,0,0:0:0:0:
152,208,188220,5,0,0:0:0:0:
152,208,188307,1,0,0:0:0:0:
152,208,188394,1,0,0:0:0:0:
152,208,188481,1,0,0:0:0:0:
152,208,188569,1,0,0:0:0:0:
288,80,188743,2,0,P|320:144|304:232,1,137.999995788574
232,336,189092,1,0,0:0:0:0:
72,120,189266,5,0,0:0:0:0:
72,120,189353,1,0,0:0:0:0:
72,120,189441,2,0,B|160:112|200:208|288:56|336:112,1,275.999991577149
464,184,189964,1,0,0:0:0:0:
376,304,190138,5,0,0:0:0:0:
344,304,190226,1,0,0:0:0:0:
312,304,190313,1,0,0:0:0:0:
272,304,190400,1,0,0:0:0:0:
248,312,190487,2,0,B|176:336|176:336|144:312|96:312,1,137.999995788574
72,152,190836,1,0,0:0:0:0:
200,72,191010,2,0,P|248:144|240:208,1,137.999995788574
160,320,191359,1,0,0:0:0:0:
240,208,191534,2,0,P|336:200|384:232,1,137.999995788574
104,288,191883,6,0,P|80:192|104:112,1,137.999995788574
176,48,192232,1,0,0:0:0:0:
432,48,192406,2,0,P|424:160|392:216,1,137.999995788574
192,312,192755,1,0,0:0:0:0:
24,136,192930,2,0,P|88:88|160:88,1,137.999995788574
328,88,193191,5,0,0:0:0:0:
328,88,193278,1,0,0:0:0:0:
328,88,193365,1,0,0:0:0:0:
328,88,193452,1,0,0:0:0:0:
200,104,193627,2,0,L|128:96,1,68.9999978942872
48,80,193801,2,0,P|64:168|152:208,1,137.999995788574
240,256,194150,1,0,0:0:0:0:
456,160,194324,5,0,0:0:0:0:
456,160,194412,1,0,0:0:0:0:
456,160,194499,1,0,0:0:0:0:
368,104,194673,2,0,P|296:64|240:64,1,137.999995788574
208,64,194935,1,0,0:0:0:0:
168,80,195022,1,0,0:0:0:0:
136,112,195109,2,0,B|88:168|176:176|56:288,1,137.999995788574
100,240,195371,1,0,0:0:0:0:
432,328,195720,5,0,0:0:0:0:
432,328,195894,1,0,0:0:0:0:
432,328,196069,1,0,0:0:0:0:
432,328,196243,1,0,0:0:0:0:
432,328,196418,2,0,B|432:240|416:200|400:192|376:184|368:184|344:192|336:200|320:208|328:232|336:272|336:280|336:296|328:304|320:312|288:320|264:328|248:320|232:288|224:272|224:264|224:256|232:240|232:240|240:224|248:216|256:208|264:200|272:192|280:184|296:184|304:168|304:152|304:136|296:128|288:120|280:112|272:104|256:104|240:96|224:104|216:104|200:112|192:112|184:112|184:120|168:136|160:136|152:144|136:168|120:192|120:248|120:256|128:264|128:272|160:320,1,827.999974731446
192,48,197987,5,0,0:0:0:0:
360,144,198510,5,0,0:0:0:0:
96,264,199382,5,0,0:0:0:0:
304,64,199906,5,0,0:0:0:0:
424,192,200429,5,0,0:0:0:0:
72,72,200778,5,0,0:0:0:0:
88,88,200865,1,0,0:0:0:0:
88,88,200952,1,0,0:0:0:0:
88,88,201039,1,0,0:0:0:0:
88,88,201127,1,0,0:0:0:0:
88,88,201214,1,0,0:0:0:0:
96,88,201302,6,0,P|136:80|176:88,1,68.9999978942872
240,160,201476,2,0,P|192:168|152:160,1,68.9999978942872
72,200,201651,2,0,L|72:272,3,68.9999978942872
136,320,201999,1,0,0:0:0:0:
168,312,202087,1,0,0:0:0:0:
200,296,202174,1,0,0:0:0:0:
216,264,202261,1,0,0:0:0:0:
224,232,202348,1,0,0:0:0:0:
248,280,203045,5,0,0:0:0:0:
88,96,203569,5,0,0:0:0:0:
352,184,204092,5,0,0:0:0:0:
248,56,204964,5,0,0:0:0:0:
448,200,205487,5,0,0:0:0:0:
120,288,206010,5,0,0:0:0:0:
64,72,206883,6,0,L|224:72,1,137.999995788574
272,80,207231,1,0,0:0:0:0:
272,176,207406,2,0,P|208:168|176:128,1,86.2500032901765
96,160,207755,1,0,0:0:0:0:
384,296,207929,2,0,P|432:256|416:144,1,172.500006580353
432,72,208627,6,0,P|368:80|352:176,1,172.500006580353
440,192,209150,2,0,P|432:264|320:256,1,172.500006580353
352,200,209674,2,0,P|280:192|224:296,1,172.500006580353
152,328,210196,1,0,0:0:0:0:
112,240,210371,5,0,0:0:0:0:
112,240,210545,1,0,0:0:0:0:
104,144,210720,2,0,L|104:48,1,86.2500032901765
192,104,211069,1,0,0:0:0:0:
280,144,211243,2,0,P|264:224|312:264,1,129.375004935265
320,264,211592,1,0,0:0:0:0:
352,264,211679,1,0,0:0:0:0:
392,248,211766,1,0,0:0:0:0:
440,168,211941,5,0,0:0:0:0:
368,104,212115,1,0,0:0:0:0:
368,104,212289,1,0,0:0:0:0:
272,96,212464,6,0,P|176:120|160:184,1,172.500006580353
168,280,212987,1,0,0:0:0:0:
168,280,213074,1,0,0:0:0:0:
168,280,213162,1,0,0:0:0:0:
264,272,213336,1,0,0:0:0:0:
352,240,213510,2,0,P|376:184|360:136,1,86.2500032901765
360,64,213859,1,0,0:0:0:0:
232,120,214034,5,0,0:0:0:0:
168,184,214209,2,0,P|96:176|40:88,1,172.500006580353
136,104,214732,2,0,P|208:104|240:200,1,172.500006580353
160,240,215255,2,0,B|208:280|264:280|304:248|312:200,1,172.500006580353
360,144,215778,1,0,0:0:0:0:
360,144,215865,1,0,0:0:0:0:
360,144,215952,1,0,0:0:0:0:
344,240,216127,6,0,P|288:288|192:248,1,172.500006580353
256,184,216650,2,0,P|168:160|104:240,1,172.500006580353
152,296,217173,1,0,0:0:0:0:
248,304,217348,1,0,0:0:0:0:
248,304,217435,1,0,0:0:0:0:
248,304,217522,1,0,0:0:0:0:
336,280,217697,2,0,P|392:232|432:232,1,86.2500032901765
424,136,218045,2,0,P|400:88|344:80,1,86.2500032901765
280,64,218394,5,0,0:0:0:0:
184,88,218569,1,0,0:0:0:0:
184,88,218656,1,0,0:0:0:0:
184,88,218743,1,0,0:0:0:0:
136,168,218917,2,0,P|128:240|160:280,1,86.2500032901765
224,240,219266,2,0,P|208:304|160:320,1,86.2500032901765
56,176,219615,1,0,0:0:0:0:
56,176,219702,1,0,0:0:0:0:
56,176,219789,1,0,0:0:0:0:
248,72,219964,6,0,P|296:80|352:56,1,86.2500032901765
392,144,220313,2,0,B|432:208|432:208|384:304,1,172.500006580353
304,344,220836,1,0,0:0:0:0:
248,272,221010,1,0,0:0:0:0:
248,272,221098,1,0,0:0:0:0:
248,272,221185,1,0,0:0:0:0:
152,264,221359,2,0,P|96:256|56:232,1,86.2500032901765
48,152,221708,1,0,0:0:0:0:
152,88,221883,6,0,P|232:96|176:128,1,172.500006580353
184,160,222319,1,0,0:0:0:0:
152,160,222406,1,0,0:0:0:0:
120,160,222493,1,0,0:0:0:0:
88,144,222580,1,0,0:0:0:0:
72,112,222667,1,0,0:0:0:0:
72,80,222755,1,0,0:0:0:0:
96,56,222842,1,0,0:0:0:0:
128,80,222929,5,0,0:0:0:0:
168,88,223016,1,0,0:0:0:0:
208,88,223103,1,0,0:0:0:0:
248,80,223191,1,0,0:0:0:0:
288,72,223278,1,0,0:0:0:0:
328,64,223365,1,0,0:0:0:0:
368,72,223452,1,0,0:0:0:0:
432,208,223627,5,0,0:0:0:0:
432,208,223714,1,0,0:0:0:0:
432,208,223801,2,0,B|392:264|392:264|304:288,1,137.999995788574
160,280,224150,1,0,0:0:0:0:
80,120,224324,1,0,0:0:0:0:
288,136,224499,2,0,P|360:136|432:88,1,137.999995788574
344,240,224848,2,0,P|256:224|200:152,1,137.999995788574
96,112,225196,5,0,0:0:0:0:
96,112,225371,2,0,B|184:136|112:176|64:192|80:216|112:232,1,137.999995788574
224,280,225720,1,0,0:0:0:0:
224,280,225894,2,0,B|208:224|160:208|184:176|240:168,1,137.999995788574
344,72,226243,1,0,0:0:0:0:
344,72,226417,2,0,B|416:104|392:144|344:152|328:176|384:192,1,137.999995788574
424,320,226766,1,0,0:0:0:0:
424,320,226853,1,0,0:0:0:0:
424,320,226941,1,0,0:0:0:0:
280,328,227116,5,0,0:0:0:0:
248,320,227203,1,0,0:0:0:0:
216,320,227290,1,0,0:0:0:0:
184,328,227377,1,0,0:0:0:0:
152,336,227465,1,0,0:0:0:0:
32,312,227639,1,0,0:0:0:0:
120,160,227813,5,0,0:0:0:0:
280,64,227988,1,0,0:0:0:0:
88,224,228162,1,0,0:0:0:0:
352,136,228337,1,0,0:0:0:0:
88,296,228511,1,0,0:0:0:0:
80,64,228859,5,0,0:0:0:0:
216,136,229034,1,0,0:0:0:0:
80,192,229208,1,0,0:0:0:0:
80,64,229382,1,0,0:0:0:0:
216,136,229557,1,0,0:0:0:0:
152,272,229731,2,0,B|232:304|232:304|304:280,1,137.999995788574
464,128,230080,2,0,B|368:120|368:120|304:152,1,137.999995788574
312,160,230342,5,0,0:0:0:0:
272,176,230429,1,0,0:0:0:0:
224,184,230516,1,0,0:0:0:0:
192,176,230603,2,0,P|128:136|160:64,1,137.999995788574
248,64,230952,5,0,0:0:0:0:
400,208,231126,1,0,0:0:0:0:
192,232,231301,1,0,0:0:0:0:
256,64,231475,1,0,0:0:0:0:
408,208,231650,1,0,0:0:0:0:
184,232,231824,1,0,0:0:0:0:
320,32,231998,1,0,0:0:0:0:
384,128,232173,2,0,P|416:232|376:288,1,137.999995788574
248,288,232522,5,0,0:0:0:0:
224,280,232609,1,0,0:0:0:0:
200,272,232697,2,0,P|144:232|136:168,2,137.999995788574
344,232,233220,5,0,0:0:0:0:
464,136,233394,1,0,0:0:0:0:
464,136,233569,2,0,P|408:80|336:80,1,137.999995788574
200,104,233917,1,0,0:0:0:0:
200,104,234092,2,0,P|320:128|440:24,1,275.999991577149
368,56,234616,5,0,0:0:0:0:
336,72,234703,1,0,0:0:0:0:
304,96,234790,2,0,P|264:80|192:88,1,68.9999978942872
128,112,234965,2,0,B|192:136|216:176|272:152,1,137.999995788574
344,160,235226,2,0,P|368:192|408:208,1,68.9999978942872
480,192,235401,2,0,P|472:240|416:264,1,68.9999978942872
392,304,235662,6,0,P|296:320|232:304,1,137.999995788574
168,288,236011,5,0,0:0:0:0:
136,272,236098,1,0,0:0:0:0:
120,240,236185,1,0,0:0:0:0:
112,208,236273,1,0,0:0:0:0:
112,176,236360,1,0,0:0:0:0:
128,144,236447,1,0,0:0:0:0:
152,120,236534,6,0,P|176:104|256:112,2,68.9999978942872
288,72,236796,2,0,P|296:96|280:152,1,68.9999978942872
248,208,236970,1,0,0:0:0:0:
248,208,237058,2,0,P|336:224|384:192,1,137.999995788574
456,152,237406,1,0,0:0:0:0:
296,80,237581,2,0,P|216:64|144:80,1,137.999995788574
64,184,237930,5,0,0:0:0:0:
224,296,238104,1,0,0:0:0:0:
224,296,238191,1,0,0:0:0:0:
224,296,238278,1,0,0:0:0:0:
408,264,238453,2,0,P|448:264|496:248,1,68.9999978942872
464,176,238627,2,0,P|376:168|328:208,1,137.999995788574
280,256,238889,1,0,0:0:0:0:
280,256,238976,2,0,P|200:288|136:272,1,137.999995788574
80,240,239238,5,0,0:0:0:0:
64,208,239325,1,0,0:0:0:0:
56,176,239412,1,0,0:0:0:0:
56,144,239499,2,0,P|80:80|168:56,1,137.999995788574
312,80,239848,1,0,0:0:0:0:
392,208,240023,1,0,0:0:0:0:
136,128,240197,1,0,0:0:0:0:
416,288,240372,6,0,P|480:224|472:168,1,137.999995788574
440,112,240720,1,0,0:0:0:0:
424,80,240808,1,0,0:0:0:0:
400,56,240895,1,0,0:0:0:0:
376,80,240982,1,0,0:0:0:0:
368,112,241069,1,0,0:0:0:0:
376,144,241156,1,0,0:0:0:0:
392,176,241244,2,0,P|416:200|456:224,1,68.9999978942872
496,272,241418,2,0,P|464:304|352:296,1,137.999995788574
240,280,241767,5,0,0:0:0:0:
240,280,241854,2,0,L|176:240,1,68.9999978942872
120,80,242116,1,0,0:0:0:0:
120,80,242203,2,0,L|184:120,1,68.9999978942872
256,176,242377,2,0,P|264:152|248:88,1,68.9999978942872
256,40,242552,1,0,0:0:0:0:
256,40,242639,2,0,P|336:48|368:104,1,137.999995788574
384,160,242988,6,0,P|352:184|296:176,1,68.9999978942872
240,160,243162,2,0,B|200:160|152:104|104:152,1,137.999995788574
56,240,243511,5,0,0:0:0:0:
96,248,243598,1,0,0:0:0:0:
136,240,243685,1,0,0:0:0:0:
160,208,243773,1,0,0:0:0:0:
192,184,243860,1,0,0:0:0:0:
464,128,244034,6,0,P|376:152|352:336,1,275.999991577149
248,224,244557,2,0,P|208:128|336:40,1,275.999991577149
296,176,245081,2,0,P|176:200|184:344,1,275.999991577149
200,328,245516,5,0,0:0:0:0:
224,320,245603,1,0,0:0:0:0:
248,312,245691,1,0,0:0:0:0:
272,296,245778,1,0,0:0:0:0:
280,272,245865,1,0,0:0:0:0:
264,248,245952,2,0,B|192:232|168:272|136:272|120:232,1,137.999995788574
56,112,246301,5,0,0:0:0:0:
408,72,246476,1,0,0:0:0:0:
64,224,246650,1,0,0:0:0:0:
240,48,246824,1,0,0:0:0:0:
440,192,246999,1,0,0:0:0:0:
48,240,247173,1,0,0:0:0:0:
440,192,247348,2,0,B|440:120|440:120|384:56,1,137.999995788574
216,136,247696,5,0,0:0:0:0:
224,328,247871,1,0,0:0:0:0:
440,248,248045,1,0,0:0:0:0:
64,224,248220,1,0,0:0:0:0:
376,48,248394,2,0,B|392:96|392:96|336:208,1,137.999995788574
136,120,248743,6,0,P|192:64|264:56,1,137.999995788574
304,208,249092,1,0,0:0:0:0:
64,96,249266,2,0,P|120:40|192:32,1,137.999995788574
304,208,249616,1,0,0:0:0:0:
16,72,249790,2,0,P|72:16|144:8,1,137.999995788574
416,296,250138,1,0,0:0:0:0:
464,128,250313,6,0,P|400:64|344:56,1,137.999995788574
288,208,250662,1,0,0:0:0:0:
480,96,250836,2,0,P|416:32|360:24,1,137.999995788574
248,256,251185,1,0,0:0:0:0:
464,128,251359,2,0,P|400:64|344:56,1,137.999995788574
248,256,251708,1,0,0:0:0:0:
88,80,251883,5,0,0:0:0:0:
464,64,252058,1,0,0:0:0:0:
464,64,252145,1,0,0:0:0:0:
464,64,252232,1,0,0:0:0:0:
464,328,252405,1,0,0:0:0:0:
464,64,252580,1,0,0:0:0:0:
120,64,252755,5,0,0:0:0:0:
120,64,252842,1,0,0:0:0:0:
120,64,252929,1,0,0:0:0:0:
120,288,253103,1,0,0:0:0:0:
392,272,253278,1,0,0:0:0:0:
248,72,253452,1,0,0:0:0:0:
200,288,253627,1,0,0:0:0:0:
408,64,253801,1,0,0:0:0:0:
80,88,253976,5,0,0:0:0:0:
264,320,254150,1,0,0:0:0:0:
456,72,254324,1,0,0:0:0:0:
384,184,254499,2,0,P|320:136|248:120,1,137.999995788574
104,112,254848,1,0,0:0:0:0:
296,288,255022,2,0,B|344:224|344:224|344:152,1,137.999995788574
104,112,255371,1,0,0:0:0:0:
392,112,255545,5,0,0:0:0:0:
392,112,255632,1,0,0:0:0:0:
392,112,255720,1,0,0:0:0:0:
320,272,255894,2,0,P|296:192|232:144,1,137.999995788574
128,88,256243,1,0,0:0:0:0:
184,256,256417,2,0,P|216:128|264:112,1,137.999995788574
368,56,256766,1,0,0:0:0:0:
368,56,256853,1,0,0:0:0:0:
368,56,256941,1,0,0:0:0:0:
448,216,257115,5,0,0:0:0:0:
448,216,257202,1,0,0:0:0:0:
448,216,257290,2,0,P|368:216|320:272,1,137.999995788574
192,128,257638,1,0,0:0:0:0:
192,128,257726,1,0,0:0:0:0:
192,128,257813,2,0,P|288:160|312:216,1,137.999995788574
440,304,258162,1,0,0:0:0:0:
456,88,258337,1,0,0:0:0:0:
456,88,258424,1,0,0:0:0:0:
456,88,258511,1,0,0:0:0:0:
208,264,258685,5,0,0:0:0:0:
208,264,258772,1,0,0:0:0:0:
208,264,258859,2,0,P|160:176|104:152,1,137.999995788574
304,104,259208,1,0,0:0:0:0:
304,104,259295,1,0,0:0:0:0:
304,104,259382,1,0,0:0:0:0:
440,216,259557,1,0,0:0:0:0:
272,288,259731,2,0,P|328:184|368:208,1,137.999995788574
448,64,260080,5,0,0:0:0:0:
408,72,260167,1,0,0:0:0:0:
384,104,260255,1,0,0:0:0:0:
464,264,260429,1,0,0:0:0:0:
288,312,260604,2,0,P|336:224|312:160,2,137.999995788574
184,160,261127,1,0,0:0:0:0:
464,160,261301,1,0,0:0:0:0:
304,72,261476,5,0,0:0:0:0:
128,88,261650,2,0,P|32:176|48:232,1,137.999995788574
176,272,261999,1,0,0:0:0:0:
352,232,262173,2,0,P|400:176|384:96,1,137.999995788574
224,72,262522,1,0,0:0:0:0:
368,176,262697,6,0,B|432:216|416:240|392:256|352:256|320:240|296:280|304:288|328:304|304:320|416:320,1,275.999991577149
488,256,263220,1,0,0:0:0:0:
488,256,263307,1,0,0:0:0:0:
488,256,263394,1,0,0:0:0:0:
360,128,263569,1,0,0:0:0:0:
184,120,263743,2,0,B|104:120|104:120|48:168,1,137.999995788574
192,280,264092,5,0,0:0:0:0:
224,272,264179,1,0,0:0:0:0:
256,288,264266,1,0,0:0:0:0:
280,320,264353,1,0,0:0:0:0:
312,328,264441,2,0,B|392:328|392:328|424:280,1,137.999995788574
440,104,264789,1,0,0:0:0:0:
440,104,264877,1,0,0:0:0:0:
440,104,264964,1,0,0:0:0:0:
264,56,265138,5,0,0:0:0:0:
296,184,265313,2,0,P|344:264|408:280,1,137.999995788574
224,272,265662,5,0,0:0:0:0:
192,256,265749,1,0,0:0:0:0:
168,232,265836,1,0,0:0:0:0:
144,208,265923,1,0,0:0:0:0:
128,176,266010,1,0,0:0:0:0:
128,144,266098,5,0,0:0:0:0:
144,112,266185,1,0,0:0:0:0:
168,88,266272,1,0,0:0:0:0:
192,64,266359,1,0,0:0:0:0:
224,56,266446,1,0,0:0:0:0:
256,72,266534,5,0,0:0:0:0:
280,96,266621,1,0,0:0:0:0:
296,128,266708,1,0,0:0:0:0:
288,160,266795,1,0,0:0:0:0:
264,184,266882,1,0,0:0:0:0:
232,200,266970,5,0,0:0:0:0:
200,176,267057,1,0,0:0:0:0:
176,152,267144,1,0,0:0:0:0:
168,120,267231,1,0,0:0:0:0:
184,88,267319,1,0,0:0:0:0:
208,64,267406,5,0,0:0:0:0:
240,48,267493,1,0,0:0:0:0:
272,48,267580,1,0,0:0:0:0:
296,72,267667,1,0,0:0:0:0:
304,104,267755,1,0,0:0:0:0:
288,136,267842,5,0,0:0:0:0:
264,160,267929,1,0,0:0:0:0:
232,152,268016,1,0,0:0:0:0:
208,128,268103,1,0,0:0:0:0:
200,96,268191,1,0,0:0:0:0:
208,64,268278,1,0,0:0:0:0:
136,64,268627,6,0,L|136:128,1,57.5
208,121,268801,6,0,L|208:64,1,57.5
280,64,268975,6,0,L|280:152,1,57.5
360,121,269150,6,0,L|360:64,1,57.5
432,64,269325,6,0,L|432:136,4,57.5
432,272,269847,6,0,L|432:200,1,57.5
360,214,270022,6,0,L|360:272,1,57.5
280,272,270196,6,0,L|280:200,1,57.5
200,214,270371,6,0,L|200:272,1,57.5
128,272,270546,6,0,L|128:168,4,57.5
304,328,271069,1,0,0:0:0:0:
464,224,271244,1,0,0:0:0:0:
464,224,271331,1,0,0:0:0:0:
464,224,271418,1,0,0:0:0:0:
432,96,271592,2,0,P|376:160|312:144,1,149.499993156433
232,128,271941,1,0,0:0:0:0:
160,336,272115,6,0,P|216:256|288:240,1,149.499993156433
336,176,272464,1,0,0:0:0:0:
112,80,272638,6,0,P|200:136|200:200,1,149.499993156433
216,264,272987,1,0,0:0:0:0:
472,112,273162,6,0,P|384:144|352:216,1,149.499993156433
320,280,273510,1,0,0:0:0:0:
320,280,273685,1,0,0:0:0:0:
448,208,273859,6,0,P|408:176|360:176,1,74.7499965782167
440,120,274034,2,0,P|392:96|344:96,1,74.7499965782167
336,32,274208,2,0,P|304:56|296:104,1,74.7499965782167
320,160,274383,2,0,P|248:152|216:80,1,149.499993156433
120,120,274644,2,0,P|144:168|184:176,1,74.7499965782167
120,256,274818,2,0,P|160:272|208:256,1,74.7499965782167
216,352,274993,2,0,P|240:328|264:280,1,74.7499965782167
368,288,275255,5,0,0:0:0:0:
368,288,275342,1,0,0:0:0:0:
368,288,275429,1,0,0:0:0:0:
144,192,275603,1,0,0:0:0:0:
392,120,275778,1,0,0:0:0:0:
256,232,275952,1,0,0:0:0:0:
256,232,276039,1,0,0:0:0:0:
256,232,276127,1,0,0:0:0:0:
104,48,276301,2,0,B|80:144|176:184,1,149.499993156433
224,232,276650,5,0,0:0:0:0:
248,248,276737,1,0,0:0:0:0:
272,256,276824,1,0,0:0:0:0:
304,264,276912,1,0,0:0:0:0:
336,264,276999,1,0,0:0:0:0:
368,256,277086,5,0,0:0:0:0:
392,240,277173,1,0,0:0:0:0:
416,224,277260,1,0,0:0:0:0:
432,200,277348,1,0,0:0:0:0:
440,168,277435,5,0,0:0:0:0:
432,136,277522,1,0,0:0:0:0:
408,120,277609,1,0,0:0:0:0:
376,120,277696,1,0,0:0:0:0:
344,128,277784,1,0,0:0:0:0:
328,152,277871,5,0,0:0:0:0:
312,176,277958,1,0,0:0:0:0:
288,200,278045,1,0,0:0:0:0:
264,216,278132,1,0,0:0:0:0:
232,208,278220,5,0,0:0:0:0:
208,184,278307,1,0,0:0:0:0:
200,152,278394,1,0,0:0:0:0:
216,128,278481,1,0,0:0:0:0:
240,112,278569,1,0,0:0:0:0:
264,104,278656,5,0,0:0:0:0:
296,96,278743,1,0,0:0:0:0:
328,104,278830,1,0,0:0:0:0:
352,120,278917,1,0,0:0:0:0:
368,144,279005,1,0,0:0:0:0:
384,168,279092,5,0,0:0:0:0:
376,200,279179,1,0,0:0:0:0:
360,224,279266,1,0,0:0:0:0:
128,304,279441,6,0,B|200:280|168:248|152:240|120:232|120:232|80:216|80:216|104:168|136:144|192:160,1,298.999986312867
208,168,279877,1,0,0:0:0:0:
240,160,279964,1,0,0:0:0:0:
264,144,280051,1,0,0:0:0:0:
288,128,280138,1,0,0:0:0:0:
320,128,280226,1,0,0:0:0:0:
352,120,280313,1,0,0:0:0:0:
376,136,280400,1,0,0:0:0:0:
400,152,280487,1,0,0:0:0:0:
424,176,280574,5,0,0:0:0:0:
432,208,280662,1,0,0:0:0:0:
432,240,280749,1,0,0:0:0:0:
408,256,280836,1,0,0:0:0:0:
376,264,280923,1,0,0:0:0:0:
344,264,281010,1,0,0:0:0:0:
312,264,281098,1,0,0:0:0:0:
280,256,281185,1,0,0:0:0:0:
248,248,281272,1,0,0:0:0:0:
224,240,281359,5,0,0:0:0:0:
200,224,281446,1,0,0:0:0:0:
184,200,281534,1,0,0:0:0:0:
176,176,281621,1,0,0:0:0:0:
168,144,281708,1,0,0:0:0:0:
184,120,281795,1,0,0:0:0:0:
208,104,281882,1,0,0:0:0:0:
240,96,281970,1,0,0:0:0:0:
272,96,282057,1,0,0:0:0:0:
296,96,282144,1,0,0:0:0:0:
344,104,282232,6,0,L|328:168,1,43.1250016450883
328,184,282406,2,0,L|280:168,1,43.1250016450883
344,240,282580,2,0,L|392:256,1,43.1250016450883
304,280,282755,2,0,L|248:256,1,43.1250016450883
288,328,282929,2,0,L|352:360,1,43.1250016450883
408,344,283103,5,0,0:0:0:0:
152,184,283278,1,0,0:0:0:0:
440,64,283452,1,0,0:0:0:0:
152,184,283627,1,0,0:0:0:0:
408,344,283801,1,0,0:0:0:0:
424,200,283976,1,0,0:0:0:0:
216,240,284150,6,0,L|176:264,1,43.1250016450883
96,224,284324,2,0,L|152:192,1,43.1250016450883
176,120,284499,2,0,L|128:128,1,43.1250016450883
232,56,284673,2,0,L|288:80,1,43.1250016450883
400,128,284848,2,0,L|376:80,1,43.1250016450883
464,216,285022,5,0,0:0:0:0:
440,240,285109,1,0,0:0:0:0:
408,248,285196,1,0,0:0:0:0:
376,256,285284,1,0,0:0:0:0:
344,256,285371,1,0,0:0:0:0:
312,256,285458,1,0,0:0:0:0:
288,240,285545,1,0,0:0:0:0:
264,224,285632,1,0,0:0:0:0:
240,200,285720,1,0,0:0:0:0:
216,184,285807,1,0,0:0:0:0:
192,168,285894,5,0,0:0:0:0:
160,168,285981,1,0,0:0:0:0:
136,184,286069,1,0,0:0:0:0:
128,216,286156,1,0,0:0:0:0:
144,240,286243,1,0,0:0:0:0:
168,256,286330,1,0,0:0:0:0:
200,264,286417,1,0,0:0:0:0:
232,256,286505,1,0,0:0:0:0:
272,232,286592,1,0,0:0:0:0:
312,208,286679,5,0,0:0:0:0:
352,184,286766,1,0,0:0:0:0:
376,152,286853,1,0,0:0:0:0:
400,112,286941,1,0,0:0:0:0:
384,72,287028,2,0,L|408:32,1,43.1250016450883
336,160,287202,6,0,L|344:216,1,43.1250016450883
288,56,287377,2,0,L|272:16,1,43.1250016450883
264,80,287551,1,0,0:0:0:0:
224,88,287638,1,0,0:0:0:0:
192,120,287726,1,0,0:0:0:0:
200,160,287813,1,0,0:0:0:0:
240,184,287900,5,0,0:0:0:0:
280,208,287987,1,0,0:0:0:0:
312,232,288074,1,0,0:0:0:0:
344,264,288162,1,0,0:0:0:0:
328,304,288249,1,0,0:0:0:0:
280,304,288336,1,0,0:0:0:0:
256,264,288423,1,0,0:0:0:0:
224,232,288511,2,0,P|168:224|144:248,2,86.2500032901765
208,184,288946,6,0,P|232:136|272:112,1,86.2500032901765
296,128,289121,5,0,0:0:0:0:
344,144,289208,5,0,0:0:0:0:
368,112,289295,1,0,0:0:0:0:
344,72,289382,1,0,0:0:0:0:
296,72,289470,1,0,0:0:0:0:
256,88,289557,1,0,0:0:0:0:
224,120,289644,1,0,0:0:0:0:
200,160,289731,1,0,0:0:0:0:
184,200,289819,1,0,0:0:0:0:
200,240,289906,1,0,0:0:0:0:
248,288,289993,5,0,0:0:0:0:
312,304,290080,1,0,0:0:0:0:
376,288,290167,1,0,0:0:0:0:
408,224,290255,1,0,0:0:0:0:
400,152,290342,1,0,0:0:0:0:
344,120,290429,1,0,0:0:0:0:
280,152,290516,1,0,0:0:0:0:
256,216,290603,1,0,0:0:0:0:
88,160,290953,5,0,0:0:0:0:
120,128,291040,1,0,0:0:0:0:
160,112,291127,1,0,0:0:0:0:
200,96,291215,1,0,0:0:0:0:
248,104,291302,1,0,0:0:0:0:
272,144,291389,1,0,0:0:0:0:
264,184,291476,1,0,0:0:0:0:
240,224,291563,1,0,0:0:0:0:
200,240,291651,1,0,0:0:0:0:
160,232,291738,5,0,0:0:0:0:
136,192,291825,1,0,0:0:0:0:
152,152,291912,1,0,0:0:0:0:
184,120,291999,2,0,L|256:168,3,74.7499965782167
360,120,292348,1,0,0:0:0:0:
392,144,292435,1,0,0:0:0:0:
416,184,292523,1,0,0:0:0:0:
424,224,292610,1,0,0:0:0:0:
408,264,292697,1,0,0:0:0:0:
376,296,292784,5,0,0:0:0:0:
328,296,292872,1,0,0:0:0:0:
288,272,292959,1,0,0:0:0:0:
264,232,293046,1,0,0:0:0:0:
272,192,293133,1,0,0:0:0:0:
304,160,293220,1,0,0:0:0:0:
336,136,293308,1,0,0:0:0:0:
360,104,293395,1,0,0:0:0:0:
376,64,293482,1,0,0:0:0:0:
352,32,293569,6,0,P|312:16|216:56,1,149.499993156433
208,80,293831,1,0,0:0:0:0:
208,112,293918,1,0,0:0:0:0:
216,144,294005,1,0,0:0:0:0:
232,168,294092,1,0,0:0:0:0:
320,224,294267,1,0,0:0:0:0:
352,232,294354,1,0,0:0:0:0:
384,232,294441,1,0,0:0:0:0:
464,160,294616,5,0,0:0:0:0:
448,136,294703,1,0,0:0:0:0:
432,112,294790,1,0,0:0:0:0:
408,88,294877,1,0,0:0:0:0:
384,72,294965,1,0,0:0:0:0:
352,64,295052,1,0,0:0:0:0:
320,64,295139,1,0,0:0:0:0:
176,144,295313,5,0,0:0:0:0:
152,168,295401,1,0,0:0:0:0:
144,200,295488,1,0,0:0:0:0:
152,240,295575,1,0,0:0:0:0:
176,272,295662,1,0,0:0:0:0:
208,288,295749,1,0,0:0:0:0:
248,288,295837,1,0,0:0:0:0:
288,280,295924,1,0,0:0:0:0:
320,264,296011,1,0,0:0:0:0:
448,176,296185,6,0,P|464:120|408:48,1,149.499993156433
256,72,296534,1,0,0:0:0:0:
232,88,296622,1,0,0:0:0:0:
216,112,296709,1,0,0:0:0:0:
200,136,296796,1,0,0:0:0:0:
192,168,296883,1,0,0:0:0:0:
192,200,296970,1,0,0:0:0:0:
112,256,297058,6,0,P|120:304|112:344,1,74.7499965782167
32,256,297232,2,0,P|40:208|64:176,1,74.7499965782167
72,168,297406,1,0,0:0:0:0:
96,152,297494,1,0,0:0:0:0:
128,144,297581,1,0,0:0:0:0:
160,136,297668,1,0,0:0:0:0:
192,136,297755,1,0,0:0:0:0:
224,144,297842,1,0,0:0:0:0:
248,160,297930,1,0,0:0:0:0:
304,248,298104,6,0,L|360:304,1,74.7499965782167
432,208,298278,2,0,L|352:128,1,74.7499965782167
320,96,298453,1,0,0:0:0:0:
272,64,298540,1,0,0:0:0:0:
216,48,298627,1,0,0:0:0:0:
152,48,298715,1,0,0:0:0:0:
104,80,298802,1,0,0:0:0:0:
80,136,298889,1,0,0:0:0:0:
88,192,298976,5,0,0:0:0:0:
128,240,299063,1,0,0:0:0:0:
184,264,299151,1,0,0:0:0:0:
240,256,299238,1,0,0:0:0:0:
296,232,299325,1,0,0:0:0:0:
328,184,299412,1,0,0:0:0:0:
328,128,299499,1,0,0:0:0:0:
304,72,299587,1,0,0:0:0:0:
248,48,299674,6,0,P|168:32|72:88,1,149.499993156433
112,176,300023,6,0,L|136:248,2,74.7499965782167
224,104,300372,1,0,0:0:0:0:
224,104,300459,1,0,0:0:0:0:
224,104,300546,2,0,L|256:184,3,74.7499965782167
251,173,300895,1,0,0:0:0:0:
251,173,300982,1,0,0:0:0:0:
251,173,301069,1,0,0:0:0:0:
251,173,301156,1,0,0:0:0:0:
251,173,301244,1,0,0:0:0:0:
251,173,301331,1,0,0:0:0:0:
251,173,301418,6,0,B|348:161|348:161|256:264|256:264|104:200|104:200|104:72|104:72|224:32,1,597.999972625734
312,72,302290,5,0,0:0:0:0:
352,80,302377,1,0,0:0:0:0:
392,96,302465,1,0,0:0:0:0:
432,120,302552,1,0,0:0:0:0:
456,160,302639,1,0,0:0:0:0:
456,208,302726,1,0,0:0:0:0:
432,248,302813,1,0,0:0:0:0:
400,272,302901,1,0,0:0:0:0:
352,272,302988,1,0,0:0:0:0:
312,256,303075,5,0,0:0:0:0:
280,224,303162,1,0,0:0:0:0:
272,176,303249,1,0,0:0:0:0:
256,136,303337,1,0,0:0:0:0:
224,104,303424,1,0,0:0:0:0:
192,72,303511,2,0,P|144:64|96:80,1,74.7499965782167
40,152,303685,2,0,P|88:168|128:160,1,74.7499965782167
152,152,303860,5,0,0:0:0:0:
192,144,303947,1,0,0:0:0:0:
232,152,304034,1,0,0:0:0:0:
272,176,304122,1,0,0:0:0:0:
288,216,304209,1,0,0:0:0:0:
328,240,304296,1,0,0:0:0:0:
376,240,304383,1,0,0:0:0:0:
416,224,304470,1,0,0:0:0:0:
448,192,304558,5,0,0:0:0:0:
464,152,304645,1,0,0:0:0:0:
456,112,304732,1,0,0:0:0:0:
424,80,304819,1,0,0:0:0:0:
376,72,304906,1,0,0:0:0:0:
336,88,304994,1,0,0:0:0:0:
296,104,305081,6,0,P|264:88|184:88,1,74.7499965782167
144,72,305255,1,0,0:0:0:0:
96,128,305430,1,0,0:0:0:0:
96,128,305604,2,0,L|40:192,1,74.7499965782167
96,264,305778,2,0,L|144:208,1,74.7499965782167
232,128,305953,5,0,0:0:0:0:
264,112,306040,1,0,0:0:0:0:
304,104,306127,1,0,0:0:0:0:
352,104,306215,1,0,0:0:0:0:
392,112,306302,1,0,0:0:0:0:
432,128,306389,1,0,0:0:0:0:
464,160,306476,1,0,0:0:0:0:
472,200,306563,1,0,0:0:0:0:
456,240,306651,5,0,0:0:0:0:
408,240,306738,1,0,0:0:0:0:
384,208,306825,1,0,0:0:0:0:
368,168,306912,1,0,0:0:0:0:
336,136,306999,1,0,0:0:0:0:
296,120,307087,1,0,0:0:0:0:
248,128,307174,1,0,0:0:0:0:
208,144,307261,1,0,0:0:0:0:
168,168,307348,6,0,L|112:112,1,57.5
144,40,307523,2,0,L|192:88,2,57.5
336,64,307872,5,0,0:0:0:0:
368,80,307959,1,0,0:0:0:0:
400,104,308046,1,0,0:0:0:0:
424,136,308133,1,0,0:0:0:0:
432,176,308220,1,0,0:0:0:0:
424,216,308308,1,0,0:0:0:0:
400,248,308395,1,0,0:0:0:0:
368,256,308482,1,0,0:0:0:0:
328,248,308569,2,0,L|328:328,3,57.5
240,208,308918,5,0,0:0:0:0:
224,184,309005,1,0,0:0:0:0:
200,160,309092,1,0,0:0:0:0:
176,144,309180,1,0,0:0:0:0:
152,128,309267,1,0,0:0:0:0:
128,120,309354,1,0,0:0:0:0:
96,120,309441,1,0,0:0:0:0:
72,136,309528,1,0,0:0:0:0:
48,152,309616,5,0,0:0:0:0:
40,176,309703,1,0,0:0:0:0:
48,200,309790,1,0,0:0:0:0:
72,216,309877,1,0,0:0:0:0:
104,216,309965,1,0,0:0:0:0:
128,208,310052,1,0,0:0:0:0:
152,192,310139,2,0,L|152:256,4,57.5
264,128,310662,5,0,0:0:0:0:
288,112,310749,1,0,0:0:0:0:
312,104,310837,1,0,0:0:0:0:
344,104,310924,1,0,0:0:0:0:
376,112,311011,1,0,0:0:0:0:
400,128,311098,1,0,0:0:0:0:
424,144,311185,1,0,0:0:0:0:
440,168,311273,1,0,0:0:0:0:
456,192,311360,1,0,0:0:0:0:
464,216,311447,1,0,0:0:0:0:
472,240,311534,1,0,0:0:0:0:
472,272,311622,1,0,0:0:0:0:
416,312,311709,6,0,L|376:264,1,57.5
312,208,311883,2,0,P|288:248|304:280,1,57.5
304,328,312058,2,0,P|272:336|232:312,1,57.5
192,256,312232,2,0,P|200:224|240:192,1,57.5
272,128,312406,5,0,0:0:0:0:
288,88,312494,1,0,0:0:0:0:
320,64,312581,1,0,0:0:0:0:
352,40,312668,1,0,0:0:0:0:
384,64,312755,1,0,0:0:0:0:
408,96,312842,1,0,0:0:0:0:
424,136,312930,1,0,0:0:0:0:
256,304,313278,6,0,P|288:248|344:240,1,86.2500032901765
408,240,313627,1,0,0:0:0:0:
424,136,313801,2,0,P|376:96|320:88,1,86.2500032901765
248,104,314150,1,0,0:0:0:0:
248,104,314324,1,0,0:0:0:0:
64,208,314499,1,0,0:0:0:0:
64,208,314586,1,0,0:0:0:0:
64,208,314674,1,0,0:0:0:0:
136,280,315022,6,0,P|184:248|200:200,1,86.2500032901765
288,272,315371,2,0,P|328:224|320:176,1,86.2500032901765
424,248,315720,2,0,P|424:184|392:152,1,86.2500032901765
360,80,316069,1,0,0:0:0:0:
136,104,316243,5,0,0:0:0:0:
136,104,316330,1,0,0:0:0:0:
136,104,316417,1,0,0:0:0:0:
208,184,316592,2,0,P|128:216|128:240,1,86.2500032901765
176,272,316941,1,0,0:0:0:0:
176,272,317116,2,0,P|104:272|48:176,1,172.500006580353
208,88,317638,5,0,0:0:0:0:
208,88,317726,1,0,0:0:0:0:
208,88,317813,1,0,0:0:0:0:
296,152,317987,2,0,P|368:192|400:184,1,86.2500032901765
352,296,318336,1,0,0:0:0:0:
256,256,318510,2,0,P|208:248|152:264,1,86.2500032901765
264,112,318859,6,0,P|320:112|352:128,1,86.2500032901765
160,56,319208,2,0,P|96:48|64:56,1,86.2500032901765
128,144,319557,1,0,0:0:0:0:
152,248,319731,1,0,0:0:0:0:
224,184,319906,2,0,P|256:248|240:280,1,86.2500032901765
208,352,320255,1,0,0:0:0:0:
384,272,320429,5,0,0:0:0:0:
384,272,320516,1,0,0:0:0:0:
384,272,320603,1,0,0:0:0:0:
424,176,320778,1,0,0:0:0:0:
352,104,320953,2,0,P|296:80|272:48,2,86.2500032901765
192,120,321476,5,0,0:0:0:0:
192,224,321650,2,0,P|240:264|272:264,1,86.2500032901765
336,224,321999,2,0,P|384:168|384:128,1,86.2500032901765
376,72,322348,1,0,0:0:0:0:
272,56,322522,2,0,B|224:48|232:64|232:80|176:48,1,86.2500032901765
168,72,322784,1,0,0:0:0:0:
144,96,322871,2,0,B|144:144|104:168|152:192,1,86.2500032901765
208,256,323220,5,0,0:0:0:0:
208,256,323307,1,0,0:0:0:0:
208,256,323394,1,0,0:0:0:0:
344,224,323569,6,0,P|392:144|384:96,1,115
256,88,323917,1,0,0:0:0:0:
240,112,324005,1,0,0:0:0:0:
224,136,324092,2,0,B|152:128|152:128|104:160,1,115
168,280,324441,6,0,P|232:272|272:304,1,115
296,312,324702,1,0,0:0:0:0:
312,304,324790,2,0,P|352:264|336:200,1,115
336,192,325051,1,0,0:0:0:0:
344,184,325139,2,0,P|416:168|432:120,1,115
448,128,325400,1,0,0:0:0:0:
464,120,325488,2,0,P|488:184|456:240,1,115
440,240,325749,5,0,0:0:0:0:
400,232,325836,2,0,P|360:192|280:184,1,115
264,176,326098,2,0,L|264:112,1,57.5
248,104,326273,2,0,B|192:80|176:120|176:152|176:176|120:160|120:144|128:112,1,172.5
160,104,326708,1,0,0:0:0:0:
184,96,326795,1,0,0:0:0:0:
208,96,326883,2,0,B|248:144|176:200,1,115
168,216,327144,1,0,0:0:0:0:
192,232,327232,2,0,P|256:232|288:168,1,115
408,144,327580,1,0,0:0:0:0:
352,272,327755,1,0,0:0:0:0:
352,272,327842,1,0,0:0:0:0:
352,272,327929,1,0,0:0:0:0:
144,272,328104,6,0,P|192:224|192:160,1,115
88,96,328452,1,0,0:0:0:0:
224,40,328627,1,0,0:0:0:0:
320,128,328802,1,0,0:0:0:0:
320,128,328889,1,0,0:0:0:0:
320,128,328976,1,0,0:0:0:0:
240,224,329151,1,0,0:0:0:0:
240,224,329238,1,0,0:0:0:0:
240,224,329325,1,0,0:0:0:0:
80,152,329499,5,0,0:0:0:0:
224,96,329674,2,0,P|288:80|344:96,1,115
464,168,330023,1,0,0:0:0:0:
440,208,330110,1,0,0:0:0:0:
400,232,330197,1,0,0:0:0:0:
352,232,330284,1,0,0:0:0:0:
312,200,330372,1,0,0:0:0:0:
288,160,330459,1,0,0:0:0:0:
256,128,330546,5,0,0:0:0:0:
216,104,330633,1,0,0:0:0:0:
168,96,330720,1,0,0:0:0:0:
128,120,330808,1,0,0:0:0:0:
104,160,330895,6,0,L|104:232,3,57.5
128,304,331244,6,0,P|168:312|208:304,1,57.5
280,296,331418,2,0,P|240:264|184:272,1,57.5
152,232,331592,1,0,0:0:0:0:
64,176,331767,5,0,0:0:0:0:
88,136,331854,1,0,0:0:0:0:
128,112,331941,1,0,0:0:0:0:
168,96,332028,1,0,0:0:0:0:
216,96,332116,1,0,0:0:0:0:
264,112,332203,1,0,0:0:0:0:
304,136,332290,1,0,0:0:0:0:
336,168,332377,1,0,0:0:0:0:
352,208,332465,1,0,0:0:0:0:
360,256,332552,1,0,0:0:0:0:
336,296,332639,5,0,0:0:0:0:
304,328,332726,1,0,0:0:0:0:
256,336,332813,1,0,0:0:0:0:
208,320,332901,1,0,0:0:0:0:
184,280,332988,1,0,0:0:0:0:
184,232,333075,1,0,0:0:0:0:
208,192,333162,5,0,0:0:0:0:
248,168,333249,1,0,0:0:0:0:
288,184,333337,1,0,0:0:0:0:
304,224,333424,1,0,0:0:0:0:
304,272,333511,1,0,0:0:0:0:
256,192,333685,12,0,335080,0:0:0:0:
112,272,335255,6,0,B|88:224|64:168|64:168|168:48|168:48|384:48|384:48|480:176|480:176|416:296|416:296|280:296|280:296|280:168,1,1035.00003948212
