osu file format v14

[General]
AudioFilename: Hush Hush.mp3
AudioLeadIn: 0
PreviewTime: 173313
Countdown: 1
SampleSet: None
StackLeniency: 0.7
Mode: 0
LetterboxInBreaks: 0
WidescreenStoryboard: 0

[Editor]
Bookmarks: 13656,123240
DistanceSpacing: 1.4
BeatDivisor: 4
GridSize: 4
TimelineZoom: 1

[Metadata]
Title:Hush Hush; Hush Hush
TitleUnicode:Hush Hush; Hush Hush
Artist:The Pussycat Dolls
ArtistUnicode:The Pussycat Dolls
Creator:MkGuh
Version:First I was afraid, I was petrified.
Source:
Tags:doll domination girl group english pop
BeatmapID:1685564
BeatmapSetID:803010

[Difficulty]
HPDrainRate:6
CircleSize:4
OverallDifficulty:7
ApproachRate:8
SliderMultiplier:1.85
SliderTickRate:1

[Events]
//Background and Video events
Video,0,"The Pussycat Dolls - Hush Hush Hush Hush.avi"
//Break Periods
2,56866,59686
2,161466,184520
2,193346,206759
2,209330,217910
//Storyboard Layer 0 (Background)
//Storyboard Layer 1 (Fail)
//Storyboard Layer 2 (Pass)
//Storyboard Layer 3 (Foreground)
//Storyboard Sound Samples

[TimingPoints]
613,899.543592814371,4,2,0,55,1,0
44465,-83.3333333333333,4,2,0,75,0,0
44690,-100,4,2,0,55,0,0
46264,-90.9090909090909,4,2,0,68,0,0
46489,-100,4,2,0,55,0,0
55556,1110.54359281437,4,2,0,55,1,0
57985,899.543592814371,4,2,0,55,1,0
60436,463.320463320463,4,2,0,77,1,1
60436,-90.9090909090909,4,2,0,77,0,1
71555,-125,4,2,0,83,0,0
72482,-111.111111111111,4,2,0,83,0,0
73408,-100,4,2,0,83,0,0
74335,-90.9090909090909,4,2,0,83,0,0
75262,-90.9090909090909,4,2,0,77,0,1
90088,-133.333333333333,4,2,0,68,0,0
93820,463.320463320463,4,2,0,70,1,0
123935,-83.3333333333333,4,2,0,70,0,0
124399,-100,4,2,0,70,0,0
138333,463.320463320463,4,2,0,77,1,1
138333,-90.9090909090909,4,2,0,77,0,1
149452,-125,4,2,0,83,0,0
150379,-100,4,2,0,83,0,0
152232,-83.3333333333333,4,2,0,83,0,0
152695,-76.9230769230769,4,2,0,83,0,0
153159,-90.9090909090909,4,2,0,77,0,1
167985,-100,4,2,0,73,0,0
169838,-133.333333333333,4,2,0,73,0,0
173407,1030.92783505155,4,1,0,100,1,0
177378,1030.92783505155,4,1,0,100,1,0
179290,1030.92783505155,4,1,0,100,1,0
181416,1030.92783505155,4,1,0,100,1,0
183360,1030.92783505155,4,1,0,100,1,0
185270,463.320463320463,4,2,0,83,1,0
188976,-90.9090909090909,4,2,0,83,0,0
196389,-95.2380952380952,4,2,0,77,0,0
203802,-90.9090909090909,4,2,0,77,0,1
218660,463.320463320463,4,2,0,77,1,0
218660,-95.2380952380952,4,2,0,77,0,0
233488,463.320463320463,4,2,0,77,1,1
233488,-90.9090909090909,4,2,0,77,0,1
244607,-133.333333333333,4,2,0,83,0,0

[HitObjects]
113,85,13881,5,0,0:0:0:0:
151,162,14106,2,0,L|139:216,2,46.25
217,105,14780,1,0,0:0:0:0:
258,187,15005,2,0,P|321:198|363:158,1,92.5
442,76,15905,1,0,0:0:0:0:
512,245,16355,2,0,L|446:247,1,46.25
406,315,16804,1,0,0:0:0:0:
280,121,17479,5,0,0:0:0:0:
150,119,17704,2,0,L|214:120,1,46.25
245,202,18154,2,0,L|188:200,1,46.25
95,173,18603,2,0,P|75:122|101:63,1,92.5
149,31,19278,1,0,0:0:0:0:
238,28,19503,2,0,L|231:98,1,46.25
318,133,19953,2,0,L|313:86,1,46.25
274,199,20402,2,0,P|326:211|377:191,1,92.5
441,84,21302,6,0,L|455:146,1,46.25
438,215,21752,2,0,L|448:265,1,46.25
378,342,22202,1,0,0:0:0:0:
251,192,22651,6,0,P|243:149|254:121,1,46.25
338,103,23101,2,0,P|338:126|330:147,1,46.25
237,30,23551,2,0,L|305:23,1,46.25
170,105,24001,2,0,L|67:96,1,92.5
22,163,24675,5,0,0:0:0:0:
22,163,24900,2,0,P|13:213|33:266,1,92.5
70,328,25575,1,0,0:0:0:0:
152,260,25800,2,0,L|256:253,1,92.5
321,288,26474,1,0,0:0:0:0:
388,228,26699,2,0,P|378:183|386:155,1,46.25
446,73,27149,2,0,P|456:118|448:146,1,46.25
378,183,27599,2,0,L|276:173,1,92.5
161,113,28273,5,0,0:0:0:0:
177,199,28498,2,0,P|192:233|217:258,1,46.25
273,307,28948,2,0,P|285:287|293:265,1,46.25
175,316,29398,2,0,L|81:320,1,92.5
8,188,30297,2,0,L|109:196,1,92.5
178,165,30972,1,0,0:0:0:0:
252,123,31197,2,0,P|265:79|240:23,1,92.5
379,0,31872,5,0,0:0:0:0:
390,85,32097,2,0,L|460:81,1,46.25
508,151,32546,2,0,L|454:154,1,46.25
379,203,32996,2,0,L|391:311,1,92.5
327,355,33671,1,0,0:0:0:0:
251,302,33896,2,0,P|205:289|150:311,1,92.5
86,345,34570,1,0,0:0:0:0:
20,255,34795,2,0,L|34:152,1,92.5
160,38,35470,5,0,0:0:0:0:
112,107,35695,2,0,L|125:175,1,46.25
221,252,36144,2,0,L|231:193,1,46.25
254,75,36594,1,0,0:0:0:0:
287,101,37044,6,0,L|403:96,1,92.5
443,154,37719,1,0,0:0:0:0:
391,222,37944,2,0,P|382:262|386:304,1,46.25
420,338,38393,1,0,0:0:0:0:
382,358,38843,6,0,L|286:347,1,92.5
239,279,39518,1,0,0:0:0:0:
163,323,39743,2,0,L|167:379,1,46.25
65,293,40192,2,0,L|75:192,1,92.5
86,116,40867,1,0,0:0:0:0:
166,152,41092,2,0,P|200:154|234:146,1,46.25
327,96,41542,2,0,P|293:94|259:102,1,46.25
391,155,41992,2,0,P|412:111|396:42,1,92.5
330,18,42666,1,0,0:0:0:0:
281,95,42891,6,0,L|294:176,1,46.25
189,218,43341,2,0,L|201:146,1,46.25
159,75,43791,6,0,L|108:79,1,46.25
26,85,44240,1,0,0:0:0:0:
92,167,44465,6,0,L|99:237,1,55.4999983062745
58,294,44915,5,0,0:0:0:0:
121,346,45140,2,0,P|153:340|189:345,1,46.25
248,286,45590,2,0,P|292:307|352:295,1,92.5
427,253,46264,6,0,L|422:186,1,50.8750015525818
404,121,46714,5,0,0:0:0:0:
329,161,46939,2,0,L|251:154,1,46.25
174,44,50987,6,0,P|185:106|167:146,1,92.5
120,209,51662,1,0,0:0:0:0:
120,209,51886,2,0,L|220:217,1,92.5
385,307,52786,2,0,L|268:312,1,92.5
194,311,53461,1,0,0:0:0:0:
194,311,53686,2,0,P|199:277|193:245,1,46.25
87,120,54360,5,0,0:0:0:0:
34,215,54585,2,0,L|40:292,1,46.25
134,328,55035,2,0,L|139:267,1,46.25
216,214,55556,2,0,L|323:219,1,92.5
436,123,56666,1,4,0:0:0:0:
94,300,60436,6,0,P|114:256|98:188,1,101.750003105164
88,165,60783,1,0,0:0:0:0:
63,127,60899,2,0,P|56:77|76:31,1,101.750003105164
198,87,61362,2,0,B|233:81|233:81|261:87|261:87|301:80,1,101.750003105164
373,73,61710,2,0,B|368:113|368:113|375:143|375:143|370:193,1,101.750003105164
366,249,62057,1,0,0:0:0:0:
256,336,62289,6,0,P|191:370|117:322,1,152.625004657746
191,296,62752,1,0,0:0:0:0:
67,225,62984,1,0,0:0:0:0:
158,116,63215,2,0,P|174:65|154:16,1,101.750003105164
86,19,63563,2,0,P|70:70|90:119,1,101.750003105164
119,176,63910,1,0,0:0:0:0:
257,142,64142,6,0,L|371:136,1,101.750003105164
400,142,64490,1,0,0:0:0:0:
442,148,64605,2,0,P|426:196|449:260,1,101.750003105164
474,355,65069,2,0,P|422:375|371:353,1,101.750003105164
319,323,65416,2,0,P|271:309|225:329,1,101.750003105164
166,287,65764,1,0,0:0:0:0:
29,325,65995,6,0,P|16:277|49:213,1,101.750003105164
160,126,66459,1,0,0:0:0:0:
165,288,66690,1,0,0:0:0:0:
59,164,66922,1,0,0:0:0:0:
220,199,67154,1,0,0:0:0:0:
65,267,67385,1,0,0:0:0:0:
235,303,67617,1,0,0:0:0:0:
352,97,67849,6,0,L|374:202,1,101.750003105164
389,241,68196,1,0,0:0:0:0:
389,241,68312,2,0,P|440:228|494:244,1,101.750003105164
396,371,68775,1,0,0:0:0:0:
259,273,69007,1,0,0:0:0:0:
259,273,69123,1,0,0:0:0:0:
259,273,69239,2,0,L|156:284,1,101.750003105164
97,166,69702,6,0,P|129:89|67:19,1,152.625004657746
53,100,70165,1,0,0:0:0:0:
200,213,70397,1,0,0:0:0:0:
336,80,70629,2,0,P|283:60|239:80,1,101.750003105164
361,179,71092,2,0,P|414:199|458:179,1,101.750003105164
341,353,71555,6,0,P|280:320|120:331,1,222
1,153,72482,2,0,P|72:196|239:165,1,249.749992378235
342,16,73408,6,0,P|423:15|445:186,1,277.5
314,335,74335,2,0,P|233:336|201:147,1,305.250009315491
300,49,75262,6,0,L|311:19,4,25.4375007762909
320,150,75725,2,0,P|255:144|212:103,1,101.750003105164
134,47,76188,2,0,P|88:91|85:141,1,101.750003105164
88,198,76536,2,0,P|124:244|184:252,1,101.750003105164
234,239,76883,1,0,0:0:0:0:
290,115,77115,6,0,P|363:67|444:113,1,152.625004657746
365,142,77578,1,0,0:0:0:0:
254,242,77810,1,0,0:0:0:0:
169,120,78042,2,0,P|96:129|51:169,1,101.750003105164
48,215,78389,2,0,P|56:270|105:317,1,101.750003105164
149,344,78737,1,0,0:0:0:0:
275,282,78968,6,0,P|311:230|357:211,1,101.750003105164
384,213,79316,1,0,0:0:0:0:
425,218,79432,2,0,P|459:169|455:101,1,101.750003105164
384,10,79895,2,0,P|294:39|274:70,1,101.750003105164
220,41,80242,2,0,P|178:13|127:9,1,101.750003105164
70,51,80590,1,0,0:0:0:0:
168,119,80822,6,0,P|166:201|189:241,1,101.750003105164
206,237,81169,1,0,0:0:0:0:
230,261,81285,2,0,P|250:310|234:375,1,101.750003105164
79,339,81748,2,0,P|131:317|179:327,1,101.750003105164
243,357,82096,2,0,P|296:367|358:332,1,101.750003105164
391,287,82443,1,0,0:0:0:0:
383,122,82675,6,0,P|319:163|302:219,1,101.750003105164
257,240,83022,1,0,0:0:0:0:
203,183,83138,2,0,P|174:142|129:122,1,101.750003105164
109,221,83602,1,0,0:0:0:0:
184,59,83833,2,0,P|240:98|266:164,1,101.750003105164
184,321,84297,2,0,P|195:276|237:230,1,101.750003105164
413,226,84760,1,0,0:0:0:0:
413,226,84876,1,0,0:0:0:0:
413,226,84991,6,0,P|360:223|306:187,1,101.750003105164
458,55,85455,2,0,P|470:95|468:167,1,101.750003105164
429,213,85802,2,0,P|413:271|426:337,1,101.750003105164
463,369,86150,1,0,0:0:0:0:
291,275,86381,6,0,P|195:280|177:346,1,152.625004657746
247,333,86845,1,0,0:0:0:0:
326,196,87076,1,0,0:0:0:0:
182,147,87308,2,0,P|195:86|169:36,1,101.750003105164
104,51,87656,2,0,P|87:99|109:153,1,101.750003105164
136,212,88003,1,0,0:0:0:0:
285,147,88235,6,0,L|420:139,1,101.750003105164
420,150,88582,1,0,0:0:0:0:
456,163,88698,1,0,0:0:0:0:
293,318,88930,2,0,P|165:290|178:206,1,203.500006210327
268,110,89625,2,0,B|272:183|272:183|220:216|239:296,1,152.625004657746
311,247,90088,1,0,0:0:0:0:
95,20,93820,6,0,P|133:112|103:174,1,138.75
97,182,94283,1,0,0:0:0:0:
28,263,94514,1,0,0:0:0:0:
112,333,94746,2,0,P|159:319|210:340,1,92.5
238,351,95094,2,0,P|281:363|325:349,1,92.5
366,330,95441,1,0,0:0:0:0:
451,237,95673,6,0,L|443:142,1,92.5
441,109,96020,1,0,0:0:0:0:
441,109,96136,2,0,P|387:127|337:109,1,92.5
274,22,96599,1,0,0:0:0:0:
391,46,96831,1,0,0:0:0:0:
281,163,97063,2,0,L|180:158,1,92.5
88,59,97526,5,0,0:0:0:0:
41,181,97758,2,0,L|49:232,2,46.25
88,59,98221,1,0,0:0:0:0:
188,158,98453,2,0,P|246:170|288:151,1,92.5
315,138,98800,2,0,P|364:126|412:146,1,92.5
437,163,99148,1,0,0:0:0:0:
331,234,99379,6,0,P|320:287|343:342,1,92.5
364,347,99727,2,0,L|426:339,1,46.25
501,260,100074,1,0,0:0:0:0:
331,234,100306,1,0,0:0:0:0:
409,341,100538,1,0,0:0:0:0:
428,166,100769,1,0,0:0:0:0:
251,264,101001,1,0,0:0:0:0:
282,107,101233,6,0,P|330:37|457:51,1,185
461,131,101928,1,0,0:0:0:0:
282,107,102159,1,0,0:0:0:0:
423,29,102391,1,0,0:0:0:0:
360,205,102623,1,0,0:0:0:0:
512,136,102854,1,0,0:0:0:0:
439,316,103086,6,0,P|354:297|285:332,1,138.75
273,332,103549,2,0,L|163:319,1,92.5
135,169,104013,1,0,0:0:0:0:
228,244,104244,1,0,0:0:0:0:
67,247,104476,2,0,P|41:197|41:150,1,92.5
157,38,104939,6,0,P|163:124|142:179,1,138.75
163,211,105403,2,0,L|262:206,1,92.5
386,262,105866,2,0,P|371:211|377:156,1,92.5
387,129,106213,2,0,P|395:82|381:30,1,92.5
351,7,106561,1,0,0:0:0:0:
265,108,106792,6,0,P|222:127|161:110,1,92.5
142,94,107140,1,0,0:0:0:0:
107,122,107256,2,0,L|114:221,1,92.5
125,354,107719,1,0,0:0:0:0:
214,209,107951,1,0,0:0:0:0:
40,248,108182,1,0,0:0:0:0:
222,319,108414,1,0,0:0:0:0:
255,131,108646,6,0,P|208:119|128:163,1,138.75
103,181,109109,2,0,P|102:130|81:71,1,92.5
208,204,109572,2,0,P|184:286|210:349,1,138.75
236,358,110036,2,0,P|294:346|328:349,1,92.5
437,328,110499,5,0,0:0:0:0:
391,226,110731,2,0,P|395:179|402:162,1,46.25
391,226,110962,2,0,P|336:243|275:236,1,92.5
194,143,111426,1,0,0:0:0:0:
318,143,111657,1,0,0:0:0:0:
210,242,111889,2,0,P|164:241|121:226,1,92.5
94,77,112352,5,0,0:0:0:0:
194,143,112584,1,0,0:0:0:0:
36,275,112816,2,0,P|27:225|46:170,1,92.5
194,143,113279,2,0,P|202:204|187:247,1,92.5
117,355,113742,2,0,P|153:329|250:338,1,138.75
279,351,114206,6,0,L|397:344,1,92.5
442,197,114669,1,0,0:0:0:0:
371,345,114901,1,0,0:0:0:0:
507,280,115132,1,0,0:0:0:0:
329,251,115364,1,0,0:0:0:0:
434,119,115596,2,0,P|483:131|521:177,1,92.5
354,158,116059,6,0,P|347:97|400:38,1,138.75
416,14,116522,2,0,L|311:6,1,92.5
209,75,116986,2,0,P|202:140|226:184,1,92.5
239,201,117333,1,0,0:0:0:0:
239,201,117449,2,0,L|336:193,1,92.5
458,129,117912,6,0,B|448:179|448:179|459:230|459:230|448:287,1,138.75
448,301,118375,2,0,P|417:334|361:350,1,92.5
256,219,118839,2,0,P|311:220|349:243,1,92.5
376,268,119186,1,0,0:0:0:0:
376,268,119302,1,0,0:0:0:0:
282,362,119534,1,0,0:0:0:0:
126,242,119765,6,0,P|116:184|93:143,1,92.5
230,307,120229,2,0,P|247:264|257:191,1,92.5
220,46,120692,2,0,P|206:106|210:151,1,92.5
373,214,121155,2,0,P|385:169|381:122,1,92.5
279,228,121619,6,0,P|312:288|391:300,1,138.75,2|0,0:0|0:0,0:0:0:0:
455,281,122082,6,0,P|444:225|444:210,1,61.6666666666667,8|0,0:0|0:0,0:0:0:0:
464,194,122314,2,0,P|480:153|483:134,1,61.6666666666667,2|0,0:0|0:0,0:0:0:0:
478,95,122545,2,0,P|447:82|415:79,1,61.6666666666667,2|0,0:0|0:0,0:0:0:0:
379,89,122777,2,0,P|343:111|305:117,1,61.6666666666667,2|2,0:0|0:0,0:0:0:0:
251,79,123009,6,0,L|261:6,2,61.6666666666667,8|2|2,0:0|0:0|0:0,0:0:0:0:
168,178,123472,6,0,P|197:200|265:207,1,92.5
323,192,123819,1,0,0:0:0:0:
323,192,123935,2,0,P|360:193|355:258,1,110.999996612549
262,284,124399,1,0,0:0:0:0:
293,113,124630,1,0,0:0:0:0:
450,187,124862,2,0,P|453:244|420:299,1,92.5
382,129,125325,6,0,P|424:104|487:109,1,92.5
488,31,125673,1,0,0:0:0:0:
488,31,125789,2,0,P|456:9|404:34,1,92.5
304,87,126252,2,0,L|211:80,1,92.5
86,170,126715,1,0,0:0:0:0:
106,19,126947,1,0,0:0:0:0:
184,207,127179,6,0,P|153:247|93:274,1,92.5
293,191,127642,2,0,P|307:241|304:298,1,92.5
351,96,128105,2,0,P|405:95|459:122,2,92.5
246,27,128800,1,0,0:0:0:0:
261,171,129032,6,0,L|268:273,1,92.5
219,319,129379,1,0,0:0:0:0:
219,319,129495,2,0,P|159:297|154:236,1,92.5
98,155,129958,6,0,P|53:166|2:144,1,92.5
112,31,130422,2,0,P|157:20|208:42,1,92.5
252,166,130885,6,0,P|224:222|263:309,1,138.75
280,313,131348,2,0,L|383:307,1,92.5
502,204,131812,2,0,B|455:201|455:201|423:176|423:176|355:171,1,138.75
336,147,132275,2,0,P|328:102|357:48,1,92.5
221,20,132738,6,0,P|160:44|81:4,1,138.75
55,11,133202,1,0,0:0:0:0:
0,121,133433,1,0,0:0:0:0:
88,213,133665,2,0,L|105:312,1,92.5
135,340,134013,1,0,0:0:0:0:
135,340,134128,2,0,P|181:330|233:347,1,92.5
424,261,134592,5,0,0:0:0:0:
330,366,134823,1,0,0:0:0:0:
254,230,135055,2,0,P|247:182|271:127,1,92.5
373,95,135518,2,0,P|380:143|356:198,1,92.5
254,230,135982,2,0,L|153:224,1,92.5
256,192,136445,12,0,138333,0:0:0:0:
39,57,138796,6,0,P|98:40|150:64,1,92.5
169,67,139143,1,0,0:0:0:0:
210,87,139259,2,0,L|307:80,1,92.5
346,22,139607,2,0,L|442:14,1,92.5
496,56,139954,1,0,0:0:0:0:
414,157,140186,6,0,P|384:194|408:285,1,138.75
415,324,140649,2,0,L|322:341,1,92.5
196,191,141112,1,0,0:0:0:0:
193,325,141344,1,0,0:0:0:0:
316,252,141576,1,0,0:0:0:0:
193,325,141807,1,0,0:0:0:0:
64,214,142039,6,0,P|84:160|175:136,1,138.75
199,142,142502,2,0,L|304:134,1,92.5
423,52,142966,2,0,P|407:110|420:148,1,92.5
461,198,143313,2,0,P|468:254|440:300,1,92.5
400,339,143661,1,0,0:0:0:0:
226,281,143892,6,0,P|311:227|365:249,1,152.625004657746
391,175,144356,2,0,P|376:140|405:72,1,101.750003105164
250,19,144819,2,0,P|261:71|237:126,1,101.750003105164
118,196,145282,1,0,0:0:0:0:
163,62,145514,1,0,0:0:0:0:
277,232,145746,6,0,L|286:341,1,101.750003105164
368,163,146209,2,0,L|377:268,1,101.750003105164
187,337,146672,1,0,0:0:0:0:
187,337,146904,6,0,L|196:228,1,101.750003105164
98,174,147367,2,0,L|89:275,1,101.750003105164
213,142,147831,1,0,0:0:0:0:
213,142,147946,1,0,0:0:0:0:
213,142,148062,2,0,P|179:95|103:81,1,101.750003105164
171,238,148526,5,0,0:0:0:0:
285,41,148757,1,0,0:0:0:0:
139,79,148989,1,0,0:0:0:0:
300,197,149221,1,0,0:0:0:0:
79,17,149452,6,0,B|19:67|14:176|14:176|58:138|80:150,1,222
108,286,150379,2,0,B|140:243|140:243|187:240|187:240|240:192|240:192|303:187|359:229,1,277.5
397,344,151305,6,0,P|348:341|437:290,1,277.5
510,131,152232,6,0,P|464:166|396:127,1,110.999996612549
320,32,152695,2,0,P|364:21|435:75,1,120.249994495392
249,95,153159,6,0,L|237:61,4,25.4375007762909
303,198,153622,2,0,L|287:306,1,101.750003105164
160,232,154085,2,0,P|111:219|62:233,1,101.750003105164
10,281,154433,2,0,P|22:230|-1:165,1,101.750003105164
52,119,154780,1,0,0:0:0:0:
200,79,155012,6,0,B|190:109|198:133|198:133|184:164|184:164|204:181|213:237,1,152.625004657746
243,284,155475,2,0,P|201:293|150:260,1,101.750003105164
315,188,155939,2,0,P|357:179|408:212,1,101.750003105164
345,277,156402,1,0,0:0:0:0:
316,80,156634,1,0,0:0:0:0:
345,277,156865,6,0,B|309:319|309:319|226:331,1,101.750003105164
225,309,157213,1,0,0:0:0:0:
193,287,157329,2,0,B|147:293|147:293|111:335,1,101.750003105164
35,257,157792,2,0,P|72:204|61:138,1,101.750003105164
45,101,158139,2,0,P|44:55|80:5,1,101.750003105164
117,74,158487,1,0,0:0:0:0:
249,23,158719,6,0,P|317:10|408:68,1,152.625004657746
437,99,159182,2,0,L|430:230,1,101.750003105164
306,282,159645,2,0,P|277:235|272:160,1,101.750003105164
404,296,160109,1,0,0:0:0:0:
247,370,160340,1,0,0:0:0:0:
268,189,160572,6,0,L|275:78,1,101.750003105164
95,238,161035,2,0,L|103:117,1,101.750003105164
49,230,185270,5,4,2:0:0:0:
88,244,186196,1,4,2:0:0:0:
174,200,187123,1,4,2:0:0:0:
222,207,188049,2,0,L|288:199,7,46.25,2|0|2|0|2|0|2|0,2:0|2:0|2:0|2:0|2:0|2:0|2:0|2:0,2:0:0:0:
359,182,188976,6,0,P|338:138|378:49,1,138.75
397,21,189439,2,0,P|342:42|289:23,1,101.750003105164
217,75,189903,2,0,P|141:62|105:83,1,101.750003105164
87,77,190250,1,0,0:0:0:0:
70,108,190366,1,0,0:0:0:0:
177,194,190598,1,0,0:0:0:0:
257,280,190829,6,0,P|324:240|321:168,1,152.625004657746
28,239,191293,2,0,P|56:232|93:242,1,50.8750015525818
91,242,191524,2,0,P|132:252|170:236,1,50.8750015525818
155,242,191756,2,0,P|183:235|220:245,1,50.8750015525818
218,245,191987,2,0,P|259:255|297:239,1,50.8750015525818
284,241,192219,2,0,L|280:180,1,50.8750015525818
291,170,192451,2,0,L|302:102,1,50.8750015525818
319,37,192683,6,0,P|377:32|451:146,1,203.500006210327
180,98,207509,6,0,L|74:98,1,101.750003105164,4|0,3:0|0:0,0:0:0:0:
256,193,207972,2,0,L|256:297,1,101.750003105164,8|0,3:2|0:0,0:0:0:0:
332,98,208436,2,0,L|438:98,1,101.750003105164,4|0,3:0|0:0,0:0:0:0:
458,98,208783,2,0,P|482:155|437:256,1,152.625004657746,8|0,0:0|0:0,0:0:0:0:
115,112,218660,6,0,P|66:191|112:272,2,194.249994071961,4|8|0,0:0|0:0|0:0,0:0:0:0:
163,193,219818,1,2,0:0:0:0:
256,59,220049,1,8,0:0:0:0:
343,194,220281,1,2,0:0:0:0:
397,112,220513,6,0,P|445:191|400:272,1,194.249994071961,2|8,0:0|0:0,0:0:0:0:
