osu file format v14

[General]
AudioFilename: audio.mp3
AudioLeadIn: 0
PreviewTime: 108891
Countdown: 0
SampleSet: Soft
StackLeniency: 0.7
Mode: 0
LetterboxInBreaks: 0
EpilepsyWarning: 1
WidescreenStoryboard: 1

[Editor]
Bookmarks: 22676,83354,88181,105097,120959,133028,152339,155097,174408,177166
DistanceSpacing: 1.25
BeatDivisor: 4
GridSize: 32
TimelineZoom: 1.000001

[Metadata]
Title:Slip Away
TitleUnicode:Slip Away
Artist:The Prototypes
ArtistUnicode:The Prototypes
Creator:Secretpipe
Version:N/A's Hard
Source:
Tags:dnb drum and bass C00L Nerova Riuz GX Kin Kyshiro Zerss phaZ
BeatmapID:1110971
BeatmapSetID:518278

[Difficulty]
HPDrainRate:4
CircleSize:4
OverallDifficulty:6
ApproachRate:7
SliderMultiplier:1.5
SliderTickRate:1

[Events]
//Background and Video events
0,0,"737184.jpg",0,0
//Break Periods
2,72520,82454
2,152539,154197
//Storyboard Layer 0 (Background)
//Storyboard Layer 1 (Fail)
//Storyboard Layer 2 (Pass)
//Storyboard Layer 3 (Foreground)
//Storyboard Sound Samples

[TimingPoints]
608,689.655172413793,4,2,1,50,1,0
44746,344.827586206897,4,2,1,50,1,0
44746,-166.666666666667,4,2,1,50,0,0
47160,344.827586206897,4,2,1,50,1,0
47160,-166.666666666667,4,2,1,50,0,0
50267,344.827586206897,4,2,1,50,1,0
50267,-166.666666666667,4,2,1,50,0,0
52682,344.827586206897,4,2,4,50,1,0
52682,-166.666666666667,4,2,4,50,0,0
53199,-166.666666666667,4,2,1,50,0,0
55781,344.827586206897,4,2,1,50,1,0
55781,-166.666666666667,4,2,1,50,0,0
58184,344.827586206897,4,2,1,50,1,0
58184,-166.666666666667,4,2,1,50,0,0
61297,344.827586206897,4,2,1,50,1,0
61297,-166.666666666667,4,2,1,50,0,0
63700,344.827586206897,4,2,3,30,1,0
63700,-166.666666666667,4,2,3,30,0,0
64044,689.655172413793,4,2,3,30,1,0
64734,-100,4,2,2,30,0,0
68181,-100,4,2,2,15,0,0
69561,-100,4,2,2,8,0,0
70940,-100,4,2,2,5,0,0
72319,-100,4,2,2,19,0,0
83354,-100,4,2,1,30,0,0
84044,-100,4,2,1,20,0,0
85423,-100,4,2,1,10,0,0
86112,-100,4,2,1,5,0,0
86802,-100,4,2,1,15,0,0
87492,-100,4,2,1,30,0,0
88891,344.827586206897,4,2,0,30,1,0
88891,-133.333333333333,4,2,0,30,0,0
90270,-133.333333333333,4,2,0,30,0,0
90615,-133.333333333333,4,2,0,22,0,0
90959,-133.333333333333,4,2,0,20,0,0
91132,-133.333333333333,4,2,0,22,0,0
91477,-133.333333333333,4,2,0,21,0,0
91649,-133.333333333333,4,2,0,30,0,0
91994,-133.333333333333,4,2,0,24,0,0
92339,-133.333333333333,4,2,0,21,0,0
92511,-133.333333333333,4,2,0,24,0,0
92856,-133.333333333333,4,2,0,22,0,0
93028,-133.333333333333,4,2,0,30,0,0
93373,-133.333333333333,4,2,0,26,0,0
93546,-133.333333333333,4,2,0,22,0,0
94408,-133.333333333333,4,2,0,30,0,0
94753,-133.333333333333,4,2,0,28,0,0
95097,-133.333333333333,4,2,0,23,0,0
95270,-133.333333333333,4,2,0,28,0,0
95615,-133.333333333333,4,2,0,23,0,0
95787,-133.333333333333,4,2,0,30,0,0
96132,-133.333333333333,4,2,0,30,0,0
96304,-133.333333333333,4,2,0,24,0,0
96649,-133.333333333333,4,2,0,30,0,0
96994,-133.333333333333,4,2,0,24,0,0
97166,-133.333333333333,4,2,0,30,0,0
97511,-133.333333333333,4,2,0,32,0,0
97856,-133.333333333333,4,2,0,25,0,0
98028,-133.333333333333,4,2,0,32,0,0
98373,-133.333333333333,4,2,0,25,0,0
98546,-133.333333333333,4,2,0,30,0,0
98891,-133.333333333333,4,2,0,34,0,0
99063,-133.333333333333,4,2,0,26,0,0
99408,-133.333333333333,4,2,0,34,0,0
99753,-133.333333333333,4,2,0,26,0,0
99925,-133.333333333333,4,2,0,30,0,0
100270,-133.333333333333,4,2,0,36,0,0
100442,-133.333333333333,4,2,0,27,0,0
100787,-133.333333333333,4,2,0,36,0,0
101132,-133.333333333333,4,2,0,27,0,0
101304,-133.333333333333,4,2,0,30,0,0
101649,-133.333333333333,4,2,0,38,0,0
101994,-133.333333333333,4,2,0,28,0,0
102166,-133.333333333333,4,2,0,38,0,0
102511,-133.333333333333,4,2,0,28,0,0
102684,-133.333333333333,4,2,0,30,0,0
103028,-133.333333333333,4,2,0,40,0,0
103201,-133.333333333333,4,2,0,29,0,0
103546,-133.333333333333,4,2,0,40,0,0
103891,-133.333333333333,4,2,0,29,0,0
104063,-133.333333333333,4,2,0,30,0,0
104408,-133.333333333333,4,2,0,42,0,0
104580,-133.333333333333,4,2,0,30,0,0
104925,-133.333333333333,4,2,0,42,0,0
105097,-133.333333333333,4,2,0,30,0,0
105442,-133.333333333333,4,2,0,30,0,0
105787,-133.333333333333,4,2,0,44,0,0
105959,-133.333333333333,4,2,0,31,0,0
106304,-133.333333333333,4,2,0,44,0,0
106649,-133.333333333333,4,2,0,31,0,0
106822,-133.333333333333,4,2,0,30,0,0
107166,-133.333333333333,4,2,0,46,0,0
107339,-133.333333333333,4,2,0,32,0,0
107684,-133.333333333333,4,2,0,46,0,0
107856,-133.333333333333,4,2,0,32,0,0
108201,-133.333333333333,4,2,0,30,0,0
110615,-133.333333333333,4,2,0,30,0,0
110959,-100,4,2,2,60,0,1
111132,-100,4,2,10,60,0,1
113718,-100,4,2,4,60,0,1
113891,-100,4,2,10,60,0,1
116477,-100,4,2,2,60,0,1
116649,-100,4,2,10,60,0,1
119235,-100,4,2,2,60,0,1
119408,-100,4,2,10,60,0,1
121994,-100,4,2,2,60,0,1
122080,-100,4,2,10,60,0,1
124753,-100,4,2,4,60,0,1
124925,-100,4,2,10,60,0,1
127511,-100,4,2,2,60,0,1
127684,-100,4,2,10,60,0,1
130270,-100,4,2,2,60,0,0
130442,-100,4,2,10,60,0,0
133028,-100,4,2,2,60,0,0
133201,-100,4,2,10,60,0,0
135787,-100,4,2,4,60,0,0
135960,-100,4,2,10,60,0,0
138546,-100,4,2,2,60,0,0
138718,-100,4,2,10,60,0,0
141304,-100,4,2,2,60,0,0
141477,-100,4,2,10,60,0,0
144063,-100,4,2,2,60,0,0
144149,-100,4,2,10,60,0,0
146822,-100,4,2,4,60,0,0
146994,-100,4,2,10,60,0,0
149580,-100,4,2,2,60,0,0
149753,-100,4,2,10,60,0,0
152339,-100,4,2,0,32,0,0
154753,-100,4,2,0,30,0,0
155097,-100,4,2,2,60,0,1
155270,-100,4,2,0,60,0,1
157856,-100,4,2,4,60,0,1
158028,-100,4,2,0,60,0,1
160615,-100,4,2,2,60,0,1
160787,-100,4,2,0,60,0,1
163373,-100,4,2,2,60,0,1
163546,-100,4,2,0,60,0,1
166132,-100,4,2,2,60,0,1
166304,-100,4,2,0,60,0,1
168891,-100,4,2,4,60,0,1
169063,-100,4,2,0,60,0,1
171649,-100,4,2,2,60,0,1
171822,-100,4,2,0,60,0,1
173891,-100,4,2,0,50,0,1
174408,-100,4,2,0,50,0,0
175787,-100,4,2,0,40,0,0
176822,-100,4,2,0,30,0,0

[Colours]
Combo1 : 213,69,0
Combo2 : 255,139,83
Combo3 : 230,115,0
Combo4 : 255,255,94

[HitObjects]
134,85,608,6,0,L|283:91,1,150,4|0,0:1|0:0,0:0:0:0:
366,56,1642,1,0,0:0:0:0:
408,135,1987,2,0,P|482:132|518:158,2,112.5,0|0|0,0:0|0:0|0:0,0:0:0:0:
403,270,3366,6,0,P|361:269|270:324,1,150,4|0,0:0|0:0,0:0:0:0:
189,283,4401,1,0,0:0:0:0:
99,271,4745,2,0,L|96:383,2,112.5,0|0|0,0:0|0:0|0:0,0:0:0:0:
28,155,6125,6,0,B|86:160|86:160|117:148|117:148|175:153,1,150,4|0,0:3|0:0,0:0:0:0:
258,186,7159,1,0,0:0:0:0:
327,128,7504,2,0,P|306:77|310:22,2,112.5,0|0|0,0:0|0:0|0:0,0:0:0:0:
459,96,8883,6,0,B|480:142|480:142|467:240,1,150,4|0,0:1|0:0,0:0:0:0:
484,363,9918,1,0,0:0:0:0:
410,310,10263,2,0,P|373:314|339:327,1,75,0|0,0:0|0:0,0:0:0:0:
191,360,10952,2,0,P|225:373|263:377,1,75,0|0,0:0|0:0,0:0:0:0:
113,314,11642,6,0,L|120:163,1,150,4|0,0:1|0:0,0:0:0:0:
177,94,12676,1,0,0:0:0:0:
101,43,13021,2,0,P|46:44|-1:16,2,112.5,0|0|0,0:0|0:0|0:0,0:0:0:0:
236,30,14401,6,0,B|294:24|294:24|325:36|325:36|383:31,1,150,4|0,0:0|0:0,0:0:0:0:
467,62,15435,1,0,0:0:0:0:
462,151,15780,2,0,P|484:202|488:258,2,112.5,0|0|0,0:0|0:0|0:0,0:0:0:0:
331,184,17159,6,0,B|314:222|324:263|338:251|348:292|331:330,1,150,4|0,0:3|0:0,0:0:0:0:
252,372,18194,1,0,0:0:0:0:
172,328,18539,2,0,L|59:333,2,112.5,0|0|0,0:0|0:0|0:0,0:0:0:0:
165,193,19918,6,0,P|111:142|110:69,1,150,4|0,0:1|0:0,0:0:0:0:
193,34,20952,1,0,0:0:0:0:
270,79,21297,2,0,L|362:86,1,75,0|0,0:0|0:0,0:0:0:0:
486,19,21987,2,0,L|412:25,1,75,0|0,0:0|0:0,0:0:0:0:
386,164,22676,6,0,L|399:317,1,150,4|0,0:1|0:0,0:0:0:0:
324,364,23711,1,0,0:0:0:0:
246,318,24056,2,0,B|210:330|210:330|136:320,2,112.5,0|0|0,0:0|0:0|0:0,0:0:0:0:
321,205,25435,6,0,P|393:213|455:172,1,150,4|0,0:0|0:0,0:0:0:0:
420,89,26470,1,0,0:0:0:0:
333,113,26814,2,0,L|343:1,2,112.5,0|0|0,0:0|0:0|0:0,0:0:0:0:
227,197,28194,6,0,B|232:255|232:255|220:286|220:286|226:344,1,150,4|0,0:3|0:0,0:0:0:0:
145,383,29228,1,0,0:0:0:0:
61,348,29573,2,0,B|28:303|28:303|39:247,2,112.5,0|0|0,0:0|0:0|0:0,0:0:0:0:
144,241,30952,6,0,L|312:234,1,150,4|0,0:1|0:0,0:0:0:0:
369,185,31987,1,0,0:0:0:0:
439,240,32332,2,0,P|429:277|429:314,1,75,0|0,0:0|0:0,0:0:0:0:
508,183,33021,2,0,P|507:145|498:109,1,75,0|0,0:0|0:0,0:0:0:0:
380,41,33711,6,0,P|309:63|239:40,1,150,4|0,0:1|0:0,0:0:0:0:
178,106,34745,1,0,0:0:0:0:
111,166,35090,2,0,L|-8:158,2,112.5,0|0|0,0:0|0:0|0:0,0:0:0:0:
152,294,36470,6,0,B|192:265|192:265|308:277,1,150,4|0,0:0|0:0,0:0:0:0:
381,287,37504,1,0,0:0:0:0:
453,234,37849,2,0,P|470:286|453:339,2,112.5,0|0|0,0:0|0:0|0:0,0:0:0:0:
404,107,39228,6,0,B|428:68|435:17|435:17|468:59,1,150,4|0,0:3|0:0,0:0:0:0:
472,149,40263,1,0,0:0:0:0:
389,184,40608,2,0,P|343:180|279:209,2,112.5,0|0|0,0:0|0:0|0:0,0:0:0:0:
431,311,41987,6,0,L|281:318,1,150,4|0,0:0|0:0,0:0:0:0:
202,362,43021,1,0,0:0:0:0:
118,329,43366,2,0,L|127:246,1,75,0|0,0:0|0:0,0:0:0:0:
70,99,44056,2,0,L|79:174,1,75,0|0,0:0|0:0,0:0:0:0:
212,214,44746,6,0,L|301:223,2,89.9999972534181,4|0|0,3:1|3:0|3:0,0:0:0:0:
172,113,45780,1,0,3:0:0:0:
247,35,46125,2,0,P|285:29|339:32,1,89.9999972534181,0|0,3:0|3:0,0:0:0:0:
440,61,46814,1,0,3:0:0:0:
478,192,47160,6,0,L|472:284,1,89.9999972534181,4|0,3:3|3:0,0:0:0:0:
368,313,47849,2,0,L|373:223,1,89.9999972534181,0|0,3:0|3:0,0:0:0:0:
274,179,48539,1,0,3:0:0:0:
170,262,48884,2,0,P|137:275|39:245,2,134.999995880127,0|0|0,3:0|0:0|3:0,0:0:0:0:
109,139,50267,6,0,P|67:125|22:121,1,89.9999972534181,4|0,3:1|3:0,0:0:0:0:
180,63,50956,2,0,P|222:48|267:44,1,89.9999972534181,0|0,3:0|3:0,0:0:0:0:
375,44,51646,1,0,3:0:0:0:
368,151,51990,1,0,3:0:0:0:
361,259,52335,1,0,3:0:0:0:
452,357,52682,6,0,P|418:350|357:356,1,89.9999972534181,8|0,3:1|3:0,0:0:0:0:
269,300,53371,2,0,P|235:307|174:301,1,89.9999972534181,0|0,3:0|3:0,0:0:0:0:
81,347,54061,1,0,3:0:0:0:
16,230,54406,2,0,L|25:87,2,134.999995880127,0|0|0,3:0|0:0|3:0,0:0:0:0:
149,233,55781,6,0,P|172:245|204:304,2,89.9999972534181,4|0|0,3:1|3:0|3:0,0:0:0:0:
111,131,56815,1,0,3:0:0:0:
181,48,57160,2,0,L|272:52,1,89.9999972534181,0|0,3:0|3:0,0:0:0:0:
378,48,57849,1,0,3:0:0:0:
316,163,58184,6,0,P|272:164|229:178,1,89.9999972534181,4|0,3:3|3:0,0:0:0:0:
394,226,58873,2,0,P|436:239|481:240,1,89.9999972534181,0|0,3:0|3:0,0:0:0:0:
510,345,59563,1,0,3:0:0:0:
405,374,59908,2,0,L|270:359,2,134.999995880127,0|0|0,3:0|0:0|3:0,0:0:0:0:
428,238,61297,5,4,3:1:0:0:
341,172,61641,2,0,P|297:168|254:155,1,89.9999972534181,0|0,3:0|3:0,0:0:0:0:
167,90,62331,1,0,3:0:0:0:
253,25,62676,2,0,L|348:20,2,89.9999972534181,0|0|0,3:0|3:0|3:0,0:0:0:0:
124,54,63700,6,2,L|117:235,1,179.999994506836,12|0,0:0|0:0,0:1:0:0:
83,349,64734,1,0,0:0:0:0:
165,313,65078,1,2,0:0:0:0:
253,297,65423,2,0,P|308:302|362:320,2,112.5,2|2|2,0:0|0:0|0:0,0:0:0:0:
256,192,66802,12,12,72320,0:1:0:0:
256,192,83354,12,2,88181,0:0:0:0:
253,188,88891,5,4,1:0:0:0:
253,188,89063,1,4,1:3:0:0:
170,236,89235,2,0,L|182:366,1,112.500004291535,10|0,0:3|0:0,0:0:0:0:
90,383,89753,2,0,L|79:270,1,112.500004291535,10|0,0:3|0:0,0:0:0:0:
61,128,90270,5,4,1:0:0:0:
61,128,90442,1,4,1:3:0:0:
144,77,90615,2,0,P|199:81|244:114,1,112.500004291535,10|0,0:3|0:0,0:0:0:0:
317,52,91132,2,0,P|372:48|417:15,1,112.500004291535,10|0,0:3|0:0,0:0:0:0:
492,130,91649,5,4,1:0:0:0:
492,130,91822,1,4,1:3:0:0:
426,199,91994,2,0,B|410:253|410:253|436:317,1,112.500004291535,10|0,0:3|0:0,0:0:0:0:
357,366,92511,2,0,P|290:333|246:333,1,112.500004291535,10|0,0:3|0:0,0:0:0:0:
157,328,93028,6,0,L|151:388,2,56.2500021457673,4|4|10,1:0|1:3|0:3,0:0:0:0:
35,166,93718,2,2,L|29:110,1,56.2500021457673,2|10,0:0|0:3,0:0:0:0:
111,60,94063,2,0,L|116:115,1,56.2500021457673,0|0,0:0|0:0,0:0:0:0:
163,219,94408,5,4,1:0:0:0:
163,219,94580,1,4,1:3:0:0:
251,255,94753,2,0,B|295:262|295:262|319:255|319:255|363:263,1,112.500004291535,10|0,0:3|0:0,0:0:0:0:
450,227,95270,2,0,P|454:172|489:129,1,112.500004291535,10|0,0:3|0:0,0:0:0:0:
394,31,95787,5,4,1:0:0:0:
394,31,95959,1,4,1:3:0:0:
316,87,96132,2,0,L|203:79,1,112.500004291535,10|0,0:3|0:0,0:0:0:0:
127,21,96649,2,0,P|107:72|121:126,1,112.500004291535,8|0,1:3|0:0,0:0:0:0:
81,260,97166,5,4,1:0:0:0:
81,260,97339,1,4,1:3:0:0:
139,335,97511,2,0,P|185:309|243:314,1,112.500004291535,8|0,1:3|0:0,0:0:0:0:
324,363,98028,2,0,L|445:356,1,112.500004291535,8|0,1:3|0:0,0:0:0:0:
457,262,98546,6,0,P|484:269|512:271,2,56.2500021457673,4|4|8,1:0|1:3|1:3,0:0:0:0:
315,117,99235,2,0,P|316:88|324:61,1,56.2500021457673,0|8,0:0|1:3,0:0:0:0:
420,66,99580,2,0,P|427:93|429:121,1,56.2500021457673,0|0,0:0|0:0,0:0:0:0:
372,216,99925,5,4,1:0:0:0:
372,216,100097,1,4,0:3:0:0:
295,274,100270,2,0,L|183:256,1,112.500004291535,6|0,1:3|0:0,0:0:0:0:
91,283,100787,2,0,B|76:256|80:224|92:233|96:201|81:173,1,112.500004291535,6|0,1:3|0:0,0:0:0:0:
20,73,101304,5,4,1:0:0:0:
20,73,101477,1,4,0:3:0:0:
103,27,101649,2,0,L|214:37,1,112.500004291535,6|0,1:3|0:0,0:0:0:0:
299,82,102166,2,0,L|410:71,1,112.500004291535,6|0,1:3|0:0,0:0:0:0:
506,60,102684,5,4,1:0:0:0:
506,60,102856,1,4,0:3:0:0:
439,169,103028,2,0,P|433:204|466:273,1,112.500004291535,6|0,1:3|3:0,0:0:0:0:
423,359,103546,2,0,P|375:330|320:333,1,112.500004291535,2|0,1:3|0:0,0:0:0:0:
228,374,104063,5,4,1:0:0:0:
228,374,104235,1,4,0:3:0:0:
116,361,104408,2,0,B|123:306|123:306|78:248,1,112.500004291535,6|2,1:3|3:2,0:0:0:0:
0,220,104925,2,0,L|8:107,1,112.500004291535,2|0,1:3|0:0,0:0:0:0:
92,61,105442,6,0,P|88:33|94:5,2,56.2500021457673,4|4|2,1:0|0:3|1:3,0:0:0:0:
169,118,105959,1,0,0:0:0:0:
250,67,106132,2,0,L|317:73,1,56.2500021457673,0|2,3:0|0:3,0:0:0:0:
381,131,106477,2,0,L|448:137,1,56.2500021457673,0|0,0:0|0:0,0:0:0:0:
499,238,106822,5,4,1:0:0:0:
432,306,106994,1,4,0:3:0:0:
350,257,107166,1,2,0:3:0:0:
273,319,107339,6,0,L|284:347,4,28.1250010728836,0|0|0|0|2,0:0|3:0|3:0|3:0|0:3,0:0:0:0:
195,262,107856,2,0,L|205:235,4,28.1250010728836,0|0|0|0|2,0:0|3:0|3:0|3:0|0:0,0:0:0:0:
256,192,108373,12,8,110615,0:1:0:0:
151,148,110959,5,4,1:0:0:0:
240,191,111132,1,4,0:3:0:0:
302,116,111304,2,0,P|338:108|376:108,1,75,2|0,0:0|0:0,0:0:0:0:
387,115,111563,1,0,3:0:0:0:
398,121,111649,1,0,0:0:0:0:
486,202,111822,2,0,L|479:289,1,75,2|0,0:0|0:0,0:0:0:0:
473,361,112166,1,0,0:0:0:0:
386,289,112339,5,4,0:1:0:0:
313,355,112511,1,4,0:3:0:0:
224,308,112684,2,0,P|151:305|93:259,1,150,2|0,0:0|0:0,0:0:0:0:
21,162,113201,2,0,L|182:154,1,150,2|0,0:0|0:0,0:0:0:0:
197,60,113718,6,0,L|277:63,1,75,4|4,0:1|0:3,0:0:0:0:
332,140,114063,1,2,0:0:0:0:
413,87,114235,2,0,L|411:41,2,37.5,0|0|0,0:0|3:0|0:0,0:0:0:0:
483,205,114580,2,0,P|433:202|352:261,1,150,2|0,0:0|0:0,0:0:0:0:
257,296,115097,6,0,L|262:376,2,75,4|4|2,0:1|0:3|0:0,0:0:0:0:
235,193,115615,1,0,0:0:0:0:
144,245,115787,2,0,P|108:257|71:258,1,75,0|2,0:0|0:0,0:0:0:0:
52,138,116132,1,0,0:0:0:0:
244,183,116477,6,0,L|328:193,2,75,4|4|2,0:0|0:3|0:0,0:0:0:0:
226,71,116994,1,0,0:0:0:0:
234,63,117080,1,0,3:0:0:0:
242,54,117166,2,0,P|278:47|315:49,1,75,0|2,0:0|0:0,0:0:0:0:
434,27,117511,2,0,P|470:34|507:32,1,75,0|0,0:0|0:0,0:0:0:0:
392,115,117856,6,0,L|395:197,1,75,4|4,0:1|0:3,0:0:0:0:
437,278,118201,2,0,P|473:285|511:287,1,75,2|0,0:0|0:0,0:0:0:0:
390,362,118546,1,0,0:0:0:0:
303,317,118718,2,0,B|244:309|244:309|213:320|213:320|155:313,1,150,2|0,0:0|0:0,0:0:0:0:
51,357,119235,5,4,0:3:0:0:
14,266,119408,1,4,0:3:0:0:
56,177,119580,2,0,L|146:184,1,75,2|0,0:0|0:0,0:0:0:0:
142,184,119839,1,0,3:0:0:0:
153,185,119925,1,0,0:0:0:0:
206,71,120097,2,0,L|116:78,2,75,2|0|0,0:0|0:0|0:0,0:0:0:0:
303,27,120615,6,0,P|313:64|308:101,1,75,4|4,0:1|0:3,0:0:0:0:
270,190,120959,2,0,L|232:185,2,37.5,2|2|0,0:0|3:0|0:0,0:0:0:0:
372,222,121304,2,0,L|453:213,1,75,0|2,0:0|0:0,0:0:0:0:
512,286,121649,1,0,0:0:0:0:
361,384,121994,6,0,L|366:309,1,75,4|4,0:1|0:3,0:0:0:0:
364,211,122339,1,2,0:0:0:0:
272,278,122511,1,0,0:0:0:0:
263,285,122597,1,0,3:0:0:0:
254,292,122684,2,0,P|216:290|180:300,1,75,0|2,0:0|0:0,0:0:0:0:
85,363,123028,2,0,L|92:269,1,75,0|0,0:0|0:0,0:0:0:0:
24,199,123373,6,0,L|18:124,1,75,4|4,0:1|0:3,0:0:0:0:
90,38,123718,2,0,P|121:58|233:62,1,150,2|0,0:0|0:0,0:0:0:0:
328,78,124235,2,0,P|359:58|471:54,1,150,2|0,0:0|0:0,0:0:0:0:
498,164,124753,6,0,L|423:167,1,75,4|12,0:1|0:3,0:0:0:0:
360,242,125097,1,2,0:0:0:0:
433,306,125270,2,0,L|475:301,2,37.5,0|0|0,0:0|3:0|0:0,0:0:0:0:
347,365,125615,1,2,0:0:0:0:
255,316,125787,2,0,P|216:319|180:338,1,75,0|0,0:0|0:0,0:0:0:0:
267,228,126132,6,0,L|278:77,1,150,4|2,0:1|0:0,0:0:0:0:
195,28,126649,1,0,0:0:0:0:
111,84,126822,2,0,P|75:90|37:90,1,75,0|2,0:0|0:0,0:0:0:0:
98,185,127166,2,0,P|136:185|173:191,1,75,0|0,0:0|0:0,0:0:0:0:
204,300,127511,6,0,L|198:385,2,75,4|4|2,0:0|0:3|0:0,0:0:0:0:
283,244,128028,1,0,0:0:0:0:
294,244,128115,1,0,3:0:0:0:
305,244,128201,2,0,P|342:247|376:261,1,75,0|2,0:0|0:0,0:0:0:0:
441,180,128546,2,0,P|478:176|512:162,1,75,0|0,0:0|0:0,0:0:0:0:
482,60,128891,5,4,0:1:0:0:
386,42,129063,1,4,0:3:0:0:
315,109,129235,2,0,L|164:100,1,150,2|0,0:0|0:0,0:0:0:0:
74,33,129753,2,0,B|63:66|29:91|29:91|59:120|65:156,1,150,2|0,0:0|0:0,0:0:0:0:
145,224,130270,6,0,P|182:223|218:232,2,75,4|4|2,0:3|0:3|0:0,0:0:0:0:
83,318,130787,1,0,0:0:0:0:
171,373,130959,1,0,0:0:0:0:
265,327,131132,2,0,P|308:322|407:358,1,150,2|0,0:0|2:0,0:0:0:0:
404,260,131649,6,0,P|412:217|477:134,1,150,2|0,2:0|2:0,2:2:0:0:
383,107,132166,2,0,P|345:85|286:-2,1,150,2|0,2:0|2:0,2:2:0:0:
231,79,132684,1,2,2:0:0:0:
44,131,133028,6,0,L|119:140,1,75,4|4,1:0|0:3,0:0:0:0:
170,248,133373,2,0,L|20:231,1,150,2|0,0:0|0:0,0:0:0:0:
0,324,133891,1,2,0:0:0:0:
75,378,134063,2,0,P|117:364|157:361,1,75,0|0,0:0|0:0,0:0:0:0:
255,308,134408,6,0,P|266:274|271:233,2,75,4|4|2,0:1|0:3|0:0,0:0:0:0:
334,368,134925,1,0,0:0:0:0:
430,354,135097,1,0,0:0:0:0:
499,284,135270,2,0,L|490:123,1,150,2|0,0:0|0:0,0:0:0:0:
425,41,135787,5,4,0:1:0:0:
425,41,135959,1,4,0:3:0:0:
344,82,136132,2,0,P|271:69|216:19,1,150,2|0,0:0|0:0,0:0:0:0:
157,93,136649,2,0,P|84:106|29:156,1,150,2|0,0:0|0:0,0:0:0:0:
35,260,137166,6,0,L|112:256,1,75,4|4,0:1|0:3,0:0:0:0:
201,232,137511,2,0,P|218:200|225:163,1,75,2|0,0:0|0:0,0:0:0:0:
277,288,137856,2,0,P|284:324|301:357,2,75,0|2|0,0:0|0:0|0:0,0:0:0:0:
399,129,138546,6,0,L|474:120,1,75,4|4,0:0|0:3,0:0:0:0:
512,14,138891,2,0,L|362:31,1,150,2|0,0:0|0:0,0:0:0:0:
281,108,139408,1,2,0:0:0:0:
184,95,139580,2,0,L|109:86,1,75
68,207,139925,6,0,P|30:213|-3:227,2,75,4|4|2,0:1|0:3|0:0,0:0:0:0:
145,267,140442,1,0,0:0:0:0:
183,356,140615,1,0,0:0:0:0:
267,292,140787,2,0,B|325:297|325:297|356:285|356:285|414:290,1,150,2|0,0:0|0:0,0:0:0:0:
499,217,141304,5,4,0:3:0:0:
499,217,141477,1,4,0:3:0:0:
447,135,141649,2,0,B|409:116|367:125|379:140|338:148|300:130,1,150,2|0,0:0|0:0,0:0:0:0:
228,65,142166,2,0,P|205:107|235:203,1,150,2|0,0:0|0:0,0:0:0:0:
306,276,142684,6,0,L|380:268,1,75,4|4,0:1|0:3,0:0:0:0:
261,358,143028,2,0,L|186:350,1,75,2|0,0:0|0:0,0:0:0:0:
96,312,143373,2,0,B|84:348|84:348|97:382,2,75,0|2|0,0:0|0:0|0:0,0:0:0:0:
75,102,144063,6,0,P|42:83|5:83,1,75,4|4,0:1|0:3,0:0:0:0:
18,178,144408,2,0,P|89:197|151:158,1,150,2|0,0:0|0:0,0:0:0:0:
199,73,144925,1,2,0:0:0:0:
287,33,145097,2,0,P|324:33|356:51,1,75,0|0,0:0|0:0,0:0:0:0:
438,139,145442,6,0,L|515:133,2,75,4|4|2,0:1|0:3|0:0,0:0:0:0:
366,205,145959,1,0,0:0:0:0:
372,302,146132,1,0,0:0:0:0:
435,375,146304,2,0,P|366:346|291:347,1,150,2|0,0:0|0:0,0:0:0:0:
180,372,146822,5,4,0:1:0:0:
180,372,146994,1,4,0:3:0:0:
104,299,147166,2,0,B|109:241|109:241|97:210|97:210|102:152,1,150,2|0,0:0|0:0,0:0:0:0:
181,49,147684,2,0,B|176:107|176:107|188:138|188:138|183:196,1,150,2|0,0:0|0:0,0:0:0:0:
258,258,148201,6,0,B|294:266|294:266|336:241,1,75,4|4,0:1|0:3,0:0:0:0:
411,184,148546,2,0,B|447:175|447:175|489:200,1,75,2|0,0:0|0:0,0:0:0:0:
423,290,148891,2,0,L|430:371,2,75,0|2|0,0:0|0:0|0:0,0:0:0:0:
314,141,149580,6,0,L|307:60,1,75,4|4,0:0|0:3,0:0:0:0:
214,36,149925,2,0,B|177:53|135:45|147:30|106:22|68:40,1,150,2|0,0:0|0:0,0:0:0:0:
1,111,150442,1,2,0:0:0:0:
62,187,150615,2,0,P|68:220|64:275,1,75,0|0,0:0|0:0,0:0:0:0:
107,359,150959,6,0,L|193:350,1,75,4|4,0:1|0:3,0:0:0:0:
241,273,151304,2,0,L|315:280,1,75,2|0,0:0|0:0,0:0:0:0:
409,307,151649,1,0,0:0:0:0:
445,216,151822,2,0,B|456:183|490:158|490:158|460:129|454:93,1,150,2|0,0:0|0:0,0:0:0:0:
358,151,152339,5,2,0:0:0:0:
341,75,155097,6,0,P|384:61|473:107,2,150,4|2|0,0:1|0:0|0:0,0:0:0:0:
256,124,155959,1,8,0:0:0:0:
158,115,156132,2,0,L|83:108,1,75,0|0,0:0|0:0,0:0:0:0:
10,195,156477,6,0,B|34:224|34:224|71:226,1,75,4|4,0:1|0:3,0:0:0:0:
176,218,156822,2,0,L|170:300,1,75,2|0,0:0|0:0,0:0:0:0:
170,304,157080,1,0,0:0:0:0:
170,315,157166,1,0,0:0:0:0:
249,372,157339,2,0,P|291:340|389:340,1,150,8|0,0:0|0:0,0:0:0:0:
436,246,157856,6,0,L|511:252,2,75,4|4|2,0:1|0:3|0:0,0:0:0:0:
379,165,158373,1,0,0:0:0:0:
455,104,158546,2,0,P|448:66|419:26,1,75,0|8,0:0|0:0,0:0:0:0:
323,39,158891,2,0,P|303:70|296:107,1,75,0|0,0:0|0:0,0:0:0:0:
212,169,159235,5,4,0:1:0:0:
212,169,159408,1,4,0:3:0:0:
202,273,159580,2,0,B|227:343|227:343|274:285,1,150,2|0,0:0|0:0,0:0:0:0:
327,203,160097,2,0,B|373:144|373:144|399:215,1,150,8|0,0:0|0:0,0:0:0:0:
367,316,160615,6,0,B|404:299|445:309|433:323|474:333|512:316,2,150,4|2|0,0:0|0:0|0:0,0:0:0:0:
274,285,161477,1,8,0:0:0:0:
190,335,161649,2,0,L|109:328,1,75,0|0,0:0|0:0,0:0:0:0:
44,248,161994,6,0,P|31:214|31:176,1,75,4|4,0:1|0:3,0:0:0:0:
136,140,162339,2,0,L|130:58,1,75,2|0,0:0|0:0,0:0:0:0:
130,54,162597,1,0,0:0:0:0:
130,43,162683,1,0,0:0:0:0:
235,46,162856,2,0,L|245:195,1,150,8|0,0:0|0:0,0:0:0:0:
256,300,163373,5,4,0:3:0:0:
256,300,163546,1,4,0:3:0:0:
356,328,163718,2,0,P|405:272|474:244,1,150,2|0,0:0|0:0,0:0:0:0:
474,139,164235,2,0,P|405:111|355:55,1,150,8|0,0:0|0:0,0:0:0:0:
252,81,164753,6,0,P|262:39|256:2,2,75,4|4|2,0:1|0:3|0:0,0:0:0:0:
167,130,165270,1,0,0:0:0:0:
73,101,165442,2,0,L|-1:95,1,75,0|8,0:0|0:0,0:0:0:0:
0,187,165787,2,0,L|74:192,1,75,0|0,0:0|0:0,0:0:0:0:
166,245,166132,6,0,B|161:276|146:300|146:300|156:327|156:327|137:347|136:384,2,150,4|2|0,0:1|0:0|0:0,0:0:0:0:
257,210,166994,1,8,0:0:0:0:
346,247,167166,2,0,L|353:321,1,75,0|0,0:0|0:0,0:0:0:0:
435,206,167511,6,0,L|442:131,1,75,4|4,0:1|0:3,0:0:0:0:
383,43,167856,2,0,P|347:56|310:59,1,75,2|0,0:0|0:0,0:0:0:0:
299,57,168115,1,0,0:0:0:0:
288,53,168201,1,0,0:0:0:0:
189,90,168373,2,0,P|247:137|271:207,1,150,8|0,0:0|0:0,0:0:0:0:
216,298,168891,6,0,B|218:336|218:336|256:381,2,75,4|4|2,0:1|0:3|0:0,0:0:0:0:
124,262,169408,1,0,0:0:0:0:
34,224,169580,2,0,L|30:146,1,75,0|8,0:0|0:0,0:0:0:0:
123,100,169925,2,0,L|119:22,1,75,0|0,0:0|0:0,0:0:0:0:
222,87,170270,5,4,0:1:0:0:
222,87,170442,1,4,0:3:0:0:
315,39,170615,2,0,P|382:59|376:128,1,150,2|0,0:0|0:0,0:0:0:0:
297,197,171132,2,0,P|291:266|358:286,1,150,8|0,0:0|0:0,0:0:0:0:
452,224,171649,6,0,B|446:282|446:282|458:313|458:313|453:371,2,150,4|2|0,0:0|0:0|0:0,0:0:0:0:
490,134,172511,1,8,0:0:0:0:
431,55,172684,2,0,L|350:49,1,75,0|0,0:0|0:0,0:0:0:0:
266,86,173028,6,0,P|259:49|265:12,1,75,4|0,0:1|0:0,0:0:0:0:
342,146,173373,2,0,L|334:220,1,75,2|0,0:0|0:0,0:0:0:0:
333,231,173632,1,0,0:0:0:0:
332,242,173718,1,0,0:0:0:0:
263,322,173891,6,0,B|214:341|159:327|136:278|136:278|169:251|206:253,1,225,8|4,0:0|0:3,0:0:0:0:
256,192,174580,12,0,177166,3:0:0:0:
