osu file format v14

[General]
AudioFilename: audio.mp3
AudioLeadIn: 0
PreviewTime: 108891
Countdown: 0
SampleSet: Soft
StackLeniency: 0.7
Mode: 0
LetterboxInBreaks: 0
EpilepsyWarning: 1
WidescreenStoryboard: 1

[Editor]
Bookmarks: 50177
DistanceSpacing: 0.8
BeatDivisor: 4
GridSize: 4
TimelineZoom: 2.200001

[Metadata]
Title:Slip Away
TitleUnicode:Slip Away
Artist:The Prototypes
ArtistUnicode:The Prototypes
Creator:Secretpipe
Version:In the City of Gold
Source:
Tags:dnb drum and bass C00L Nerova Riuz GX Kin Kyshiro Zerss phaZ
BeatmapID:1101063
BeatmapSetID:518278

[Difficulty]
HPDrainRate:7
CircleSize:4
OverallDifficulty:8.2
ApproachRate:9.2
SliderMultiplier:1.5
SliderTickRate:1

[Events]
//Background and Video events
0,0,"737184.jpg",0,0
//Break Periods
2,83554,87611
//Storyboard Layer 0 (Background)
//Storyboard Layer 1 (Fail)
//Storyboard Layer 2 (Pass)
//Storyboard Layer 3 (Foreground)
//Storyboard Sound Samples

[TimingPoints]
608,689.655172413793,4,2,1,50,1,0
608,-66.6666666666667,4,2,1,50,0,0
22676,-58.8235294117647,4,2,1,50,0,0
23366,-66.6666666666667,4,2,1,50,0,0
44746,344.827586206897,4,2,1,50,1,0
44746,-100,4,2,1,50,0,0
47160,344.827586206897,4,2,1,50,1,0
47160,-83.3333333333333,4,2,1,50,0,0
47504,-100,4,2,1,50,0,0
50267,344.827586206897,4,2,1,50,1,0
50267,-83.3333333333333,4,2,1,50,0,0
50611,-100,4,2,1,50,0,0
52682,344.827586206897,4,2,4,50,1,0
52682,-83.3333333333333,4,2,4,50,0,0
53199,-100,4,2,1,50,0,0
55781,344.827586206897,4,2,1,50,1,0
55781,-83.3333333333333,4,2,1,50,0,0
56298,-100,4,2,1,50,0,0
58184,344.827586206897,4,2,1,50,1,0
58184,-83.3333333333333,4,2,1,50,0,0
58528,-100,4,2,1,50,0,0
61297,344.827586206897,4,2,1,50,1,0
61297,-83.3333333333333,4,2,1,50,0,0
61814,-100,4,2,1,50,0,0
63700,344.827586206897,4,2,3,30,1,0
64044,689.655172413793,4,2,3,30,1,0
64733,-200,4,2,2,30,0,0
69561,-200,4,2,2,24,0,0
69906,-200,4,2,2,30,0,0
72319,-200,4,2,2,19,0,0
73699,-200,4,2,0,30,0,0
77837,-100,4,2,2,30,0,0
83354,-100,4,2,1,30,0,0
88891,344.827586206897,4,2,0,20,1,0
88891,-111.111111111111,4,2,0,20,0,0
90615,-111.111111111111,4,2,0,22,0,0
90959,-111.111111111111,4,2,0,20,0,0
91132,-111.111111111111,4,2,0,22,0,0
91477,-111.111111111111,4,2,0,21,0,0
91994,-111.111111111111,4,2,0,24,0,0
92339,-111.111111111111,4,2,0,21,0,0
92511,-111.111111111111,4,2,0,24,0,0
92856,-111.111111111111,4,2,0,22,0,0
93373,-111.111111111111,4,2,0,26,0,0
93546,-111.111111111111,4,2,0,22,0,0
94753,-111.111111111111,4,2,0,28,0,0
95097,-111.111111111111,4,2,0,23,0,0
95270,-111.111111111111,4,2,0,28,0,0
95615,-111.111111111111,4,2,0,23,0,0
96132,-111.111111111111,4,2,0,30,0,0
96304,-111.111111111111,4,2,0,24,0,0
96649,-111.111111111111,4,2,0,30,0,0
96994,-111.111111111111,4,2,0,24,0,0
97511,-111.111111111111,4,2,0,32,0,0
97856,-111.111111111111,4,2,0,25,0,0
98028,-111.111111111111,4,2,0,32,0,0
98373,-111.111111111111,4,2,0,25,0,0
98891,-111.111111111111,4,2,0,34,0,0
99063,-111.111111111111,4,2,0,26,0,0
99408,-111.111111111111,4,2,0,34,0,0
99753,-111.111111111111,4,2,0,26,0,0
100270,-111.111111111111,4,2,0,36,0,0
100442,-111.111111111111,4,2,0,27,0,0
100787,-111.111111111111,4,2,0,36,0,0
101132,-111.111111111111,4,2,0,27,0,0
101649,-111.111111111111,4,2,0,38,0,0
101994,-111.111111111111,4,2,0,28,0,0
102166,-111.111111111111,4,2,0,38,0,0
102511,-111.111111111111,4,2,0,28,0,0
103028,-111.111111111111,4,2,0,40,0,0
103201,-111.111111111111,4,2,0,29,0,0
103546,-111.111111111111,4,2,0,40,0,0
103891,-111.111111111111,4,2,0,29,0,0
104408,-111.111111111111,4,2,0,42,0,0
104580,-111.111111111111,4,2,0,30,0,0
104925,-111.111111111111,4,2,0,42,0,0
105097,-111.111111111111,4,2,0,30,0,0
105787,-111.111111111111,4,2,0,44,0,0
105959,-111.111111111111,4,2,0,31,0,0
106304,-111.111111111111,4,2,0,44,0,0
106649,-111.111111111111,4,2,0,31,0,0
107166,-111.111111111111,4,2,0,46,0,0
107339,-111.111111111111,4,2,0,32,0,0
107684,-111.111111111111,4,2,0,46,0,0
107856,-111.111111111111,4,2,0,32,0,0
110615,-133.333333333333,4,2,0,30,0,0
110959,-83.3333333333333,4,2,2,60,0,1
111132,-83.3333333333333,4,2,10,60,0,1
113718,-83.3333333333333,4,2,4,60,0,1
113891,-83.3333333333333,4,2,10,60,0,1
116477,-83.3333333333333,4,2,2,60,0,1
116649,-83.3333333333333,4,2,10,60,0,1
119235,-83.3333333333333,4,2,2,60,0,1
119408,-83.3333333333333,4,2,10,60,0,1
121994,-83.3333333333333,4,2,2,60,0,1
122080,-83.3333333333333,4,2,10,60,0,1
124753,-83.3333333333333,4,2,4,60,0,1
124925,-83.3333333333333,4,2,10,60,0,1
127511,-83.3333333333333,4,2,2,60,0,1
127684,-83.3333333333333,4,2,10,60,0,1
130270,-83.3333333333333,4,2,2,60,0,0
130442,-83.3333333333333,4,2,10,60,0,0
133028,-83.3333333333333,4,2,2,60,0,1
133201,-83.3333333333333,4,2,10,60,0,0
135787,-83.3333333333333,4,2,4,60,0,0
135960,-83.3333333333333,4,2,10,60,0,0
138546,-83.3333333333333,4,2,2,60,0,0
138718,-83.3333333333333,4,2,10,60,0,0
141304,-83.3333333333333,4,2,2,60,0,0
141477,-83.3333333333333,4,2,10,60,0,0
144063,-83.3333333333333,4,2,2,60,0,0
144149,-83.3333333333333,4,2,10,60,0,0
146822,-83.3333333333333,4,2,4,60,0,0
146994,-83.3333333333333,4,2,10,60,0,0
149580,-83.3333333333333,4,2,2,60,0,0
149753,-83.3333333333333,4,2,10,60,0,0
152339,-83.3333333333333,4,2,0,32,0,0
154753,-83.3333333333333,4,2,0,30,0,0
155097,-100,4,2,2,60,0,1
155270,-100,4,2,0,60,0,1
157856,-100,4,2,4,60,0,1
158028,-100,4,2,0,60,0,1
160615,-100,4,2,2,60,0,1
160787,-100,4,2,0,60,0,1
163373,-100,4,2,2,60,0,1
163546,-100,4,2,0,60,0,1
166132,-100,4,2,2,60,0,1
166304,-100,4,2,0,60,0,1
168891,-100,4,2,4,60,0,1
169063,-100,4,2,0,60,0,1
171649,-100,4,2,2,60,0,1
171822,-100,4,2,0,60,0,1
173891,-100,4,2,0,50,0,1
174408,-133.333333333333,4,2,0,50,0,0
175787,-133.333333333333,4,2,0,40,0,0
176822,-133.333333333333,4,2,0,30,0,0

[Colours]
Combo1 : 213,69,0
Combo2 : 255,139,83
Combo3 : 230,115,0
Combo4 : 255,255,94

[HitObjects]
280,308,608,6,0,P|269:278|274:228,3,56.2500021457673,4|0|0|0,0:1|0:0|0:0|0:0,0:0:0:0:
308,171,1297,2,0,P|367:166|450:154,1,112.500004291535,0|0,0:0|0:0,0:0:0:0:
217,170,1987,2,0,P|130:153|18:137,2,168.750006437302,0|0|0,0:0|0:0|0:0,0:0:0:0:
434,254,3366,6,0,P|433:288|420:316,3,56.2500021457673,4|0|0|0,0:0|0:0|0:0|0:0,0:0:0:0:
358,363,4056,1,0,0:0:0:0:
311,145,4401,1,0,0:0:0:0:
196,294,4745,2,0,P|107:294|87:204,2,168.750006437302,0|0|0,0:0|0:0|0:0,0:0:0:0:
311,145,6125,6,0,P|314:119|291:63,3,56.2500021457673,4|0|0|0,0:3|0:0|0:0|0:0,0:0:0:0:
271,233,6814,2,0,P|266:277|286:318,3,56.2500021457673,0|0|0|0,0:0|0:0|0:0|0:0,0:0:0:0:
310,363,7504,1,0,0:0:0:0:
474,269,7849,2,0,P|410:251|320:273,1,112.500004291535,0|0,0:0|0:0,0:0:0:0:
185,310,8539,1,0,0:0:0:0:
71,200,8883,6,0,P|58:170|66:117,3,56.2500021457673,4|0|0|0,0:1|0:0|0:0|0:0,0:0:0:0:
147,51,9573,2,0,P|115:53|87:67,3,56.2500021457673,0|0|0|0,0:0|0:0|0:0|0:0,0:0:0:0:
214,104,10263,2,0,P|243:118|275:120,3,56.2500021457673,0|0|0|0,0:0|0:0|0:0|0:0,0:0:0:0:
336,59,10952,2,0,P|368:60|397:74,3,56.2500021457673,0|0|0|0,0:0|0:0|0:0|0:0,0:0:0:0:
385,219,11642,6,0,P|426:219|459:198,3,56.2500021457673,4|0|0|0,0:1|0:0|0:0|0:0,0:0:0:0:
498,133,12332,1,0,0:0:0:0:
417,313,12676,1,0,0:0:0:0:
311,152,13021,2,0,P|243:133|142:187,1,168.750006437302,0|0,0:0|0:0,0:0:0:0:
163,271,13711,2,0,P|231:290|332:236,1,168.750006437302,0|0,0:0|0:0,0:0:0:0:
394,167,14401,6,0,P|424:157|467:160,3,56.2500021457673,4|0|0|0,0:0|0:0|0:0|0:0,0:0:0:0:
446,298,15090,2,0,L|438:222,3,56.2500021457673,0|0|0|0,0:0|0:0|0:0|0:0,0:0:0:0:
394,167,15780,2,0,P|376:114|388:36,1,112.500004291535,0|0,0:0|0:0,0:0:0:0:
384,44,16297,2,0,P|316:34|253:53,1,112.500004291535,0|0,0:0|0:0,0:0:0:0:
199,102,16814,1,0,0:0:0:0:
266,270,17159,6,0,L|281:188,3,56.2500021457673,4|0|0|0,0:3|0:0|0:0|0:0,0:0:0:0:
197,323,17849,2,0,L|183:244,3,56.2500021457673,0|0|0|0,0:0|0:0|0:0|0:0,0:0:0:0:
328,353,18539,2,0,L|343:271,3,56.2500021457673,0|0|0|0,0:0|0:0|0:0|0:0,0:0:0:0:
395,153,19228,2,0,B|339:117|285:148|285:148|255:122|201:134,1,168.750006437302,0|0,0:0|0:0,0:0:0:0:
144,165,19918,6,0,L|150:239,3,56.2500021457673,4|0|0|0,0:1|0:0|0:0|0:0,0:0:0:0:
199,288,20607,2,0,P|236:297|278:290,1,56.2500021457673
372,252,20952,2,0,P|328:247|291:259,1,56.2500021457673
424,320,21297,2,0,P|447:296|453:246,1,56.2500021457673
395,122,21642,2,0,P|404:152|426:174,1,56.2500021457673
320,54,21987,1,0,0:0:0:0:
320,54,22159,1,0,0:0:0:0:
230,123,22332,1,0,0:0:0:0:
230,123,22504,1,0,0:0:0:0:
141,46,22676,6,0,P|105:37|57:47,3,63.7500012159348,4|0|0|0,0:1|0:0|0:0|0:0,0:0:0:0:
90,181,23366,2,0,L|104:102,1,56.2500021457673,0|0,0:0|0:0,0:0:0:0:
37,247,23711,1,0,0:0:0:0:
322,277,24056,2,0,P|243:248|139:265,2,168.750006437302,0|0|0,0:0|0:0|0:0,0:0:0:0:
335,293,25435,6,0,L|325:193,1,56.2500021457673,4|0,0:0|0:0,0:0:0:0:
410,139,25780,2,0,L|400:239,1,56.2500021457673,0|0,0:0|0:0,0:0:0:0:
332,123,26125,2,0,L|322:23,1,56.2500021457673,0|0,0:0|0:0,0:0:0:0:
416,284,26470,5,0,0:0:0:0:
188,108,26814,2,0,P|126:80|105:164,2,168.750006437302,0|0|0,0:0|0:0|0:0,0:0:0:0:
117,250,28194,6,0,P|86:253|55:237,3,56.2500021457673,4|0|0|0,0:3|0:0|0:0|0:0,0:0:0:0:
190,207,28883,2,0,P|218:192|249:194,3,56.2500021457673
369,248,29573,2,0,L|274:251,1,56.2500021457673,0|0,0:0|0:0,0:0:0:0:
434,203,29918,2,0,L|501:208,1,56.2500021457673,0|0,0:0|0:0,0:0:0:0:
444,288,30263,2,0,L|434:366,1,56.2500021457673,0|0,0:0|0:0,0:0:0:0:
366,159,30607,2,0,L|372:85,1,56.2500021457673,0|0,0:0|0:0,0:0:0:0:
296,201,30952,6,0,P|261:213|221:203,1,56.2500021457673,4|0,0:1|0:0,0:0:0:0:
131,133,31297,2,0,P|162:130|191:141,1,56.2500021457673,0|0,0:0|0:0,0:0:0:0:
79,252,31642,2,0,L|67:177,3,56.2500021457673,0|0|0|0,0:0|0:0|0:0|0:0,0:0:0:0:
150,294,32332,2,0,P|187:304|226:286,1,56.2500021457673,0|0,0:0|0:0,0:0:0:0:
340,234,32676,2,0,P|308:231|279:242,1,56.2500021457673,0|0,0:0|0:0,0:0:0:0:
397,296,33021,2,0,P|419:267|421:229,1,56.2500021457673,0|0,0:0|0:0,0:0:0:0:
383,100,33366,1,0,0:0:0:0:
471,24,33539,1,0,0:0:0:0:
373,107,33711,6,0,L|171:122,1,168.750006437302,4|0,0:1|0:0,0:0:0:0:
128,173,34401,2,0,P|125:213|145:247,1,56.2500021457673,0|0,0:0|0:0,0:0:0:0:
272,290,34745,2,0,P|228:279|184:281,1,56.2500021457673,0|0,0:0|0:0,0:0:0:0:
337,346,35090,2,0,P|451:343|516:288,2,168.750006437302,0|0|0,0:0|0:0|0:0,0:0:0:0:
153,199,36470,6,0,L|144:123,1,56.2500021457673,4|0,0:0|0:0,0:0:0:0:
230,43,36814,2,0,L|220:117,1,56.2500021457673,0|0,0:0|0:0,0:0:0:0:
313,219,37159,2,0,L|304:143,1,56.2500021457673,0|0,0:0|0:0,0:0:0:0:
241,272,37504,1,0,0:0:0:0:
448,122,37849,6,0,P|386:52|291:62,2,168.750006437302
234,205,39228,6,0,P|201:203|171:178,1,56.2500021457673,4|0,0:3|0:0,0:0:0:0:
307,162,39573,2,0,P|340:164|370:189,1,56.2500021457673,0|0,0:0|0:0,0:0:0:0:
308,249,39918,1,0,0:0:0:0:
220,127,40090,1,0,0:0:0:0:
308,39,40263,1,0,0:0:0:0:
234,205,40435,1,0,0:0:0:0:
74,85,40607,6,0,L|169:92,1,56.2500021457673,0|0,0:0|0:0,0:0:0:0:
288,120,40952,2,0,L|224:124,1,56.2500021457673,0|0,0:0|0:0,0:0:0:0:
368,66,41297,1,0,0:0:0:0:
485,275,41470,2,0,P|403:258|377:145,1,168.750006437302,0|4,0:0|0:0,0:0:0:0:
485,275,43021,5,0,0:0:0:0:
292,348,43366,2,0,L|166:360,1,112.500004291535,0|0,0:0|0:0,0:0:0:0:
86,334,43883,2,0,P|63:275|81:193,1,112.500004291535,0|0,0:0|0:0,0:0:0:0:
124,129,44401,1,0,0:0:0:0:
289,253,44745,5,4,3:1:0:0:
366,178,44918,1,0,3:0:0:0:
282,259,45090,2,0,L|190:269,1,75,0|0,3:0|0:0,0:0:0:0:
385,293,45435,1,0,3:0:0:0:
261,158,45608,1,0,0:0:0:0:
252,149,45780,2,0,P|243:103|253:61,1,75,0|0,3:0|0:0,0:0:0:0:
413,99,46125,6,0,L|317:109,1,75,0|0,3:0|0:0,0:0:0:0:
133,137,46470,1,0,3:0:0:0:
196,235,46642,1,0,0:0:0:0:
196,235,46728,1,0,0:0:0:0:
196,235,46814,1,0,3:0:0:0:
200,68,46987,1,0,3:0:0:0:
157,305,47159,6,0,P|199:317|246:297,1,75,4|0,3:3|0:0,0:0:0:0:
321,225,47504,1,0,3:0:0:0:
420,322,47677,1,0,0:0:0:0:
309,212,47849,2,0,P|298:171|313:115,1,75,0|0,3:0|0:0,0:0:0:0:
310,110,48108,1,0,0:0:0:0:
326,84,48194,1,0,3:0:0:0:
411,168,48366,1,0,0:0:0:0:
249,280,48539,6,0,P|182:294|107:277,1,112.5,0|0,3:0|0:0,0:0:0:0:
70,259,48884,2,0,B|60:194|60:194|92:110,1,150,0|0,3:0|3:0,0:0:0:0:
188,49,49401,2,0,B|198:114|198:114|166:198,1,150,0|0,0:0|0:0,0:0:0:0:
9,320,49918,2,0,P|61:333|101:317,1,75,0|0,3:0|0:0,0:0:0:0:
259,306,50267,6,0,P|208:289|152:301,1,89.9999972534181,4|0,3:1|0:0,0:0:0:0:
358,367,50611,1,0,3:0:0:0:
409,172,50784,1,0,0:0:0:0:
329,253,50956,1,0,3:0:0:0:
459,310,51129,1,0,0:0:0:0:
322,164,51301,2,0,L|239:174,1,75,0|0,3:0|0:0,0:0:0:0:
409,172,51646,5,0,3:0:0:0:
365,37,51818,1,0,0:0:0:0:
322,164,51991,1,0,3:0:0:0:
455,87,52163,1,0,0:0:0:0:
246,38,52335,2,0,P|197:41|148:48,1,75,0|0,3:0|3:0,0:0:0:0:
344,118,52682,6,0,P|255:122|138:132,1,179.999994506836,8|0,3:1|3:0,0:0:0:0:
49,196,53199,1,0,0:0:0:0:
49,196,53285,1,0,0:0:0:0:
49,196,53371,2,0,L|59:295,1,75,0|0,3:0|0:0,0:0:0:0:
140,131,53716,2,0,L|154:29,1,75,0|0,3:0|0:0,0:0:0:0:
141,238,54061,1,0,3:0:0:0:
412,239,54406,6,0,P|344:207|254:211,1,150,0|0,3:0|3:0,0:0:0:0:
182,329,54923,2,0,P|269:326|333:276,1,150,0|0,0:0|0:0,0:0:0:0:
496,308,55440,2,0,L|497:166,1,112.5,0|0,3:0|0:0,0:0:0:0:
461,111,55781,6,0,P|409:97|342:104,1,89.9999972534181,4|0,3:1|0:0,0:0:0:0:
213,127,56125,1,0,3:0:0:0:
275,273,56298,1,0,0:0:0:0:
203,128,56470,2,0,L|191:36,1,75,0|0,3:0|0:0,0:0:0:0:
108,200,56815,2,0,L|125:103,1,75,0|0,3:0|0:0,0:0:0:0:
207,305,57160,6,0,L|190:203,1,75,0|0,3:0|0:0,0:0:0:0:
146,366,57505,1,0,3:0:0:0:
279,234,57677,1,0,0:0:0:0:
97,294,57849,1,0,3:0:0:0:
279,365,58022,1,0,3:0:0:0:
279,365,58108,1,0,0:0:0:0:
279,365,58184,6,0,P|330:369|381:348,1,89.9999972534181,4|0,3:3|0:0,0:0:0:0:
316,156,58528,2,0,P|265:152|214:173,1,75,0|0,3:0|0:0,0:0:0:0:
378,271,58873,2,0,P|429:275|480:254,1,75,0|0,3:0|0:0,0:0:0:0:
255,75,59218,2,0,P|205:88|164:125,1,75,0|0,3:0|0:0,0:0:0:0:
44,249,59563,1,0,3:0:0:0:
60,253,59908,6,0,B|111:234|146:262|146:262|179:245|220:263,1,150,0|0,3:0|3:0,0:0:0:0:
284,281,60425,2,0,L|267:117,1,150,0|0,0:0|0:0,0:0:0:0:
234,343,60942,2,0,P|300:360|355:319,1,112.5,0|0,3:0|0:0,0:0:0:0:
407,266,61297,6,0,L|396:151,1,89.9999972534181,4|0,3:1|0:0,0:0:0:0:
324,40,61641,1,0,3:0:0:0:
218,153,61814,1,0,0:0:0:0:
218,153,61900,1,0,0:0:0:0:
218,153,61986,2,0,P|269:161|316:140,1,75,0|0,3:0|0:0,0:0:0:0:
134,79,62331,1,0,3:0:0:0:
121,268,62503,5,0,0:0:0:0:
121,268,62590,1,0,0:0:0:0:
121,268,62676,2,0,L|132:172,1,75,0|0,3:0|0:0,0:0:0:0:
65,348,63021,1,0,3:0:0:0:
270,313,63193,1,0,0:0:0:0:
270,313,63279,1,0,0:0:0:0:
270,313,63365,2,0,P|226:307|173:324,1,75,0|0,3:0|3:0,0:0:0:0:
348,334,63700,6,2,P|386:292|246:83,1,375,12|0,0:0|0:0,0:0:0:0:
100,128,64733,6,0,L|105:181,1,37.5,0|2,0:0|0:0,0:0:0:0:
169,253,65423,2,0,P|202:261|233:257,2,56.25,2|2|2,0:0|0:0|0:0,0:0:0:0:
63,303,66802,1,4,0:0:0:0:
238,358,67147,1,2,0:0:0:0:
309,241,67492,6,0,L|301:190,1,37.5,0|2,0:0|0:0,0:0:0:0:
421,307,68181,2,0,P|394:299|354:307,2,56.25,2|2|2,0:0|0:0|0:0,0:0:0:0:
286,350,69561,1,4,0:3:0:0:
313,184,69906,1,2,0:0:0:0:
321,172,70250,6,0,L|376:171,1,37.5,0|2,0:0|0:0,0:0:0:0:
237,226,70940,2,0,P|191:230|156:220,1,75,2|2,0:0|0:0,0:0:0:0:
56,153,71975,1,2,0:0:0:0:
197,66,72319,2,0,P|239:103|167:130,2,150,12|0|0,0:1|0:0|0:1,0:0:0:0:
52,258,75768,6,0,L|61:310,1,37.5,0|2,0:0|0:0,0:0:0:0:
139,345,76457,2,0,L|205:337,1,56.25,2|2,0:0|0:0,0:0:0:0:
266,279,77147,2,0,L|264:258,1,18.75,8|4,0:3|0:3,0:0:0:0:
336,328,77492,2,0,L|332:364,1,18.75,4|0,0:3|3:0,0:0:0:0:
396,251,77837,6,0,P|413:146|313:107,1,225,12|0,0:0|0:0,0:0:0:0:
176,145,79216,2,0,P|83:170|129:73,1,225,0|0,0:0|0:0,0:0:0:0:
259,188,80595,2,0,P|229:250|164:279,2,112.5,0|0|0,0:0|0:0|0:0,0:0:0:0:
297,96,81975,6,0,B|355:123|414:93|414:93|447:133|429:179|429:179|454:220|427:268,1,300,0|4,0:0|0:1,0:0:0:0:
149,252,88181,6,0,P|218:270|287:243,1,112.5,2|0,0:0|0:0,0:0:0:0:
413,143,88891,5,4,1:0:0:0:
396,286,89063,1,4,1:3:0:0:
333,86,89235,2,0,P|285:58|204:70,1,134.999995880127,10|0,0:3|0:0,0:0:0:0:
189,153,89753,2,0,P|255:186|330:170,1,134.999995880127,10|0,0:3|0:0,0:0:0:0:
413,116,90270,1,4,1:0:0:0:
450,263,90442,1,4,1:3:0:0:
238,340,90615,2,0,P|306:354|380:325,1,134.999995880127,10|0,0:3|0:0,0:0:0:0:
175,285,91132,2,0,P|122:254|32:267,1,134.999995880127,10|0,0:3|0:0,0:0:0:0:
163,370,91649,5,4,1:0:0:0:
295,199,91822,1,4,1:3:0:0:
300,192,91994,2,0,P|319:117|280:67,1,134.999995880127,10|0,0:3|0:0,0:0:0:0:
108,151,92511,2,0,L|244:137,1,134.999995880127,10|0,0:3|0:0,0:0:0:0:
43,78,93028,1,4,1:0:0:0:
99,233,93201,1,4,1:3:0:0:
99,233,93373,2,0,L|77:327,1,67.4999979400635,10|0,0:3|0:0,0:0:0:0:
292,328,93718,6,0,B|307:278|278:237|278:237|291:194|291:194|262:157|260:111,1,202.499993820191,2|0,0:0|0:0,0:0:0:0:
280,28,94408,1,4,1:0:0:0:
401,117,94580,1,4,1:3:0:0:
194,198,94753,2,0,P|128:197|31:173,1,134.999995880127,10|0,0:3|0:0,0:0:0:0:
295,238,95270,2,0,P|361:237|458:213,1,134.999995880127,10|0,0:3|0:0,0:0:0:0:
214,297,95787,5,4,1:0:0:0:
280,147,95959,1,4,1:3:0:0:
286,141,96132,2,0,P|295:98|280:48,2,67.4999979400635,10|0|0,0:3|0:0|0:0,0:0:0:0:
62,47,96649,2,0,P|133:41|219:41,1,134.999995880127,8|0,1:3|0:0,0:0:0:0:
42,197,97166,6,0,P|27:164|29:117,1,67.4999979400635,4|4,1:0|1:3,0:0:0:0:
205,266,97511,2,0,B|141:295|141:295|54:276,1,134.999995880127,8|0,1:3|0:0,0:0:0:0:
271,209,98028,2,0,B|346:190|346:190|415:220,1,134.999995880127,8|0,1:3|0:0,0:0:0:0:
190,185,98546,1,4,1:0:0:0:
294,297,98718,1,4,1:3:0:0:
181,178,98891,2,0,P|183:134|199:82,1,67.4999979400635,8|0,1:3|0:0,0:0:0:0:
294,297,99235,1,0,0:0:0:0:
169,169,99408,2,0,P|171:107|210:17,1,134.999995880127,8|0,1:3|0:0,0:0:0:0:
198,270,99925,5,4,1:0:0:0:
198,270,100097,1,4,0:3:0:0:
111,231,100270,2,0,P|84:223|29:227,1,67.4999979400635,6|0,1:3|0:0,0:0:0:0:
141,344,100615,1,0,0:0:0:0:
250,195,100787,2,0,P|319:206|405:188,1,134.999995880127,6|0,1:3|0:0,0:0:0:0:
161,145,101304,5,4,1:0:0:0:
204,279,101477,1,4,0:3:0:0:
212,88,101649,2,0,P|156:68|90:112,1,134.999995880127,6|0,1:3|0:0,0:0:0:0:
299,143,102166,2,0,P|372:137|415:76,1,134.999995880127,6|0,1:3|0:0,0:0:0:0:
211,193,102684,5,4,1:0:0:0:
211,193,102856,1,4,0:3:0:0:
367,278,103028,2,0,P|337:269|269:273,1,67.4999979400635,6|0,1:3|0:0,0:0:0:0:
272,270,103287,1,0,3:0:0:0:
254,277,103373,1,0,3:0:0:0:
409,350,103546,2,0,P|444:307|409:204,1,168.749994850159,2|0,1:3|0:0,0:0:0:0:
323,130,104063,5,4,1:0:0:0:
427,47,104235,1,4,0:3:0:0:
308,140,104408,2,0,B|231:148,1,67.4999979400635,6|0,1:3|0:0,0:0:0:0:
209,142,104666,1,0,3:0:0:0:
190,128,104753,2,0,P|176:102|177:52,1,67.4999979400635,2|2,3:2|1:3,0:0:0:0:
254,226,105097,2,0,P|255:263|239:298,1,67.4999979400635,0|0,0:0|0:0,0:0:0:0:
142,214,105442,5,4,1:0:0:0:
142,214,105615,1,4,0:3:0:0:
307,135,105787,2,0,P|343:126|390:147,1,67.4999979400635,2|0,1:3|0:0,0:0:0:0:
390,141,106046,1,0,3:0:0:0:
407,151,106132,1,0,3:0:0:0:
372,351,106304,2,0,L|350:186,1,134.999995880127,2|0,0:3|0:0,0:0:0:0:
292,40,106822,6,0,L|384:40,1,67.4999979400635,4|4,1:0|0:3,0:0:0:0:
214,111,107166,1,2,0:3:0:0:
276,299,107339,1,0,0:0:0:0:
296,276,107425,1,0,3:0:0:0:
304,246,107511,1,0,3:0:0:0:
299,215,107597,1,0,3:0:0:0:
280,190,107684,2,0,L|194:194,1,67.4999979400635,2|0,0:3|0:0,0:0:0:0:
173,196,107942,1,0,3:0:0:0:
142,197,108028,1,0,3:0:0:0:
215,343,108201,5,2,0:0:0:0:
382,269,108373,1,2,0:0:0:0:
264,70,108546,1,10,0:0:0:0:
98,127,108718,1,2,0:0:0:0:
98,127,108804,1,0,3:0:0:0:
98,127,108891,2,0,L|185:118,1,67.4999979400635,2|6,0:0|0:0,0:0:0:0:
305,162,109235,1,2,0:0:0:0:
322,187,109322,1,0,0:0:0:0:
331,215,109408,1,2,0:0:0:0:
333,245,109494,1,0,0:0:0:0:
322,273,109580,5,6,0:0:0:0:
205,245,109753,2,0,L|258:235,2,33.7499989700318,2|0|2,0:0|0:0|0:0,0:0:0:0:
169,352,110097,1,10,0:0:0:0:
90,291,110270,2,0,L|37:281,2,33.7499989700318,2|0|2,0:0|0:0|0:0,0:0:0:0:
134,189,110615,6,2,L|140:89,1,84.3750032186509,8|0,0:1|0:0,1:1:0:0:
101,31,110959,5,4,1:0:0:0:
50,220,111132,1,4,0:3:0:0:
334,107,111304,2,0,P|274:105|230:125,1,89.9999972534181,2|0,0:0|0:0,0:0:0:0:
231,125,111563,1,0,3:0:0:0:
215,134,111649,1,0,0:0:0:0:
403,224,111822,2,2,L|415:116,1,89.9999972534181,2|0,0:0|0:0,0:0:0:0:
416,116,112080,1,0,3:0:0:0:
418,98,112166,1,0,0:0:0:0:
280,298,112339,5,4,0:1:0:0:
77,189,112511,1,4,0:3:0:0:
280,298,112684,1,2,0:0:0:0:
304,323,112770,1,0,0:0:0:0:
337,336,112856,1,0,0:0:0:0:
372,337,112942,1,0,3:0:0:0:
402,318,113028,1,0,0:0:0:0:
212,176,113201,2,0,P|174:166|115:179,1,89.9999972534181,2|0,0:0|0:0,0:0:0:0:
105,185,113459,1,0,3:0:0:0:
86,198,113546,1,0,0:0:0:0:
336,244,113718,5,4,0:1:0:0:
288,32,113891,1,4,0:3:0:0:
156,250,114063,2,0,L|166:328,2,44.999998626709,2|0|0,0:0|0:0|0:0,0:0:0:0:
241,345,114408,1,0,0:0:0:0:
200,110,114580,2,0,P|122:92|30:161,1,179.999994506836,2|0,0:0|0:0,0:0:0:0:
286,207,115097,5,4,0:1:0:0:
458,55,115270,1,4,0:3:0:0:
400,293,115442,2,0,L|470:301,2,44.999998626709,2|0|0,0:0|0:0|0:0,0:0:0:0:
382,289,115701,1,0,3:0:0:0:
364,286,115787,1,0,0:0:0:0:
104,355,115959,2,0,P|210:363|290:327,1,179.999994506836,2|0,0:0|0:0,0:0:0:0:
73,155,116477,5,4,0:0:0:0:
35,304,116649,1,4,0:3:0:0:
155,142,116822,2,0,P|133:94|92:74,1,89.9999972534181,2|0,0:0|0:0,0:0:0:0:
84,71,117080,1,0,3:0:0:0:
66,66,117166,1,0,0:0:0:0:
174,240,117339,1,2,0:0:0:0:
238,80,117511,1,0,0:0:0:0:
267,59,117597,1,0,3:0:0:0:
303,54,117684,1,0,0:0:0:0:
337,65,117770,1,0,3:0:0:0:
362,89,117856,6,0,L|367:218,1,89.9999972534181,4|4,0:1|0:3,0:0:0:0:
169,319,118201,2,0,B|211:304|211:304|277:316,1,89.9999972534181,2|0,0:0|0:0,0:0:0:0:
272,317,118459,1,0,3:0:0:0:
289,321,118546,1,0,0:0:0:0:
80,374,118718,1,2,0:0:0:0:
88,200,118891,2,0,L|80:149,2,44.999998626709,0|0|0,0:0|0:0|0:0,0:0:0:0:
161,104,119235,5,4,0:3:0:0:
34,264,119408,1,4,0:3:0:0:
154,88,119580,1,2,0:0:0:0:
127,63,119666,1,0,0:0:0:0:
91,53,119753,1,0,0:0:0:0:
55,60,119839,1,0,3:0:0:0:
27,82,119925,1,0,0:0:0:0:
172,210,120097,1,2,0:0:0:0:
276,32,120270,2,0,L|265:98,2,44.999998626709,0|0|0,0:0|3:0|0:0,0:0:0:0:
324,221,120615,5,4,0:1:0:0:
185,44,120787,1,4,0:3:0:0:
268,275,120959,1,2,0:0:0:0:
296,297,121046,1,2,3:3:0:0:
331,304,121132,1,0,0:0:0:0:
365,294,121218,1,2,3:3:0:0:
395,274,121304,6,0,L|407:218,1,44.999998626709,0|0,0:0|0:0,0:0:0:0:
314,176,121477,2,0,L|326:232,1,44.999998626709,2|0,0:0|0:0,0:0:0:0:
369,120,121649,1,0,0:0:0:0:
341,98,121735,1,2,3:3:0:0:
306,91,121822,1,0,0:0:0:0:
272,101,121908,1,2,3:3:0:0:
242,121,121994,6,0,L|230:177,1,44.999998626709,4|0,0:1|0:0,0:0:0:0:
166,102,122166,2,0,L|151:52,1,44.999998626709,4|0,0:3|0:0,0:0:0:0:
116,164,122339,2,0,L|89:276,1,89.9999972534181,2|0,0:0|0:0,0:0:0:0:
89,268,122597,1,0,3:0:0:0:
84,285,122684,1,0,0:0:0:0:
306,204,122856,2,0,P|262:194|210:217,1,89.9999972534181,2|0,0:0|0:0,0:0:0:0:
205,217,123115,1,0,3:0:0:0:
190,227,123201,1,0,0:0:0:0:
422,293,123373,5,4,0:1:0:0:
399,59,123546,1,4,0:3:0:0:
200,125,123718,2,0,L|139:113,2,44.999998626709,2|0|0,0:0|0:0|0:0,0:0:0:0:
101,46,124063,1,0,0:0:0:0:
113,267,124235,2,0,P|172:153|140:98,1,179.999994506836,2|0,0:0|0:0,0:0:0:0:
51,336,124753,5,4,0:1:0:0:
257,212,124925,1,4,0:3:0:0:
41,102,125097,2,0,L|50:205,1,89.9999972534181,2|0,0:0|0:0,0:0:0:0:
50,209,125356,1,0,3:0:0:0:
51,226,125442,1,0,0:0:0:0:
279,51,125615,2,0,B|170:12|197:65|85:33,1,179.999994506836,2|0,0:0|0:0,0:0:0:0:
301,144,126132,5,4,0:1:0:0:
472,34,126304,1,4,0:3:0:0:
258,217,126477,2,0,P|314:227|362:201,1,89.9999972534181,2|0,0:0|0:0,0:0:0:0:
358,205,126735,1,0,3:0:0:0:
372,194,126822,1,0,0:0:0:0:
201,160,126994,2,0,P|106:148|21:199,1,179.999994506836,2|0,0:0|0:0,0:0:0:0:
183,256,127511,5,4,0:0:0:0:
257,94,127684,1,4,0:3:0:0:
132,319,127856,2,0,P|184:331|226:318,1,89.9999972534181,2|0,0:0|0:0,0:0:0:0:
248,310,128115,1,0,3:0:0:0:
276,297,128201,1,0,0:0:0:0:
305,286,128287,1,0,3:0:0:0:
334,276,128373,2,0,P|382:272|436:298,1,89.9999972534181,2|0,0:0|0:0,0:0:0:0:
446,304,128632,1,0,3:0:0:0:
464,329,128718,1,0,0:0:0:0:
228,201,128891,5,4,0:1:0:0:
322,367,129063,1,4,0:3:0:0:
265,133,129235,2,0,P|216:126|163:152,1,89.9999972534181,2|0,0:0|0:0,0:0:0:0:
164,151,129494,1,0,3:0:0:0:
147,158,129580,2,0,L|132:85,1,44.999998626709,0|0,0:0|3:0,0:0:0:0:
83,203,129753,2,0,L|67:327,1,89.9999972534181,2|0,0:0|0:0,0:0:0:0:
70,310,130011,1,0,3:0:0:0:
68,327,130097,1,0,0:0:0:0:
75,116,130270,5,4,0:3:0:0:
233,278,130442,1,4,0:3:0:0:
331,41,130615,2,0,L|325:140,1,89.9999972534181,2|0,0:0|0:0,0:0:0:0:
329,157,130873,1,0,3:0:0:0:
339,181,130959,1,0,0:0:0:0:
356,201,131046,1,0,3:0:0:0:
379,214,131132,6,0,P|422:234|477:227,1,89.9999972534181,2|0,0:0|0:0,0:0:0:0:
247,241,131477,1,0,2:0:0:0:
247,241,131563,1,0,3:0:0:0:
247,241,131649,2,0,P|270:282|318:309,1,89.9999972534181,2|0,2:0|2:0,2:2:0:0:
133,175,131994,1,0,2:0:0:0:
133,175,132080,1,0,3:0:0:0:
133,175,132166,2,0,P|127:222|150:272,1,89.9999972534181,2|0,2:0|2:0,2:2:0:0:
105,50,132511,1,0,2:0:0:0:
105,50,132597,1,0,3:0:0:0:
105,50,132684,2,0,P|70:82|56:135,1,89.9999972534181,2|0,2:0|2:0,2:2:0:0:
252,62,133028,5,4,1:0:0:0:
465,101,133201,1,4,0:3:0:0:
235,61,133373,2,0,L|232:176,1,89.9999972534181,2|0,0:0|0:0,0:0:0:0:
243,176,133632,1,0,3:0:0:0:
255,199,133718,2,0,L|327:210,1,44.999998626709,0|0,0:0|3:0,0:0:0:0:
209,271,133891,2,0,L|81:285,1,89.9999972534181,2|0,0:0|0:0,0:0:0:0:
92,283,134149,1,0,3:0:0:0:
65,288,134235,1,0,0:0:0:0:
300,348,134408,5,4,0:1:0:0:
300,120,134580,1,4,0:3:0:0:
392,310,134753,2,0,P|426:271|428:211,1,89.9999972534181,2|0,0:0|0:0,0:0:0:0:
423,158,135011,2,0,L|427:94,2,44.999998626709,0|0|0,2:0|0:0|2:0,0:0:0:0:
358,210,135270,2,0,L|239:220,1,89.9999972534181,2|0,0:0|0:0,0:0:0:0:
241,216,135528,1,0,3:0:0:0:
213,218,135615,1,0,0:0:0:0:
450,250,135787,5,4,0:1:0:0:
308,83,135959,1,4,0:3:0:0:
154,158,136132,1,2,0:0:0:0:
120,144,136218,1,0,0:0:0:0:
103,112,136304,1,0,0:0:0:0:
103,75,136391,1,0,3:0:0:0:
118,42,136477,1,0,0:0:0:0:
230,293,136649,2,0,P|144:338|104:272,1,179.999994506836,2|0,0:0|0:0,0:0:0:0:
283,185,137166,5,4,0:1:0:0:
284,366,137339,1,4,0:3:0:0:
292,177,137511,2,0,L|286:126,2,44.999998626709,2|0|0,0:0|0:0|0:0,0:0:0:0:
366,328,137856,1,0,0:0:0:0:
319,67,138028,2,0,P|279:59|228:88,1,89.9999972534181,2|0,0:0|0:0,0:0:0:0:
218,100,138287,1,0,3:0:0:0:
201,121,138373,1,0,0:0:0:0:
394,246,138546,5,4,0:0:0:0:
400,42,138718,1,4,0:3:0:0:
257,259,138891,2,0,P|310:272|353:262,1,89.9999972534181,2|0,0:0|0:0,0:0:0:0:
369,256,139149,1,0,3:0:0:0:
394,246,139235,1,0,0:0:0:0:
183,45,139408,2,0,B|152:143|208:127|178:222,1,179.999994506836,2|0,0:0|0:0,0:0:0:0:
91,32,139925,5,4,0:1:0:0:
288,96,140097,1,4,0:3:0:0:
54,180,140270,2,0,L|108:174,2,44.999998626709,2|0|0,0:0|0:0|0:0,0:0:0:0:
136,296,140615,1,0,0:0:0:0:
336,213,140787,2,0,P|288:198|257:315,1,179.999994506836,2|0,0:0|0:0,0:0:0:0:
446,268,141304,5,4,0:3:0:0:
385,60,141477,1,4,0:3:0:0:
454,279,141649,2,0,P|461:232|451:181,1,89.9999972534181,2|0,0:0|0:0,0:0:0:0:
444,165,141908,1,0,3:0:0:0:
435,139,141994,1,0,0:0:0:0:
191,139,142166,2,0,B|231:147|231:147|298:134,1,89.9999972534181,2|0,0:0|0:0,0:0:0:0:
306,132,142425,1,0,3:0:0:0:
332,126,142511,1,0,0:0:0:0:
101,61,142684,5,4,0:1:0:0:
162,283,142856,1,4,0:3:0:0:
387,245,143028,1,2,0:0:0:0:
354,227,143115,1,2,3:3:0:0:
318,225,143201,1,0,0:0:0:0:
285,239,143287,1,2,3:3:0:0:
257,261,143373,6,0,L|249:325,1,44.999998626709,0|0,0:0|0:0,0:0:0:0:
188,210,143546,2,0,L|182:165,1,44.999998626709,2|0,0:0|0:0,0:0:0:0:
162,283,143718,1,0,0:0:0:0:
135,307,143804,1,2,3:3:0:0:
101,319,143891,1,0,0:0:0:0:
66,309,143977,1,2,3:3:0:0:
43,280,144063,2,0,L|24:209,1,44.999998626709,4|0,0:1|0:0,0:0:0:0:
120,161,144235,2,0,L|110:228,1,44.999998626709,4|0,0:3|0:0,0:0:0:0:
81,87,144408,6,0,P|131:78|184:104,1,89.9999972534181,2|0,0:0|0:0,0:0:0:0:
188,107,144666,1,0,3:0:0:0:
212,118,144753,2,0,L|227:45,1,44.999998626709,0|0,0:0|3:0,0:0:0:0:
278,168,144925,2,0,L|288:237,1,44.999998626709,2|0,0:0|0:0,0:0:0:0:
343,110,145097,2,0,P|365:105|390:103,2,44.999998626709,0|0|0,0:0|3:0|0:0,0:0:0:0:
487,207,145442,5,4,0:1:0:0:
419,15,145615,1,4,0:3:0:0:
311,226,145787,2,0,L|304:282,2,44.999998626709,2|0|0,0:0|0:0|0:0,0:0:0:0:
355,361,146132,1,0,0:0:0:0:
97,283,146304,2,0,P|143:268|196:280,1,89.9999972534181,2|0,0:0|0:0,0:0:0:0:
208,285,146563,1,0,3:0:0:0:
231,297,146649,1,0,0:0:0:0:
36,353,146822,5,4,0:1:0:0:
139,81,146994,2,0,L|139:129,1,44.999998626709,4|0,0:3|0:0,0:0:0:0:
192,184,147166,2,0,P|246:188|286:174,1,89.9999972534181,2|0,0:0|0:0,0:0:0:0:
305,168,147425,1,0,3:0:0:0:
328,155,147511,1,0,0:0:0:0:
106,207,147684,2,0,P|126:283|223:267,1,179.999994506836,2|0,0:0|0:0,0:0:0:0:
328,155,148201,5,4,0:1:0:0:
205,31,148373,1,4,0:3:0:0:
281,252,148546,2,0,P|334:264|384:245,1,89.9999972534181,2|0,0:0|0:0,0:0:0:0:
395,241,148804,1,0,3:0:0:0:
422,225,148891,1,0,0:0:0:0:
440,199,148977,1,0,3:0:0:0:
447,168,149063,2,0,L|440:72,1,89.9999972534181,2|0,0:0|0:0,0:0:0:0:
434,51,149322,1,0,3:0:0:0:
430,24,149408,1,0,0:0:0:0:
245,164,149580,5,4,0:0:0:0:
372,331,149753,1,4,0:3:0:0:
289,98,149925,2,0,P|242:87|190:107,1,89.9999972534181,2|0,0:0|0:0,0:0:0:0:
178,110,150184,1,0,3:0:0:0:
152,117,150270,2,0,L|128:46,1,44.999998626709,0|0,0:0|3:0,0:0:0:0:
94,170,150442,2,0,L|81:246,1,44.999998626709,2|0,0:0|0:0,0:0:0:0:
170,193,150615,2,0,L|266:188,1,89.9999972534181,0|0,0:0|0:0,0:0:0:0:
441,265,150959,5,4,0:1:0:0:
349,44,151132,1,4,0:3:0:0:
320,262,151304,2,0,L|328:324,2,44.999998626709,2|0|0,0:0|0:0|0:0,0:0:0:0:
421,358,151649,1,0,0:0:0:0:
223,168,151822,2,0,P|139:148|66:213,1,179.999994506836,2|0,0:0|0:0,0:0:0:0:
245,279,152339,5,2,0:0:0:0:
336,131,152511,1,2,0:0:0:0:
223,168,152684,1,10,0:0:0:0:
363,246,152856,1,2,0:0:0:0:
363,246,152942,1,0,0:0:0:0:
363,246,153028,1,2,0:0:0:0:
265,76,153201,1,6,0:0:0:0:
148,258,153373,5,2,0:0:0:0:
129,239,153459,1,0,0:0:0:0:
123,212,153546,1,2,0:0:0:0:
127,185,153632,1,0,0:0:0:0:
139,161,153718,2,0,L|269:145,1,89.9999972534181,6|2,0:0|0:0,0:0:0:0:
302,176,153977,1,0,0:0:0:0:
319,156,154063,1,2,0:0:0:0:
326,131,154149,1,0,0:0:0:0:
330,105,154235,2,0,L|310:-3,1,89.9999972534181,10|2,0:0|0:0,0:0:0:0:
392,17,154494,1,0,0:0:0:0:
398,43,154580,1,2,0:0:0:0:
402,69,154666,1,0,0:0:0:0:
408,100,154753,6,2,L|386:265,1,134.999995880127,8|0,0:1|0:0,1:0:0:0:
336,311,155097,5,4,0:1:0:0:
82,200,155270,1,4,0:3:0:0:
303,52,155442,2,0,L|290:157,1,75,2|0,0:0|0:0,0:0:0:0:
282,150,155701,1,0,0:0:0:0:
266,171,155787,2,0,L|209:180,1,37.5,0|0,0:0|0:0,0:0:0:0:
333,216,155959,2,0,L|413:231,1,75,8|0,0:0|0:0,0:0:0:0:
432,236,156218,1,0,0:0:0:0:
457,239,156304,1,0,0:0:0:0:
243,330,156477,5,4,0:1:0:0:
376,117,156649,1,4,0:3:0:0:
112,173,156822,2,0,L|200:184,1,75,2|0,0:0|0:0,0:0:0:0:
42,81,157166,1,0,0:0:0:0:
79,308,157339,2,0,L|171:294,1,75,8|0,0:0|0:0,0:0:0:0:
178,291,157597,1,0,0:0:0:0:
204,286,157684,1,0,0:0:0:0:
344,361,157856,5,4,0:1:0:0:
411,127,158028,1,4,0:3:0:0:
469,310,158201,2,0,L|474:370,2,37.5,2|0|0,0:0|0:0|0:0,0:0:0:0:
415,107,158546,1,0,0:0:0:0:
248,280,158718,2,0,L|175:288,2,37.5,8|0|0,0:0|0:0|0:0,0:0:0:0:
270,277,158977,1,0,0:0:0:0:
291,272,159063,1,0,0:0:0:0:
67,349,159235,5,4,0:1:0:0:
122,102,159408,1,4,0:3:0:0:
248,280,159580,2,0,L|165:274,1,75,2|0,0:0|0:0,0:0:0:0:
150,271,159839,1,0,0:0:0:0:
127,269,159925,1,0,0:0:0:0:
203,60,160097,2,0,B|232:100|232:100|211:198,1,150,8|0,0:0|0:0,0:0:0:0:
355,40,160615,6,0,P|323:50|270:35,1,75,4|4,0:0|0:3,0:0:0:0:
473,87,160959,2,0,L|482:39,2,37.5,2|0|0,0:0|0:0|0:0,0:0:0:0:
467,109,161218,1,0,0:0:0:0:
466,131,161304,1,0,0:0:0:0:
474,152,161391,1,0,0:0:0:0:
485,175,161477,2,0,P|496:223|477:267,1,75,8|0,0:0|0:0,0:0:0:0:
476,269,161735,1,0,0:0:0:0:
461,291,161822,1,0,0:0:0:0:
453,316,161908,1,0,0:0:0:0:
458,341,161994,5,4,0:1:0:0:
339,168,162166,1,4,0:3:0:0:
127,316,162339,2,0,L|228:325,1,75,2|0,0:0|0:0,0:0:0:0:
227,321,162597,1,0,0:0:0:0:
253,318,162684,1,0,0:0:0:0:
90,234,162856,2,0,P|41:277|64:371,1,150,8|0,0:0|0:0,0:0:0:0:
176,225,163373,5,4,0:3:0:0:
82,37,163546,1,4,0:3:0:0:
189,235,163718,2,0,P|231:241|271:233,1,75,2|0,0:0|0:0,0:0:0:0:
287,225,163977,1,0,0:0:0:0:
311,215,164063,1,0,0:0:0:0:
337,216,164149,1,0,0:0:0:0:
360,228,164235,2,0,L|359:294,1,37.5,8|0,0:0|0:0,0:0:0:0:
417,317,164408,2,0,L|469:307,1,37.5,0|0,0:0|0:0,0:0:0:0:
341,353,164580,2,0,L|292:347,1,37.5,0|0,0:0|0:0,0:0:0:0:
205,330,164753,5,4,0:1:0:0:
142,133,164925,1,4,0:3:0:0:
213,348,165097,2,0,L|113:354,1,75,2|0,0:0|0:0,0:0:0:0:
111,354,165356,1,0,0:0:0:0:
84,353,165442,1,0,0:0:0:0:
159,125,165615,2,0,L|246:117,1,75,8|0,0:0|0:0,0:0:0:0:
258,108,165873,1,0,0:0:0:0:
274,87,165959,1,0,0:0:0:0:
279,61,166046,1,0,0:0:0:0:
274,35,166132,5,4,0:1:0:0:
197,236,166304,1,4,0:3:0:0:
409,229,166477,2,0,P|383:205|317:209,1,75,2|0,0:0|0:0,0:0:0:0:
287,244,166735,1,0,0:0:0:0:
287,244,166822,2,0,L|292:309,1,37.5,0|0,0:0|0:0,0:0:0:0:
239,335,166994,2,0,L|134:331,1,75,8|0,0:0|0:0,0:0:0:0:
140,320,167253,1,0,0:0:0:0:
123,299,167339,1,0,0:0:0:0:
122,272,167425,1,0,0:0:0:0:
136,249,167511,5,4,0:1:0:0:
307,371,167684,1,4,0:3:0:0:
354,122,167856,2,0,L|364:222,1,75,2|0,0:0|0:0,0:0:0:0:
375,219,168115,1,0,0:0:0:0:
390,240,168201,2,0,L|387:297,1,37.5,0|0,0:0|0:0,0:0:0:0:
449,188,168373,1,8,0:0:0:0:
229,56,168546,1,0,0:0:0:0:
202,42,168632,1,0,0:0:0:0:
172,38,168718,1,0,0:0:0:0:
142,44,168804,1,0,0:0:0:0:
117,61,168891,5,4,0:1:0:0:
171,272,169063,1,4,0:3:0:0:
369,151,169235,2,0,L|274:148,1,75,2|0,0:0|0:0,0:0:0:0:
246,208,169494,1,0,0:0:0:0:
246,208,169580,2,0,L|255:268,1,37.5,0|0,0:0|0:0,0:0:0:0:
286,308,169753,2,0,L|356:298,1,37.5,8|0,0:0|0:0,0:0:0:0:
394,328,169925,2,0,L|387:383,2,37.5,0|0|0,0:0|0:0|0:0,0:0:0:0:
400,302,170184,1,0,0:0:0:0:
406,276,170270,5,4,0:1:0:0:
336,68,170442,1,4,0:3:0:0:
159,221,170615,1,2,0:0:0:0:
181,241,170701,1,0,0:0:0:0:
208,252,170787,1,0,0:0:0:0:
237,251,170873,1,0,0:0:0:0:
263,236,170959,1,0,0:0:0:0:
136,140,171132,1,8,0:0:0:0:
112,121,171218,1,0,0:0:0:0:
82,117,171304,2,0,L|68:57,1,37.5,0|0,0:0|0:0,0:0:0:0:
41,188,171477,2,0,L|31:234,1,37.5,0|0,0:0|0:0,0:0:0:0:
80,291,171649,5,4,0:0:0:0:
261,369,171822,1,4,0:3:0:0:
211,158,171994,2,0,L|217:107,2,37.5,2|0|0,0:0|0:0|0:0,0:0:0:0:
268,373,172339,1,0,0:0:0:0:
389,190,172511,2,0,L|367:93,1,75,8|0,0:0|0:0,0:0:0:0:
359,93,172770,1,0,0:0:0:0:
338,76,172856,1,0,0:0:0:0:
313,65,172942,1,0,0:0:0:0:
286,65,173028,5,4,0:1:0:0:
327,249,173201,1,4,0:3:0:0:
444,84,173373,2,0,L|453:34,2,37.5,2|0|0,0:0|0:0|0:0,0:0:0:0:
367,173,173718,1,0,0:0:0:0:
440,285,173891,2,0,L|432:328,2,37.5,8|0|0,0:0|0:0|0:0,0:0:0:0:
448,260,174149,1,0,0:0:0:0:
456,235,174235,1,0,0:0:0:0:
253,323,174408,5,4,0:3:0:0:
328,95,174580,1,4,0:3:0:0:
95,231,174753,2,0,P|160:253|212:236,1,112.500004291535,2|0,1:2|0:0,0:0:0:0:
63,47,175270,2,0,L|55:175,1,112.500004291535,0|0,1:0|0:0,0:0:0:0:
253,48,175787,2,0,P|195:32|127:48,1,112.500004291535,2|0,1:2|0:0,0:0:0:0:
301,116,176304,2,0,P|366:124|418:109,1,112.500004291535,0|0,1:0|0:0,0:0:0:0:
429,99,176735,1,0,0:0:0:0:
450,88,176822,2,0,L|449:164,1,56.2500021457673,2|0,1:2|0:0,0:0:0:0:
465,243,177166,5,0,1:0:0:0:
