osu file format v14

[General]
AudioFilename: audio.mp3
AudioLeadIn: 0
PreviewTime: 108891
Countdown: 0
SampleSet: Soft
StackLeniency: 0.7
Mode: 0
LetterboxInBreaks: 0
EpilepsyWarning: 1
WidescreenStoryboard: 1

[Editor]
Bookmarks: 22676,75423,83354,88181,88891,90270,91649,93028,94408,95787,97166,98546,99925,101304,102684,104063,105442,106822,108201,120959,133028,143028,152339,153891,155097,164753,174408,177166
DistanceSpacing: 0.4
BeatDivisor: 4
GridSize: 4
TimelineZoom: 3.4

[Metadata]
Title:Slip Away
TitleUnicode:Slip Away
Artist:The Prototypes
ArtistUnicode:The Prototypes
Creator:Secretpipe
Version:Collab Insane
Source:
Tags:dnb drum and bass C00L Nerova Riuz GX Kin Kyshiro Zerss phaZ
BeatmapID:1118651
BeatmapSetID:518278

[Difficulty]
HPDrainRate:6
CircleSize:4
OverallDifficulty:7.5
ApproachRate:9
SliderMultiplier:1.5
SliderTickRate:1

[Events]
//Background and Video events
0,0,"737184.jpg",0,0
//Break Periods
2,83554,85362
2,152539,154497
//Storyboard Layer 0 (Background)
//Storyboard Layer 1 (Fail)
//Storyboard Layer 2 (Pass)
//Storyboard Layer 3 (Foreground)
//Storyboard Sound Samples

[TimingPoints]
608,689.655172413793,4,2,1,50,1,0
608,-66.6666666666667,4,2,1,50,0,0
22676,-66.6666666666667,4,2,1,50,0,0
23366,-66.6666666666667,4,2,1,50,0,0
44746,344.827586206897,4,2,1,50,1,0
47160,344.827586206897,4,2,1,50,1,0
47504,-100,4,2,1,50,0,0
50267,344.827586206897,4,2,1,50,1,0
50611,-100,4,2,1,50,0,0
52682,344.827586206897,4,2,4,50,1,0
53199,-100,4,2,1,50,0,0
55781,344.827586206897,4,2,1,50,1,0
56298,-100,4,2,1,50,0,0
58184,344.827586206897,4,2,1,50,1,0
58528,-100,4,2,1,50,0,0
61297,344.827586206897,4,2,1,50,1,0
61814,-100,4,2,1,50,0,0
63700,344.827586206897,4,2,3,30,1,0
64044,689.655172413793,4,2,3,30,1,0
64733,-100,4,2,2,30,0,0
64734,-200,4,2,0,30,0,0
66802,-200,4,2,2,30,0,0
69561,-200,4,2,2,24,0,0
69906,-200,4,2,2,30,0,0
72319,-200,4,2,2,19,0,0
73699,-200,4,2,0,30,0,0
77837,-200,4,2,2,30,0,0
83354,-100,4,2,1,30,0,0
88891,344.827586206897,4,2,0,20,1,0
88891,-133.333333333333,4,2,0,20,0,0
90270,-129.87012987013,4,2,0,30,0,0
90615,-129.87012987013,4,2,0,22,0,0
90959,-129.87012987013,4,2,0,20,0,0
91132,-129.87012987013,4,2,0,22,0,0
91477,-129.87012987013,4,2,0,21,0,0
91649,-126.582278481013,4,2,0,30,0,0
91994,-126.582278481013,4,2,0,24,0,0
92339,-126.582278481013,4,2,0,21,0,0
92511,-126.582278481013,4,2,0,24,0,0
92856,-126.582278481013,4,2,0,22,0,0
93028,-123.456790123457,4,2,0,30,0,0
93373,-123.456790123457,4,2,0,26,0,0
93546,-123.456790123457,4,2,0,22,0,0
94408,-120.481927710843,4,2,0,30,0,0
94753,-120.481927710843,4,2,0,28,0,0
95097,-120.481927710843,4,2,0,23,0,0
95270,-120.481927710843,4,2,0,28,0,0
95615,-120.481927710843,4,2,0,23,0,0
95787,-117.647058823529,4,2,0,30,0,0
96132,-117.647058823529,4,2,0,30,0,0
96304,-117.647058823529,4,2,0,24,0,0
96649,-117.647058823529,4,2,0,30,0,0
96994,-117.647058823529,4,2,0,24,0,0
97166,-114.942528735632,4,2,0,30,0,0
97511,-114.942528735632,4,2,0,32,0,0
97856,-114.942528735632,4,2,0,25,0,0
98028,-114.942528735632,4,2,0,32,0,0
98201,-114.942528735632,4,2,0,25,0,0
98546,-112.359550561798,4,2,0,30,0,0
98891,-112.359550561798,4,2,0,34,0,0
99063,-112.359550561798,4,2,0,26,0,0
99408,-112.359550561798,4,2,0,34,0,0
99580,-112.359550561798,4,2,0,26,0,0
99925,-109.89010989011,4,2,0,30,0,0
100270,-109.89010989011,4,2,0,36,0,0
100442,-109.89010989011,4,2,0,27,0,0
100787,-109.89010989011,4,2,0,36,0,0
100959,-109.89010989011,4,2,0,27,0,0
101304,-107.52688172043,4,2,0,30,0,0
101649,-107.52688172043,4,2,0,38,0,0
101994,-107.52688172043,4,2,0,28,0,0
102166,-107.52688172043,4,2,0,38,0,0
102511,-107.52688172043,4,2,0,28,0,0
102684,-105.263157894737,4,2,0,30,0,0
103028,-105.263157894737,4,2,0,40,0,0
103201,-105.263157894737,4,2,0,29,0,0
103546,-105.263157894737,4,2,0,40,0,0
103891,-105.263157894737,4,2,0,29,0,0
104063,-103.092783505155,4,2,0,30,0,0
104408,-103.092783505155,4,2,0,42,0,0
104580,-103.092783505155,4,2,0,30,0,0
104925,-103.092783505155,4,2,0,42,0,0
105097,-103.092783505155,4,2,0,30,0,0
105442,-101.010101010101,4,2,0,30,0,0
105787,-101.010101010101,4,2,0,44,0,0
105959,-101.010101010101,4,2,0,31,0,0
106304,-101.010101010101,4,2,0,44,0,0
106477,-101.010101010101,4,2,0,31,0,0
106822,-99.009900990099,4,2,0,30,0,0
107166,-99.009900990099,4,2,0,46,0,0
107339,-99.009900990099,4,2,0,32,0,0
107684,-99.009900990099,4,2,0,46,0,0
107856,-99.009900990099,4,2,0,32,0,0
108201,-133.333333333333,4,2,0,30,0,0
110615,-100,4,2,0,30,0,0
110959,-83.3333333333333,4,2,2,60,0,1
111132,-83.3333333333333,4,2,10,60,0,1
113718,-83.3333333333333,4,2,4,60,0,1
113891,-83.3333333333333,4,2,10,60,0,1
116477,-83.3333333333333,4,2,2,60,0,1
116649,-83.3333333333333,4,2,10,60,0,1
119235,-83.3333333333333,4,2,2,60,0,1
119408,-83.3333333333333,4,2,10,60,0,1
121994,-83.3333333333333,4,2,2,60,0,1
122080,-83.3333333333333,4,2,10,60,0,1
124753,-83.3333333333333,4,2,4,60,0,1
124925,-83.3333333333333,4,2,10,60,0,1
127511,-83.3333333333333,4,2,2,60,0,1
127684,-83.3333333333333,4,2,10,60,0,1
130270,-83.3333333333333,4,2,2,60,0,0
130442,-83.3333333333333,4,2,10,60,0,0
133028,-83.3333333333333,4,2,2,60,0,1
133201,-100,4,2,10,60,0,0
135787,-100,4,2,4,60,0,0
135960,-100,4,2,10,60,0,0
138546,-100,4,2,2,60,0,0
138718,-100,4,2,10,60,0,0
141304,-100,4,2,2,60,0,0
141477,-100,4,2,10,60,0,0
144063,-100,4,2,2,60,0,0
144149,-100,4,2,10,60,0,0
146822,-100,4,2,4,60,0,0
146994,-100,4,2,10,60,0,0
149580,-100,4,2,2,60,0,0
149753,-100,4,2,10,60,0,0
152339,-100,4,2,0,32,0,0
154753,-100,4,2,0,30,0,0
155097,-90.9090909090909,4,2,2,60,0,1
155270,-90.9090909090909,4,2,0,60,0,1
157856,-90.9090909090909,4,2,4,60,0,1
158028,-90.9090909090909,4,2,0,60,0,1
160615,-90.9090909090909,4,2,2,60,0,1
160787,-90.9090909090909,4,2,0,60,0,1
163373,-90.9090909090909,4,2,2,60,0,1
163546,-90.9090909090909,4,2,0,60,0,1
166132,-90.9090909090909,4,2,2,60,0,1
166304,-90.9090909090909,4,2,0,60,0,1
168891,-90.9090909090909,4,2,4,60,0,1
169063,-90.9090909090909,4,2,0,60,0,1
171649,-90.9090909090909,4,2,2,60,0,1
171822,-90.9090909090909,4,2,0,60,0,1
173891,-90.9090909090909,4,2,0,50,0,1
174408,-133.333333333333,4,2,0,50,0,0
175787,-133.333333333333,4,2,0,40,0,0
176822,-133.333333333333,4,2,0,30,0,0

[Colours]
Combo1 : 213,69,0
Combo2 : 255,139,83
Combo3 : 230,115,0
Combo4 : 255,255,94

[HitObjects]
168,296,608,6,0,L|160:228,1,56.2500021457673,4|0,0:1|0:0,0:0:0:0:
112,164,952,1,0,0:0:0:0:
112,164,1125,1,0,0:0:0:0:
244,104,1297,2,0,B|296:96|292:116|356:104,1,112.500004291535,0|0,0:0|0:0,0:0:0:0:
416,36,1814,1,0,0:0:0:0:
476,168,1987,2,0,B|480:224|480:224|456:276|456:276|460:332,1,168.750006437302,0|0,0:0|0:0,0:0:0:0:
348,192,2849,1,0,0:0:0:0:
264,220,3021,2,0,L|192:216,1,56.2500021457673,0|0,0:0|0:0,0:0:0:0:
92,328,3366,6,0,L|164:324,3,56.2500021457673,4|0|0|0,0:0|0:0|0:0|0:0,0:0:0:0:
224,376,4056,2,0,P|244:328|216:264,1,112.500004291535,0|0,0:0|0:0,0:0:0:0:
140,240,4573,1,0,0:0:0:0:
140,240,4745,2,0,B|120:228|108:200|108:180|108:180|116:168|116:168|104:144|104:116|124:84,1,168.750006437302,0|0,0:0|0:0,0:0:0:0:
300,64,5608,1,0,0:0:0:0:
244,136,5780,2,0,L|176:132,1,56.2500021457673,0|0,0:0|0:0,0:0:0:0:
312,212,6125,6,0,P|316:240|312:272,3,56.2500021457673,4|0|0|0,0:3|0:0|0:0|0:0,0:0:0:0:
256,340,6814,2,0,P|200:348|140:340,1,112.500004291535,0|0,0:0|0:0,0:0:0:0:
64,300,7332,1,0,0:0:0:0:
136,195,7504,2,0,L|140:252,3,56.2500021457673,0|0|0|0,0:0|0:0|0:0|0:0,0:0:0:0:
200,320,8194,2,0,L|196:376,1,56.2500021457673,0|0,0:0|0:0,0:0:0:0:
256,232,8539,1,0,0:0:0:0:
256,232,8711,1,0,0:0:0:0:
304,308,8883,6,0,P|364:320|416:308,1,112.500004291535,4|0,0:1|0:0,0:0:0:0:
464,236,9401,1,0,0:0:0:0:
460,124,9573,2,0,L|464:236,1,112.500004291535,0|0,0:0|0:0,0:0:0:0:
376,228,10090,1,0,0:0:0:0:
413,309,10263,2,0,L|409:369,1,56.2500021457673,0|0,0:0|0:0,0:0:0:0:
328,324,10607,2,0,L|282:363,1,56.2500021457673,0|0,0:0|0:0,0:0:0:0:
257,274,10952,2,0,L|196:270,1,56.2500021457673,0|0,0:0|0:0,0:0:0:0:
132,328,11297,1,0,0:0:0:0:
132,328,11470,1,0,0:0:0:0:
64,224,11642,6,0,B|52:168|52:168|56:112,1,112.500004291535,4|0,0:1|0:0,0:0:0:0:
64,24,12159,1,0,0:0:0:0:
176,80,12332,2,0,P|232:88|300:72,1,112.500004291535,0|0,0:0|0:0,0:0:0:0:
360,28,12849,1,0,0:0:0:0:
420,136,13021,2,0,P|428:192|392:264,1,112.500004291535,0|0,0:0|0:0,0:0:0:0:
336,296,13539,1,0,0:0:0:0:
336,296,13711,2,0,B|280:288|280:288|220:296,1,112.500004291535,0|0,0:0|0:0,0:0:0:0:
140,324,14228,1,0,0:0:0:0:
140,324,14401,6,0,L|68:320,3,56.2500021457673,4|0|0|0,0:0|0:0|0:0|0:0,0:0:0:0:
20,216,15090,2,0,P|44:160|36:92,1,112.500004291535,0|0,0:0|0:0,0:0:0:0:
4,28,15607,1,0,0:0:0:0:
124,64,15780,2,0,B|208:84|196:32|292:52,2,168.750006437302,0|0|0,0:0|0:0|0:0,0:0:0:0:
252,152,16987,1,0,0:0:0:0:
212,232,17159,6,0,P|208:260|216:300,3,56.2500021457673,4|0|0|0,0:3|0:0|0:0|0:0,0:0:0:0:
264,360,17849,2,0,B|288:344|296:316|296:316|320:324|352:320,1,112.500004291535,0|0,0:0|0:0,0:0:0:0:
428,268,18366,1,0,0:0:0:0:
376,196,18539,2,0,L|380:140,3,56.2500021457673,0|0|0|0,0:0|0:0|0:0|0:0,0:0:0:0:
456,92,19228,2,0,L|452:36,2,56.2500021457673,0|0|0,0:0|0:0|0:0,0:0:0:0:
464,180,19745,1,0,0:0:0:0:
376,64,19918,6,0,L|308:68,3,56.2500021457673,4|0|0|0,0:1|0:0|0:0|0:0,0:0:0:0:
256,128,20607,2,0,P|271:172|244:248,1,112.500004291535,0|0,0:0|0:0,0:0:0:0:
180,180,21125,1,0,0:0:0:0:
176,268,21297,2,0,B|232:280|232:280|276:320,1,112.500004291535,0|0,0:0|0:0,0:0:0:0:
192,356,21814,1,0,0:0:0:0:
108,324,21987,2,0,L|40:328,1,56.2500021457673,0|0,0:0|0:0,0:0:0:0:
76,240,22332,1,0,0:0:0:0:
76,240,22504,1,0,0:0:0:0:
192,356,22676,6,0,L|260:360,3,56.2500021457673,4|0|0|0,0:1|0:0|0:0|0:0,0:0:0:0:
328,316,23366,1,0,0:0:0:0:
196,192,23711,2,0,P|201:165|200:136,1,56.2500021457673,0|0,0:0|0:0,0:0:0:0:
128,80,24056,2,0,P|200:120|292:92,1,168.750006437302,0|0,0:0|0:0,0:0:0:0:
436,12,24918,1,0,0:0:0:0:
476,92,25090,2,0,L|472:148,1,56.2500021457673,0|0,0:0|0:0,0:0:0:0:
396,200,25435,2,0,L|400:256,3,56.2500021457673,4|0|0|0,0:0|0:0|0:0|0:0,0:0:0:0:
472,312,26125,2,0,P|424:344|344:328,1,112.500004291535,0|0,0:0|0:0,0:0:0:0:
256,204,26814,2,0,B|244:180|244:148|244:148|268:96|268:96|268:68|256:44,2,168.750006437302,0|0|0,0:0|0:0|0:0,0:0:0:0:
356,356,28194,6,0,L|360:280,3,56.2500021457673,4|0|0|0,0:3|0:0|0:0|0:0,0:0:0:0:
436,256,28883,2,0,P|424:204|440:140,1,112.500004291535,0|0,0:0|0:0,0:0:0:0:
508,92,29401,1,0,0:0:0:0:
400,32,29573,2,0,L|344:36,1,56.2500021457673,0|0,0:0|0:0,0:0:0:0:
180,108,30090,1,0,0:0:0:0:
180,108,30263,2,0,L|236:112,2,56.2500021457673,0|0|0,0:0|0:0|0:0,0:0:0:0:
104,60,30780,1,0,0:0:0:0:
48,172,30952,6,0,L|48:232,3,56.2500021457673,4|0|0|0,0:1|0:0|0:0|0:0,0:0:0:0:
92,308,31642,2,0,P|148:288|216:296,1,112.500004291535,0|0,0:0|0:0,0:0:0:0:
256,364,32159,1,0,0:0:0:0:
312,291,32332,2,0,B|316:235|316:235|300:179|300:179|304:123,1,168.750006437302,0|0,0:0|0:0,0:0:0:0:
384,168,33021,2,0,L|388:108,1,56.2500021457673,0|0,0:0|0:0,0:0:0:0:
468,156,33366,2,0,L|472:96,1,56.2500021457673,0|0,0:0|0:0,0:0:0:0:
436,236,33711,6,0,L|440:296,3,56.2500021457673,4|0|0|0,0:1|0:0|0:0|0:0,0:0:0:0:
356,328,34401,2,0,P|316:332|280:320,1,56.2500021457673,0|0,0:0|0:0,0:0:0:0:
211,328,34745,2,0,P|183:332|156:328,1,56.2500021457673,0|0,0:0|0:0,0:0:0:0:
68,240,35090,2,0,B|84:220|84:192|76:168|76:168|88:172|88:172|76:148|76:112|88:92,1,168.750006437302,0|0,0:0|0:0,0:0:0:0:
256,168,35952,1,0,0:0:0:0:
426,93,36297,1,0,0:0:0:0:
426,93,36470,6,0,B|432:124|448:144|448:144|448:168|432:184|432:184|436:196|436:196|424:200|424:200|420:224|408:240|408:240|420:276|400:312,1,225.000008583069,4|0,0:0|0:0,0:0:0:0:
236,344,37504,2,0,L|172:340,1,56.2500021457673,0|0,0:0|0:0,0:0:0:0:
55,315,37849,2,0,P|26:250|97:248,2,168.750006437302,0|0|0,0:0|0:0|0:0,0:0:0:0:
144,328,39056,1,0,0:0:0:0:
196,204,39228,6,0,B|188:188|172:172|172:172|248:148|272:116|272:76|252:48|208:36|168:52|156:96|168:128|196:144|248:148|248:148|280:152|280:152|264:208|284:256|304:300|384:308|440:272|470:194|424:144|384:140|340:144|332:172|352:208,1,787.500030040742,4|0,0:3|0:0,0:0:0:0:
484,256,41814,1,0,0:0:0:0:
484,256,41987,2,0,P|496:192|456:120,1,112.500004291535,4|0,0:0|0:0,0:0:0:0:
416,88,42504,1,0,0:0:0:0:
416,88,42676,2,0,L|352:92,1,56.2500021457673,0|0,0:0|0:0,0:0:0:0:
296,156,43021,2,0,L|232:152,1,56.2500021457673,0|0,0:0|0:0,0:0:0:0:
176,88,43366,2,0,P|200:148|164:256,2,168.750006437302,0|0|0,0:0|0:0|0:0,0:0:0:0:
96,48,44573,1,0,0:0:0:0:
12,140,44745,6,0,L|20:252,1,112.500004291535,4|0,3:1|3:0,0:0:0:0:
0,340,45263,1,0,0:0:0:0:
132,304,45435,2,0,B|172:308|172:308|212:304,1,75,0|0,3:0|0:0,0:0:0:0:
256,228,45780,2,0,B|296:224|296:224|336:228,1,75,0|0,3:0|0:0,0:0:0:0:
379,302,46125,2,0,P|419:246|388:161,1,150,0|0,3:0|3:0,0:0:0:0:
320,136,46642,1,0,0:0:0:0:
256,200,46814,1,0,3:0:0:0:
192,136,46987,1,0,3:0:0:0:
109,172,47159,6,0,L|116:256,1,75,4|0,3:3|0:0,0:0:0:0:
256,360,47504,2,0,L|260:272,1,75,0|0,3:0|0:0,0:0:0:0:
204,216,47849,1,0,3:0:0:0:
256,92,48022,1,0,0:0:0:0:
256,92,48194,2,0,P|280:88|336:92,1,75,0|0,3:0|0:0,0:0:0:0:
432,180,48539,2,0,P|408:184|352:180,1,75,0|0,3:0|0:0,0:0:0:0:
480,116,48884,6,0,P|508:152|512:196,1,75,0|0,3:0|0:0,0:0:0:0:
472,260,49228,1,0,3:0:0:0:
384,252,49401,1,0,0:0:0:0:
244,340,49573,2,0,L|328:332,1,75,0|0,3:0|0:0,0:0:0:0:
172,252,49918,1,0,3:0:0:0:
84,260,50091,1,0,0:0:0:0:
84,260,50177,1,0,0:0:0:0:
84,260,50267,6,0,L|8:256,1,75,4|0,3:1|0:0,0:0:0:0:
120,176,50611,1,0,3:0:0:0:
172,252,50784,1,0,0:0:0:0:
212,172,50956,2,0,L|208:80,1,75,0|0,3:0|0:0,0:0:0:0:
303,97,51301,2,0,L|300:172,1,75,0|0,3:0|0:0,0:0:0:0:
340,252,51646,1,0,3:0:0:0:
392,176,51819,1,0,0:0:0:0:
340,252,51991,2,0,L|344:328,1,75,0|0,3:0|0:0,0:0:0:0:
256,304,52335,2,0,L|252:380,1,75,0|0,3:0|3:0,0:0:0:0:
172,252,52682,6,0,P|151:180|169:108,1,150,8|0,3:1|3:0,0:0:0:0:
232,44,53199,1,0,0:0:0:0:
232,44,53371,2,0,L|312:48,1,75,0|0,3:0|0:0,0:0:0:0:
424,116,53716,1,0,3:0:0:0:
336,124,53888,1,0,0:0:0:0:
380,88,54061,2,0,L|388:224,1,112.5,0|0,3:0|0:0,0:0:0:0:
388,215,54406,6,0,L|468:211,1,75,0|0,3:0|0:0,0:0:0:0:
320,300,54750,2,0,L|240:296,1,75,0|0,3:0|0:0,0:0:0:0:
168,344,55095,1,0,3:0:0:0:
168,344,55268,1,0,0:0:0:0:
172,256,55440,2,0,P|172:208|156:168,1,75,0|0,3:0|0:0,0:0:0:0:
148,160,55699,1,0,0:0:0:0:
124,144,55781,6,0,B|200:156|200:156|280:140,1,150,4|0,3:1|3:0,0:0:0:0:
360,120,56298,1,0,0:0:0:0:
300,56,56470,2,0,P|316:140|300:220,1,150,0|0,3:0|3:0,0:0:0:0:
256,280,56987,1,0,0:0:0:0:
208,204,57160,2,0,B|168:200|168:200|120:204,2,75,0|0|0,3:0|0:0|3:0,0:0:0:0:
168,284,57677,1,0,0:0:0:0:
52,208,57849,2,0,P|44:168|56:124,1,75,0|0,3:0|3:0,0:0:0:0:
248,52,58184,6,0,P|256:92|244:136,1,75,4|0,3:3|0:0,0:0:0:0:
208,204,58528,1,0,3:0:0:0:
164,124,58701,1,0,0:0:0:0:
304,208,58873,2,0,L|388:204,1,75,0|0,3:0|0:0,0:0:0:0:
272,288,59218,2,0,L|356:284,1,75,0|0,3:0|0:0,0:0:0:0:
224,220,59563,5,0,3:0:0:0:
140,252,59735,1,0,0:0:0:0:
152,164,59908,2,0,L|148:68,1,75,0|0,3:0|0:0,0:0:0:0:
224,220,60252,2,0,L|220:316,1,75,0|0,3:0|0:0,0:0:0:0:
296,164,60597,2,0,L|292:68,1,75,0|0,3:0|0:0,0:0:0:0:
368,220,60942,1,0,3:0:0:0:
336,304,61115,1,0,0:0:0:0:
336,304,61201,1,0,0:0:0:0:
336,304,61297,5,4,3:1:0:0:
256,260,61469,1,0,0:0:0:0:
176,304,61641,2,0,L|92:300,1,75,0|0,3:0|0:0,0:0:0:0:
0,212,61986,2,0,L|84:208,1,75,0|0,3:0|0:0,0:0:0:0:
144,152,62331,1,0,3:0:0:0:
144,152,62503,1,0,0:0:0:0:
220,264,62676,2,0,P|224:308|216:352,1,75,0|0,3:0|0:0,0:0:0:0:
84,336,63021,2,0,P|79:298|83:261,1,75,0|0,3:0|0:0,0:0:0:0:
152,204,63365,2,0,L|144:100,1,75,0|0,3:0|3:0,0:0:0:0:
220,264,63700,5,12,0:0:0:0:
220,264,64734,6,0,P|244:269|268:268,1,37.5,0|2,0:0|0:0,0:0:0:0:
336,224,65423,2,0,P|344:184|340:160,2,56.25,2|2|2,0:0|0:0|0:0,0:0:0:0:
256,268,66802,1,4,0:0:0:0:
208,192,67147,1,2,0:0:0:0:
140,316,67492,6,0,L|144:364,1,37.5,0|2,0:0|0:0,0:0:0:0:
52,312,68182,2,0,P|56:284|80:252,2,56.25,2|2|2,0:0|0:0|0:0,0:0:0:0:
140,316,69561,1,4,0:3:0:0:
160,228,69906,1,2,0:0:0:0:
288,320,70251,6,0,L|332:316,1,37.5,0|2,0:0|0:0,0:0:0:0:
396,264,70940,2,0,L|452:269,2,56.25,2|0|2,0:0|0:0|0:0,0:0:0:0:
336,196,72320,1,12,0:1:0:0:
256,236,72665,2,0,B|212:284|168:292|100:264|108:200|108:200|112:168|116:144|80:108,1,300,0|0,0:0|0:0,0:0:0:0:
20,176,75768,6,0,P|16:196|20:224,1,37.5,0|2,0:0|0:0,0:0:0:0:
72,284,76458,2,0,P|48:296|12:300,1,56.25,2|2,0:0|0:0,0:0:0:0:
168,236,77147,2,0,L|204:240,1,18.75,8|4,0:3|0:3,0:0:0:0:
256,328,77492,2,0,L|292:324,1,18.75,4|0,0:3|3:0,0:0:0:0:
344,236,77837,1,12,0:0:0:0:
344,236,78181,6,0,P|376:240|344:132,1,225,0|0,0:0|0:0,0:0:0:0:
268,184,80595,2,0,L|224:180,1,37.5,0|0,0:0|0:0,0:0:0:0:
140,196,81285,2,0,B|136:176|136:176|144:140|144:140|140:120,2,75,0|0|0,0:0|0:0|0:0,0:0:0:0:
188,272,83009,1,0,0:0:0:0:
256,212,83354,1,4,0:1:0:0:
256,192,86112,12,2,88181,0:0:0:0:
379,289,88891,5,4,1:0:0:0:
434,218,89063,1,4,1:3:0:0:
432,361,89235,2,0,P|378:380|316:356,1,112.500004291535,10|0,0:3|0:0,0:0:0:0:
261,301,89753,2,0,B|268:245|268:245|261:184,1,112.500004291535,8|0,0:3|0:0,0:0:0:0:
187,85,90270,5,4,1:0:0:0:
157,172,90442,1,4,1:3:0:0:
281,86,90615,2,0,L|341:91,1,57.7499988544464
261,189,90959,2,0,P|281:243|330:270,1,115.499997708893,2|0,2:0|0:0,0:0:0:0:
331,270,91649,6,0,P|363:274|403:266,1,59.2500014465332,4|4,1:0|1:3,0:0:0:0:
464,108,91994,2,0,P|400:96|348:112,1,118.500002893066,10|0,0:3|0:0,0:0:0:0:
300,244,92684,2,0,L|304:308,1,59.2500014465332,4|0,0:0|0:0,0:0:0:0:
228,224,93028,5,4,1:0:0:0:
156,244,93201,1,4,1:3:0:0:
172,115,93373,2,0,L|176:176,1,60.7500014831543,10|0,0:3|0:0,0:0:0:0:
225,284,93718,2,0,L|228:223,1,60.7500014831543,6|0,0:0|0:0,0:0:0:0:
275,115,94063,1,4,0:0:0:0:
275,115,94408,6,0,P|312:120|348:112,1,62.2500009023667,4|4,1:0|1:3,0:0:0:0:
420,40,94753,2,0,P|408:92|448:160,1,124.500001804733,10|0,0:3|0:0,0:0:0:0:
500,196,95270,2,0,L|496:264,1,62.2500009023667,10|4,0:3|0:0,0:0:0:0:
492,332,95615,1,0,0:0:0:0:
376,256,95787,5,4,1:0:0:0:
304,280,95959,1,4,1:3:0:0:
348,296,96132,2,0,L|312:168,1,127.50000243187,10|4,0:3|0:0,0:0:0:0:
393,152,96649,2,0,L|410:87,1,63.7500012159348,8|0,1:3|0:0,0:0:0:0:
331,98,96994,1,0,0:0:0:0:
476,160,97166,5,4,1:0:0:0:
452,236,97339,1,4,1:3:0:0:
313,173,97511,2,0,L|329:317,1,130.5000010952,8|0,1:3|0:0,0:0:0:0:
316,324,97942,1,0,0:0:0:0:
304,348,98028,2,0,L|232:344,2,65.2500005475998,8|4|0,1:3|0:0|0:0,0:0:0:0:
452,356,98546,5,4,1:0:0:0:
436,276,98718,1,4,1:3:0:0:
512,162,98891,2,0,L|500:228,1,66.7500000509262,8|0,1:3|0:0,0:0:0:0:
436,128,99235,1,4,0:0:0:0:
380,236,99408,1,8,1:3:0:0:
364,160,99580,2,0,P|356:128|368:92,1,66.7500000509262,4|0,0:0|0:0,0:0:0:0:
380,236,99925,6,0,P|340:252|300:248,1,68.2500022911073,4|4,1:0|0:3,0:0:0:0:
180,184,100270,2,0,B|192:252|192:252|176:324,1,136.500004582215,6|0,1:3|0:0,0:0:0:0:
104,216,100787,2,0,P|100:164|108:144,2,68.2500022911073,6|4|0,1:3|0:0|0:0,0:0:0:0:
256,180,101304,1,4,1:0:0:0:
192,236,101477,1,4,0:3:0:0:
320,236,101649,2,0,P|340:200|308:112,1,139.500004363632,6|4,1:3|0:0,0:0:0:0:
284,100,102080,1,0,3:0:0:0:
256,96,102166,2,0,B|288:96|312:112|312:112|336:80|384:80,1,139.500004363632,6|0,1:3|0:0,0:0:0:0:
420,224,102684,5,4,1:0:0:0:
444,140,102856,1,4,0:3:0:0:
472,292,103028,2,0,P|440:308|392:304,1,71.2499980974198,6|0,1:3|0:0,0:0:0:0:
336,256,103373,1,0,3:0:0:0:
336,256,103459,1,0,3:0:0:0:
336,256,103546,2,0,B|332:208|332:208|344:160|344:160|336:96,1,142.49999619484,2|0,1:3|0:0,0:0:0:0:
420,220,104063,6,0,P|456:224|496:220,1,72.7500017206193,4|4,1:0|0:3,0:0:0:0:
256,152,104408,2,0,P|220:148|180:152,1,72.7500017206193,6|0,1:3|0:0,0:0:0:0:
156,160,104666,1,0,3:0:0:0:
132,176,104753,2,0,L|84:172,1,36.3750008603096,6|0,3:2|0:0,0:0:0:0:
164,252,104925,2,0,L|212:248,1,36.3750008603096,2|0,1:3|0:0,0:0:0:0:
132,328,105097,2,0,P|100:308|84:260,1,72.7500017206193,4|0,0:0|0:0,0:0:0:0:
124,116,105442,5,4,1:0:0:0:
136,204,105615,1,4,0:3:0:0:
204,147,105787,2,0,P|240:144|277:146,1,74.249999773407,2|4,1:3|0:0,0:0:0:0:
304,160,106046,1,0,3:0:0:0:
328,176,106132,2,0,L|380:172,1,37.1249998867035,0|0,3:0|3:0,0:0:0:0:
388,252,106304,2,0,L|440:248,1,37.1249998867035,2|0,0:3|0:0,0:0:0:0:
448,328,106477,2,0,L|500:324,3,37.1249998867035,4|0|0|0,0:0|3:0|0:0|3:0,0:0:0:0:
500,240,106822,5,4,1:0:0:0:
452,164,106994,1,4,0:3:0:0:
308,248,107166,2,0,P|264:252|220:248,1,75.7499984973908,2|0,0:3|0:0,0:0:0:0:
204,236,107425,1,0,3:0:0:0:
180,220,107511,2,0,L|172:164,1,37.8749992486954,4|0,3:2|3:0,0:0:0:0:
244,136,107684,2,0,L|252:80,3,37.8749992486954,2|0|0|0,0:3|0:0|0:0|3:0,0:0:0:0:
180,52,108028,2,0,L|172:-4,1,37.8749992486954,0|0,3:0|3:0,0:0:0:0:
108,104,108201,5,2,0:0:0:0:
108,104,108373,1,2,0:0:0:0:
28,40,108546,2,0,L|24:0,2,28.1250010728836,10|0|2,0:0|0:0|0:0,0:0:0:0:
12,140,108891,2,0,P|-4:172|-4:208,1,56.2500021457673,2|6,0:0|0:0,0:0:0:0:
92,212,109235,2,0,P|90:249|83:281,1,56.2500021457673,2|2,0:0|0:0,0:0:0:0:
12,332,109580,5,6,0:0:0:0:
132,360,109753,1,2,0:0:0:0:
132,360,109839,1,0,0:0:0:0:
132,360,109925,2,0,L|180:356,1,28.1250010728836,2|0,0:0|0:0,0:0:0:0:
232,368,110097,2,0,L|280:364,1,28.1250010728836,10|0,0:0|0:0,0:0:0:0:
332,376,110270,2,0,P|364:364|376:312,1,84.3750032186509,2|0,0:0|0:0,0:0:0:0:
377,305,110615,2,2,L|363:247,3,37.5,8|0|0|0,0:1|0:0|0:0|0:0,1:1:0:0:
408,203,110959,5,4,1:0:0:0:
474,326,111132,1,4,0:3:0:0:
283,261,111304,1,2,0:0:0:0:
400,133,111477,1,0,0:0:0:0:
404,168,111563,1,0,3:0:0:0:
408,203,111649,2,0,L|389:246,2,44.999998626709,0|0|2,0:0|3:0|0:0,0:0:0:0:
289,168,111994,1,0,0:0:0:0:
257,185,112080,1,0,3:0:0:0:
221,189,112166,1,0,0:0:0:0:
185,183,112253,1,0,3:0:0:0:
154,164,112339,5,4,0:1:0:0:
225,85,112511,1,4,0:3:0:0:
296,264,112684,1,2,0:0:0:0:
358,138,112855,1,0,0:0:0:0:
368,103,112942,1,0,3:0:0:0:
378,68,113028,2,0,L|392:22,2,44.999998626709,0|0|2,0:0|3:0|0:0,0:0:0:0:
460,248,113373,1,0,0:0:0:0:
424,239,113459,1,0,3:0:0:0:
387,243,113546,1,0,0:0:0:0:
354,257,113632,1,0,3:0:0:0:
329,283,113718,5,4,0:1:0:0:
417,340,113891,1,4,0:3:0:0:
234,329,114063,1,2,0:0:0:0:
324,172,114235,1,0,0:0:0:0:
334,206,114322,1,0,3:0:0:0:
341,239,114408,2,0,L|325:293,2,44.999998626709,0|0|2,0:0|3:0|0:0,0:0:0:0:
391,102,114753,1,0,0:0:0:0:
360,82,114839,1,0,3:0:0:0:
324,74,114925,1,0,0:0:0:0:
288,81,115011,1,0,3:0:0:0:
259,102,115097,5,4,0:1:0:0:
324,172,115270,1,4,0:3:0:0:
155,207,115442,2,0,L|59:192,1,89.9999972534181,2|0,0:0|0:0,0:0:0:0:
37,191,115701,1,0,3:0:0:0:
37,191,115787,1,0,0:0:0:0:
145,74,115959,2,0,L|241:59,1,89.9999972534181,2|0,0:0|0:0,0:0:0:0:
263,58,116218,1,0,3:0:0:0:
263,58,116304,1,0,0:0:0:0:
379,113,116477,5,4,0:0:0:0:
263,163,116649,1,4,0:3:0:0:
391,222,116822,1,2,0:0:0:0:
271,280,116994,1,0,0:0:0:0:
235,275,117080,1,0,3:0:0:0:
199,270,117166,2,0,L|141:263,2,44.999998626709,0|0|2,0:0|3:0|0:0,0:0:0:0:
321,342,117511,1,0,0:0:0:0:
351,323,117597,1,0,3:0:0:0:
385,311,117684,1,0,0:0:0:0:
420,306,117770,1,0,3:0:0:0:
455,306,117856,5,4,0:1:0:0:
341,232,118028,1,4,0:3:0:0:
429,96,118201,2,0,L|439:195,1,89.9999972534181,2|0,0:0|0:0,0:0:0:0:
444,220,118459,1,0,3:0:0:0:
444,220,118546,1,0,0:0:0:0:
288,148,118718,2,0,L|298:49,1,89.9999972534181,2|0,0:0|0:0,0:0:0:0:
303,24,118976,1,0,3:0:0:0:
303,24,119063,1,0,0:0:0:0:
383,82,119235,5,4,0:3:0:0:
195,116,119408,1,4,0:3:0:0:
322,220,119580,1,2,0:0:0:0:
198,241,119753,1,0,0:0:0:0:
206,276,119839,1,0,3:0:0:0:
213,311,119926,2,0,L|223:366,2,44.999998626709,0|0|2,0:0|3:0|0:0,0:0:0:0:
239,152,120270,1,0,0:0:0:0:
206,136,120357,1,0,3:0:0:0:
171,127,120443,1,0,0:0:0:0:
135,125,120529,1,0,3:0:0:0:
99,133,120615,1,4,0:1:0:0:
11,204,120787,5,4,0:3:0:0:
113,257,120959,2,0,L|101:358,1,89.9999972534181,2|0,0:0|0:0,0:0:0:0:
104,381,121218,1,2,3:3:0:0:
104,381,121304,1,0,0:0:0:0:
238,289,121477,2,0,L|226:188,1,89.9999972534181,2|0,0:0|0:0,0:0:0:0:
227,167,121736,1,2,3:3:0:0:
227,167,121822,1,0,0:0:0:0:
321,231,121994,5,4,0:1:0:0:
378,134,122166,1,4,0:3:0:0:
285,71,122339,1,2,0:0:0:0:
378,134,122511,1,0,0:0:0:0:
410,148,122597,1,0,3:0:0:0:
443,162,122684,2,0,L|493:152,2,44.999998626709,0|0|2,0:0|3:0|0:0,0:0:0:0:
321,231,123028,1,0,0:0:0:0:
285,225,123115,1,0,3:0:0:0:
249,232,123201,1,0,0:0:0:0:
219,252,123287,1,0,3:0:0:0:
201,283,123373,5,4,0:1:0:0:
299,326,123546,1,4,0:3:0:0:
141,367,123718,2,0,L|46:352,1,89.9999972534181,2|0,0:0|0:0,0:0:0:0:
20,350,123977,1,0,3:0:0:0:
20,350,124063,1,0,0:0:0:0:
128,249,124235,2,0,L|223:234,1,89.9999972534181,2|0,0:0|0:0,0:0:0:0:
249,232,124494,1,0,3:0:0:0:
249,232,124580,1,0,0:0:0:0:
158,154,124753,5,4,0:1:0:0:
294,117,124925,1,4,0:3:0:0:
199,34,125097,1,2,0:0:0:0:
158,154,125270,1,0,0:0:0:0:
122,148,125356,1,0,3:0:0:0:
86,143,125442,2,0,L|33:162,2,44.999998626709,0|0|2,0:0|3:0|0:0,0:0:0:0:
207,227,125787,1,0,0:0:0:0:
242,221,125873,1,0,3:0:0:0:
277,224,125959,1,0,0:0:0:0:
311,236,126046,1,0,3:0:0:0:
339,258,126132,5,4,0:1:0:0:
404,170,126304,1,4,0:3:0:0:
492,231,126477,2,0,L|482:330,1,89.9999972534181,2|0,0:0|0:0,0:0:0:0:
483,352,126735,1,0,3:0:0:0:
483,352,126822,1,0,0:0:0:0:
339,258,126994,2,0,L|329:168,1,89.9999972534181,2|0,0:0|0:0,0:0:0:0:
330,137,127252,1,0,3:0:0:0:
330,137,127339,1,0,0:0:0:0:
240,197,127511,5,4,0:0:0:0:
152,132,127684,1,4,0:3:0:0:
246,80,127856,1,2,0:0:0:0:
240,197,128028,1,0,0:0:0:0:
228,231,128115,1,0,3:0:0:0:
216,265,128201,2,0,L|180:301,2,44.999998626709,0|0|2,0:0|3:0|0:0,0:0:0:0:
144,150,128546,1,0,0:0:0:0:
109,141,128632,1,0,3:0:0:0:
73,146,128718,1,0,0:0:0:0:
41,163,128804,1,0,3:0:0:0:
21,193,128891,5,4,0:1:0:0:
109,242,129063,1,4,0:3:0:0:
240,204,129235,2,0,P|253:144|242:100,1,89.9999972534181,2|0,0:0|0:0,0:0:0:0:
232,83,129494,1,0,3:0:0:0:
232,83,129580,1,0,0:0:0:0:
345,26,129753,2,0,P|332:86|343:130,1,89.9999972534181,2|0,0:0|0:0,0:0:0:0:
353,147,130012,1,0,3:0:0:0:
353,147,130098,1,0,0:0:0:0:
450,101,130270,5,4,0:3:0:0:
503,194,130442,1,0,0:0:0:0:
403,236,130615,2,0,L|411:293,5,44.999998626709,2|0|0|0|0|0,0:0|0:0|0:0|3:0|0:0|3:0,0:0:0:0:
326,267,131132,2,0,L|304:320,5,44.999998626709,2|0|0|0|0|0,0:0|0:0|0:0|3:3|2:0|3:3,0:0:0:0:
256,228,131649,2,0,L|256:176,5,44.999998626709,2|0|0|0|0|0,2:0|0:0|2:0|3:3|2:0|3:3,2:2:0:0:
202,308,132166,2,0,L|186:267,5,44.999998626709,2|0|0|0|0|0,2:0|0:0|2:0|3:3|2:0|3:3,2:2:0:0:
109,236,132683,2,0,L|102:280,3,44.999998626709,2|0|0|0,2:0|0:0|2:0|3:0,2:2:0:0:
40,332,133028,5,4,1:0:0:0:
2,245,133201,1,4,0:3:0:0:
55,157,133373,2,0,P|64:85|42:11,1,150,2|0,0:0|0:0,0:0:0:0:
178,78,133891,2,0,P|156:149|165:223,1,150,2|0,0:0|0:0,0:0:0:0:
268,264,134408,6,0,L|361:256,1,75,4|4,0:1|0:3,0:0:0:0:
479,190,134753,2,0,B|392:154|392:154|336:167,1,150,2|0,0:0|0:0,0:0:0:0:
215,52,135270,2,0,B|302:88|302:88|358:75,1,150,2|0,0:0|0:0,0:0:0:0:
459,12,135787,6,0,L|443:94,1,75,4|4,0:1|0:3,0:0:0:0:
300,124,136132,2,0,P|328:192|343:277,1,150,2|0,0:0|0:0,0:0:0:0:
485,198,136649,2,0,P|457:266|442:351,1,150,2|0,0:0|0:0,0:0:0:0:
271,359,137166,6,0,L|196:348,1,75,4|4,0:1|0:3,0:0:0:0:
89,264,137511,2,0,P|165:227|235:237,1,150,2|0,0:0|0:0,0:0:0:0:
330,290,138028,2,0,P|403:295|468:260,1,150,2|0,0:0|0:0,0:0:0:0:
496,157,138546,6,0,L|506:76,1,75,4|4,0:0|0:3,0:0:0:0:
347,19,138891,2,0,B|318:90|318:90|354:161,1,150,2|0,0:0|0:0,0:0:0:0:
239,275,139408,2,0,B|268:204|268:204|232:133,1,150,2|0,0:0|0:0,0:0:0:0:
94,209,139925,6,0,P|133:215|177:208,1,75,4|4,0:1|0:3,0:0:0:0:
137,107,140270,2,0,P|61:102|-2:147,1,150,2|0,0:0|0:0,0:0:0:0:
43,305,140787,2,0,P|119:310|182:265,1,150,2|0,0:0|0:0,0:0:0:0:
252,98,141304,6,0,P|233:133|222:173,1,75,4|4,0:3|0:3,0:0:0:0:
301,251,141649,2,0,P|376:233|454:236,1,150,2|0,0:0|0:0,0:0:0:0:
512,134,142166,2,0,P|437:135|364:118,1,150,2|0,0:0|0:0,0:0:0:0:
260,67,142684,6,0,P|247:26|243:-7,1,75,4|4,0:1|0:3,0:0:0:0:
271,177,143028,2,0,P|268:244|236:326,1,150,2|0,0:0|0:0,0:0:0:0:
131,203,143546,2,0,P|103:133|99:58,1,150,2|0,0:0|0:0,0:0:0:0:
296,55,144063,6,0,P|257:72|210:79,1,75,4|4,0:1|0:3,0:0:0:0:
351,162,144408,2,0,B|446:143|446:143|498:163,1,150,2|0,0:0|0:0,0:0:0:0:
420,267,144925,2,0,B|325:286|325:286|275:266,1,150,2|0,0:0|0:0,0:0:0:0:
173,163,145442,6,0,P|236:170|274:190,1,75,4|4,0:1|0:3,0:0:0:0:
81,240,145787,2,0,P|55:180|77:97,1,150,2|0,0:0|0:0,0:0:0:0:
173,163,146304,2,0,P|199:223|177:306,1,150,2|0,0:0|0:0,0:0:0:0:
80,341,146822,6,0,L|3:335,1,75,4|4,0:1|0:3,0:0:0:0:
179,302,147166,2,0,L|333:290,1,150,2|0,0:0|0:0,0:0:0:0:
209,209,147684,2,0,L|55:197,1,150,2|0,0:0|0:0,0:0:0:0:
28,104,148201,6,0,P|22:61|31:27,1,75,4|4,0:1|0:3,0:0:0:0:
225,67,148546,2,0,P|238:126|205:213,1,150,2|0,0:0|0:0,0:0:0:0:
338,329,149063,2,0,P|309:260|321:187,1,150,2|0,0:0|0:0,0:0:0:0:
406,121,149580,6,0,L|486:110,1,75,4|4,0:0|0:3,0:0:0:0:
321,188,149925,2,0,P|255:187|177:144,1,150,2|0,0:0|0:0,0:0:0:0:
54,297,150442,2,0,P|118:260|193:257,1,150,2|0,0:0|0:0,0:0:0:0:
345,342,150959,6,0,P|296:332|272:319,1,75,4|4,0:1|0:3,0:0:0:0:
428,198,151304,2,0,B|458:270|458:270|434:346,1,150,2|0,0:0|0:0,0:0:0:0:
306,241,151822,2,0,B|276:169|276:169|300:93,1,150,2|0,0:0|0:0,0:0:0:0:
418,79,152339,1,2,0:0:0:0:
41,91,155097,5,4,0:1:0:0:
144,121,155270,1,4,0:3:0:0:
66,194,155442,1,2,0:0:0:0:
113,42,155615,2,0,L|125:1,4,41.2500012588501,0|0|0|0|8,0:0|0:0|0:0|0:0|0:0,0:0:0:0:
217,95,156132,1,0,0:0:0:0:
200,128,156218,1,0,0:0:0:0:
190,163,156304,1,0,0:0:0:0:
185,200,156391,1,0,0:0:0:0:
186,236,156477,5,4,0:1:0:0:
287,202,156649,1,4,0:3:0:0:
368,268,156822,2,0,P|380:314|373:362,1,82.5000025177003,2|0,0:0|0:0,0:0:0:0:
261,320,157166,1,0,0:0:0:0:
287,202,157339,2,0,P|359:163|447:183,1,165.000005035401,8|0,0:0|0:0,0:0:0:0:
261,320,157856,6,0,L|169:311,1,82.5000025177003,4|4,0:1|0:3,0:0:0:0:
96,228,158201,1,2,0:0:0:0:
202,160,158373,2,0,L|209:208,4,41.2500012588501,0|0|0|0|8,0:0|0:0|0:0|0:0|0:0,0:0:0:0:
88,137,158891,1,0,0:0:0:0:
73,107,158977,1,0,0:0:0:0:
67,74,159063,1,0,0:0:0:0:
69,41,159149,1,0,0:0:0:0:
78,9,159235,5,4,0:1:0:0:
166,70,159408,1,4,0:3:0:0:
274,60,159580,2,0,P|327:38|355:16,2,82.5000025177003,2|0|0,0:0|0:0|0:0,0:0:0:0:
377,188,160097,2,0,P|296:150|211:152,1,165.000005035401,8|0,0:0|0:0,0:0:0:0:
91,234,160615,5,4,0:0:0:0:
167,308,160787,1,4,0:3:0:0:
67,334,160959,1,2,0:0:0:0:
182,217,161132,2,0,L|231:223,4,41.2500012588501,0|0|0|0|8,0:0|0:0|0:0|0:0|0:0,0:0:0:0:
116,137,161649,1,0,0:0:0:0:
152,139,161735,1,0,0:0:0:0:
189,133,161822,1,0,0:0:0:0:
222,116,161908,1,0,0:0:0:0:
250,92,161994,6,0,P|285:44|294:12,1,82.5000025177003,4|4,0:1|0:3,0:0:0:0:
364,115,162339,2,0,P|350:174|367:276,1,165.000005035401,2|0,0:0|0:0,0:0:0:0:
460,132,162856,2,0,L|451:42,1,82.5000025177003,8|0,0:0|0:0,0:0:0:0:
358,14,163201,1,0,0:0:0:0:
270,82,163373,5,4,0:3:0:0:
361,144,163546,1,4,0:3:0:0:
273,212,163718,1,2,0:0:0:0:
361,144,163891,2,0,L|413:153,4,41.2500012588501,0|0|0|0|8,0:0|0:0|0:0|0:0|0:0,0:0:0:0:
195,148,164408,1,0,0:0:0:0:
161,164,164494,1,0,0:0:0:0:
125,174,164580,1,0,0:0:0:0:
88,179,164666,1,0,0:0:0:0:
50,176,164753,5,4,0:1:0:0:
107,79,164925,1,4,0:3:0:0:
195,148,165097,2,0,P|211:202|208:234,1,82.5000025177003,2|0,0:0|0:0,0:0:0:0:
106,268,165442,1,0,0:0:0:0:
50,176,165615,2,0,P|28:99|45:12,1,165.000005035401,8|0,0:0|0:0,0:0:0:0:
214,56,166132,6,0,P|182:71|134:76,1,82.5000025177003,4|0,0:1|0:0,0:0:0:0:
279,127,166477,2,0,P|319:130|357:147,2,82.5000025177003,2|0|0,0:0|0:0|0:0,0:0:0:0:
175,178,166994,2,0,L|181:271,1,82.5000025177003,8|0,0:0|0:0,0:0:0:0:
272,320,167339,1,0,0:0:0:0:
279,222,167511,5,4,0:1:0:0:
176,359,167684,1,4,0:3:0:0:
272,320,167856,1,2,0:0:0:0:
180,260,168028,2,0,L|130:268,4,41.2500012588501,0|0|0|0|8,0:0|0:0|0:0|0:0|0:0,0:0:0:0:
279,222,168546,1,0,0:0:0:0:
311,239,168632,1,0,0:0:0:0:
346,248,168718,1,0,0:0:0:0:
382,252,168804,1,0,0:0:0:0:
419,247,168891,5,4,0:1:0:0:
372,153,169063,1,4,0:3:0:0:
472,117,169235,2,0,P|484:70|478:27,1,82.5000025177003,2|0,0:0|0:0,0:0:0:0:
377,4,169580,1,0,0:0:0:0:
299,80,169753,2,0,P|285:140|312:239,1,165.000005035401,8|0,0:0|0:0,0:0:0:0:
484,174,170270,6,0,P|435:167|394:174,1,82.5000025177003,4|4,0:1|0:3,0:0:0:0:
442,280,170615,1,2,0:0:0:0:
315,267,170787,2,0,L|321:309,4,41.2500012588501,0|0|0|0|8,0:0|0:0|0:0|0:0|0:0,0:0:0:0:
204,238,171304,1,0,0:0:0:0:
220,204,171391,1,0,0:0:0:0:
230,168,171477,1,0,0:0:0:0:
232,131,171563,1,0,0:0:0:0:
227,94,171649,5,4,0:0:0:0:
148,26,171822,1,4,0:3:0:0:
74,102,171994,2,0,L|91:192,1,82.5000025177003,2|0,0:0|0:0,0:0:0:0:
199,268,172339,1,0,0:0:0:0:
351,163,172511,2,0,P|276:143|183:180,1,165.000005035401,8|0,0:0|0:0,0:0:0:0:
332,262,173028,6,0,L|441:252,1,82.5000025177003,4|4,0:1|0:3,0:0:0:0:
496,182,173373,1,2,0:0:0:0:
416,109,173546,2,0,L|409:59,4,41.2500012588501,0|0|0|0|8,0:0|0:0|0:0|0:0|0:0,0:0:0:0:
307,10,174063,1,0,0:0:0:0:
305,38,174149,1,0,0:0:0:0:
300,66,174235,1,0,0:0:0:0:
291,93,174322,1,0,0:0:0:0:
280,115,174408,5,4,0:3:0:0:
203,74,174580,1,4,0:3:0:0:
141,137,174753,2,0,P|137:178|141:212,2,56.2500021457673,2|0|0,1:2|0:0|0:0,0:0:0:0:
231,202,175270,2,0,P|233:251|216:324,1,112.500004291535,0|0,1:0|0:0,0:0:0:0:
139,356,175787,6,0,L|74:343,2,56.2500021457673,2|0|0,1:2|0:0|0:0,0:0:0:0:
311,278,176304,2,0,L|376:265,2,56.2500021457673,0|0|0,1:0|0:0|0:0,0:0:0:0:
186,199,176822,2,0,L|196:264,1,56.2500021457673,2|0,1:2|0:0,0:0:0:0:
252,368,177166,1,0,1:0:0:0:
