osu file format v14

[General]
AudioFilename: audio.mp3
AudioLeadIn: 0
PreviewTime: 108891
Countdown: 0
SampleSet: Soft
StackLeniency: 0.7
Mode: 0
LetterboxInBreaks: 0
EpilepsyWarning: 1
WidescreenStoryboard: 1

[Editor]
Bookmarks: 33711,83354,88181,105097,120959,133028,143028,152339,153891,155097,164753,174408,177166
DistanceSpacing: 1.2
BeatDivisor: 4
GridSize: 4
TimelineZoom: 2.000001

[Metadata]
Title:Slip Away
TitleUnicode:Slip Away
Artist:The Prototypes
ArtistUnicode:The Prototypes
Creator:Secretpipe
Version:Collab Easy
Source:
Tags:dnb drum and bass C00L Nerova Riuz GX Kin Kyshiro Zerss phaZ
BeatmapID:1105430
BeatmapSetID:518278

[Difficulty]
HPDrainRate:2
CircleSize:3
OverallDifficulty:2
ApproachRate:2
SliderMultiplier:0.7
SliderTickRate:1

[Events]
//Background and Video events
0,0,"737184.jpg",0,0
//Break Periods
2,20117,21116
2,83354,87331
2,108401,109399
2,152538,153537
//Storyboard Layer 0 (Background)
//Storyboard Layer 1 (Fail)
//Storyboard Layer 2 (Pass)
//Storyboard Layer 3 (Foreground)
//Storyboard Sound Samples

[TimingPoints]
608,689.655172413793,4,2,1,50,1,0
608,-66.6666666666667,4,2,1,50,0,0
44746,344.827586206897,4,2,1,50,1,0
44746,-100,4,2,1,50,0,0
47160,344.827586206897,4,2,1,50,1,0
47160,-100,4,2,1,50,0,0
50267,344.827586206897,4,2,1,50,1,0
50267,-100,4,2,1,50,0,0
52682,344.827586206897,4,2,4,50,1,0
52682,-100,4,2,4,50,0,0
53199,-100,4,2,1,50,0,0
55781,344.827586206897,4,2,1,50,1,0
55781,-100,4,2,1,50,0,0
58184,344.827586206897,4,2,1,50,1,0
58184,-100,4,2,1,50,0,0
61297,344.827586206897,4,2,1,50,1,0
61297,-100,4,2,1,50,0,0
63700,344.827586206897,4,2,3,30,1,0
64044,689.655172413793,4,2,3,30,1,0
64733,-66.6666666666667,4,2,2,30,0,0
72319,-66.6666666666667,4,2,2,19,0,0
73699,-66.6666666666667,4,2,0,30,0,0
77837,-66.6666666666667,4,2,2,30,0,0
88891,344.827586206897,4,2,0,20,1,0
92856,-100,4,2,0,22,0,0
96994,-100,4,2,0,24,0,0
98373,-100,4,2,0,25,0,0
99063,-100,4,2,0,26,0,0
101132,-100,4,2,0,27,0,0
102511,-100,4,2,0,28,0,0
103891,-100,4,2,0,29,0,0
104580,-100,4,2,0,30,0,0
105787,-100,4,2,0,44,0,0
105959,-100,4,2,0,31,0,0
106304,-100,4,2,0,44,0,0
106649,-100,4,2,0,31,0,0
106822,-100,4,2,0,30,0,0
107166,-100,4,2,0,46,0,0
107339,-100,4,2,0,32,0,0
107684,-100,4,2,0,46,0,0
107856,-100,4,2,0,32,0,0
110959,-83.3333333333333,4,2,2,60,0,1
111132,-83.3333333333333,4,2,10,60,0,1
113718,-83.3333333333333,4,2,4,60,0,1
113891,-83.3333333333333,4,2,10,60,0,1
116477,-83.3333333333333,4,2,2,60,0,1
116649,-83.3333333333333,4,2,10,60,0,1
119235,-83.3333333333333,4,2,2,60,0,1
119408,-83.3333333333333,4,2,10,60,0,1
121994,-83.3333333333333,4,2,2,60,0,1
122080,-83.3333333333333,4,2,10,60,0,1
122684,-83.3333333333333,4,2,0,60,0,1
123718,-83.3333333333333,4,2,10,60,0,1
124063,-83.3333333333333,4,2,0,60,0,1
124753,-83.3333333333333,4,2,4,60,0,1
124925,-83.3333333333333,4,2,10,60,0,1
125442,-83.3333333333333,4,2,0,60,0,1
127511,-83.3333333333333,4,2,2,60,0,1
127684,-83.3333333333333,4,2,10,60,0,1
128201,-83.3333333333333,4,2,0,60,0,1
129235,-83.3333333333333,4,2,10,60,0,1
129580,-83.3333333333333,4,2,0,60,0,1
130270,-83.3333333333333,4,2,2,60,0,0
130442,-83.3333333333333,4,2,10,60,0,0
133028,-83.3333333333333,4,2,2,60,0,1
133201,-83.3333333333333,4,2,0,60,0,0
134753,-83.3333333333333,4,2,10,60,0,0
135787,-83.3333333333333,4,2,4,60,0,0
135960,-83.3333333333333,4,2,10,60,0,0
136477,-83.3333333333333,4,2,0,60,0,0
137511,-83.3333333333333,4,2,10,60,0,0
138546,-83.3333333333333,4,2,2,60,0,0
138718,-83.3333333333333,4,2,10,60,0,0
139235,-83.3333333333333,4,2,0,60,0,0
140270,-83.3333333333333,4,2,10,60,0,0
141304,-83.3333333333333,4,2,2,60,0,0
141477,-83.3333333333333,4,2,10,60,0,0
144063,-83.3333333333333,4,2,2,60,0,0
144149,-83.3333333333333,4,2,10,60,0,0
146822,-83.3333333333333,4,2,4,60,0,0
146994,-83.3333333333333,4,2,10,60,0,0
149580,-83.3333333333333,4,2,2,60,0,0
149753,-83.3333333333333,4,2,10,60,0,0
152339,-100,4,2,0,32,0,0
155097,-100,4,2,2,60,0,1
155270,-100,4,2,0,60,0,1
157856,-100,4,2,4,60,0,1
158028,-100,4,2,0,60,0,1
160615,-100,4,2,2,60,0,1
160787,-100,4,2,0,60,0,1
163373,-100,4,2,2,60,0,1
163546,-100,4,2,0,60,0,1
166132,-100,4,2,2,60,0,1
166304,-100,4,2,0,60,0,1
168891,-100,4,2,4,60,0,1
169063,-100,4,2,0,60,0,1
171649,-100,4,2,2,60,0,1
171822,-100,4,2,0,60,0,1
173891,-100,4,2,0,50,0,1
174408,-100,4,2,0,50,0,0
175787,-100,4,2,0,40,0,0
176822,-100,4,2,0,30,0,0

[Colours]
Combo1 : 213,69,0
Combo2 : 255,139,83
Combo3 : 230,115,0
Combo4 : 255,255,94

[HitObjects]
147,299,608,6,0,P|99:281|64:242,2,105.000004005432,4|0|0,0:1|0:0|0:0,0:0:0:0:
350,243,3366,2,0,P|394:259|442:319,2,105.000004005432,4|0|0,0:0|0:0|0:0,0:0:0:0:
148,180,6125,6,0,L|28:196,2,105.000004005432,4|0|0,0:3|0:0|0:0,0:0:0:0:
356,152,8883,2,0,L|480:136,2,105.000004005432,4|0|0,0:1|0:0|0:0,0:0:0:0:
260,192,10952,1,0,0:0:0:0:
164,232,11642,6,0,P|104:272|76:336,2,105.000004005432,4|0|0,0:1|0:0|0:0,0:0:0:0:
356,148,14401,2,0,P|416:108|444:44,2,105.000004005432,4|0|0,0:0|0:0|0:0,0:0:0:0:
228,316,17159,6,0,B|288:348|352:312|352:312|424:348|476:308|476:308|508:280|508:232|452:200|408:248,1,420.000016021729,4|4,0:3|0:1,0:0:0:0:
48,36,22676,6,0,P|56:100|80:168,1,105.000004005432,4|0,0:1|0:0,0:0:0:0:
135,219,24056,2,0,P|187:213|237:199,1,105.000004005432
332,154,25435,2,0,P|326:101|312:51,1,105.000004005432,4|0,0:0|0:0,0:0:0:0:
211,82,26814,2,0,P|216:134|230:184,1,105.000004005432
281,276,28194,6,0,P|362:323|351:146,2,367.500014019013,4|0|0,0:3|0:0|0:0,0:0:0:0:
176,288,33711,6,0,P|116:316|68:320,1,105.000004005432,4|0,0:1|0:0,0:0:0:0:
31,226,35090,2,0,P|47:166|84:127,1,105.000004005432
176,108,36470,2,0,P|204:168|207:215,1,105.000004005432,4|0,0:0|0:0,0:0:0:0:
261,295,37849,2,0,P|320:303|370:291,1,105.000004005432
408,198,39228,6,0,B|330:133|249:190|249:190|196:232|136:224|128:172|124:128|172:108|220:108,1,420.000016021729,4|4,0:3|0:0,0:0:0:0:
492,296,44745,6,0,B|432:232|452:140|452:140|408:112|408:112|360:124|360:124|340:188|356:232,1,367.500014019013,4|4,3:1|3:0,0:0:0:0:
371,359,47849,1,0,3:0:0:0:
232,338,48539,2,0,B|214:268|214:268|264:181|264:181|230:71,1,280,0|0,3:0|3:0,0:0:0:0:
180,29,50267,6,0,B|116:45|64:17|64:17|96:85|68:161|68:161|40:221|80:264|129:263|150:231,1,420,4|0,3:1|3:0,0:0:0:0:
191,192,52680,1,8,3:1:0:0:
314,126,53371,1,0,3:0:0:0:
248,324,54406,2,0,P|345:354|420:288,1,210,0|0,3:0|3:0,0:0:0:0:
446,224,55781,6,0,B|445:152|380:124|380:124|348:106|338:64|338:64|271:28|216:76|216:76|200:125|226:164,1,420,4|0,3:1|3:0,0:0:0:0:
250,220,58184,1,4,3:3:0:0:
321,340,58873,1,0,3:0:0:0:
183,365,59563,2,0,B|136:335|86:347|86:347|124:261|87:172,1,280,0|0,3:0|3:0,0:0:0:0:
65,105,61297,6,0,B|128:144|197:105|197:105|268:148|332:107|332:107|416:100|452:168,1,420,4|0,3:1|0:0,0:0:0:0:
337,338,64734,6,0,B|290:360|237:329|237:329|157:350|97:314|97:314|80:259|80:259|108:219|108:219|181:210,2,420.000016021729
475,54,72320,6,0,B|403:98|335:66|335:66|255:18|163:38|186:142|243:154|312:136,1,420.000016021729,12|0,0:1|0:0,0:0:0:0:
391,184,75768,6,0,P|447:176|503:148,2,105.000004005432,0|2|8,0:0|0:0|0:3,0:0:0:0:
360,284,77837,6,0,B|292:260|284:176|284:176|244:120|184:160|184:160|172:220|212:284|212:284|150:300|132:354|132:354|52:380|10:360|-16:272|48:229|77:220,1,735.000028038026,12|0,0:0|0:0,0:0:0:0:
119,46,88891,6,0,B|59:92|51:168|51:168|72:253|72:253|21:325|21:325|131:351|131:351|182:266|182:266|148:215|148:139|203:88|284:92|335:135|335:173,1,840,4|4,1:0|1:0,0:0:0:0:
383,295,93718,1,2,0:0:0:0:
334,164,94408,6,0,B|356:182|436:202|516:158|484:46|484:46|419:86|344:42|344:42|266:4|185:69,1,560,4|4,1:0|1:0,0:0:0:0:
27,290,98546,1,4,1:0:0:0:
147,360,99235,1,0,0:0:0:0:
232,249,99925,6,0,B|275:321|352:300|352:300|407:343|482:307,2,280,4|4|4,1:0|1:0|1:0,0:0:0:0:
59,28,104063,2,0,L|198:59,1,140,6|0,1:0|3:2,0:0:0:0:
256,192,105442,12,2,108201,0:0:0:0:
44,278,110959,5,4,1:0:0:0:
112,328,111304,2,0,P|200:295|256:308,1,125.999996154785,2|2,0:0|0:0,0:0:0:0:
352,320,112339,1,4,0:1:0:0:
422,274,112684,2,0,B|446:206|446:206|426:126,1,125.999996154785,2|2,0:0|0:0,0:0:0:0:
327,85,113718,5,4,0:1:0:0:
260,33,114063,2,0,P|244:101|280:157,1,125.999996154785,2|2,0:0|0:0,0:0:0:0:
370,223,115097,1,4,0:1:0:0:
410,149,115442,2,0,P|454:201|445:262,2,125.999996154785,2|2|4,0:0|0:0|0:0,0:0:0:0:
370,223,116822,6,0,P|307:211|251:170,1,125.999996154785,2|2,0:0|0:0,0:0:0:0:
167,87,117856,1,4,0:1:0:0:
91,126,118201,2,0,P|75:186|107:258,1,125.999996154785,2|2,0:0|0:0,0:0:0:0:
192,324,119235,1,4,0:3:0:0:
275,319,119580,6,0,P|236:257|171:248,1,125.999996154785,2|2,0:0|0:0,0:0:0:0:
72,296,120615,1,4,0:1:0:0:
37,219,120959,2,0,P|85:175|169:191,1,125.999996154785,2|2,0:0|0:0,0:0:0:0:
242,98,121994,6,0,P|198:66|146:62,2,83.9999974365235,4|2|2,0:1|0:0|0:0,0:0:0:0:
270,175,123028,1,2,0:0:0:0:
321,241,123373,2,0,P|353:193|349:153,1,83.9999974365235,4|2,0:1|0:0,0:0:0:0:
318,91,124063,2,0,P|328:45|360:12,1,83.9999974365235,2|2,0:0|0:0,0:0:0:0:
434,30,124753,6,0,B|445:77|404:113,1,83.9999974365235,4|2,0:1|0:0,0:0:0:0:
346,160,125442,1,2,0:0:0:0:
423,193,125787,1,2,0:0:0:0:
354,242,126132,6,0,B|298:258|298:258|226:250|226:250|162:266,1,167.999994873047,4|2,0:1|0:0,0:0:0:0:
136,326,127166,1,2,0:0:0:0:
68,275,127511,6,0,P|52:219|72:175,1,83.9999974365235,4|2,0:0|0:0,0:0:0:0:
142,189,128201,2,0,P|148:147|132:109,1,83.9999974365235,2|2,0:0|0:0,0:0:0:0:
88,37,128891,2,0,P|36:57|8:89,2,83.9999974365235,4|2|2,0:1|0:0|0:0,0:0:0:0:
171,28,129925,1,2,0:0:0:0:
230,87,130270,6,0,P|277:113|326:115,1,83.9999974365235,4|2,0:3|0:0,0:0:0:0:
431,131,131132,2,0,L|448:263,2,125.999996154785,2|2|2,0:0|2:0|2:0,2:2:0:0:
328,205,132684,1,2,2:0:0:0:
358,283,133028,6,0,P|280:316|203:282,1,167.999994873047,4|2,1:0|0:0,0:0:0:0:
155,219,134063,1,2,0:0:0:0:
197,146,134408,2,0,L|294:141,1,83.9999974365235,4|2,0:1|0:0,0:0:0:0:
404,165,135270,1,2,0:0:0:0:
343,276,135787,6,0,L|244:283,1,83.9999974365235,4|2,0:1|0:0,0:0:0:0:
179,255,136477,2,0,P|162:219|163:158,1,83.9999974365235,2|2,0:0|0:0,0:0:0:0:
182,94,137166,1,4,0:1:0:0:
238,31,137511,2,0,P|265:88|241:154,1,125.999996154785,2|2,0:0|0:0,0:0:0:0:
179,255,138546,5,4,0:0:0:0:
239,312,138891,2,0,P|291:315|338:305,1,83.9999974365235,2|2,0:0|0:0,0:0:0:0:
400,279,139580,1,2,0:0:0:0:
444,207,139925,1,4,0:1:0:0:
374,159,140270,2,0,P|320:151|239:177,1,125.999996154785,2|2,0:0|0:0,0:0:0:0:
162,258,141304,1,4,0:3:0:0:
92,305,141649,6,0,P|80:245|128:181,1,125.999996154785,2|2,0:0|0:0,0:0:0:0:
218,124,142684,1,4,0:1:0:0:
232,206,143028,2,0,P|243:271|213:337,2,125.999996154785,2|2|4,0:0|0:0|0:1,0:0:0:0:
156,168,144408,2,0,P|139:128|161:39,1,125.999996154785,2|2,0:0|0:0,0:0:0:0:
259,117,145442,5,4,0:1:0:0:
320,60,145787,2,0,P|346:116|325:174,1,125.999996154785,2|2,0:0|0:0,0:0:0:0:
228,254,146822,1,4,0:1:0:0:
258,331,147166,6,0,P|314:351|382:348,1,125.999996154785,2|2,0:0|0:0,0:0:0:0:
486,282,148201,1,4,0:1:0:0:
428,220,148546,2,0,P|440:152|413:94,1,125.999996154785,2|2,0:0|0:0,0:0:0:0:
316,27,149580,1,4,0:0:0:0:
255,85,149925,5,2,0:0:0:0:
311,197,150442,1,2,0:0:0:0:
221,285,150959,1,4,0:1:0:0:
144,250,151304,2,0,L|125:125,2,125.999996154785,2|2|2,0:0|0:0|0:0,0:0:0:0:
271,30,155097,6,0,B|280:110,1,70,4|2,0:1|0:0,0:0:0:0:
368,188,155959,1,8,0:0:0:0:
248,227,156477,2,0,P|214:235|180:230,1,70,4|2,0:1|0:0,0:0:0:0:
67,171,157339,1,8,0:0:0:0:
25,290,157856,6,0,P|70:337|94:345,1,70,4|2,0:1|0:0,0:0:0:0:
197,362,158718,1,8,0:0:0:0:
309,305,159235,2,0,P|306:257|284:218,1,70,4|2,0:1|0:0,0:0:0:0:
208,148,160097,1,8,0:0:0:0:
98,85,160615,5,4,0:0:0:0:
61,160,160959,2,0,P|76:212|119:247,1,105,2|8,0:0|0:0,0:0:0:0:
222,307,161994,1,4,0:1:0:0:
304,325,162339,2,0,P|356:309|391:266,1,105,2|8,0:0|0:0,0:0:0:0:
366,147,163373,6,0,P|321:147|281:164,1,70,4|2,0:3|0:0,0:0:0:0:
206,241,164235,1,8,0:0:0:0:
126,142,164753,2,0,P|156:73|285:37,1,210,4|0,0:1|0:0,0:0:0:0:
348,78,166132,6,0,L|346:156,1,70,4|2,0:1|0:0,0:0:0:0:
307,222,166822,2,0,P|280:232|230:228,1,70
166,188,167511,2,0,P|162:147|180:109,1,70,4|2,0:1|0:0,0:0:0:0:
267,38,168373,2,0,L|377:46,1,105,8|4,0:0|0:1,0:0:0:0:
451,73,169235,5,2,0:0:0:0:
364,165,169753,1,8,0:0:0:0:
424,275,170270,2,0,P|389:288|351:288,1,70,4|2,0:1|0:0,0:0:0:0:
231,270,171132,2,0,P|164:284|127:307,1,105,8|4,0:0|0:0,0:0:0:0:
65,351,171994,5,2,0:0:0:0:
22,232,172511,1,8,0:0:0:0:
117,150,173028,1,4,0:1:0:0:
192,187,173373,6,0,P|254:185|305:177,1,105,2|8,0:0|0:0,0:0:0:0:
256,192,174408,12,0,177166,3:0:0:0:
