osu file format v14

[General]
AudioFilename: audio.mp3
AudioLeadIn: 0
PreviewTime: 108891
Countdown: 0
SampleSet: Soft
StackLeniency: 0.7
Mode: 0
LetterboxInBreaks: 0
EpilepsyWarning: 1
WidescreenStoryboard: 1

[Editor]
Bookmarks: 33711,83354,88181,105097,120959,133028,143028,152339,153891,155097,164753,174408,177166
DistanceSpacing: 1.2
BeatDivisor: 4
GridSize: 4
TimelineZoom: 2.100001

[Metadata]
Title:Slip Away
TitleUnicode:Slip Away
Artist:The Prototypes
ArtistUnicode:The Prototypes
Creator:Secretpipe
Version:Normal
Source:
Tags:dnb drum and bass C00L Nerova Riuz GX Kin Kyshiro Zerss phaZ
BeatmapID:1109178
BeatmapSetID:518278

[Difficulty]
HPDrainRate:5
CircleSize:3.5
OverallDifficulty:5
ApproachRate:5
SliderMultiplier:1
SliderTickRate:1

[Events]
//Background and Video events
0,0,"737184.jpg",0,0
//Break Periods
2,83208,87691
//Storyboard Layer 0 (Background)
//Storyboard Layer 1 (Fail)
//Storyboard Layer 2 (Pass)
//Storyboard Layer 3 (Foreground)
//Storyboard Sound Samples

[TimingPoints]
608,689.655172413793,4,2,1,50,1,0
608,-66.6666666666667,4,2,1,50,0,0
44746,344.827586206897,4,2,1,50,1,0
44746,-125,4,2,1,50,0,0
47160,344.827586206897,4,2,1,50,1,0
47160,-125,4,2,1,50,0,0
50267,344.827586206897,4,2,1,50,1,0
50267,-125,4,2,1,50,0,0
52682,344.827586206897,4,2,4,50,1,0
52682,-125,4,2,4,50,0,0
55781,344.827586206897,4,2,1,50,1,0
58184,344.827586206897,4,2,1,50,1,0
58184,-125,4,2,1,50,0,0
61297,344.827586206897,4,2,1,50,1,0
61297,-125,4,2,1,50,0,0
63700,344.827586206897,4,2,3,30,1,0
64044,689.655172413793,4,2,3,30,1,0
64734,-66.6666666666667,4,2,2,30,0,0
66802,-66.6666666666667,4,2,2,30,0,0
69561,-66.6666666666667,4,2,2,24,0,0
69906,-66.6666666666667,4,2,2,30,0,0
72319,-66.6666666666667,4,2,2,19,0,0
73699,-66.6666666666667,4,2,0,30,0,0
77837,-66.6666666666667,4,2,2,30,0,0
88891,344.827586206897,4,2,0,20,1,0
88891,-125,4,2,0,20,0,0
90615,-125,4,2,0,22,0,0
90959,-125,4,2,0,20,0,0
91132,-125,4,2,0,22,0,0
91477,-125,4,2,0,21,0,0
91994,-125,4,2,0,24,0,0
92339,-125,4,2,0,21,0,0
92511,-125,4,2,0,24,0,0
92856,-125,4,2,0,22,0,0
93373,-125,4,2,0,26,0,0
93546,-125,4,2,0,22,0,0
94753,-125,4,2,0,28,0,0
95097,-125,4,2,0,23,0,0
95270,-125,4,2,0,28,0,0
95615,-125,4,2,0,23,0,0
96132,-125,4,2,0,30,0,0
96304,-125,4,2,0,24,0,0
96649,-125,4,2,0,30,0,0
96994,-125,4,2,0,24,0,0
97511,-125,4,2,0,32,0,0
97856,-125,4,2,0,25,0,0
98028,-125,4,2,0,32,0,0
98373,-125,4,2,0,25,0,0
98891,-125,4,2,0,34,0,0
99063,-125,4,2,0,26,0,0
99408,-125,4,2,0,34,0,0
99753,-125,4,2,0,26,0,0
100270,-125,4,2,0,36,0,0
100442,-125,4,2,0,27,0,0
100787,-125,4,2,0,36,0,0
101132,-125,4,2,0,27,0,0
101649,-125,4,2,0,38,0,0
101994,-125,4,2,0,28,0,0
102166,-125,4,2,0,38,0,0
102511,-125,4,2,0,28,0,0
103028,-125,4,2,0,40,0,0
103201,-125,4,2,0,29,0,0
103546,-125,4,2,0,40,0,0
103891,-125,4,2,0,29,0,0
104408,-125,4,2,0,42,0,0
104580,-125,4,2,0,30,0,0
104925,-125,4,2,0,42,0,0
105097,-125,4,2,0,30,0,0
105787,-125,4,2,0,44,0,0
105959,-125,4,2,0,31,0,0
106304,-125,4,2,0,44,0,0
106649,-125,4,2,0,31,0,0
107166,-125,4,2,0,46,0,0
107339,-125,4,2,0,32,0,0
107684,-125,4,2,0,46,0,0
107856,-125,4,2,0,32,0,0
110615,-133.333333333333,4,2,0,30,0,0
110959,-125,4,2,2,60,0,1
111132,-125,4,2,10,60,0,1
111649,-125,4,2,0,60,0,1
112684,-125,4,2,10,60,0,1
113028,-125,4,2,0,60,0,1
113718,-125,4,2,4,60,0,1
113891,-125,4,2,10,60,0,1
114408,-125,4,2,0,60,0,1
116477,-125,4,2,2,60,0,1
116649,-125,4,2,10,60,0,1
117166,-125,4,2,0,60,0,1
118201,-125,4,2,10,60,0,1
118546,-125,4,2,0,60,0,1
119235,-125,4,2,2,60,0,1
119408,-125,4,2,10,60,0,1
119925,-125,4,2,0,60,0,1
121994,-125,4,2,2,60,0,1
122080,-125,4,2,10,60,0,1
122684,-125,4,2,0,60,0,1
123718,-125,4,2,10,60,0,1
124063,-125,4,2,0,60,0,1
124753,-125,4,2,4,60,0,1
124925,-125,4,2,10,60,0,1
125442,-125,4,2,0,60,0,1
127511,-125,4,2,2,60,0,1
127684,-125,4,2,10,60,0,1
128201,-125,4,2,0,60,0,1
129235,-125,4,2,10,60,0,1
129580,-125,4,2,0,60,0,1
130270,-125,4,2,2,60,0,0
130442,-125,4,2,10,60,0,0
130959,-125,4,2,0,60,0,0
131649,-125,4,2,10,60,0,0
133028,-125,4,2,2,60,0,1
133201,-125,4,2,10,60,0,0
133718,-125,4,2,0,60,0,0
134753,-125,4,2,10,60,0,0
135097,-125,4,2,0,60,0,0
135787,-125,4,2,4,60,0,0
135960,-125,4,2,10,60,0,0
137856,-125,4,2,0,60,0,0
138546,-125,4,2,2,60,0,0
138718,-125,4,2,10,60,0,0
140615,-125,4,2,0,60,0,0
141304,-125,4,2,2,60,0,0
141477,-125,4,2,10,60,0,0
141994,-125,4,2,0,60,0,0
143028,-125,4,2,10,60,0,0
143373,-125,4,2,0,60,0,0
144063,-125,4,2,2,60,0,0
144149,-125,4,2,10,60,0,0
144753,-125,4,2,0,60,0,0
145787,-125,4,2,10,60,0,0
146132,-125,4,2,0,60,0,0
146822,-125,4,2,4,60,0,0
146994,-125,4,2,10,60,0,0
148891,-125,4,2,0,60,0,0
149580,-125,4,2,2,60,0,0
149753,-125,4,2,10,60,0,0
150270,-125,4,2,0,60,0,0
151304,-125,4,2,10,60,0,0
151649,-125,4,2,0,60,0,0
152339,-125,4,2,0,32,0,0
154753,-125,4,2,0,30,0,0
155097,-125,4,2,2,60,0,1
155270,-125,4,2,0,60,0,1
157856,-125,4,2,4,60,0,1
158028,-125,4,2,0,60,0,1
160615,-125,4,2,2,60,0,1
160787,-125,4,2,0,60,0,1
163373,-125,4,2,2,60,0,1
163546,-125,4,2,0,60,0,1
166132,-125,4,2,2,60,0,1
166304,-125,4,2,0,60,0,1
168891,-125,4,2,4,60,0,1
169063,-125,4,2,0,60,0,1
171649,-125,4,2,2,60,0,1
171822,-125,4,2,0,60,0,1
174063,-125,4,2,0,50,0,1
175787,-125,4,2,0,40,0,0
176822,-125,4,2,0,30,0,0

[Colours]
Combo1 : 213,69,0
Combo2 : 255,139,83
Combo3 : 230,115,0
Combo4 : 255,255,94

[HitObjects]
129,280,608,6,0,P|165:288|222:279,1,75.0000028610231,4|0,0:1|0:0,0:0:0:0:
282,244,1297,2,0,L|284:143,1,75.0000028610231,0|0,0:0|0:0,0:0:0:0:
230,95,1987,2,0,P|181:97|94:104,2,112.500004291535,0|0|0,0:0|0:0|0:0,0:0:0:0:
317,116,3366,6,0,L|419:111,1,75.0000028610231,4|0,0:0|0:0,0:0:0:0:
427,195,4056,2,0,L|346:195,1,75.0000028610231,0|0,0:0|0:0,0:0:0:0:
273,239,4745,2,0,P|267:308|308:354,2,112.500004291535,0|0|0,0:0|0:0|0:0,0:0:0:0:
272,148,6125,6,0,P|233:143|174:150,1,75.0000028610231,4|0,0:3|0:0,0:0:0:0:
132,207,6814,2,0,P|127:246|134:305,1,75.0000028610231,0|0,0:0|0:0,0:0:0:0:
54,332,7504,2,0,P|44:260|58:155,1,150.000005722046,0|0,0:0|0:0,0:0:0:0:
98,106,8539,1,0,0:0:0:0:
179,143,8883,6,0,L|262:134,1,75.0000028610231,4|0,0:1|0:0,0:0:0:0:
321,75,9573,1,0,0:0:0:0:
403,110,9918,1,0,0:0:0:0:
340,174,10263,2,0,L|335:260,1,75.0000028610231,0|0,0:0|0:0,0:0:0:0:
273,314,10952,2,0,P|236:320|182:304,1,75.0000028610231,0|0,0:0|0:0,0:0:0:0:
112,290,11642,5,4,0:1:0:0:
83,120,12332,1,0,0:0:0:0:
157,70,12676,1,0,0:0:0:0:
167,159,13021,2,0,P|224:173|296:163,1,112.500004291535,0|0,0:0|0:0,0:0:0:0:
318,150,13711,2,0,L|323:21,1,112.500004291535,0|0,0:0|0:0,0:0:0:0:
365,23,14401,6,0,L|461:14,1,75.0000028610231,4|0,0:0|0:0,0:0:0:0:
501,81,15090,2,0,L|486:169,1,75.0000028610231,0|0,0:0|0:0,0:0:0:0:
426,220,15780,2,0,B|357:187|357:187|266:210,1,150.000005722046,0|0,0:0|0:0,0:0:0:0:
200,234,16814,1,0,0:0:0:0:
144,162,17159,6,0,L|152:81,2,75.0000028610231,4|0|0,0:3|0:0|0:0,0:0:0:0:
104,243,18194,1,0,0:0:0:0:
161,312,18539,2,0,P|202:317|250:306,1,75.0000028610231,0|0,0:0|0:0,0:0:0:0:
317,276,19228,2,0,P|363:274|413:292,1,75.0000028610231,0|0,0:0|0:0,0:0:0:0:
460,338,19918,6,0,L|471:244,1,75.0000028610231,4|0,0:1|0:0,0:0:0:0:
420,187,20607,2,0,P|377:180|326:192,1,75.0000028610231,0|0,0:0|0:0,0:0:0:0:
266,226,21297,1,0,0:0:0:0:
183,190,21642,1,0,0:0:0:0:
200,101,21987,1,0,0:0:0:0:
289,93,22332,1,0,0:0:0:0:
336,169,22676,6,0,L|417:161,2,75.0000028610231,4|0|0,0:1|0:0|0:0,0:0:0:0:
266,226,23711,1,0,0:0:0:0:
192,278,24056,2,0,P|130:267|82:275,2,112.500004291535,0|0|0,0:0|0:0|0:0,0:0:0:0:
271,320,25435,1,4,0:0:0:0:
347,272,25780,1,0,0:0:0:0:
419,325,26125,1,0,0:0:0:0:
484,263,26470,1,0,0:0:0:0:
413,207,26814,6,0,L|402:77,2,112.500004291535,0|0|0,0:0|0:0|0:0,0:0:0:0:
347,272,28194,2,0,P|316:280|251:273,1,75.0000028610231,4|0,0:3|0:0,0:0:0:0:
185,258,28883,1,0,0:0:0:0:
144,177,29228,1,0,0:0:0:0:
173,92,29573,2,0,P|210:78|256:79,1,75.0000028610231,0|0,0:0|0:0,0:0:0:0:
333,96,30263,1,0,0:0:0:0:
396,159,30607,1,0,0:0:0:0:
342,231,30952,6,0,B|297:246|278:276|278:276|229:285|198:245|198:245|148:229|93:255|93:255|118:153|58:177|101:63,1,450.000017166138,4|0,0:1|0:0,0:0:0:0:
156,23,33366,1,0,0:0:0:0:
223,77,33711,2,0,L|335:85,1,112.500004291535,4|0,0:1|0:0,0:0:0:0:
379,78,34401,5,0,0:0:0:0:
416,159,34745,1,0,0:0:0:0:
358,228,35090,2,0,P|414:245|475:228,2,112.500004291535,0|0|0,0:0|0:0|0:0,0:0:0:0:
286,172,36470,6,0,L|272:83,1,75.0000028610231,4|0,0:0|0:0,0:0:0:0:
201,44,37159,2,0,L|181:138,1,75.0000028610231,0|0,0:0|0:0,0:0:0:0:
132,190,37849,2,0,B|68:196|68:196|12:167,2,112.500004291535,0|0|0,0:0|0:0|0:0,0:0:0:0:
210,234,39228,2,0,L|222:320,1,75.0000028610231,4|0,0:3|0:0,0:0:0:0:
294,359,39918,2,0,L|303:283,1,75.0000028610231,0|0,0:0|0:0,0:0:0:0:
374,229,40608,2,0,L|386:315,1,75.0000028610231,0|0,0:0|0:0,0:0:0:0:
464,344,41297,2,0,L|473:171,1,150.000005722046,0|4,0:0|0:0,0:0:0:0:
252,36,43021,5,0,0:0:0:0:
201,110,43366,2,0,L|82:117,2,112.500004291535,0|0|0,0:0|0:0|0:0,0:0:0:0:
273,163,44745,6,0,L|269:260,1,75.0000028610231,4|0,3:1|3:0,0:0:0:0:
319,320,45435,2,0,P|361:327|409:317,1,80,0|0,3:0|3:0,0:0:0:0:
473,261,46125,1,0,3:0:0:0:
433,172,46470,1,0,3:0:0:0:
463,81,46814,1,0,3:0:0:0:
379,33,47160,6,0,B|233:12|289:78|131:52,1,240,4|0,3:3|3:0,3:0:0:0:
50,31,48539,1,0,3:0:0:0:
73,124,48884,2,0,L|74:237,1,80,0|0,3:0|3:0,0:0:0:0:
129,282,49573,2,0,P|170:273|223:274,1,80,0|0,3:0|3:0,0:0:0:0:
304,282,50267,5,4,3:1:0:0:
390,322,50611,1,0,3:0:0:0:
461,258,50956,1,0,3:0:0:0:
377,210,51301,1,0,3:0:0:0:
292,163,51646,2,0,L|283:72,2,80,0|0|0,3:0|3:0|3:0,0:0:0:0:
248,249,52682,2,0,P|157:267|176:144,1,240,8|0,3:1|3:0,0:0:0:0:
329,64,54406,6,0,L|429:61,1,80,0|0,3:0|3:0,0:0:0:0:
487,116,55095,2,0,P|491:164|480:215,1,80,0|0,3:0|3:0,0:0:0:0:
447,282,55781,1,4,3:1:0:0:
356,249,56125,1,0,3:0:0:0:
274,300,56470,2,0,L|268:360,2,50,0|0|0,3:0|0:0|3:0,0:0:0:0:
192,248,57160,1,0,3:0:0:0:
113,303,57505,2,0,P|99:263|110:206,1,100,0|0,3:0|3:0,0:0:0:0:
156,127,58184,6,0,B|178:103|179:64|179:64|234:76|273:49|273:49|323:45|356:67,1,240,4|0,3:3|3:0,0:0:0:0:
415,124,59563,1,0,3:0:0:0:
326,160,59908,2,0,L|227:168,1,80,0|0,3:0|3:0,0:0:0:0:
167,221,60597,2,0,P|162:269|176:302,1,80,0|0,3:0|3:0,0:0:0:0:
242,369,61297,5,0,0:0:0:0:
300,295,61641,1,0,3:0:0:0:
383,343,61986,1,0,3:0:0:0:
447,271,62331,1,0,3:0:0:0:
367,217,62676,2,0,L|363:155,2,40,0|0|0,3:0|0:0|3:0,0:0:0:0:
450,169,63365,1,0,3:0:0:0:
356,98,63700,2,2,P|268:72|148:117,1,200,12|0,0:0|0:0,0:1:0:0:
114,174,64734,6,0,L|127:280,1,75.0000028610231,0|2,0:0|0:0,0:0:0:0:
179,318,65423,2,0,P|126:335|56:308,2,112.500004291535,2|2|2,0:0|0:0|0:0,0:0:0:0:
254,269,66802,1,4,0:0:0:0:
336,305,67147,1,2,0:0:0:0:
411,255,67492,6,0,L|422:150,1,75.0000028610231,0|2,0:0|0:0,0:0:0:0:
405,91,68182,2,0,B|344:67|301:110|301:110|234:79|256:124|169:97,1,225.000008583069,2|2,0:0|0:0,0:0:0:0:
103,84,69561,1,4,0:3:0:0:
67,166,69906,1,2,0:0:0:0:
155,181,70251,2,0,P|161:228|153:279,1,75.0000028610231,0|2,0:0|0:0,0:0:0:0:
119,336,70940,2,0,P|62:332|8:319,2,112.500004291535,2|2|2,0:0|0:0|0:0,0:0:0:0:
208,327,72320,6,0,P|294:244|223:95,2,300.000011444092,12|0|0,0:1|0:0|0:0,0:0:0:0:
87,188,75768,6,0,L|94:100,1,75.0000028610231,0|2,0:0|0:0,0:0:0:0:
162,55,76458,2,0,P|233:52|282:62,1,112.500004291535,2|2,0:0|0:0,0:0:0:0:
312,81,77147,2,0,L|315:165,1,75.0000028610231,8|4,0:3|0:3,0:0:0:0:
354,237,77837,6,0,B|231:288|266:218|113:259,1,225.000008583069,12|0,0:0|0:0,0:0:0:0:
62,308,79216,2,0,B|20:358|20:358|45:273|30:177,1,225.000008583069,0|0,0:0|0:0,0:0:0:0:
23,110,80595,2,0,B|107:97|107:97|173:110|173:110|265:91,1,225.000008583069,0|0,0:0|0:0,0:0:0:0:
332,77,81974,2,0,B|332:127|360:152|360:152|337:195|337:195|365:237|341:288,1,225.000008583069,0|0,0:0|0:0,0:0:0:0:
200,290,88891,6,0,L|285:284,1,80,4|10,1:0|0:3,0:0:0:0:
366,243,89580,2,0,P|381:206|376:155,1,80,0|0,0:0|0:0,0:0:0:0:
310,98,90270,2,0,L|173:105,2,120,4|0|0,1:0|0:0|0:0,0:0:0:0:
253,20,91649,6,0,L|160:25,1,80,4|10,1:0|0:3,0:0:0:0:
91,74,92339,1,0,0:0:0:0:
116,168,92684,1,0,0:0:0:0:
72,253,93028,1,4,1:0:0:0:
127,331,93373,1,10,0:3:0:0:
181,251,93718,2,0,B|241:242|241:242|310:259,1,120,2|0,0:0|0:0,0:0:0:0:
340,280,94408,5,4,1:0:0:0:
423,327,94753,1,10,0:3:0:0:
478,249,95097,1,0,0:0:0:0:
395,200,95442,1,0,0:0:0:0:
350,114,95787,2,0,L|358:30,1,80,4|10,1:0|0:3,0:0:0:0:
262,47,96477,2,0,L|252:146,1,80,0|0,0:0|0:0,0:0:0:0:
191,199,97166,5,4,1:0:0:0:
254,271,97511,2,0,B|300:284|300:284|374:255,1,120,8|8,1:3|1:3,0:0:0:0:
475,162,98546,2,0,L|470:77,1,80,4|8,1:0|1:3,0:0:0:0:
388,31,99235,2,0,P|331:21|261:39,1,120
230,60,99925,5,4,1:0:0:0:
147,109,100270,1,6,1:3:0:0:
232,153,100615,1,0,0:0:0:0:
149,201,100959,1,0,0:0:0:0:
232,248,101304,2,0,L|314:242,1,80,4|6,1:0|1:3,0:0:0:0:
387,182,101994,2,0,P|391:140|383:91,1,80,0|0,0:0|0:0,0:0:0:0:
311,42,102684,5,4,1:0:0:0:
246,112,103028,2,0,L|119:109,1,120,6|2,1:3|1:3,0:0:0:0:
208,227,104063,2,0,L|305:216,1,80,4|6,1:0|1:3,0:0:0:0:
318,309,104753,2,0,L|221:320,1,80,2|0,3:2|0:0,0:0:0:0:
146,293,105442,6,0,B|111:250|124:207|124:207|101:179|111:130,1,160,4|0,1:0|3:0,0:0:0:0:
127,48,106477,1,0,0:0:0:0:
190,120,106822,1,4,1:0:0:0:
261,56,107166,2,0,B|331:37|331:37|392:52,1,120,2|2,0:3|0:3,0:0:0:0:
454,169,108201,5,2,0:0:0:0:
402,251,108546,1,10,0:0:0:0:
356,166,108891,2,0,L|270:170,1,80,2|2,0:0|0:0,0:0:0:0:
205,234,109580,2,2,B|215:274|202:312|202:312|214:339|239:353,2,120,6|10|8,0:0|0:0|0:1,1:1:0:0:
174,142,110959,5,4,1:0:0:0:
236,69,111304,1,2,0:0:0:0:
142,46,111649,1,2,0:0:0:0:
77,116,111994,1,2,0:0:0:0:
112,205,112339,2,0,L|121:294,1,80,4|0,0:1|0:0,0:0:0:0:
192,347,113028,2,0,P|239:348|285:331,1,80,2|2,0:0|0:0,0:0:0:0:
355,294,113718,5,4,0:1:0:0:
446,323,114063,1,2,0:0:0:0:
491,238,114408,2,0,L|475:159,1,80,2|2,0:0|0:0,0:0:0:0:
377,176,115097,2,0,L|355:293,2,120,4|0|0,0:1|0:0|0:0,0:0:0:0:
345,85,116477,6,0,L|395:73,2,40,2|0|2,0:0|0:0|0:0,0:0:0:0:
245,89,117166,2,0,P|201:97|150:85,1,80,2|2,0:0|0:0,0:0:0:0:
77,55,117856,1,4,0:1:0:0:
34,141,118201,1,2,0:0:0:0:
117,187,118546,2,0,P|171:173|260:181,1,120,2|0,0:0|0:0,0:0:0:0:
281,187,119235,5,4,0:3:0:0:
358,244,119580,1,2,0:0:0:0:
378,150,119925,2,0,L|430:166,2,40,2|0|2,0:0|0:0|0:0,0:0:0:0:
300,92,120615,2,0,P|351:57|429:67,2,120,4|0|2,0:1|0:0|0:0,0:0:0:0:
229,156,121994,5,4,0:1:0:0:
142,114,122339,1,2,0:0:0:0:
75,183,122684,2,0,L|82:286,1,80,2|2,0:0|0:0,0:0:0:0:
128,345,123373,2,0,P|167:349|206:341,1,80,4|2,0:1|0:0,0:0:0:0:
295,305,124063,2,0,P|340:303|383:317,1,80,2|2,0:0|0:0,0:0:0:0:
451,368,124753,5,4,0:1:0:0:
470,274,125097,1,2,0:0:0:0:
394,215,125442,2,0,L|385:120,1,80,2|2,0:0|0:0,0:0:0:0:
317,68,126132,2,0,B|362:42|362:42|434:48,2,120,4|0|2,0:1|0:0|0:0,0:0:0:0:
235,118,127511,6,0,L|241:161,2,40,4|0|4,0:0|0:0|0:0,0:0:0:0:
155,63,128201,2,0,B|144:107|144:107|160:158,1,80,2|2,0:0|0:0,0:0:0:0:
187,230,128891,1,4,0:1:0:0:
149,317,129235,1,2,0:0:0:0:
245,327,129580,2,0,P|311:326|364:318,1,120,2|0,0:0|0:0,0:0:0:0:
408,297,130270,6,0,L|411:211,1,80,4|2,0:3|0:0,0:0:0:0:
356,138,130959,2,0,P|314:128|261:139,1,80,2|2,0:0|0:0,0:0:0:0:
223,211,131649,2,0,P|193:176|199:90,2,120,2|2|2,2:0|2:0|2:0,2:2:0:0:
307,257,133028,5,4,1:0:0:0:
311,161,133373,1,2,0:0:0:0:
389,216,133718,2,0,L|383:306,1,80,2|2,0:0|0:0,0:0:0:0:
453,361,134408,1,4,0:1:0:0:
495,275,134753,1,2,0:0:0:0:
475,181,135097,2,0,L|469:130,2,40,2|2|2,0:0|0:0|0:0,0:0:0:0:
389,216,135787,5,4,0:1:0:0:
320,148,136132,2,0,P|254:157|201:146,1,120,2|2,0:0|0:0,0:0:0:0:
71,84,137166,1,4,0:1:0:0:
41,175,137511,1,2,0:0:0:0:
118,232,137856,2,0,P|166:223|241:232,1,120,2|0,0:0|0:0,0:0:0:0:
281,248,138546,5,4,0:0:0:0:
372,277,138891,2,0,B|398:238|398:238|404:208|397:163,1,120,2|2,0:0|0:0,0:0:0:0:
346,30,139925,1,4,0:1:0:0:
264,81,140270,1,2,0:0:0:0:
178,36,140615,2,0,P|166:90|196:156,1,120,2|0,0:0|0:0,0:0:0:0:
219,185,141304,6,0,L|126:187,1,80,4|2,0:3|0:0,0:0:0:0:
46,214,141994,1,2,0:0:0:0:
9,302,142339,1,2,0:0:0:0:
86,359,142684,1,4,0:1:0:0:
121,270,143028,2,0,L|169:260,2,40,2|0|2,0:0|0:0|0:0,0:0:0:0:
194,331,143718,1,2,0:0:0:0:
249,252,144063,6,0,L|340:263,1,80,4|2,0:1|0:0,0:0:0:0:
414,219,144753,2,0,P|420:182|404:135,1,80,2|2,0:0|0:0,0:0:0:0:
337,76,145442,1,4,0:1:0:0:
252,122,145787,1,2,0:0:0:0:
162,86,146132,1,2,0:0:0:0:
78,133,146477,1,2,0:0:0:0:
164,175,146822,5,4,0:1:0:0:
242,229,147166,2,0,L|391:236,1,120,2|2,0:0|0:0,0:0:0:0:
494,178,148201,1,4,0:1:0:0:
440,98,148546,1,2,0:0:0:0:
358,47,148891,2,0,P|302:39|218:49,1,120,2|0,0:0|0:0,0:0:0:0:
196,65,149580,5,4,0:0:0:0:
104,34,149925,1,2,0:0:0:0:
33,99,150270,2,0,L|26:183,1,80,2|2,0:0|0:0,0:0:0:0:
84,254,150959,2,0,L|92:314,2,40,4|4|2,0:1|0:3|0:0,0:0:0:0:
128,168,151649,2,0,L|256:175,1,120,2|0,0:0|0:0,0:0:0:0:
291,193,152339,5,2,0:0:0:0:
361,258,152684,1,10,0:0:0:0:
444,211,153028,1,2,0:0:0:0:
426,116,153373,1,2,0:0:0:0:
330,102,153718,2,0,L|321:43,2,40,6|0|2,0:0|0:0|0:0,0:0:0:0:
291,193,154408,2,0,L|282:252,2,40,2|0|8,0:0|0:0|0:1,0:0:0:0:
211,138,155097,5,4,0:1:0:0:
126,92,155442,1,2,0:0:0:0:
57,159,155787,1,0,0:0:0:0:
98,245,156132,1,0,0:0:0:0:
193,237,156477,2,0,L|200:326,1,80,4|2,0:1|0:0,0:0:0:0:
283,269,157166,2,0,L|292:173,1,80,0|0,0:0|0:0,0:0:0:0:
341,107,157856,5,4,0:1:0:0:
270,41,158201,2,0,P|226:36|138:57,1,120,2|8,0:0|0:0,0:0:0:0:
35,135,159235,2,0,L|45:217,1,80,4|2,0:1|0:0,0:0:0:0:
111,283,159925,2,0,L|119:243,2,40
190,336,160615,6,0,P|229:338|267:326,1,80,4|2,0:0|0:0,0:0:0:0:
343,267,161304,2,0,L|328:177,1,80
382,105,161994,1,4,0:1:0:0:
288,82,162339,2,0,L|157:76,1,120,2|8,0:0|0:0,0:0:0:0:
29,96,163373,1,4,0:3:0:0:
63,185,163718,2,0,L|66:266,1,80,2|0,0:0|0:0,0:0:0:0:
118,345,164408,1,0,0:0:0:0:
176,268,164753,2,0,L|166:138,2,120,4|0|0,0:1|0:0|0:0,0:0:0:0:
223,351,166132,5,4,0:1:0:0:
285,278,166477,2,0,P|328:273|379:286,1,80,2|0,0:0|0:0,0:0:0:0:
447,326,167166,1,0,0:0:0:0:
481,236,167511,2,0,L|471:180,2,40,4|2|0,0:1|0:0|0:0,0:0:0:0:
397,188,168201,2,0,L|388:283,1,80
315,329,168891,6,0,P|278:335|223:324,1,80,4|2,0:1|0:0,0:0:0:0:
180,250,169580,2,0,L|176:163,1,80
214,81,170270,1,4,0:1:0:0:
302,44,170615,1,2,0:0:0:0:
386,89,170959,1,0,0:0:0:0:
299,130,171304,1,0,0:0:0:0:
215,177,171649,6,0,P|202:225|211:277,1,80,4|2,0:0|0:0,0:0:0:0:
269,325,172339,2,0,L|363:314,1,80
426,260,173028,2,0,L|413:164,1,80,4|2,0:1|0:0,0:0:0:0:
352,110,173718,6,0,P|286:97|190:117,1,160
256,192,174753,12,0,177166,3:0:0:0:
