osu file format v14

[General]
AudioFilename: audio.mp3
AudioLeadIn: 0
PreviewTime: 170038
Countdown: 0
SampleSet: Soft
StackLeniency: 0.7
Mode: 0
LetterboxInBreaks: 0
WidescreenStoryboard: 0

[Editor]
DistanceSpacing: 1.2
BeatDivisor: 2
GridSize: 4
TimelineZoom: 1.250003

[Metadata]
Title:One Moment
TitleUnicode:One Moment
Artist:The Prophet
ArtistUnicode:The Prophet
Creator:R4UP1
Version:Hard
Source:
Tags:
BeatmapID:1118967
BeatmapSetID:527403

[Difficulty]
HPDrainRate:6
CircleSize:3.7
OverallDifficulty:6.5
ApproachRate:8.3
SliderMultiplier:1.7
SliderTickRate:1

[Events]
//Background and Video events
0,0,"girl-music-wallpaper-wallpapers-hot-girls.jpg",0,0
//Break Periods
2,67838,79734
2,131838,143734
//Storyboard Layer 0 (Background)
//Storyboard Layer 1 (Fail)
//Storyboard Layer 2 (Pass)
//Storyboard Layer 3 (Foreground)
//Storyboard Sound Samples

[TimingPoints]
3638,400,4,1,0,100,1,0
3638,-166.666666666667,4,2,0,30,0,0
16438,-153.846153846154,4,2,0,35,0,0
29238,-133.333333333333,4,2,0,45,0,0
54838,-166.666666666667,4,2,0,15,0,0
58038,-200,4,2,0,15,0,0
61238,-250,4,2,0,15,0,0
64038,-500,4,2,0,15,0,0
67638,-200,4,2,0,5,0,0
80438,-133.333333333333,4,2,0,45,0,0
93238,-76.9230769230769,4,3,0,90,0,1
131638,-125,4,2,0,70,0,0
144438,-125,4,2,0,45,0,0
157238,-133.333333333333,4,2,0,45,0,0
170038,-76.9230769230769,4,3,0,90,0,1
194038,-100,4,2,0,5,0,0

[HitObjects]
432,280,3638,6,0,L|376:300,1,50.9999984436036,4|0,0:0|0:0,0:0:0:0:
372,220,4038,2,0,L|316:200,1,50.9999984436036
308,276,4438,2,0,L|252:296,1,50.9999984436036
248,216,4838,2,0,L|192:196,1,50.9999984436036
145,252,5238,2,0,L|145:308,1,50.9999984436036
68,288,5638,2,0,L|68:232,1,50.9999984436036
68,160,6038,2,0,L|112:112,1,50.9999984436036
156,68,6438,1,0,0:0:0:0:
156,68,6638,1,0,0:0:0:0:
300,212,6838,6,0,L|260:172,1,50.9999984436036,4|0,0:0|0:0,0:0:0:0:
224,244,7238,2,0,L|224:300,1,50.9999984436036
300,304,7638,2,0,L|352:272,1,50.9999984436036
391,217,8038,2,0,L|391:161,1,50.9999984436036
343,106,8438,2,0,L|300:80,1,50.9999984436036
223,80,8838,2,0,L|179:106,1,50.9999984436036
132,166,9238,2,0,L|132:217,1,50.9999984436036
179,277,9638,2,0,L|222:303,1,50.9999984436036
348,144,10038,6,0,L|308:204,1,50.9999984436036,4|0,0:0|0:0,0:0:0:0:
388,224,10438,2,0,L|348:284,1,50.9999984436036
312,328,10838,2,0,L|280:280,1,50.9999984436036
232,344,11238,2,0,L|172:344,1,50.9999984436036
104,328,11638,2,0,L|131:285,1,50.9999984436036
63,253,12038,2,0,L|59:202,1,50.9999984436036
137,207,12438,2,0,L|164:164,1,50.9999984436036
94,134,12838,2,0,L|90:83,1,50.9999984436036
260,196,13238,6,0,P|284:212|312:220,2,50.9999984436036,4|0|0,0:0|0:0|0:0,0:0:0:0:
316,144,13838,2,0,P|344:138|369:124,2,50.9999984436036
316,68,14438,2,0,P|332:43|340:16,2,50.9999984436036
260,16,15038,2,0,P|244:40|236:68,1,50.9999984436036
240,136,15438,1,0,0:0:0:0:
172,104,15638,2,0,L|116:124,1,50.9999984436036
88,188,16038,2,0,L|144:208,1,50.9999984436036
200,304,16438,5,2,0:0:0:0:
223,223,16638,1,0,0:0:0:0:
279,282,16838,1,0,0:0:0:0:
196,264,17038,1,2,0:0:0:0:
256,208,17238,1,0,0:0:0:0:
336,224,17438,1,0,0:0:0:0:
380,152,17638,2,0,P|403:172|420:208,1,55.2499974708558
276,104,18038,6,0,L|216:112,1,55.2499974708558,2|0,0:0|0:0,0:0:0:0:
140,124,18438,1,0,0:0:0:0:
72,76,18638,2,0,L|60:136,1,55.2499974708558,2|0,0:0|0:0,0:0:0:0:
44,212,19038,1,0,0:0:0:0:
56,296,19238,1,0,0:0:0:0:
120,348,19438,1,0,0:0:0:0:
244,236,19638,6,0,P|224:217|188:201,1,55.2499974708558,2|0,0:0|0:0,0:0:0:0:
120,188,20038,1,0,0:0:0:0:
199,204,20238,2,0,P|223:192|250:162,1,55.2499974708558,2|0,0:0|0:0,0:0:0:0:
272,96,20638,1,0,0:0:0:0:
324,160,20838,1,0,0:0:0:0:
364,88,21038,1,0,0:0:0:0:
484,204,21238,6,0,P|472:228|444:256,1,55.2499974708558,2|0,0:0|0:0,0:0:0:0:
376,272,21638,1,0,0:0:0:0:
296,292,21838,2,0,P|307:316|335:344,1,55.2499974708558,2|0,0:0|0:0,0:0:0:0:
408,349,22238,1,0,0:0:0:0:
376,272,22438,1,0,0:0:0:0:
316,216,22638,1,0,0:0:0:0:
180,308,22838,6,0,L|124:324,1,55.2499974708558,2|0,0:0|0:0,0:0:0:0:
56,280,23238,1,0,0:0:0:0:
128,240,23438,2,0,L|128:184,1,55.2499974708558,2|0,0:0|0:0,0:0:0:0:
56,143,23838,1,0,0:0:0:0:
112,80,24038,2,0,P|140:64|164:56,1,55.2499974708558
256,192,24438,5,2,0:0:0:0:
328,152,24638,1,0,0:0:0:0:
344,72,24838,1,0,0:0:0:0:
416,32,25038,2,0,L|436:84,1,55.2499974708558,2|0,0:0|0:0,0:0:0:0:
404,160,25438,2,0,L|424:212,1,55.2499974708558
456,288,25838,1,0,0:0:0:0:
292,296,26038,6,0,L|348:324,2,55.2499974708558,2|0|0,0:0|0:0|0:0,0:0:0:0:
228,352,26638,2,0,L|284:380,2,55.2499974708558,2|0|0,0:0|0:0|0:0,0:0:0:0:
152,380,27238,2,0,L|140:320,1,55.2499974708558
120,160,27638,6,0,P|96:184|76:196,1,55.2499974708558,2|0,0:0|0:0,0:0:0:0:
52,116,28038,1,0,0:0:0:0:
128,80,28238,2,0,P|160:91|179:103,1,55.2499974708558,2|0,0:0|0:0,0:0:0:0:
212,176,28638,1,0,0:0:0:0:
308,64,28838,6,0,L|264:116,1,55.2499974708558
212,176,29238,6,0,P|224:236|292:272,1,127.500004863739,2|0,0:0|0:0,0:0:0:0:
336,196,29838,1,0,0:0:0:0:
212,340,30238,1,0,0:0:0:0:
116,332,30438,1,0,0:0:0:0:
60,256,30638,1,0,0:0:0:0:
116,332,30838,6,0,P|151:277|138:205,1,127.500004863739,2|0,0:0|0:0,0:0:0:0:
68,160,31438,1,0,0:0:0:0:
236,252,31838,1,0,0:0:0:0:
288,172,32038,1,0,0:0:0:0:
376,140,32238,1,0,0:0:0:0:
387,233,32438,6,0,P|326:219|286:171,1,127.500004863739,2|0,0:0|0:0,0:0:0:0:
312,80,33038,1,0,0:0:0:0:
240,256,33438,1,0,0:0:0:0:
156,208,33638,1,0,0:0:0:0:
124,116,33838,1,0,0:0:0:0:
156,208,34038,6,0,P|136:267|84:302,1,127.500004863739,2|0,0:0|0:0,0:0:0:0:
59,209,34638,1,0,0:0:0:0:
192,348,35038,1,0,0:0:0:0:
284,328,35238,1,0,0:0:0:0:
328,244,35438,1,0,0:0:0:0:
235,220,35638,6,0,P|241:282|284:328,1,127.500004863739,2|0,0:0|0:0,0:0:0:0:
380,328,36238,2,0,P|422:282|428:220,1,127.500004863739
340,184,36838,1,0,0:0:0:0:
288,264,37038,1,0,0:0:0:0:
340,184,37238,6,0,P|288:140|216:120,1,127.500004863739,2|0,0:0|0:0,0:0:0:0:
140,148,37838,1,0,0:0:0:0:
140,148,38238,6,0,B|107:106|59:111|12:132|-5:192|42:270|83:220|132:224|148:328,1,318.750012159348
68,312,39438,6,0,B|196:280|260:304|267:360|366:409|449:391|488:299|475:208|412:164|311:168|273:212|270:272|273:341|360:348,1,701.250026750566
344,144,42038,6,0,P|251:187|217:268,1,191.250007295609,2|0,0:0|0:0,0:0:0:0:
160,152,43038,2,0,P|188:172|208:200,1,63.7500024318696
20,148,43638,6,0,P|64:56|146:23,1,191.250007295609,2|0,0:0|0:0,0:0:0:0:
160,152,44638,2,0,P|140:180|112:200,1,63.7500024318696
164,318,45238,6,0,B|104:274|104:274|44:166,1,191.250007295609,2|0,0:0|0:0,0:0:0:0:
176,184,46238,2,0,P|164:216|136:244,1,63.7500024318696
348,318,46838,6,0,B|408:274|408:274|468:166,1,191.250007295609,2|0,0:0|0:0,0:0:0:0:
336,184,47838,2,0,P|348:216|376:244,1,63.7500024318696
208,264,48438,6,0,B|184:252|184:252|176:264|176:264|164:252|164:252|144:264|144:264|136:244|136:244|128:252|128:252|96:228|52:240,1,191.250007295609,2|0,0:0|0:0,0:0:0:0:
256,327,49438,6,0,P|276:302|286:268,1,63.7500024318696
244,188,49838,1,0,0:0:0:0:
152,164,50038,2,0,L|116:104,1,63.7500024318696
208,76,50438,2,0,L|280:84,1,63.7500024318696
368,92,50838,1,0,0:0:0:0:
368,92,51038,6,0,P|280:136|418:141,1,382.500014591218
256,192,52438,12,0,54838,0:0:0:0:
128,276,55438,5,0,0:0:0:0:
128,276,56438,6,0,B|208:256|224:308|296:280,1,152.999995330811
424,96,58038,6,0,L|276:124,1,127.5
96,56,59638,6,0,B|104:103|104:103|100:135|100:135|112:199,1,127.5
84,264,60638,1,0,0:0:0:0:
84,264,61238,6,0,P|136:276|176:320,1,102
456,256,64038,6,0,L|448:300,1,34
256,192,64638,12,0,67638,0:0:0:0:
112,88,80438,6,0,B|135:159|135:159|96:268,1,191.250007295609,2|0,0:0|0:0,0:0:0:0:
400,88,82038,6,0,B|376:159|376:159|416:268,1,191.250007295609,2|0,0:0|0:0,0:0:0:0:
256,40,83638,6,0,L|256:240,1,191.250007295609,2|0,0:0|0:0,0:0:0:0:
40,296,85238,6,0,P|92:332|160:324,1,127.500004863739,2|0,0:0|0:0,0:0:0:0:
153,327,85838,2,0,P|132:268|164:200,1,127.500004863739
408,72,86838,6,0,L|388:132,1,63.7500024318696
332,208,87238,2,0,L|312:148,1,63.7500024318696
252,72,87638,2,0,L|232:132,1,63.7500024318696
140,164,88038,2,0,L|160:104,1,63.7500024318696
204,204,88438,6,0,L|224:264,1,63.7500024318696
132,244,88838,2,0,L|68:244,1,63.7500024318696
120,164,89238,2,0,L|140:104,1,63.7500024318696
216,44,89638,1,0,0:0:0:0:
311,44,89838,1,0,0:0:0:0:
396,88,90038,5,4,0:0:0:0:
405,100,90138,1,0,0:0:0:0:
413,114,90238,1,0,0:0:0:0:
420,128,90338,1,0,0:0:0:0:
425,144,90438,2,0,L|408:192,3,31.8750012159348
484,204,90838,6,0,L|501:251,3,31.8750012159348
488,264,91238,1,0,0:0:0:0:
472,291,91338,1,0,0:0:0:0:
447,311,91438,1,0,0:0:0:0:
418,323,91538,1,0,0:0:0:0:
386,323,91638,6,0,L|348:324,3,31.8750012159348
296,272,92038,2,0,L|276:320,3,31.8750012159348
212,332,92438,6,0,P|164:312|124:228,1,127.500004863739,4|0,0:0|0:0,0:0:0:0:
256,164,93038,1,4,0:0:0:0:
98,66,93238,5,0,0:0:0:0:
45,162,93438,1,0,0:0:0:0:
152,143,93638,2,0,P|185:100|179:20,1,110.499994941712,8|0,0:0|0:0,0:0:0:0:
292,84,94038,1,0,0:0:0:0:
372,160,94238,1,0,0:0:0:0:
308,252,94438,2,0,P|272:212|272:132,1,110.499994941712,8|0,0:0|0:0,0:0:0:0:
152,143,94838,1,0,0:0:0:0:
72,219,95038,1,0,0:0:0:0:
136,311,95238,2,0,P|172:271|172:191,1,110.499994941712,8|0,0:0|0:0,0:0:0:0:
288,236,95638,1,0,0:0:0:0:
243,337,95838,1,0,0:0:0:0:
136,311,96038,2,0,P|84:292|56:232,1,110.499994941712,8|0,0:0|0:0,0:0:0:0:
52,192,96338,1,0,0:0:0:0:
73,142,96438,6,0,P|97:90|137:50,1,110.499994941712
189,146,96838,2,0,P|235:112|290:98,1,110.499994941712,8|0,0:0|0:0,0:0:0:0:
281,210,97238,2,0,P|338:204|392:219,1,110.499994941712
329,310,97638,2,0,P|381:334|421:373,1,110.499994941712,8|0,0:0|0:0,0:0:0:0:
329,310,98038,2,0,B|281:319|281:319|209:298,1,110.499994941712
177,370,98438,2,0,B|137:343|137:343|100:276,1,110.499994941712,8|0,0:0|0:0,0:0:0:0:
189,214,98838,2,0,B|249:170|249:170|289:74,2,165.749992412568
81,190,99638,6,0,P|33:150|17:98,1,110.499994941712
125,126,100038,2,0,P|108:65|125:13,1,110.499994941712,8|0,0:0|0:0,0:0:0:0:
232,20,100438,2,0,P|244:73|228:125,1,110.499994941712
334,104,100839,2,0,P|313:154|270:187,1,110.499994941712,8|0,0:0|0:0,0:0:0:0:
373,234,101238,2,0,B|441:246|441:246|477:278,1,110.499994941712
393,351,101638,2,0,B|325:339|325:339|289:307,1,110.499994941712,8|0,0:0|0:0,0:0:0:0:
215,233,102038,2,0,B|184:205|184:205|116:193,1,110.499994941712
37,271,102439,2,0,B|67:298|67:298|135:310,1,110.499994941712,8|0,0:0|0:0,0:0:0:0:
28,122,102838,6,0,P|72:74|136:50,1,110.499994941712
200,126,103238,2,0,P|156:174|92:198,1,110.499994941712,8|0,0:0|0:0,0:0:0:0:
200,126,103638,2,0,P|264:114|329:133,1,110.499994941712
200,126,104038,2,0,P|163:72|154:4,1,110.499994941712,8|0,0:0|0:0,0:0:0:0:
265,26,104438,2,0,L|385:42,1,110.499994941712
453,119,104838,2,0,L|333:135,1,110.499994941712,8|0,0:0|0:0,0:0:0:0:
264,212,105238,2,0,L|384:228,1,110.499994941712
241,330,105638,5,0,0:0:0:0:
121,250,105838,1,0,0:0:0:0:
121,250,106038,6,0,L|97:138,1,110.499994941712
193,198,106438,2,0,L|193:86,1,110.499994941712,8|0,0:0|0:0,0:0:0:0:
271,166,106838,2,0,L|294:56,1,110.499994941712
357,150,107238,2,0,L|402:47,1,110.499994941712,8|0,0:0|0:0,0:0:0:0:
357,150,107638,2,0,L|402:252,1,110.499994941712
298,210,108038,2,0,L|181:262,1,110.499994941712,8|0,0:0|0:0,0:0:0:0:
235,151,108438,2,0,L|188:43,1,110.499994941712
295,90,108838,2,0,L|397:44,1,110.499994941712,8|0,0:0|0:0,0:0:0:0:
445,70,109138,1,0,0:0:0:0:
453,126,109238,6,0,L|425:246,1,110.499994941712
361,146,109638,2,0,L|333:266,1,110.499994941712,8|0,0:0|0:0,0:0:0:0:
265,166,110038,2,0,L|237:286,1,110.499994941712
173,186,110438,2,0,L|145:306,1,110.499994941712,8|0,0:0|0:0,0:0:0:0:
72,212,110838,6,0,P|48:168|64:96,1,110.499994941712
144,48,111238,2,0,P|192:36|260:44,1,110.499994941712,8|0,0:0|0:0,0:0:0:0:
340,108,111638,2,0,B|384:72|384:72|424:116|396:188,2,165.749992412568
316,216,112438,6,0,P|356:256|420:268,1,110.499994941712
240,204,112838,2,0,P|251:259|298:307,1,110.499994941712,8|0,0:0|0:0,0:0:0:0:
184,152,113238,2,0,P|163:204|176:269,1,110.499994941712
164,80,113638,2,0,P|118:113|93:174,1,110.499994941712,8|0,0:0|0:0,0:0:0:0:
252,76,114038,2,0,L|368:76,1,110.499994941712
204,152,114438,2,0,L|328:152,1,110.499994941712,8|0,0:0|0:0,0:0:0:0:
156,232,114838,2,0,L|280:232,1,110.499994941712
108,312,115238,2,0,L|232:312,1,110.499994941712,8|0,0:0|0:0,0:0:0:0:
329,312,115638,6,0,P|380:288|408:232,1,110.499994941712
406,131,116038,2,0,P|382:80|326:52,1,110.499994941712,8|0,0:0|0:0,0:0:0:0:
225,53,116438,2,0,P|178:80|155:130,1,110.499994941712
155,240,116838,2,0,P|177:289|224:317,1,110.499994941712,8|0,0:0|0:0,0:0:0:0:
302,239,117238,2,0,L|368:128,1,110.499994941712
312,44,117638,2,0,L|192:44,1,110.499994941712
156,144,118038,2,0,L|212:238,1,110.499994941712
70,159,118838,6,0,B|71:114|71:114|112:48,1,110.499994941712
148,144,119238,2,0,L|205:49,1,110.499994941712,8|0,0:0|0:0,0:0:0:0:
241,154,119638,2,0,L|365:154,1,110.499994941712
432,76,120038,2,0,L|320:76,1,110.499994941712,8|0,0:0|0:0,0:0:0:0:
241,154,120438,2,0,B|207:202|207:202|194:255,1,110.499994941712
232,356,120838,2,0,B|265:307|265:307|278:254,1,110.499994941712,8|0,0:0|0:0,0:0:0:0:
172,220,121238,2,0,L|60:244,1,110.499994941712
123,332,121638,2,0,L|231:355,1,110.499994941712,8|0,0:0|0:0,0:0:0:0:
286,355,121938,1,0,0:0:0:0:
341,355,122038,6,0,L|449:331,1,110.499994941712
352,276,122438,2,0,L|460:252,1,110.499994941712,8|0,0:0|0:0,0:0:0:0:
364,196,122838,2,0,L|472:172,1,110.499994941712
376,116,123238,2,0,L|484:92,1,110.499994941712,8|0,0:0|0:0,0:0:0:0:
388,36,123638,2,0,L|279:59,1,110.499994941712
212,148,124038,2,0,B|188:120|188:120|168:40,1,110.499994941712,8|0,0:0|0:0,0:0:0:0:
92,126,124438,2,0,L|92:238,1,110.499994941712
92,292,124738,1,0,0:0:0:0:
172,216,124938,2,0,L|192:268,1,55.2499974708558
256,360,125238,6,0,P|312:344|356:296,1,110.499994941712
452,348,125638,2,0,P|456:289|426:232,1,110.499994941712,8|0,0:0|0:0,0:0:0:0:
468,136,126038,2,0,P|409:131|352:161,1,110.499994941712
260,116,126438,2,0,P|255:174|285:231,1,110.499994941712,8|0,0:0|0:0,0:0:0:0:
363,152,126838,2,0,P|367:93|337:36,1,110.499994941712
236,40,127238,2,0,L|116:72,1,110.499994941712,8|0,0:0|0:0,0:0:0:0:
24,32,127638,2,0,L|60:148,1,110.499994941712
92,244,128038,2,0,L|128:360,1,110.499994941712,8|0,0:0|0:0,0:0:0:0:
156,128,128438,5,0,0:0:0:0:
256,327,128638,1,0,0:0:0:0:
290,106,128838,1,8,0:0:0:0:
134,263,129038,1,0,0:0:0:0:
352,228,129238,1,0,0:0:0:0:
156,128,129438,1,0,0:0:0:0:
336,256,129638,1,8,0:0:0:0:
256,52,129838,1,0,0:0:0:0:
72,192,130038,6,0,P|120:228|184:232,1,110.499994941712
244,88,130438,2,0,P|197:108|148:152,1,110.499994941712
88,300,130838,1,0,0:0:0:0:
88,300,131638,5,2,3:3:0:0:
452,112,144438,6,0,L|304:136,1,136
440,143,145238,2,0,L|292:167,1,136
428,175,146038,2,0,L|280:199,1,136
416,207,146838,2,0,L|268:231,1,136
60,112,147638,6,0,L|208:136,1,136
72,143,148438,2,0,L|220:167,1,136
84,175,149238,2,0,L|232:199,1,136
96,207,150038,2,0,L|244:231,1,136
336,56,150838,6,0,P|276:100|256:160,1,136
120,112,151638,2,0,P|164:172|224:192,1,136
176,328,152438,2,0,P|236:284|256:223,1,136
392,271,153238,2,0,P|348:212|288:192,1,136
176,56,154038,6,0,P|236:100|256:160,1,136
392,112,154838,2,0,P|348:172|288:192,1,136
336,328,155638,2,0,P|276:284|256:223,1,136
120,271,156438,2,0,P|164:212|224:192,1,136
360,224,157238,6,0,B|440:228|444:344|348:396|304:304|232:272|144:352,1,382.500014591218,2|0,0:0|0:0,0:0:0:0:
150,346,158838,2,0,B|132:369|76:380|36:360|24:300|40:240|96:180|176:180|228:196|256:240,1,382.500014591218,2|0,0:0|0:0,0:0:0:0:
241,222,160438,6,0,B|225:161|225:161|248:97|248:97|270:133|265:163,1,191.250007295609,2|0,0:0|0:0,0:0:0:0:
140,172,161438,2,0,P|120:152|108:116,1,63.7500024318696
216,48,162038,2,0,B|288:48|288:48|344:84|344:84|284:84,1,191.250007295609,2|0,0:0|0:0,0:0:0:0:
427,100,163038,2,0,P|425:68|412:40,1,63.7500024318696
376,260,163638,6,0,L|352:196,1,63.7500024318696
296,276,164038,2,0,L|273:335,1,63.7500024318696
216,260,164438,2,0,L|192:196,1,63.7500024318696
136,276,164838,2,0,L|113:335,1,63.7500024318696
52,260,165238,2,0,P|36:232|32:200,1,63.7500024318696
48,108,165638,2,0,P|64:80|89:60,1,63.7500024318696
184,48,166038,2,0,P|216:48|245:60,1,63.7500024318696
312,128,166438,2,0,P|344:127|373:115,1,63.7500024318696
432,40,166838,5,0,0:0:0:0:
449,66,166938,1,0,0:0:0:0:
460,96,167038,1,0,0:0:0:0:
465,127,167138,1,0,0:0:0:0:
463,159,167238,1,0,0:0:0:0:
453,189,167338,1,0,0:0:0:0:
438,217,167438,1,0,0:0:0:0:
417,241,167538,1,0,0:0:0:0:
391,260,167638,2,0,L|356:248,3,31.8750012159348
324,316,168038,6,0,L|288:328,3,31.8750012159348
256,256,168438,2,0,P|221:264|192:288,1,63.7500024318696,8|0,0:0|0:0,0:0:0:0:
128,348,168838,2,0,P|110:317|105:280,1,63.7500024318696
140,200,169238,1,2,0:0:0:0:
392,240,170038,5,0,0:0:0:0:
289,194,170238,1,0,0:0:0:0:
335,93,170438,1,8,0:0:0:0:
436,138,170638,1,0,0:0:0:0:
392,240,170838,2,0,P|352:284|296:304,1,110.499994941712
194,302,171238,2,0,P|143:280|107:239,1,110.499994941712,8|0,0:0|0:0,0:0:0:0:
136,132,171638,2,0,B|190:109|190:109|248:104,1,110.499994941712
344,64,172038,2,0,L|328:180,1,110.499994941712,8|0,0:0|0:0,0:0:0:0:
312,284,172438,1,0,0:0:0:0:
188,192,172838,5,0,0:0:0:0:
312,284,173038,1,0,0:0:0:0:
200,288,173238,6,0,L|76:296,1,110.499994941712
77,184,173638,2,0,L|201:192,1,110.499994941712,8|0,0:0|0:0,0:0:0:0:
296,196,174038,1,0,0:0:0:0:
388,136,174238,1,0,0:0:0:0:
364,28,174438,1,8,0:0:0:0:
280,96,174638,1,0,0:0:0:0:
388,136,174838,2,0,P|430:180|452:240,1,110.499994941712
388,320,175238,2,0,L|280:348,1,110.499994941712,8|0,0:0|0:0,0:0:0:0:
172,324,175638,2,0,P|140:276|176:176,2,165.749992412568
104,236,176438,6,0,P|56:264|24:316,1,110.499994941712
104,236,176838,2,0,P|60:200|40:148,1,110.499994941712,8|0,0:0|0:0,0:0:0:0:
104,60,177238,2,0,P|156:48|228:68,1,110.499994941712
272,152,177638,2,0,P|251:202|208:236,1,110.499994941712,8|0,0:0|0:0,0:0:0:0:
272,152,178038,2,0,L|388:164,1,110.499994941712
456,244,178438,2,0,L|340:256,1,110.499994941712,8|0,0:0|0:0,0:0:0:0:
456,244,178838,2,0,B|480:200|480:200|489:132,1,110.499994941712
381,163,179238,2,0,B|356:119|356:119|347:51,1,110.499994941712,8|0,0:0|0:0,0:0:0:0:
240,32,179638,6,0,P|192:60|160:116,1,110.499994941712
64,56,180038,2,0,P|50:109|66:171,1,110.499994941712,8|0,0:0|0:0,0:0:0:0:
132,248,180438,2,0,P|185:261|247:245,1,110.499994941712
268,356,180838,2,0,P|315:327|348:272,1,110.499994941712,8|0,0:0|0:0,0:0:0:0:
238,250,181238,1,0,0:0:0:0:
159,171,181438,1,0,0:0:0:0:
238,93,181638,1,8,0:0:0:0:
316,171,181838,1,0,0:0:0:0:
238,93,182038,2,0,P|288:64|352:64,1,110.499994941712
448,48,182438,2,0,L|408:164,1,110.499994941712,8|0,0:0|0:0,0:0:0:0:
376,256,182838,6,0,P|328:232|300:184,1,110.499994941712
256,284,183238,2,0,L|256:172,1,110.499994941712,8|0,0:0|0:0,0:0:0:0:
136,256,183638,2,0,P|184:232|212:184,1,110.499994941712
108,152,184038,2,0,P|60:176|32:224,1,110.499994941712,8|0,0:0|0:0,0:0:0:0:
56,332,184438,1,0,0:0:0:0:
160,368,184638,1,0,0:0:0:0:
256,312,184838,1,8,0:0:0:0:
352,368,185038,1,0,0:0:0:0:
455,331,185238,1,0,0:0:0:0:
422,226,185438,1,0,0:0:0:0:
315,261,185638,1,8,0:0:0:0:
352,368,185838,1,0,0:0:0:0:
422,226,186038,6,0,P|384:171|336:147,1,110.499994941712
452,124,186438,2,0,L|340:152,1,110.499994941712,8|0,0:0|0:0,0:0:0:0:
404,56,186838,2,0,L|292:84,1,110.499994941712
188,108,187238,2,0,L|76:136,1,110.499994941712,8|0,0:0|0:0,0:0:0:0:
24,228,187638,2,0,P|32:308|52:336,1,110.499994941712
128,256,188038,2,0,B|200:256|200:256|232:284,1,110.499994941712,8|0,0:0|0:0,0:0:0:0:
308,200,188438,1,0,0:0:0:0:
368,292,188638,1,0,0:0:0:0:
368,292,188738,1,0,0:0:0:0:
428,200,188938,1,0,0:0:0:0:
428,200,189038,1,0,0:0:0:0:
428,89,189238,6,0,L|428:213,1,110.499994941712
349,277,189638,2,0,L|221:277,1,110.499994941712,8|0,0:0|0:0,0:0:0:0:
160,198,190038,2,0,L|160:78,1,110.499994941712
238,8,190438,2,0,L|354:8,1,110.499994941712,8|0,0:0|0:0,0:0:0:0:
380,260,190838,6,0,P|320:252|276:216,1,110.499994941712
188,316,191238,2,0,P|196:256|232:212,1,110.499994941712,8|0,0:0|0:0,0:0:0:0:
132,124,191638,2,0,P|192:132|236:168,1,110.499994941712
324,68,192038,2,0,P|316:128|280:172,1,110.499994941712,8|0,0:0|0:0,0:0:0:0:
160,204,192438,1,0,0:0:0:0:
256,192,192638,12,2,194038,0:0:0:0:
