osu file format v14

[General]
AudioFilename: audio.mp3
AudioLeadIn: 0
PreviewTime: 218127
Countdown: 1
SampleSet: Normal
StackLeniency: 0.7
Mode: 0
LetterboxInBreaks: 0
WidescreenStoryboard: 0

[Editor]
Bookmarks: 23984,34270,35984,56556
DistanceSpacing: 1.8
BeatDivisor: 2
GridSize: 4
TimelineZoom: 1

[Metadata]
Title:Omen
TitleUnicode:Omen
Artist:The Prodigy
ArtistUnicode:The Prodigy
Creator:przepson
Version:This is orginal song I SWEAR
Source:
Tags:
BeatmapID:1694278
BeatmapSetID:807251

[Difficulty]
HPDrainRate:5
CircleSize:5
OverallDifficulty:8
ApproachRate:9
SliderMultiplier:3
SliderTickRate:2

[Events]
//Background and Video events
0,0,"S6CaYaY.jpg",0,0
//Break Periods
//Storyboard Layer 0 (Background)
//Storyboard Layer 1 (Fail)
//Storyboard Layer 2 (Pass)
//Storyboard Layer 3 (Foreground)
//Storyboard Sound Samples

[TimingPoints]
1699,428.571428571429,4,1,0,100,1,0
1699,-200,4,1,0,100,0,0
8556,-100,4,1,0,100,0,0
14984,-1000,4,1,0,100,0,0
15199,-100,4,1,0,100,0,0
23984,-66.6666666666667,4,1,0,100,0,0
24413,-100,4,1,0,100,0,0
25699,-62.5,4,1,0,100,0,0
26127,-100,4,1,0,100,0,0
27413,-62.5,4,1,0,100,0,0
27841,-100,4,1,0,100,0,0
28699,-1000,4,1,0,100,0,0
28913,-100,4,1,0,100,0,0
29127,-55.5555555555556,4,1,0,100,0,0
29556,-100,4,1,0,100,0,0
30841,-55.5555555555556,4,1,0,100,0,0
31270,-100,4,1,0,100,0,0
32556,-55.5555555555556,4,1,0,100,0,0
32984,-100,4,1,0,100,0,0
34270,-133.333333333333,4,1,0,100,0,0
35984,-100,4,1,0,100,0,0
56556,-66.6666666666667,4,1,0,100,0,0
58913,-57.1428571428571,4,1,0,100,0,0
59341,-66.6666666666667,4,1,0,100,0,0
59770,-57.1428571428571,4,1,0,100,0,0
59984,-57.1428571428571,4,1,0,100,0,0
63627,-40,4,1,0,100,0,0
64484,-50,4,1,0,100,0,0
64699,-66.6666666666667,4,1,0,100,0,0
66841,-66.6666666666667,4,1,0,100,0,1
70056,-66.6666666666667,4,1,0,100,0,0

[HitObjects]
133,70,1699,6,0,P|180:53|293:63,1,150
356,102,2341,1,0,0:0:0:0:
419,166,2556,1,0,0:0:0:0:
356,102,2770,1,0,0:0:0:0:
299,171,2984,1,0,0:0:0:0:
356,102,3199,1,0,0:0:0:0:
362,235,3413,6,0,P|363:258|254:332,1,150
189,314,4056,1,0,0:0:0:0:
189,314,4270,1,0,0:0:0:0:
117,259,4484,1,0,0:0:0:0:
118,168,4699,1,0,0:0:0:0:
117,259,4913,1,0,0:0:0:0:
196,216,5127,6,0,P|234:200|211:99,1,150
149,58,5770,1,0,0:0:0:0:
149,58,5984,2,0,P|88:77|61:104,1,75
76,173,6413,2,0,P|78:214|100:255,1,75
166,295,6841,6,0,L|328:318,1,150
404,321,7484,1,0,0:0:0:0:
446,241,7699,1,0,0:0:0:0:
462,199,7806,1,0,0:0:0:0:
457,154,7913,1,0,0:0:0:0:
357,23,8127,1,0,0:0:0:0:
169,74,8341,1,0,0:0:0:0:
32,255,8556,6,0,B|69:228|106:141|139:294|197:347|289:209,1,300
374,71,9199,2,0,L|470:46,1,75
470,138,9413,2,0,L|393:162,1,75
424,246,9627,2,0,L|520:211,1,75
498,310,9841,2,0,L|426:336,1,75
337,342,10056,1,0,0:0:0:0:
249,322,10163,1,0,0:0:0:0:
164,290,10270,6,0,B|75:260|73:260|73:258|64:157|64:157|149:66,1,300
491,50,10913,1,0,0:0:0:0:
247,302,11127,1,0,0:0:0:0:
186,34,11341,1,0,0:0:0:0:
476,278,11556,1,0,0:0:0:0:
122,147,11770,1,0,0:0:0:0:
469,54,11984,6,0,B|490:130|490:130|451:218|451:218|339:246|281:200,1,300
40,44,12627,1,0,0:0:0:0:
180,304,12841,2,0,P|265:320|339:298,1,150
360,288,13163,1,0,0:0:0:0:
392,268,13270,2,0,P|416:248|436:204,3,75
444,120,13699,6,0,B|376:164|376:164|376:92|328:28|256:132|256:132|176:112,1,300
72,56,14341,1,0,0:0:0:0:
480,248,14556,1,0,0:0:0:0:
412,280,14663,1,0,0:0:0:0:
340,300,14770,1,0,0:0:0:0:
264,292,14877,1,0,0:0:0:0:
196,260,14984,2,0,P|188:252|184:244,1,15
264,88,15413,6,0,P|384:28|424:168,1,300
352,312,16056,2,0,L|248:224,1,75
174,150,16270,2,0,L|228:204,1,75
212,292,16484,2,0,L|108:204,1,75
34,130,16698,2,0,L|87:183,1,75
152,244,16913,1,0,0:0:0:0:
232,288,17020,1,0,0:0:0:0:
320,308,17127,6,0,B|376:312|464:304|504:232|504:232|412:136,1,300
316,40,17770,1,0,0:0:0:0:
16,244,17984,1,0,0:0:0:0:
364,148,18199,1,0,0:0:0:0:
112,376,18413,1,0,0:0:0:0:
212,32,18627,1,0,0:0:0:0:
212,32,18734,1,0,0:0:0:0:
212,32,18841,6,0,B|136:72|136:72|56:48|120:128|20:120|20:120|56:236,1,300
268,340,19484,2,0,P|360:344|448:312,1,150
252,24,19913,1,0,0:0:0:0:
32,296,20127,1,0,0:0:0:0:
376,80,20341,2,0,P|416:172|412:204,1,75
504,152,20556,6,0,P|432:204|212:188,1,300
96,76,21199,1,0,0:0:0:0:
448,56,21413,2,0,L|480:128,1,75
504,76,21627,2,0,L|424:112,1,75
440,156,21841,1,0,0:0:0:0:
440,156,22056,1,0,0:0:0:0:
32,264,22270,6,0,L|356:328,1,300
504,32,22913,1,0,0:0:0:0:
116,88,23127,1,0,0:0:0:0:
448,188,23341,1,0,0:0:0:0:
72,240,23556,1,0,0:0:0:0:
432,336,23770,1,0,0:0:0:0:
116,100,23984,6,0,B|164:0|240:116|240:116|440:144|296:-16|280:208|280:208|296:232,1,450.000017166138
104,228,24627,2,0,L|208:272,1,75
256,288,24841,2,0,L|384:332,1,75
404,268,25056,2,0,L|292:224,1,75
252,208,25270,2,0,L|152:168,1,75
164,92,25484,1,0,0:0:0:0:
248,124,25591,1,0,0:0:0:0:
328,164,25699,6,0,B|416:204|416:204|388:120|484:140|472:72|376:72|376:72|248:0|248:144,1,480
72,156,26341,1,0,0:0:0:0:
180,300,26556,1,0,0:0:0:0:
360,308,26770,1,0,0:0:0:0:
488,180,26984,1,0,0:0:0:0:
72,156,27199,1,0,0:0:0:0:
436,40,27413,6,0,B|424:160|448:272|448:272|384:328|328:212|328:208|296:276|268:224|268:224|288:140,1,480
328,8,28056,1,0,0:0:0:0:
32,260,28270,1,0,0:0:0:0:
116,292,28377,1,0,0:0:0:0:
204,296,28484,1,0,0:0:0:0:
288,264,28591,1,0,0:0:0:0:
364,216,28699,2,0,P|372:212|380:204,1,15
104,32,29127,6,0,B|-56:216|192:316|260:320|260:320|120:188|136:124,1,539.999983520508
232,60,29770,2,0,L|324:48,1,75
372,112,29984,2,0,L|392:236,1,75
332,260,30199,2,0,L|232:276,1,75
192,212,30413,2,0,L|176:108,1,75
164,48,30627,1,0,0:0:0:0:
180,136,30734,1,0,0:0:0:0:
196,224,30841,6,0,B|208:292|256:320|256:320|368:328|368:328|308:252|308:252|416:260|416:260|304:112,1,539.999983520508
248,28,31484,1,0,0:0:0:0:
28,300,31699,1,0,0:0:0:0:
420,356,31913,1,0,0:0:0:0:
324,0,32127,1,0,0:0:0:0:
332,352,32341,1,0,0:0:0:0:
36,72,32556,6,0,B|60:240|184:204|184:204|120:120|164:84|164:84|212:152|256:120|256:120|224:88|224:88|304:48,1,539.999983520508
408,24,33199,2,0,L|484:88,1,75
412,144,33413,2,0,L|292:132,1,75
264,188,33627,2,0,L|256:296,1,75
176,296,33841,2,0,L|88:268,1,75
20,244,34056,1,0,0:0:0:0:
64,164,34163,1,0,0:0:0:0:
64,164,34270,6,0,P|132:104|144:96,1,56.2500021457673
240,28,34591,2,0,L|304:84,1,56.2500021457673
412,176,34913,2,0,L|360:224,1,56.2500021457673
240,324,35234,2,0,L|176:284,1,56.2500021457673
136,256,35449,1,0,0:0:0:0:
96,204,35556,1,0,0:0:0:0:
100,76,35770,1,0,0:0:0:0:
268,271,35984,6,0,L|268:195,1,75
268,196,36199,5,0,0:0:0:0:
268,196,36306,1,0,0:0:0:0:
268,196,36413,1,0,0:0:0:0:
332,60,36627,5,0,0:0:0:0:
332,60,36734,1,0,0:0:0:0:
332,60,36841,1,0,0:0:0:0:
408,192,37056,1,0,0:0:0:0:
408,192,37163,1,0,0:0:0:0:
408,192,37270,1,0,0:0:0:0:
336,324,37484,1,0,0:0:0:0:
336,324,37591,1,0,0:0:0:0:
336,324,37699,1,0,0:0:0:0:
176,324,37913,5,0,0:0:0:0:
176,324,38021,1,0,0:0:0:0:
176,324,38128,1,0,0:0:0:0:
104,192,38342,1,0,0:0:0:0:
104,192,38449,1,0,0:0:0:0:
104,192,38556,1,0,0:0:0:0:
180,60,38771,1,0,0:0:0:0:
180,60,38878,1,0,0:0:0:0:
180,60,38985,1,0,0:0:0:0:
256,188,39199,5,0,0:0:0:0:
256,188,39306,1,0,0:0:0:0:
256,188,39413,1,0,0:0:0:0:
256,188,39627,5,0,0:0:0:0:
256,188,39734,1,0,0:0:0:0:
256,188,39841,1,0,0:0:0:0:
256,188,40056,5,0,0:0:0:0:
256,188,40163,1,0,0:0:0:0:
256,188,40270,1,0,0:0:0:0:
256,188,40484,5,0,0:0:0:0:
256,188,40591,1,0,0:0:0:0:
256,188,40698,1,0,0:0:0:0:
256,188,40913,5,0,0:0:0:0:
256,188,41020,1,0,0:0:0:0:
256,188,41127,1,0,0:0:0:0:
256,188,41341,5,0,0:0:0:0:
256,188,41448,1,0,0:0:0:0:
256,188,41555,1,0,0:0:0:0:
256,188,41770,5,0,0:0:0:0:
256,188,41877,1,0,0:0:0:0:
256,188,41984,1,0,0:0:0:0:
256,188,42091,1,0,0:0:0:0:
256,188,42199,1,0,0:0:0:0:
256,188,42306,1,0,0:0:0:0:
256,188,42413,1,0,0:0:0:0:
256,188,42520,1,0,0:0:0:0:
256,188,42627,1,0,0:0:0:0:
188,248,42734,1,0,0:0:0:0:
92,192,42841,6,0,P|56:160|208:80,2,300
232,248,43913,5,0,0:0:0:0:
232,248,44020,1,0,0:0:0:0:
232,248,44127,1,0,0:0:0:0:
372,296,44341,5,0,0:0:0:0:
372,296,44449,1,0,0:0:0:0:
372,296,44556,2,0,P|432:244|448:144,3,150
340,76,45413,2,0,P|280:128|264:228,3,150
396,132,46270,6,0,P|244:280|112:272,1,300
256,192,46913,5,0,0:0:0:0:
256,192,47020,1,0,0:0:0:0:
256,192,47127,1,0,0:0:0:0:
256,192,47341,5,0,0:0:0:0:
256,192,47449,1,0,0:0:0:0:
256,192,47556,1,0,0:0:0:0:
256,192,47770,5,0,0:0:0:0:
256,192,47877,1,0,0:0:0:0:
256,192,47984,6,0,B|228:108|184:24|88:272,1,300
256,192,48627,2,0,B|268:248|320:292|348:168,1,150
484,36,49056,2,0,L|480:112,1,75
484,348,49270,2,0,L|480:273,1,75
472,200,49484,1,0,0:0:0:0:
424,144,49591,1,0,0:0:0:0:
360,104,49699,1,0,0:0:0:0:
256,192,49913,5,0,0:0:0:0:
256,192,50020,1,0,0:0:0:0:
256,192,50127,1,0,0:0:0:0:
256,192,50341,5,0,0:0:0:0:
256,192,50449,1,0,0:0:0:0:
256,192,50556,1,0,0:0:0:0:
256,192,50770,5,0,0:0:0:0:
256,236,50877,1,0,0:0:0:0:
256,192,50984,1,0,0:0:0:0:
256,192,51199,5,0,0:0:0:0:
256,148,51306,1,0,0:0:0:0:
256,192,51413,1,0,0:0:0:0:
40,332,51841,1,0,0:0:0:0:
400,332,52270,1,0,0:0:0:0:
216,48,52699,1,0,0:0:0:0:
216,48,52913,1,0,0:0:0:0:
432,100,53127,5,0,0:0:0:0:
44,112,53556,1,0,0:0:0:0:
468,224,53984,1,0,0:0:0:0:
84,248,54413,1,0,0:0:0:0:
84,248,54627,1,0,0:0:0:0:
256,32,54841,5,0,0:0:0:0:
512,280,55270,1,0,0:0:0:0:
136,368,55699,1,0,0:0:0:0:
16,0,56127,1,0,0:0:0:0:
21,89,56234,1,0,0:0:0:0:
26,178,56341,1,0,0:0:0:0:
97,67,56556,6,0,B|89:126|82:200|82:200|96:126|96:126|163:138|163:138|172:84|172:84|160:236,1,450.000017166138
270,101,57199,2,0,P|252:177|286:109,1,225.000008583069
358,126,57627,2,0,B|373:184|373:184|414:150|414:150|450:196|450:196|487:107,1,225.000008583069
97,153,58056,6,0,B|192:139|192:139|144:148|144:148|156:240,1,225.000008583069
279,141,58484,2,0,P|254:205|291:141,1,225.000008583069
20,149,58913,6,0,B|90:84|90:84|108:121|108:121|140:100|140:100|171:215,1,262.500002503395
219,196,59341,2,0,B|300:59|300:59|366:201|366:201|333:146|333:146|253:146,1,450.000017166138
415,209,59984,2,0,B|440:66|440:66|501:95|513:130|476:173|403:150,1,262.500002503395
65,184,60413,6,0,P|103:156|78:194,1,131.250001251698
181,190,60627,2,0,P|219:162|194:200,1,131.250001251698
313,196,60841,2,0,P|351:168|326:206,1,131.250001251698
0,167,61699,6,0,B|47:21|47:21|109:24|121:71|95:104|49:96|49:96|112:196,1,393.750003755093
161,134,62127,2,0,B|200:127|200:127|204:85|124:62|110:165|145:192|145:192|195:214|231:198,1,262.500002503395
283,130,62449,2,0,B|208:108|159:216|355:275|284:115|299:144|299:144|314:235,1,262.500002503395
346,58,62770,2,0,L|363:212,1,131.250001251698
405,55,62984,2,0,L|420:217,1,131.250001251698
455,139,63199,2,0,B|484:200|484:200|515:146|515:146|437:283,1,262.500002503395
51,334,63627,6,0,B|92:203|92:203|204:237|99:273|99:277|99:277|151:319|138:348|50:337,1,375
178,344,64056,2,0,B|246:209|246:209|286:349|286:349|260:312|260:312|195:311,1,375
367,333,64484,2,0,B|321:218|321:218|408:208|437:257|406:326|358:336,1,300
64,104,65127,6,0,B|211:269|211:269|133:182|133:182|223:109|223:109|25:269,1,675.000025749207
295,278,65984,2,0,B|304:102|304:102|440:148|460:228|306:279,1,450.000017166138
71,76,66841,5,0,0:0:0:0:
45,297,67056,1,0,0:0:0:0:
176,72,67270,5,0,0:0:0:0:
195,295,67484,1,0,0:0:0:0:
288,61,67699,5,0,0:0:0:0:
338,280,67913,1,0,0:0:0:0:
393,35,68127,5,0,0:0:0:0:
479,242,68341,1,0,0:0:0:0:
71,91,68556,5,0,0:0:0:0:
437,262,68770,1,0,0:0:0:0:
185,0,68984,5,0,0:0:0:0:
322,366,69198,1,0,0:0:0:0:
351,0,69413,5,0,0:0:0:0:
180,362,69627,1,0,0:0:0:0:
461,121,69841,5,0,0:0:0:0:
81,258,70055,1,0,0:0:0:0:
