osu file format v14

[General]
AudioFilename: audio.mp3
AudioLeadIn: 0
PreviewTime: 158221
Countdown: 0
SampleSet: Normal
StackLeniency: 0.2
Mode: 1
LetterboxInBreaks: 0
WidescreenStoryboard: 0

[Editor]
DistanceSpacing: 2.1
BeatDivisor: 4
GridSize: 32
TimelineZoom: 3.819999

[Metadata]
Title:Hyperspeed (G-Force Part 2)
TitleUnicode:Hyperspeed (G-Force Part 2)
Artist:The Prodigy
ArtistUnicode:The Prodigy
Creator:Genjuro
Version:Oni
Source:
Tags:english electronic dance edm breakbeat hardcore experience
BeatmapID:2354482
BeatmapSetID:1036978

[Difficulty]
HPDrainRate:5
CircleSize:2
OverallDifficulty:5
ApproachRate:9
SliderMultiplier:1.4
SliderTickRate:1

[Events]
//Background and Video events
0,0,"bg.jpg",0,0
//Break Periods
2,134528,146524
//Storyboard Layer 0 (Background)
//Storyboard Layer 1 (Fail)
//Storyboard Layer 2 (Pass)
//Storyboard Layer 3 (Foreground)
//Storyboard Layer 4 (Overlay)
//Storyboard Sound Samples

[TimingPoints]
6372,399.864046224284,4,1,0,30,1,0
44708,-100,4,1,0,50,0,0
57604,-100,4,1,0,30,0,0
68700,-100,4,1,0,40,0,0
70400,-100,4,1,0,30,0,0
81496,-100,4,1,0,40,0,0
83195,-100,4,1,0,30,0,0
94292,-100,4,1,0,40,0,0
108687,-100,4,1,0,50,0,0
134378,-100,4,1,0,10,0,0
147074,-100,4,1,0,30,0,0
159869,-100,4,1,0,50,0,0
172665,-100,4,1,0,60,0,0
172715,-100,4,1,0,60,0,1
185511,-100,4,1,0,60,0,0
185661,-100,4,1,0,50,0,0
211052,-100,4,1,0,40,0,0
223848,-100,4,1,0,50,0,0
249539,-100,4,1,0,30,0,0
262235,-100,4,1,0,50,0,0
275030,-100,4,1,0,60,0,0
275080,-100,4,1,0,60,0,1
287876,-100,4,1,0,60,0,0
288026,-100,4,1,0,50,0,0
300721,-100,4,1,0,30,0,0

[HitObjects]
256,192,31963,5,0,0:0:0:0:
256,192,32563,1,0,0:0:0:0:
256,192,33162,1,8,0:0:0:0:
256,192,33562,1,0,0:0:0:0:
256,192,34162,1,0,0:0:0:0:
256,192,34762,1,8,0:0:0:0:
256,192,34962,1,0,0:0:0:0:
256,192,35162,1,0,0:0:0:0:
256,192,35762,1,0,0:0:0:0:
256,192,36361,1,8,0:0:0:0:
256,192,36761,1,0,0:0:0:0:
256,192,37361,1,0,0:0:0:0:
256,192,37961,1,8,0:0:0:0:
256,192,38161,1,0,0:0:0:0:
256,192,38361,1,0,0:0:0:0:
256,192,38960,1,0,0:0:0:0:
256,192,39360,1,0,0:0:0:0:
256,192,39560,1,8,0:0:0:0:
256,192,39960,1,0,0:0:0:0:
256,192,40560,1,0,0:0:0:0:
256,192,41160,1,8,0:0:0:0:
256,192,41360,1,0,0:0:0:0:
256,192,41560,1,0,0:0:0:0:
256,192,42159,1,0,0:0:0:0:
256,192,42559,1,0,0:0:0:0:
256,192,42759,1,8,0:0:0:0:
256,192,43159,1,0,0:0:0:0:
256,192,43759,1,0,0:0:0:0:
256,192,44359,1,8,0:0:0:0:
256,192,44559,1,0,0:0:0:0:
256,192,44758,1,0,0:0:0:0:
256,192,44858,1,8,0:0:0:0:
256,192,44958,1,0,0:0:0:0:
256,192,45158,1,8,0:0:0:0:
256,192,45258,1,0,0:0:0:0:
256,192,45458,1,8,0:0:0:0:
256,192,45658,1,8,0:0:0:0:
256,192,45758,1,0,0:0:0:0:
256,192,45958,1,8,0:0:0:0:
256,192,46158,1,8,0:0:0:0:
256,192,46358,1,0,0:0:0:0:
256,192,46458,1,8,0:0:0:0:
256,192,46558,1,0,0:0:0:0:
256,192,46758,1,8,0:0:0:0:
256,192,46858,1,0,0:0:0:0:
256,192,47058,1,8,0:0:0:0:
256,192,47258,1,8,0:0:0:0:
256,192,47358,1,0,0:0:0:0:
256,192,47557,1,8,0:0:0:0:
256,192,47757,1,8,0:0:0:0:
256,192,47857,1,8,0:0:0:0:
256,192,47957,1,0,0:0:0:0:
256,192,48357,1,8,0:0:0:0:
256,192,48457,1,0,0:0:0:0:
256,192,48657,1,8,0:0:0:0:
256,192,48857,1,8,0:0:0:0:
256,192,48957,1,0,0:0:0:0:
256,192,49157,1,8,0:0:0:0:
256,192,49357,1,8,0:0:0:0:
256,192,49557,1,0,0:0:0:0:
256,192,49657,1,8,0:0:0:0:
256,192,49757,1,0,0:0:0:0:
256,192,49957,1,8,0:0:0:0:
256,192,50057,1,0,0:0:0:0:
256,192,50257,1,8,0:0:0:0:
256,192,50457,1,8,0:0:0:0:
256,192,50556,1,0,0:0:0:0:
256,192,50756,1,8,0:0:0:0:
256,192,50856,1,0,0:0:0:0:
256,192,50956,1,8,0:0:0:0:
256,192,51056,1,8,0:0:0:0:
256,192,51156,1,0,0:0:0:0:
256,192,51556,1,8,0:0:0:0:
256,192,51656,1,0,0:0:0:0:
256,192,51856,1,8,0:0:0:0:
256,192,52056,1,8,0:0:0:0:
256,192,52156,1,0,0:0:0:0:
256,192,52356,1,8,0:0:0:0:
256,192,52556,1,8,0:0:0:0:
256,192,52756,1,0,0:0:0:0:
256,192,52856,1,8,0:0:0:0:
256,192,52956,1,0,0:0:0:0:
256,192,53156,1,8,0:0:0:0:
256,192,53256,1,0,0:0:0:0:
256,192,53455,1,8,0:0:0:0:
256,192,53655,1,8,0:0:0:0:
256,192,53755,1,0,0:0:0:0:
256,192,53955,1,8,0:0:0:0:
256,192,54155,1,8,0:0:0:0:
256,192,54255,1,8,0:0:0:0:
256,192,54355,1,0,0:0:0:0:
256,192,54755,1,8,0:0:0:0:
256,192,54855,1,0,0:0:0:0:
256,192,55055,1,8,0:0:0:0:
256,192,55255,1,8,0:0:0:0:
256,192,55355,1,0,0:0:0:0:
256,192,55555,1,8,0:0:0:0:
256,192,55755,1,8,0:0:0:0:
256,192,55955,1,0,0:0:0:0:
256,192,56055,1,8,0:0:0:0:
256,192,56155,1,0,0:0:0:0:
256,192,56355,1,8,0:0:0:0:
256,192,56454,1,0,0:0:0:0:
256,192,56554,1,0,0:0:0:0:
256,192,56654,1,8,0:0:0:0:
256,192,56854,1,8,0:0:0:0:
256,192,56954,1,0,0:0:0:0:
256,192,57154,1,8,0:0:0:0:
256,192,57254,1,0,0:0:0:0:
256,192,57354,1,8,0:0:0:0:
256,192,57454,1,8,0:0:0:0:
256,192,57554,1,0,0:0:0:0:
256,192,57954,1,8,0:0:0:0:
256,192,58154,1,0,0:0:0:0:
256,192,58354,1,0,0:0:0:0:
256,192,58454,1,8,0:0:0:0:
256,192,58554,1,0,0:0:0:0:
256,192,58754,1,8,0:0:0:0:
256,192,58954,1,0,0:0:0:0:
256,192,59154,1,0,0:0:0:0:
256,192,59553,1,8,0:0:0:0:
256,192,59753,1,0,0:0:0:0:
256,192,59953,1,0,0:0:0:0:
256,192,60053,1,0,0:0:0:0:
256,192,60153,1,0,0:0:0:0:
256,192,60353,1,8,0:0:0:0:
256,192,60553,1,0,0:0:0:0:
256,192,60753,1,0,0:0:0:0:
256,192,61153,1,8,0:0:0:0:
256,192,61353,1,0,0:0:0:0:
256,192,61453,1,8,0:0:0:0:
256,192,61553,1,0,0:0:0:0:
256,192,61653,1,8,0:0:0:0:
256,192,61753,1,0,0:0:0:0:
256,192,61953,1,8,0:0:0:0:
256,192,62153,1,0,0:0:0:0:
256,192,62352,1,0,0:0:0:0:
256,192,62752,1,8,0:0:0:0:
256,192,62952,1,0,0:0:0:0:
256,192,63052,1,8,0:0:0:0:
256,192,63152,1,0,0:0:0:0:
256,192,63252,1,0,0:0:0:0:
256,192,63352,1,0,0:0:0:0:
256,192,63552,1,8,0:0:0:0:
256,192,63752,1,0,0:0:0:0:
256,192,63952,1,0,0:0:0:0:
256,192,64352,1,8,0:0:0:0:
256,192,64552,1,0,0:0:0:0:
256,192,64652,1,8,0:0:0:0:
256,192,64752,1,0,0:0:0:0:
256,192,64852,1,8,0:0:0:0:
256,192,64952,1,0,0:0:0:0:
256,192,65152,1,8,0:0:0:0:
256,192,65351,1,0,0:0:0:0:
256,192,65451,1,0,0:0:0:0:
256,192,65551,1,0,0:0:0:0:
256,192,65951,1,8,0:0:0:0:
256,192,66151,1,0,0:0:0:0:
256,192,66251,1,8,0:0:0:0:
256,192,66351,1,0,0:0:0:0:
256,192,66451,1,0,0:0:0:0:
256,192,66551,1,0,0:0:0:0:
256,192,66751,1,8,0:0:0:0:
256,192,66951,1,0,0:0:0:0:
256,192,67051,1,8,0:0:0:0:
256,192,67151,1,0,0:0:0:0:
256,192,67551,1,8,0:0:0:0:
256,192,67751,1,0,0:0:0:0:
256,192,67851,1,8,0:0:0:0:
256,192,67951,1,0,0:0:0:0:
256,192,68051,1,8,0:0:0:0:
256,192,68150,1,0,0:0:0:0:
256,192,68350,1,8,0:0:0:0:
256,192,68450,1,0,0:0:0:0:
256,192,68550,1,0,0:0:0:0:
256,192,68750,1,8,0:0:0:0:
256,192,69150,1,8,0:0:0:0:
256,192,69350,1,8,0:0:0:0:
256,192,69450,1,0,0:0:0:0:
256,192,69550,1,8,0:0:0:0:
256,192,69750,1,0,0:0:0:0:
256,192,69950,1,8,0:0:0:0:
256,192,70050,1,0,0:0:0:0:
256,192,70150,1,8,0:0:0:0:
256,192,70250,1,8,0:0:0:0:
256,192,70350,1,0,0:0:0:0:
256,192,71549,1,8,0:0:0:0:
256,192,73149,1,8,0:0:0:0:
256,192,73549,1,0,0:0:0:0:
256,192,74748,1,8,0:0:0:0:
256,192,76348,1,8,0:0:0:0:
256,192,76748,1,0,0:0:0:0:
256,192,77947,1,8,0:0:0:0:
256,192,79547,1,8,0:0:0:0:
256,192,79946,1,0,0:0:0:0:
256,192,81146,1,8,0:0:0:0:
256,192,81546,1,8,0:0:0:0:
256,192,81946,1,8,0:0:0:0:
256,192,82146,1,8,0:0:0:0:
256,192,82246,1,0,0:0:0:0:
256,192,82346,1,8,0:0:0:0:
256,192,82546,1,0,0:0:0:0:
256,192,82746,1,8,0:0:0:0:
256,192,82845,1,0,0:0:0:0:
256,192,82945,1,8,0:0:0:0:
256,192,83045,1,8,0:0:0:0:
256,192,83145,1,0,0:0:0:0:
256,192,83545,1,8,0:0:0:0:
256,192,84145,1,0,0:0:0:0:
256,192,84345,1,8,0:0:0:0:
256,192,84745,1,0,0:0:0:0:
256,192,85145,1,8,0:0:0:0:
256,192,85345,1,0,0:0:0:0:
256,192,85745,1,0,0:0:0:0:
256,192,85944,1,8,0:0:0:0:
256,192,86344,1,0,0:0:0:0:
256,192,86744,1,8,0:0:0:0:
256,192,87344,1,0,0:0:0:0:
256,192,87544,1,8,0:0:0:0:
256,192,87944,1,0,0:0:0:0:
256,192,88144,1,0,0:0:0:0:
256,192,88344,1,8,0:0:0:0:
256,192,88544,1,0,0:0:0:0:
256,192,88943,1,0,0:0:0:0:
256,192,89143,1,8,0:0:0:0:
256,192,89543,1,0,0:0:0:0:
256,192,89943,1,8,0:0:0:0:
256,192,90543,1,0,0:0:0:0:
256,192,90743,1,8,0:0:0:0:
256,192,91143,1,0,0:0:0:0:
256,192,91543,1,8,0:0:0:0:
256,192,91742,1,0,0:0:0:0:
256,192,92142,1,0,0:0:0:0:
256,192,92342,1,8,0:0:0:0:
256,192,92742,1,0,0:0:0:0:
256,192,93142,1,8,0:0:0:0:
256,192,93742,1,0,0:0:0:0:
256,192,93942,1,8,0:0:0:0:
256,192,94142,1,0,0:0:0:0:
256,192,94242,1,0,0:0:0:0:
256,192,94342,1,8,0:0:0:0:
256,192,94741,1,8,0:0:0:0:
256,192,94941,1,8,0:0:0:0:
256,192,95041,1,0,0:0:0:0:
256,192,95141,1,8,0:0:0:0:
256,192,95341,1,0,0:0:0:0:
256,192,95541,1,8,0:0:0:0:
256,192,95641,1,8,0:0:0:0:
256,192,95741,1,0,0:0:0:0:
256,192,95841,1,0,0:0:0:0:
256,192,95941,1,8,0:0:0:0:
256,192,96341,1,8,0:0:0:0:
256,192,96741,1,8,0:0:0:0:
256,192,97141,1,8,0:0:0:0:
256,192,97341,1,0,0:0:0:0:
256,192,97640,1,8,0:0:0:0:
256,192,97940,1,8,0:0:0:0:
256,192,98140,1,0,0:0:0:0:
256,192,98540,1,8,0:0:0:0:
256,192,98740,1,8,0:0:0:0:
256,192,98940,1,0,0:0:0:0:
256,192,99140,1,8,0:0:0:0:
256,192,99540,1,8,0:0:0:0:
256,192,99940,1,8,0:0:0:0:
256,192,100340,1,8,0:0:0:0:
256,192,100539,1,0,0:0:0:0:
256,192,100839,1,8,0:0:0:0:
256,192,101139,1,8,0:0:0:0:
256,192,101339,1,0,0:0:0:0:
256,192,101539,1,8,0:0:0:0:
256,192,101839,1,8,0:0:0:0:
256,192,102139,1,0,0:0:0:0:
256,192,102339,1,8,0:0:0:0:
256,192,102739,1,8,0:0:0:0:
256,192,103139,1,8,0:0:0:0:
256,192,103538,1,8,0:0:0:0:
256,192,103738,1,0,0:0:0:0:
256,192,104038,1,8,0:0:0:0:
256,192,104338,1,8,0:0:0:0:
256,192,104538,1,0,0:0:0:0:
256,192,104938,1,8,0:0:0:0:
256,192,105138,1,8,0:0:0:0:
256,192,105338,1,0,0:0:0:0:
256,192,105538,1,8,0:0:0:0:
256,192,105671,1,8,0:0:0:0:
256,192,105804,1,0,0:0:0:0:
256,192,105938,1,0,0:0:0:0:
256,192,106071,1,8,0:0:0:0:
256,192,106338,1,0,0:0:0:0:
256,192,106471,1,0,0:0:0:0:
256,192,106604,1,8,0:0:0:0:
256,192,106737,1,8,0:0:0:0:
256,192,106871,1,0,0:0:0:0:
256,192,107137,1,8,0:0:0:0:
256,192,107271,1,8,0:0:0:0:
256,192,107404,1,0,0:0:0:0:
256,192,107670,1,8,0:0:0:0:
256,192,107937,1,0,0:0:0:0:
256,192,108070,1,0,0:0:0:0:
256,192,108204,1,8,0:0:0:0:
256,192,108737,1,0,0:0:0:0:
256,192,108837,1,8,0:0:0:0:
256,192,108937,1,0,0:0:0:0:
256,192,109137,1,8,0:0:0:0:
256,192,109237,1,0,0:0:0:0:
256,192,109436,1,8,0:0:0:0:
256,192,109636,1,8,0:0:0:0:
256,192,109736,1,0,0:0:0:0:
256,192,109936,1,8,0:0:0:0:
256,192,110136,1,8,0:0:0:0:
256,192,110336,1,0,0:0:0:0:
256,192,110436,1,8,0:0:0:0:
256,192,110536,1,0,0:0:0:0:
256,192,110736,1,8,0:0:0:0:
256,192,110836,1,0,0:0:0:0:
256,192,111036,1,8,0:0:0:0:
256,192,111236,1,8,0:0:0:0:
256,192,111336,1,0,0:0:0:0:
256,192,111536,1,8,0:0:0:0:
256,192,111736,1,8,0:0:0:0:
256,192,111836,1,8,0:0:0:0:
256,192,111936,1,0,0:0:0:0:
256,192,112335,1,8,0:0:0:0:
256,192,112435,1,0,0:0:0:0:
256,192,112635,1,8,0:0:0:0:
256,192,112835,1,8,0:0:0:0:
256,192,112935,1,0,0:0:0:0:
256,192,113135,1,8,0:0:0:0:
256,192,113335,1,8,0:0:0:0:
256,192,113535,1,0,0:0:0:0:
256,192,113635,1,8,0:0:0:0:
256,192,113735,1,0,0:0:0:0:
256,192,113935,1,8,0:0:0:0:
256,192,114035,1,0,0:0:0:0:
256,192,114235,1,8,0:0:0:0:
256,192,114435,1,8,0:0:0:0:
256,192,114535,1,0,0:0:0:0:
256,192,114735,1,8,0:0:0:0:
256,192,114835,1,0,0:0:0:0:
256,192,114935,1,8,0:0:0:0:
256,192,115035,1,8,0:0:0:0:
256,192,115135,1,0,0:0:0:0:
256,192,115534,1,8,0:0:0:0:
256,192,115634,1,0,0:0:0:0:
256,192,115834,1,8,0:0:0:0:
256,192,116034,1,8,0:0:0:0:
256,192,116134,1,0,0:0:0:0:
256,192,116334,1,8,0:0:0:0:
256,192,116534,1,8,0:0:0:0:
256,192,116734,1,0,0:0:0:0:
256,192,116834,1,8,0:0:0:0:
256,192,116934,1,0,0:0:0:0:
256,192,117134,1,8,0:0:0:0:
256,192,117234,1,0,0:0:0:0:
256,192,117434,1,8,0:0:0:0:
256,192,117634,1,8,0:0:0:0:
256,192,117734,1,0,0:0:0:0:
256,192,117934,1,8,0:0:0:0:
256,192,118134,1,8,0:0:0:0:
256,192,118233,1,8,0:0:0:0:
256,192,118333,1,0,0:0:0:0:
256,192,118733,1,8,0:0:0:0:
256,192,118833,1,0,0:0:0:0:
256,192,119033,1,8,0:0:0:0:
256,192,119233,1,8,0:0:0:0:
256,192,119333,1,0,0:0:0:0:
256,192,119533,1,8,0:0:0:0:
256,192,119733,1,8,0:0:0:0:
256,192,119933,1,0,0:0:0:0:
256,192,120033,1,8,0:0:0:0:
256,192,120133,1,0,0:0:0:0:
256,192,120333,1,8,0:0:0:0:
256,192,120433,1,0,0:0:0:0:
256,192,120533,1,0,0:0:0:0:
256,192,120633,1,8,0:0:0:0:
256,192,120833,1,8,0:0:0:0:
256,192,120933,1,0,0:0:0:0:
256,192,121132,1,8,0:0:0:0:
256,192,121232,1,0,0:0:0:0:
256,192,121332,1,8,0:0:0:0:
256,192,121432,1,8,0:0:0:0:
256,192,121532,1,0,0:0:0:0:
256,192,121932,1,8,0:0:0:0:
256,192,122032,1,0,0:0:0:0:
256,192,122232,1,8,0:0:0:0:
256,192,122432,1,8,0:0:0:0:
256,192,122532,1,0,0:0:0:0:
256,192,122632,1,0,0:0:0:0:
256,192,122732,1,8,0:0:0:0:
256,192,122932,1,8,0:0:0:0:
256,192,123032,1,0,0:0:0:0:
256,192,123132,1,0,0:0:0:0:
256,192,123332,1,0,0:0:0:0:
256,192,123532,1,8,0:0:0:0:
256,192,123632,1,0,0:0:0:0:
256,192,123832,1,8,0:0:0:0:
256,192,123932,1,0,0:0:0:0:
256,192,124031,1,8,0:0:0:0:
256,192,124231,1,0,0:0:0:0:
256,192,124331,1,8,0:0:0:0:
256,192,124531,1,8,0:0:0:0:
256,192,124731,1,0,0:0:0:0:
256,192,125131,1,8,0:0:0:0:
256,192,125231,1,0,0:0:0:0:
256,192,125431,1,8,0:0:0:0:
256,192,125631,1,8,0:0:0:0:
256,192,125731,1,0,0:0:0:0:
256,192,125831,1,0,0:0:0:0:
256,192,125931,1,8,0:0:0:0:
256,192,126131,1,8,0:0:0:0:
256,192,126231,1,0,0:0:0:0:
256,192,126331,1,0,0:0:0:0:
256,192,126531,1,0,0:0:0:0:
256,192,126731,1,8,0:0:0:0:
256,192,126831,1,0,0:0:0:0:
256,192,127030,1,8,0:0:0:0:
256,192,127130,1,0,0:0:0:0:
256,192,127230,1,8,0:0:0:0:
256,192,127430,1,0,0:0:0:0:
256,192,127530,1,8,0:0:0:0:
256,192,127730,1,8,0:0:0:0:
256,192,127830,1,8,0:0:0:0:
256,192,127930,1,0,0:0:0:0:
256,192,128330,1,8,0:0:0:0:
256,192,128430,1,0,0:0:0:0:
256,192,128630,1,8,0:0:0:0:
256,192,128830,1,8,0:0:0:0:
256,192,128930,1,0,0:0:0:0:
256,192,129030,1,0,0:0:0:0:
256,192,129130,1,8,0:0:0:0:
256,192,129330,1,8,0:0:0:0:
256,192,129430,1,0,0:0:0:0:
256,192,129530,1,0,0:0:0:0:
256,192,129730,1,0,0:0:0:0:
256,192,129929,1,8,0:0:0:0:
256,192,130029,1,0,0:0:0:0:
256,192,130229,1,8,0:0:0:0:
256,192,130329,1,0,0:0:0:0:
256,192,130429,1,8,0:0:0:0:
256,192,130629,1,0,0:0:0:0:
256,192,130729,1,8,0:0:0:0:
256,192,130929,1,8,0:0:0:0:
256,192,131129,1,0,0:0:0:0:
256,192,131529,1,8,0:0:0:0:
256,192,131629,1,0,0:0:0:0:
256,192,131829,1,8,0:0:0:0:
256,192,132029,1,8,0:0:0:0:
256,192,132129,1,0,0:0:0:0:
256,192,132229,1,0,0:0:0:0:
256,192,132329,1,8,0:0:0:0:
256,192,132529,1,8,0:0:0:0:
256,192,132729,1,0,0:0:0:0:
256,192,132829,1,8,0:0:0:0:
256,192,133028,1,0,0:0:0:0:
256,192,133128,1,0,0:0:0:0:
256,192,133228,1,8,0:0:0:0:
256,192,133428,1,0,0:0:0:0:
256,192,133628,1,8,0:0:0:0:
256,192,133828,1,0,0:0:0:0:
256,192,133928,1,8,0:0:0:0:
256,192,134128,1,8,0:0:0:0:
256,192,134228,1,8,0:0:0:0:
256,192,134328,1,0,0:0:0:0:
256,192,147124,5,0,0:0:0:0:
256,192,147524,1,8,0:0:0:0:
256,192,148123,1,0,0:0:0:0:
256,192,148323,1,8,0:0:0:0:
256,192,148723,1,0,0:0:0:0:
256,192,149123,1,8,0:0:0:0:
256,192,149323,1,0,0:0:0:0:
256,192,149723,1,0,0:0:0:0:
256,192,149923,1,8,0:0:0:0:
256,192,150323,1,0,0:0:0:0:
256,192,150722,1,8,0:0:0:0:
256,192,151322,1,0,0:0:0:0:
256,192,151522,1,8,0:0:0:0:
256,192,151922,1,0,0:0:0:0:
256,192,152322,1,8,0:0:0:0:
256,192,152722,1,0,0:0:0:0:
256,192,152922,1,0,0:0:0:0:
256,192,153122,1,8,0:0:0:0:
256,192,153521,1,0,0:0:0:0:
256,192,153921,1,8,0:0:0:0:
256,192,154521,1,0,0:0:0:0:
256,192,154721,1,8,0:0:0:0:
256,192,155121,1,0,0:0:0:0:
256,192,155521,1,8,0:0:0:0:
256,192,155721,1,0,0:0:0:0:
256,192,156121,1,0,0:0:0:0:
256,192,156321,1,8,0:0:0:0:
256,192,156720,1,0,0:0:0:0:
256,192,157120,1,8,0:0:0:0:
256,192,157720,1,0,0:0:0:0:
256,192,157920,1,8,0:0:0:0:
256,192,158320,1,8,0:0:0:0:
256,192,158520,1,0,0:0:0:0:
256,192,158720,1,0,0:0:0:0:
256,192,158920,1,8,0:0:0:0:
256,192,159120,1,0,0:0:0:0:
256,192,159319,1,8,0:0:0:0:
256,192,159519,1,8,0:0:0:0:
256,192,159919,1,0,0:0:0:0:
256,192,160019,1,8,0:0:0:0:
256,192,160119,1,0,0:0:0:0:
256,192,160319,1,8,0:0:0:0:
256,192,160419,1,0,0:0:0:0:
256,192,160619,1,8,0:0:0:0:
256,192,160819,1,8,0:0:0:0:
256,192,160919,1,0,0:0:0:0:
256,192,161119,1,8,0:0:0:0:
256,192,161319,1,8,0:0:0:0:
256,192,161519,1,0,0:0:0:0:
256,192,161619,1,8,0:0:0:0:
256,192,161719,1,0,0:0:0:0:
256,192,161919,1,8,0:0:0:0:
256,192,162019,1,0,0:0:0:0:
256,192,162219,1,8,0:0:0:0:
256,192,162418,1,8,0:0:0:0:
256,192,162518,1,0,0:0:0:0:
256,192,162718,1,8,0:0:0:0:
256,192,162918,1,8,0:0:0:0:
256,192,163018,1,8,0:0:0:0:
256,192,163118,1,0,0:0:0:0:
256,192,163518,1,8,0:0:0:0:
256,192,163618,1,0,0:0:0:0:
256,192,163818,1,8,0:0:0:0:
256,192,164018,1,8,0:0:0:0:
256,192,164118,1,0,0:0:0:0:
256,192,164318,1,8,0:0:0:0:
256,192,164518,1,8,0:0:0:0:
256,192,164718,1,0,0:0:0:0:
256,192,164818,1,8,0:0:0:0:
256,192,164918,1,0,0:0:0:0:
256,192,165118,1,8,0:0:0:0:
256,192,165217,1,0,0:0:0:0:
256,192,165417,1,8,0:0:0:0:
256,192,165617,1,8,0:0:0:0:
256,192,165717,1,0,0:0:0:0:
256,192,165917,1,8,0:0:0:0:
256,192,166017,1,0,0:0:0:0:
256,192,166117,1,8,0:0:0:0:
256,192,166217,1,8,0:0:0:0:
256,192,166317,1,0,0:0:0:0:
256,192,166717,1,8,0:0:0:0:
256,192,166817,1,0,0:0:0:0:
256,192,167017,1,8,0:0:0:0:
256,192,167217,1,8,0:0:0:0:
256,192,167317,1,0,0:0:0:0:
256,192,167517,1,8,0:0:0:0:
256,192,167717,1,8,0:0:0:0:
256,192,167917,1,0,0:0:0:0:
256,192,168017,1,8,0:0:0:0:
256,192,168117,1,0,0:0:0:0:
256,192,168316,1,8,0:0:0:0:
256,192,168416,1,0,0:0:0:0:
256,192,168616,1,8,0:0:0:0:
256,192,168816,1,8,0:0:0:0:
256,192,168916,1,0,0:0:0:0:
256,192,169116,1,8,0:0:0:0:
256,192,169316,1,8,0:0:0:0:
256,192,169416,1,8,0:0:0:0:
256,192,169516,1,0,0:0:0:0:
256,192,169916,1,8,0:0:0:0:
256,192,170016,1,0,0:0:0:0:
256,192,170216,1,8,0:0:0:0:
256,192,170416,1,8,0:0:0:0:
256,192,170516,1,0,0:0:0:0:
256,192,170716,1,8,0:0:0:0:
256,192,170916,1,8,0:0:0:0:
256,192,171115,1,0,0:0:0:0:
256,192,171215,1,8,0:0:0:0:
256,192,171315,1,0,0:0:0:0:
256,192,171515,1,8,0:0:0:0:
256,192,171615,1,0,0:0:0:0:
256,192,171715,1,0,0:0:0:0:
256,192,171815,1,8,0:0:0:0:
256,192,172015,1,8,0:0:0:0:
256,192,172115,1,0,0:0:0:0:
256,192,172315,1,8,0:0:0:0:
256,192,172415,1,0,0:0:0:0:
256,192,172515,1,8,0:0:0:0:
256,192,172615,1,8,0:0:0:0:
256,192,172715,1,0,0:0:0:0:
256,192,173115,1,8,0:0:0:0:
256,192,173215,1,0,0:0:0:0:
256,192,173415,1,8,0:0:0:0:
256,192,173615,1,8,0:0:0:0:
256,192,173715,1,0,0:0:0:0:
256,192,173915,1,8,0:0:0:0:
256,192,174015,1,0,0:0:0:0:
256,192,174114,1,8,0:0:0:0:
256,192,174314,1,0,0:0:0:0:
256,192,174414,1,8,0:0:0:0:
256,192,174514,1,0,0:0:0:0:
256,192,174714,1,8,0:0:0:0:
256,192,174814,1,0,0:0:0:0:
256,192,175014,1,8,0:0:0:0:
256,192,175214,1,8,0:0:0:0:
256,192,175314,1,0,0:0:0:0:
256,192,175514,1,8,0:0:0:0:
256,192,175714,1,8,0:0:0:0:
256,192,175814,1,8,0:0:0:0:
256,192,175914,1,0,0:0:0:0:
256,192,176114,1,0,0:0:0:0:
256,192,176314,1,8,0:0:0:0:
256,192,176414,1,0,0:0:0:0:
256,192,176614,1,8,0:0:0:0:
256,192,176814,1,8,0:0:0:0:
256,192,176914,1,0,0:0:0:0:
256,192,177113,1,8,0:0:0:0:
256,192,177213,1,0,0:0:0:0:
256,192,177313,1,8,0:0:0:0:
256,192,177513,1,0,0:0:0:0:
256,192,177613,1,8,0:0:0:0:
256,192,177713,1,0,0:0:0:0:
256,192,177913,1,8,0:0:0:0:
256,192,178013,1,0,0:0:0:0:
256,192,178213,1,8,0:0:0:0:
256,192,178413,1,8,0:0:0:0:
256,192,178513,1,0,0:0:0:0:
256,192,178713,1,8,0:0:0:0:
256,192,178813,1,0,0:0:0:0:
256,192,178913,1,8,0:0:0:0:
256,192,179013,1,8,0:0:0:0:
256,192,179113,1,0,0:0:0:0:
256,192,179513,1,8,0:0:0:0:
256,192,179613,1,0,0:0:0:0:
256,192,179813,1,8,0:0:0:0:
256,192,180012,1,8,0:0:0:0:
256,192,180112,1,0,0:0:0:0:
256,192,180312,1,8,0:0:0:0:
256,192,180412,1,0,0:0:0:0:
256,192,180512,1,8,0:0:0:0:
256,192,180712,1,0,0:0:0:0:
256,192,180812,1,8,0:0:0:0:
256,192,180912,1,0,0:0:0:0:
256,192,181112,1,8,0:0:0:0:
256,192,181212,1,0,0:0:0:0:
256,192,181412,1,8,0:0:0:0:
256,192,181612,1,8,0:0:0:0:
256,192,181712,1,0,0:0:0:0:
256,192,181912,1,8,0:0:0:0:
256,192,182112,1,8,0:0:0:0:
256,192,182212,1,8,0:0:0:0:
256,192,182312,1,0,0:0:0:0:
256,192,182512,1,0,0:0:0:0:
256,192,182712,1,8,0:0:0:0:
256,192,182812,1,0,0:0:0:0:
256,192,183011,1,8,0:0:0:0:
256,192,183211,1,8,0:0:0:0:
256,192,183311,1,0,0:0:0:0:
256,192,183511,1,8,0:0:0:0:
256,192,183611,1,0,0:0:0:0:
256,192,183711,1,8,0:0:0:0:
256,192,183911,1,0,0:0:0:0:
256,192,184011,1,8,0:0:0:0:
256,192,184111,1,0,0:0:0:0:
256,192,184311,1,8,0:0:0:0:
256,192,184411,1,0,0:0:0:0:
256,192,184511,1,0,0:0:0:0:
256,192,184611,1,8,0:0:0:0:
256,192,184811,1,8,0:0:0:0:
256,192,184911,1,0,0:0:0:0:
256,192,185111,1,8,0:0:0:0:
256,192,185211,1,0,0:0:0:0:
256,192,185311,1,8,0:0:0:0:
256,192,185411,1,8,0:0:0:0:
256,192,185511,1,0,0:0:0:0:
256,192,185910,1,8,0:0:0:0:
256,192,186010,1,0,0:0:0:0:
256,192,186210,1,8,0:0:0:0:
256,192,186410,1,8,0:0:0:0:
256,192,186510,1,0,0:0:0:0:
256,192,186710,1,8,0:0:0:0:
256,192,186910,1,8,0:0:0:0:
256,192,187110,1,0,0:0:0:0:
256,192,187210,1,8,0:0:0:0:
256,192,187310,1,0,0:0:0:0:
256,192,187510,1,8,0:0:0:0:
256,192,187610,1,0,0:0:0:0:
256,192,187910,1,8,0:0:0:0:
256,192,188110,1,8,0:0:0:0:
256,192,188310,1,0,0:0:0:0:
256,192,188510,1,0,0:0:0:0:
256,192,188710,1,8,0:0:0:0:
256,192,189109,1,8,0:0:0:0:
256,192,189209,1,0,0:0:0:0:
256,192,189409,1,8,0:0:0:0:
256,192,189609,1,8,0:0:0:0:
256,192,189709,1,0,0:0:0:0:
256,192,189909,1,8,0:0:0:0:
256,192,190109,1,8,0:0:0:0:
256,192,190309,1,0,0:0:0:0:
256,192,190409,1,8,0:0:0:0:
256,192,190509,1,0,0:0:0:0:
256,192,190709,1,8,0:0:0:0:
256,192,190809,1,0,0:0:0:0:
256,192,191109,1,0,0:0:0:0:
256,192,191309,1,8,0:0:0:0:
256,192,191409,1,8,0:0:0:0:
256,192,191509,1,0,0:0:0:0:
256,192,191708,1,8,0:0:0:0:
256,192,191808,1,8,0:0:0:0:
256,192,191908,1,0,0:0:0:0:
256,192,192308,1,8,0:0:0:0:
256,192,192408,1,0,0:0:0:0:
256,192,192608,1,8,0:0:0:0:
256,192,192808,1,8,0:0:0:0:
256,192,192908,1,0,0:0:0:0:
256,192,193108,1,8,0:0:0:0:
256,192,193308,1,8,0:0:0:0:
256,192,193508,1,0,0:0:0:0:
256,192,193608,1,8,0:0:0:0:
256,192,193708,1,0,0:0:0:0:
256,192,193908,1,8,0:0:0:0:
256,192,194008,1,0,0:0:0:0:
256,192,194308,1,8,0:0:0:0:
256,192,194508,1,8,0:0:0:0:
256,192,194707,1,0,0:0:0:0:
256,192,194907,1,0,0:0:0:0:
256,192,195107,1,8,0:0:0:0:
256,192,195507,1,8,0:0:0:0:
256,192,195607,1,0,0:0:0:0:
256,192,195807,1,8,0:0:0:0:
256,192,196007,1,8,0:0:0:0:
256,192,196107,1,0,0:0:0:0:
256,192,196307,1,8,0:0:0:0:
256,192,196507,1,8,0:0:0:0:
256,192,196707,1,0,0:0:0:0:
256,192,196807,1,8,0:0:0:0:
256,192,196907,1,0,0:0:0:0:
256,192,197107,1,8,0:0:0:0:
256,192,197207,1,0,0:0:0:0:
256,192,197507,1,0,0:0:0:0:
256,192,197706,1,8,0:0:0:0:
256,192,197806,1,8,0:0:0:0:
256,192,197906,1,0,0:0:0:0:
256,192,198106,1,8,0:0:0:0:
256,192,198206,1,8,0:0:0:0:
256,192,198306,1,0,0:0:0:0:
256,192,198706,1,8,0:0:0:0:
256,192,198806,1,0,0:0:0:0:
256,192,199006,1,8,0:0:0:0:
256,192,199206,1,8,0:0:0:0:
256,192,199306,1,0,0:0:0:0:
256,192,199406,1,0,0:0:0:0:
256,192,199506,1,8,0:0:0:0:
256,192,199706,1,8,0:0:0:0:
256,192,199806,1,0,0:0:0:0:
256,192,199906,1,0,0:0:0:0:
256,192,200106,1,0,0:0:0:0:
256,192,200306,1,8,0:0:0:0:
256,192,200406,1,0,0:0:0:0:
256,192,200705,1,8,0:0:0:0:
256,192,200805,1,0,0:0:0:0:
256,192,200905,1,8,0:0:0:0:
256,192,201105,1,0,0:0:0:0:
256,192,201205,1,8,0:0:0:0:
256,192,201305,1,0,0:0:0:0:
256,192,201505,1,8,0:0:0:0:
256,192,201905,1,8,0:0:0:0:
256,192,202005,1,0,0:0:0:0:
256,192,202205,1,8,0:0:0:0:
256,192,202405,1,8,0:0:0:0:
256,192,202505,1,0,0:0:0:0:
256,192,202605,1,0,0:0:0:0:
256,192,202705,1,8,0:0:0:0:
256,192,202905,1,8,0:0:0:0:
256,192,203005,1,0,0:0:0:0:
256,192,203105,1,0,0:0:0:0:
256,192,203305,1,0,0:0:0:0:
256,192,203504,1,8,0:0:0:0:
256,192,203604,1,0,0:0:0:0:
256,192,203904,1,0,0:0:0:0:
256,192,204004,1,0,0:0:0:0:
256,192,204104,1,8,0:0:0:0:
256,192,204204,1,8,0:0:0:0:
256,192,204304,1,0,0:0:0:0:
256,192,204504,1,8,0:0:0:0:
256,192,204604,1,8,0:0:0:0:
256,192,204704,1,0,0:0:0:0:
256,192,205104,1,8,0:0:0:0:
256,192,205204,1,0,0:0:0:0:
256,192,205404,1,8,0:0:0:0:
256,192,205604,1,8,0:0:0:0:
256,192,205704,1,0,0:0:0:0:
256,192,205804,1,0,0:0:0:0:
256,192,205904,1,8,0:0:0:0:
256,192,206104,1,8,0:0:0:0:
256,192,206204,1,0,0:0:0:0:
256,192,206304,1,0,0:0:0:0:
256,192,206503,1,0,0:0:0:0:
256,192,206703,1,8,0:0:0:0:
256,192,206803,1,0,0:0:0:0:
256,192,207103,1,8,0:0:0:0:
256,192,207203,1,0,0:0:0:0:
256,192,207303,1,8,0:0:0:0:
256,192,207503,1,0,0:0:0:0:
256,192,207603,1,8,0:0:0:0:
256,192,207703,1,0,0:0:0:0:
256,192,207903,1,8,0:0:0:0:
256,192,208303,1,8,0:0:0:0:
256,192,208403,1,0,0:0:0:0:
256,192,208603,1,8,0:0:0:0:
256,192,208803,1,8,0:0:0:0:
256,192,208903,1,0,0:0:0:0:
256,192,209003,1,0,0:0:0:0:
256,192,209103,1,8,0:0:0:0:
256,192,209303,1,8,0:0:0:0:
256,192,209402,1,0,0:0:0:0:
256,192,209502,1,0,0:0:0:0:
256,192,209702,1,0,0:0:0:0:
256,192,209902,1,8,0:0:0:0:
256,192,210102,1,0,0:0:0:0:
256,192,210202,1,8,0:0:0:0:
256,192,210402,1,8,0:0:0:0:
256,192,210502,1,0,0:0:0:0:
256,192,210702,1,8,0:0:0:0:
256,192,210802,1,8,0:0:0:0:
256,192,210902,1,0,0:0:0:0:
256,192,211002,1,0,0:0:0:0:
256,192,211102,1,8,0:0:0:0:
256,192,211502,1,8,0:0:0:0:
256,192,211902,1,8,0:0:0:0:
256,192,212301,1,8,0:0:0:0:
256,192,212501,1,0,0:0:0:0:
256,192,212801,1,8,0:0:0:0:
256,192,213101,1,8,0:0:0:0:
256,192,213301,1,0,0:0:0:0:
256,192,213701,1,8,0:0:0:0:
256,192,213901,1,8,0:0:0:0:
256,192,214101,1,0,0:0:0:0:
256,192,214301,1,8,0:0:0:0:
256,192,214701,1,8,0:0:0:0:
256,192,215101,1,8,0:0:0:0:
256,192,215500,1,8,0:0:0:0:
256,192,215700,1,0,0:0:0:0:
256,192,216000,1,8,0:0:0:0:
256,192,216300,1,8,0:0:0:0:
256,192,216500,1,0,0:0:0:0:
256,192,216700,1,8,0:0:0:0:
256,192,217000,1,8,0:0:0:0:
256,192,217300,1,0,0:0:0:0:
256,192,217500,1,8,0:0:0:0:
256,192,217900,1,8,0:0:0:0:
256,192,218299,1,8,0:0:0:0:
256,192,218699,1,8,0:0:0:0:
256,192,218899,1,0,0:0:0:0:
256,192,219199,1,8,0:0:0:0:
256,192,219499,1,8,0:0:0:0:
256,192,219699,1,0,0:0:0:0:
256,192,220099,1,8,0:0:0:0:
256,192,220299,1,8,0:0:0:0:
256,192,220499,1,0,0:0:0:0:
256,192,220699,1,8,0:0:0:0:
256,192,220832,1,8,0:0:0:0:
256,192,220965,1,0,0:0:0:0:
256,192,221098,1,0,0:0:0:0:
256,192,221232,1,8,0:0:0:0:
256,192,221498,1,0,0:0:0:0:
256,192,221632,1,0,0:0:0:0:
256,192,221765,1,8,0:0:0:0:
256,192,221898,1,8,0:0:0:0:
256,192,222032,1,0,0:0:0:0:
256,192,222298,1,8,0:0:0:0:
256,192,222431,1,8,0:0:0:0:
256,192,222565,1,0,0:0:0:0:
256,192,222831,1,8,0:0:0:0:
256,192,223098,1,0,0:0:0:0:
256,192,223231,1,0,0:0:0:0:
256,192,223364,1,8,0:0:0:0:
256,192,223898,1,0,0:0:0:0:
256,192,223998,1,8,0:0:0:0:
256,192,224097,1,0,0:0:0:0:
256,192,224297,1,8,0:0:0:0:
256,192,224397,1,0,0:0:0:0:
256,192,224597,1,8,0:0:0:0:
256,192,224797,1,8,0:0:0:0:
256,192,224897,1,0,0:0:0:0:
256,192,225097,1,8,0:0:0:0:
256,192,225297,1,8,0:0:0:0:
256,192,225497,1,0,0:0:0:0:
256,192,225597,1,8,0:0:0:0:
256,192,225697,1,0,0:0:0:0:
256,192,225897,1,8,0:0:0:0:
256,192,225997,1,0,0:0:0:0:
256,192,226197,1,8,0:0:0:0:
256,192,226397,1,8,0:0:0:0:
256,192,226497,1,0,0:0:0:0:
256,192,226697,1,8,0:0:0:0:
256,192,226897,1,8,0:0:0:0:
256,192,226996,1,8,0:0:0:0:
256,192,227096,1,0,0:0:0:0:
256,192,227496,1,8,0:0:0:0:
256,192,227596,1,0,0:0:0:0:
256,192,227796,1,8,0:0:0:0:
256,192,227996,1,8,0:0:0:0:
256,192,228096,1,0,0:0:0:0:
256,192,228296,1,8,0:0:0:0:
256,192,228496,1,8,0:0:0:0:
256,192,228696,1,0,0:0:0:0:
256,192,228796,1,8,0:0:0:0:
256,192,228896,1,0,0:0:0:0:
256,192,229096,1,8,0:0:0:0:
256,192,229196,1,0,0:0:0:0:
256,192,229396,1,8,0:0:0:0:
256,192,229596,1,8,0:0:0:0:
256,192,229696,1,0,0:0:0:0:
256,192,229896,1,8,0:0:0:0:
256,192,229995,1,0,0:0:0:0:
256,192,230095,1,8,0:0:0:0:
256,192,230195,1,8,0:0:0:0:
256,192,230295,1,0,0:0:0:0:
256,192,230695,1,8,0:0:0:0:
256,192,230795,1,0,0:0:0:0:
256,192,230995,1,8,0:0:0:0:
256,192,231195,1,8,0:0:0:0:
256,192,231295,1,0,0:0:0:0:
256,192,231495,1,8,0:0:0:0:
256,192,231695,1,8,0:0:0:0:
256,192,231895,1,0,0:0:0:0:
256,192,231995,1,8,0:0:0:0:
256,192,232095,1,0,0:0:0:0:
256,192,232295,1,8,0:0:0:0:
256,192,232395,1,0,0:0:0:0:
256,192,232595,1,8,0:0:0:0:
256,192,232795,1,8,0:0:0:0:
256,192,232894,1,0,0:0:0:0:
256,192,233094,1,8,0:0:0:0:
256,192,233294,1,8,0:0:0:0:
256,192,233394,1,8,0:0:0:0:
256,192,233494,1,0,0:0:0:0:
256,192,233894,1,8,0:0:0:0:
256,192,233994,1,0,0:0:0:0:
256,192,234194,1,8,0:0:0:0:
256,192,234394,1,8,0:0:0:0:
256,192,234494,1,0,0:0:0:0:
256,192,234694,1,8,0:0:0:0:
256,192,234894,1,8,0:0:0:0:
256,192,235094,1,0,0:0:0:0:
256,192,235194,1,8,0:0:0:0:
256,192,235294,1,0,0:0:0:0:
256,192,235494,1,8,0:0:0:0:
256,192,235594,1,0,0:0:0:0:
256,192,235694,1,0,0:0:0:0:
256,192,235793,1,8,0:0:0:0:
256,192,235993,1,8,0:0:0:0:
256,192,236093,1,0,0:0:0:0:
256,192,236293,1,8,0:0:0:0:
256,192,236393,1,0,0:0:0:0:
256,192,236493,1,8,0:0:0:0:
256,192,236593,1,8,0:0:0:0:
256,192,236693,1,0,0:0:0:0:
256,192,237093,1,8,0:0:0:0:
256,192,237193,1,0,0:0:0:0:
256,192,237393,1,8,0:0:0:0:
256,192,237593,1,8,0:0:0:0:
256,192,237693,1,0,0:0:0:0:
256,192,237793,1,0,0:0:0:0:
256,192,237893,1,8,0:0:0:0:
256,192,238093,1,8,0:0:0:0:
256,192,238193,1,0,0:0:0:0:
256,192,238293,1,0,0:0:0:0:
256,192,238493,1,0,0:0:0:0:
256,192,238693,1,8,0:0:0:0:
256,192,238792,1,0,0:0:0:0:
256,192,238992,1,8,0:0:0:0:
256,192,239092,1,0,0:0:0:0:
256,192,239192,1,8,0:0:0:0:
256,192,239392,1,0,0:0:0:0:
256,192,239492,1,8,0:0:0:0:
256,192,239692,1,8,0:0:0:0:
256,192,239892,1,0,0:0:0:0:
256,192,240292,1,8,0:0:0:0:
256,192,240392,1,0,0:0:0:0:
256,192,240592,1,8,0:0:0:0:
256,192,240792,1,8,0:0:0:0:
256,192,240892,1,0,0:0:0:0:
256,192,240992,1,0,0:0:0:0:
256,192,241092,1,8,0:0:0:0:
256,192,241292,1,8,0:0:0:0:
256,192,241392,1,0,0:0:0:0:
256,192,241492,1,0,0:0:0:0:
256,192,241691,1,0,0:0:0:0:
256,192,241891,1,8,0:0:0:0:
256,192,241991,1,0,0:0:0:0:
256,192,242191,1,8,0:0:0:0:
256,192,242291,1,0,0:0:0:0:
256,192,242391,1,8,0:0:0:0:
256,192,242591,1,0,0:0:0:0:
256,192,242691,1,8,0:0:0:0:
256,192,242891,1,8,0:0:0:0:
256,192,242991,1,8,0:0:0:0:
256,192,243091,1,0,0:0:0:0:
256,192,243491,1,8,0:0:0:0:
256,192,243591,1,0,0:0:0:0:
256,192,243791,1,8,0:0:0:0:
256,192,243991,1,8,0:0:0:0:
256,192,244091,1,0,0:0:0:0:
256,192,244191,1,0,0:0:0:0:
256,192,244291,1,8,0:0:0:0:
256,192,244491,1,8,0:0:0:0:
256,192,244591,1,0,0:0:0:0:
256,192,244690,1,0,0:0:0:0:
256,192,244890,1,0,0:0:0:0:
256,192,245090,1,8,0:0:0:0:
256,192,245190,1,0,0:0:0:0:
256,192,245390,1,8,0:0:0:0:
256,192,245490,1,0,0:0:0:0:
256,192,245590,1,8,0:0:0:0:
256,192,245790,1,0,0:0:0:0:
256,192,245890,1,8,0:0:0:0:
256,192,246090,1,8,0:0:0:0:
256,192,246290,1,0,0:0:0:0:
256,192,246690,1,8,0:0:0:0:
256,192,246790,1,0,0:0:0:0:
256,192,246990,1,8,0:0:0:0:
256,192,247190,1,8,0:0:0:0:
256,192,247290,1,0,0:0:0:0:
256,192,247390,1,0,0:0:0:0:
256,192,247490,1,8,0:0:0:0:
256,192,247689,1,8,0:0:0:0:
256,192,247889,1,0,0:0:0:0:
256,192,248089,1,8,0:0:0:0:
256,192,248289,1,0,0:0:0:0:
256,192,248389,1,8,0:0:0:0:
256,192,248589,1,0,0:0:0:0:
256,192,248789,1,8,0:0:0:0:
256,192,248889,1,0,0:0:0:0:
256,192,249089,1,8,0:0:0:0:
256,192,249189,1,0,0:0:0:0:
256,192,249289,1,8,0:0:0:0:
256,192,249389,1,8,0:0:0:0:
256,192,249489,1,0,0:0:0:0:
256,192,249889,1,8,0:0:0:0:
256,192,250489,1,0,0:0:0:0:
256,192,250688,1,8,0:0:0:0:
256,192,251088,1,0,0:0:0:0:
256,192,251488,1,8,0:0:0:0:
256,192,251688,1,0,0:0:0:0:
256,192,252088,1,0,0:0:0:0:
256,192,252288,1,8,0:0:0:0:
256,192,252688,1,0,0:0:0:0:
256,192,253088,1,8,0:0:0:0:
256,192,253687,1,0,0:0:0:0:
256,192,253887,1,8,0:0:0:0:
256,192,254287,1,0,0:0:0:0:
256,192,254487,1,0,0:0:0:0:
256,192,254687,1,8,0:0:0:0:
256,192,254887,1,0,0:0:0:0:
256,192,255287,1,0,0:0:0:0:
256,192,255487,1,8,0:0:0:0:
256,192,255887,1,0,0:0:0:0:
256,192,256287,1,8,0:0:0:0:
256,192,256886,1,0,0:0:0:0:
256,192,257086,1,8,0:0:0:0:
256,192,257486,1,0,0:0:0:0:
256,192,257886,1,8,0:0:0:0:
256,192,258086,1,0,0:0:0:0:
256,192,258486,1,0,0:0:0:0:
256,192,258686,1,8,0:0:0:0:
256,192,259086,1,0,0:0:0:0:
256,192,259485,1,8,0:0:0:0:
256,192,260085,1,0,0:0:0:0:
256,192,260285,1,8,0:0:0:0:
256,192,260685,1,8,0:0:0:0:
256,192,260885,1,0,0:0:0:0:
256,192,261085,1,0,0:0:0:0:
256,192,261285,1,8,0:0:0:0:
256,192,261485,1,0,0:0:0:0:
256,192,261685,1,8,0:0:0:0:
256,192,261885,1,8,0:0:0:0:
256,192,262284,1,0,0:0:0:0:
256,192,262384,1,8,0:0:0:0:
256,192,262484,1,0,0:0:0:0:
256,192,262684,1,8,0:0:0:0:
256,192,262784,1,0,0:0:0:0:
256,192,262984,1,8,0:0:0:0:
256,192,263184,1,8,0:0:0:0:
256,192,263284,1,0,0:0:0:0:
256,192,263484,1,8,0:0:0:0:
256,192,263684,1,8,0:0:0:0:
256,192,263884,1,0,0:0:0:0:
256,192,263984,1,8,0:0:0:0:
256,192,264084,1,0,0:0:0:0:
256,192,264284,1,8,0:0:0:0:
256,192,264384,1,0,0:0:0:0:
256,192,264584,1,8,0:0:0:0:
256,192,264784,1,8,0:0:0:0:
256,192,264884,1,0,0:0:0:0:
256,192,265084,1,8,0:0:0:0:
256,192,265283,1,8,0:0:0:0:
256,192,265383,1,8,0:0:0:0:
256,192,265483,1,0,0:0:0:0:
256,192,265883,1,8,0:0:0:0:
256,192,265983,1,0,0:0:0:0:
256,192,266183,1,8,0:0:0:0:
256,192,266383,1,8,0:0:0:0:
256,192,266483,1,0,0:0:0:0:
256,192,266683,1,8,0:0:0:0:
256,192,266883,1,8,0:0:0:0:
256,192,267083,1,0,0:0:0:0:
256,192,267183,1,8,0:0:0:0:
256,192,267283,1,0,0:0:0:0:
256,192,267483,1,8,0:0:0:0:
256,192,267583,1,0,0:0:0:0:
256,192,267783,1,8,0:0:0:0:
256,192,267983,1,8,0:0:0:0:
256,192,268083,1,0,0:0:0:0:
256,192,268282,1,8,0:0:0:0:
256,192,268382,1,0,0:0:0:0:
256,192,268482,1,8,0:0:0:0:
256,192,268582,1,8,0:0:0:0:
256,192,268682,1,0,0:0:0:0:
256,192,269082,1,8,0:0:0:0:
256,192,269182,1,0,0:0:0:0:
256,192,269382,1,8,0:0:0:0:
256,192,269582,1,8,0:0:0:0:
256,192,269682,1,0,0:0:0:0:
256,192,269882,1,8,0:0:0:0:
256,192,270082,1,8,0:0:0:0:
256,192,270282,1,0,0:0:0:0:
256,192,270382,1,8,0:0:0:0:
256,192,270482,1,0,0:0:0:0:
256,192,270682,1,8,0:0:0:0:
256,192,270782,1,0,0:0:0:0:
256,192,270982,1,8,0:0:0:0:
256,192,271181,1,8,0:0:0:0:
256,192,271281,1,0,0:0:0:0:
256,192,271481,1,8,0:0:0:0:
256,192,271681,1,8,0:0:0:0:
256,192,271781,1,8,0:0:0:0:
256,192,271881,1,0,0:0:0:0:
256,192,272281,1,8,0:0:0:0:
256,192,272381,1,0,0:0:0:0:
256,192,272581,1,8,0:0:0:0:
256,192,272781,1,8,0:0:0:0:
256,192,272881,1,0,0:0:0:0:
256,192,273081,1,8,0:0:0:0:
256,192,273281,1,8,0:0:0:0:
256,192,273481,1,0,0:0:0:0:
256,192,273581,1,8,0:0:0:0:
256,192,273681,1,0,0:0:0:0:
256,192,273881,1,8,0:0:0:0:
256,192,273981,1,0,0:0:0:0:
256,192,274080,1,0,0:0:0:0:
256,192,274180,1,8,0:0:0:0:
256,192,274380,1,8,0:0:0:0:
256,192,274480,1,0,0:0:0:0:
256,192,274680,1,8,0:0:0:0:
256,192,274780,1,0,0:0:0:0:
256,192,274880,1,8,0:0:0:0:
256,192,274980,1,8,0:0:0:0:
256,192,275080,1,0,0:0:0:0:
256,192,275480,1,8,0:0:0:0:
256,192,275580,1,0,0:0:0:0:
256,192,275780,1,8,0:0:0:0:
256,192,275980,1,8,0:0:0:0:
256,192,276080,1,0,0:0:0:0:
256,192,276280,1,8,0:0:0:0:
256,192,276380,1,0,0:0:0:0:
256,192,276480,1,8,0:0:0:0:
256,192,276680,1,0,0:0:0:0:
256,192,276780,1,8,0:0:0:0:
256,192,276880,1,0,0:0:0:0:
256,192,277079,1,8,0:0:0:0:
256,192,277179,1,0,0:0:0:0:
256,192,277379,1,8,0:0:0:0:
256,192,277579,1,8,0:0:0:0:
256,192,277679,1,0,0:0:0:0:
256,192,277879,1,8,0:0:0:0:
256,192,278079,1,8,0:0:0:0:
256,192,278179,1,8,0:0:0:0:
256,192,278279,1,0,0:0:0:0:
256,192,278479,1,0,0:0:0:0:
256,192,278679,1,8,0:0:0:0:
256,192,278779,1,0,0:0:0:0:
256,192,278979,1,8,0:0:0:0:
256,192,279179,1,8,0:0:0:0:
256,192,279279,1,0,0:0:0:0:
256,192,279479,1,8,0:0:0:0:
256,192,279579,1,0,0:0:0:0:
256,192,279679,1,8,0:0:0:0:
256,192,279879,1,0,0:0:0:0:
256,192,279978,1,8,0:0:0:0:
256,192,280078,1,0,0:0:0:0:
256,192,280278,1,8,0:0:0:0:
256,192,280378,1,0,0:0:0:0:
256,192,280578,1,8,0:0:0:0:
256,192,280778,1,8,0:0:0:0:
256,192,280878,1,0,0:0:0:0:
256,192,281078,1,8,0:0:0:0:
256,192,281178,1,0,0:0:0:0:
256,192,281278,1,8,0:0:0:0:
256,192,281378,1,8,0:0:0:0:
256,192,281478,1,0,0:0:0:0:
256,192,281878,1,8,0:0:0:0:
256,192,281978,1,0,0:0:0:0:
256,192,282178,1,8,0:0:0:0:
256,192,282378,1,8,0:0:0:0:
256,192,282478,1,0,0:0:0:0:
256,192,282678,1,8,0:0:0:0:
256,192,282778,1,0,0:0:0:0:
256,192,282877,1,8,0:0:0:0:
256,192,283077,1,0,0:0:0:0:
256,192,283177,1,8,0:0:0:0:
256,192,283277,1,0,0:0:0:0:
256,192,283477,1,8,0:0:0:0:
256,192,283577,1,0,0:0:0:0:
256,192,283777,1,8,0:0:0:0:
256,192,283977,1,8,0:0:0:0:
256,192,284077,1,0,0:0:0:0:
256,192,284277,1,8,0:0:0:0:
256,192,284477,1,8,0:0:0:0:
256,192,284577,1,8,0:0:0:0:
256,192,284677,1,0,0:0:0:0:
256,192,284877,1,0,0:0:0:0:
256,192,285077,1,8,0:0:0:0:
256,192,285177,1,0,0:0:0:0:
256,192,285377,1,8,0:0:0:0:
256,192,285577,1,8,0:0:0:0:
256,192,285677,1,0,0:0:0:0:
256,192,285876,1,8,0:0:0:0:
256,192,285976,1,0,0:0:0:0:
256,192,286076,1,8,0:0:0:0:
256,192,286276,1,0,0:0:0:0:
256,192,286376,1,8,0:0:0:0:
256,192,286476,1,0,0:0:0:0:
256,192,286676,1,8,0:0:0:0:
256,192,286776,1,0,0:0:0:0:
256,192,286876,1,0,0:0:0:0:
256,192,286976,1,8,0:0:0:0:
256,192,287176,1,8,0:0:0:0:
256,192,287276,1,0,0:0:0:0:
256,192,287476,1,8,0:0:0:0:
256,192,287576,1,0,0:0:0:0:
256,192,287676,1,8,0:0:0:0:
256,192,287776,1,8,0:0:0:0:
256,192,287876,1,0,0:0:0:0:
256,192,288276,1,8,0:0:0:0:
256,192,288376,1,0,0:0:0:0:
256,192,288576,1,8,0:0:0:0:
256,192,288775,1,8,0:0:0:0:
256,192,288875,1,0,0:0:0:0:
256,192,288975,1,0,0:0:0:0:
256,192,289075,1,8,0:0:0:0:
256,192,289275,1,8,0:0:0:0:
256,192,289375,1,0,0:0:0:0:
256,192,289475,1,0,0:0:0:0:
256,192,289675,1,0,0:0:0:0:
256,192,289875,1,8,0:0:0:0:
256,192,289975,1,0,0:0:0:0:
256,192,290275,1,8,0:0:0:0:
256,192,290375,1,0,0:0:0:0:
256,192,290475,1,8,0:0:0:0:
256,192,290675,1,0,0:0:0:0:
256,192,290775,1,8,0:0:0:0:
256,192,290875,1,0,0:0:0:0:
256,192,291075,1,8,0:0:0:0:
256,192,291475,1,8,0:0:0:0:
256,192,291575,1,0,0:0:0:0:
256,192,291774,1,8,0:0:0:0:
256,192,291974,1,8,0:0:0:0:
256,192,292074,1,0,0:0:0:0:
256,192,292174,1,0,0:0:0:0:
256,192,292274,1,8,0:0:0:0:
256,192,292474,1,8,0:0:0:0:
256,192,292574,1,0,0:0:0:0:
256,192,292674,1,0,0:0:0:0:
256,192,292874,1,0,0:0:0:0:
256,192,293074,1,8,0:0:0:0:
256,192,293174,1,0,0:0:0:0:
256,192,293474,1,0,0:0:0:0:
256,192,293574,1,0,0:0:0:0:
256,192,293674,1,8,0:0:0:0:
256,192,293774,1,8,0:0:0:0:
256,192,293874,1,0,0:0:0:0:
256,192,294074,1,8,0:0:0:0:
256,192,294174,1,8,0:0:0:0:
256,192,294274,1,0,0:0:0:0:
256,192,294673,1,8,0:0:0:0:
256,192,294773,1,0,0:0:0:0:
256,192,294973,1,8,0:0:0:0:
256,192,295173,1,8,0:0:0:0:
256,192,295273,1,0,0:0:0:0:
256,192,295373,1,0,0:0:0:0:
256,192,295473,1,8,0:0:0:0:
256,192,295673,1,8,0:0:0:0:
256,192,295773,1,0,0:0:0:0:
256,192,295873,1,0,0:0:0:0:
256,192,296073,1,0,0:0:0:0:
256,192,296273,1,8,0:0:0:0:
256,192,296373,1,0,0:0:0:0:
256,192,296673,1,8,0:0:0:0:
256,192,296773,1,0,0:0:0:0:
256,192,296873,1,8,0:0:0:0:
256,192,297073,1,0,0:0:0:0:
256,192,297173,1,8,0:0:0:0:
256,192,297273,1,0,0:0:0:0:
256,192,297473,1,8,0:0:0:0:
256,192,297872,1,8,0:0:0:0:
256,192,297972,1,0,0:0:0:0:
256,192,298172,1,8,0:0:0:0:
256,192,298372,1,8,0:0:0:0:
256,192,298472,1,0,0:0:0:0:
256,192,298572,1,0,0:0:0:0:
256,192,298672,1,8,0:0:0:0:
256,192,298872,1,8,0:0:0:0:
256,192,298972,1,0,0:0:0:0:
256,192,299072,1,0,0:0:0:0:
256,192,299272,1,0,0:0:0:0:
256,192,299472,1,8,0:0:0:0:
256,192,299672,1,0,0:0:0:0:
256,192,299772,1,8,0:0:0:0:
256,192,299972,1,8,0:0:0:0:
256,192,300072,1,0,0:0:0:0:
256,192,300272,1,8,0:0:0:0:
256,192,300372,1,0,0:0:0:0:
256,192,300472,1,8,0:0:0:0:
256,192,300571,1,8,0:0:0:0:
256,192,300671,1,0,0:0:0:0:
256,192,301271,1,0,0:0:0:0:
256,192,301871,1,0,0:0:0:0:
256,192,302471,1,0,0:0:0:0:
256,192,302871,1,0,0:0:0:0:
256,192,303071,1,8,0:0:0:0:
256,192,303271,1,8,0:0:0:0:
256,192,303470,1,0,0:0:0:0:
256,192,303670,1,0,0:0:0:0:
256,192,303870,1,8,0:0:0:0:
256,192,304470,1,8,0:0:0:0:
256,192,305070,1,8,0:0:0:0:
256,192,305670,1,8,0:0:0:0:
256,192,306270,1,0,0:0:0:0:
256,192,306469,1,8,0:0:0:0:
256,192,306569,1,8,0:0:0:0:
256,192,306669,1,0,0:0:0:0:
256,192,306869,1,8,0:0:0:0:
256,192,306969,1,8,0:0:0:0:
256,192,307069,1,0,0:0:0:0:
256,192,307669,1,0,0:0:0:0:
256,192,308269,1,0,0:0:0:0:
256,192,308869,1,0,0:0:0:0:
256,192,309269,1,0,0:0:0:0:
256,192,309468,1,8,0:0:0:0:
256,192,309668,1,8,0:0:0:0:
256,192,309868,1,0,0:0:0:0:
256,192,310068,1,0,0:0:0:0:
256,192,310268,1,8,0:0:0:0:
256,192,310868,1,8,0:0:0:0:
256,192,311468,1,8,0:0:0:0:
256,192,312068,1,8,0:0:0:0:
256,192,312667,1,0,0:0:0:0:
256,192,312867,1,8,0:0:0:0:
256,192,312967,1,8,0:0:0:0:
256,192,313067,1,0,0:0:0:0:
256,192,313267,1,8,0:0:0:0:
256,192,313367,1,8,0:0:0:0:
