osu file format v14

[General]
AudioFilename: audio.mp3
AudioLeadIn: 0
PreviewTime: 59680
Countdown: 0
SampleSet: Normal
StackLeniency: 0.7
Mode: 1
LetterboxInBreaks: 0
WidescreenStoryboard: 1

[Editor]
DistanceSpacing: 1
BeatDivisor: 4
GridSize: 4
TimelineZoom: 1.06

[Metadata]
Title:Breathe
TitleUnicode:Breathe
Artist:The Prodigy
ArtistUnicode:The Prodigy
Creator:Horiiizon
Version:Exhale
Source:
Tags:genjuro big beat breakbeat hardcore the fat of the land electronic english keith flint
BeatmapID:2719026
BeatmapSetID:1311898

[Difficulty]
HPDrainRate:5
CircleSize:5
OverallDifficulty:5.5
ApproachRate:5
SliderMultiplier:1.4
SliderTickRate:1

[Events]
//Background and Video events
0,0,"prodigy.jpg",0,-20
//Break Periods
2,211192,220983
2,262994,267594
//Storyboard Layer 0 (Background)
//Storyboard Layer 1 (Fail)
//Storyboard Layer 2 (Pass)
//Storyboard Layer 3 (Foreground)
//Storyboard Layer 4 (Overlay)
//Storyboard Sound Samples

[TimingPoints]
667,461.492312307231,4,1,0,40,1,0
13993,-100,4,1,0,60,0,0
15378,-100,4,1,0,70,0,0
58584,-99.0566037735849,4,1,0,70,0,0
58699,-97.2222222222222,4,1,0,70,0,0
58815,-95.4545454545455,4,1,0,70,0,0
58930,-93.75,4,1,0,70,0,0
59045,-92.1052631578947,4,1,0,70,0,0
59161,-90.5172413793103,4,1,0,70,0,0
59218,-89.7435897435897,4,1,0,70,0,0
59276,-88.9830508474576,4,1,0,70,0,0
59391,-87.5,4,1,0,70,0,0
59622,-84.6774193548387,4,1,0,70,0,0
59680,-100,4,1,0,80,0,0
59738,-83.3333333333333,4,1,0,80,0,1
88119,-84,4,1,0,80,0,1
88235,-85.3658536585366,4,1,0,80,0,1
88350,-86.7768595041322,4,1,0,80,0,1
88465,-88.2352941176471,4,1,0,80,0,1
88581,-89.7435897435897,4,1,0,80,0,1
88696,-91.304347826087,4,1,0,80,0,1
88754,-92.1052631578947,4,1,0,80,0,1
88812,-92.9203539823009,4,1,0,80,0,1
88927,-94.5945945945946,4,1,0,80,0,1
89158,-98.1308411214953,4,1,0,80,0,1
89215,-100,4,1,0,60,0,1
89273,-100,4,1,0,60,0,0
92917,-100,4,1,0,50,0,0
92965,461.492312307231,4,1,0,50,1,0
106301,-100,4,1,0,60,0,0
107686,-100,4,1,0,70,0,0
121347,-99.0566037735849,4,1,0,70,0,0
121462,-97.2222222222222,4,1,0,70,0,0
121577,-95.4545454545455,4,1,0,70,0,0
121693,-93.75,4,1,0,70,0,0
121808,-92.1052631578947,4,1,0,70,0,0
121924,-90.5172413793103,4,1,0,70,0,0
121981,-89.7435897435897,4,1,0,70,0,0
122039,-88.9830508474576,4,1,0,70,0,0
122154,-87.5,4,1,0,70,0,0
122385,-84.6774193548387,4,1,0,70,0,0
122455,-100,4,1,0,80,0,0
122500,-83.3333333333333,4,1,0,80,0,1
150882,-84,4,1,0,80,0,1
150998,-85.3658536585366,4,1,0,80,0,1
151113,-86.7768595041322,4,1,0,80,0,1
151228,-88.2352941176471,4,1,0,80,0,1
151344,-89.7435897435897,4,1,0,80,0,1
151459,-91.304347826087,4,1,0,80,0,1
151517,-92.1052631578947,4,1,0,80,0,1
151574,-92.9203539823009,4,1,0,80,0,1
151690,-94.5945945945946,4,1,0,80,0,1
151921,-98.1308411214953,4,1,0,80,0,1
151993,-100,4,1,0,70,0,1
152036,-100,4,1,0,70,0,0
180418,-99.0566037735849,4,1,0,70,0,0
180533,-97.2222222222222,4,1,0,70,0,0
180649,-95.4545454545455,4,1,0,70,0,0
180764,-93.75,4,1,0,70,0,0
180879,-92.1052631578947,4,1,0,70,0,0
180995,-90.5172413793103,4,1,0,70,0,0
181052,-89.7435897435897,4,1,0,70,0,0
181110,-88.9830508474576,4,1,0,70,0,0
181225,-87.5,4,1,0,70,0,0
181456,-84.6774193548387,4,1,0,70,0,0
181532,-100,4,1,0,80,0,0
181571,-83.3333333333333,4,1,0,80,0,1
209953,-84,4,1,0,80,0,1
210069,-85.3658536585366,4,1,0,80,0,1
210184,-86.7768595041322,4,1,0,80,0,1
210299,-88.2352941176471,4,1,0,80,0,1
210415,-89.7435897435897,4,1,0,80,0,1
210530,-91.304347826087,4,1,0,80,0,1
210588,-92.1052631578947,4,1,0,80,0,1
210646,-92.9203539823009,4,1,0,80,0,1
210761,-94.5945945945946,4,1,0,80,0,1
210992,-98.1308411214953,4,1,0,80,0,0
211107,-100,4,1,0,20,0,0
222147,-100,4,1,0,50,0,0
262936,-100,4,1,0,40,0,0
268763,-100,4,1,0,60,0,0
270147,-100,4,1,0,70,0,0
298560,-99.0566037735849,4,1,0,70,0,0
298675,-97.2222222222222,4,1,0,70,0,0
298791,-95.4545454545455,4,1,0,70,0,0
298906,-93.75,4,1,0,70,0,0
299021,-92.1052631578947,4,1,0,70,0,0
299137,-90.5172413793103,4,1,0,70,0,0
299194,-89.7435897435897,4,1,0,70,0,0
299252,-88.9830508474576,4,1,0,70,0,0
299367,-87.5,4,1,0,70,0,0
299598,-84.6774193548387,4,1,0,70,0,0
299656,-100,4,1,0,80,0,0
299714,-83.3333333333333,4,1,0,80,0,1
328095,-84,4,1,0,80,0,1
328211,-85.3658536585366,4,1,0,80,0,1
328326,-86.7768595041322,4,1,0,80,0,1
328441,-88.2352941176471,4,1,0,80,0,1
328557,-89.7435897435897,4,1,0,80,0,1
328672,-91.304347826087,4,1,0,80,0,1
328730,-92.1052631578947,4,1,0,80,0,1
328788,-92.9203539823009,4,1,0,80,0,1
328903,-94.5945945945946,4,1,0,80,0,1
329134,-98.1308411214953,4,1,0,80,0,1
329249,-100,4,1,0,80,0,0

[HitObjects]
248,230,14050,5,8,0:0:0:0:
291,199,14281,1,0,0:0:0:0:
291,199,14357,1,0,0:0:0:0:
290,203,14434,1,0,0:0:0:0:
290,203,14511,1,8,0:0:0:0:
243,228,14627,1,0,0:0:0:0:
233,187,14857,1,8,0:0:0:0:
221,192,15088,1,8,0:0:0:0:
200,197,15319,1,8,0:0:0:0:
200,197,15434,1,4,0:0:0:0:
232,221,15665,1,0,0:0:0:0:
232,221,15896,1,8,0:0:0:0:
196,177,16126,1,8,0:0:0:0:
196,177,16242,1,0,0:0:0:0:
213,167,16357,1,0,0:0:0:0:
216,170,16473,1,8,0:0:0:0:
247,213,16588,1,0,0:0:0:0:
190,172,16819,1,0,0:0:0:0:
200,143,17049,1,8,0:0:0:0:
206,143,17165,1,0,0:0:0:0:
206,143,17280,1,0,0:0:0:0:
209,142,17511,1,0,0:0:0:0:
211,159,17742,1,8,0:0:0:0:
230,147,17972,1,8,0:0:0:0:
230,147,18088,1,0,0:0:0:0:
275,215,18319,1,0,0:0:0:0:
225,167,18434,1,8,0:0:0:0:
237,249,18665,1,0,0:0:0:0:
209,158,18895,1,0,0:0:0:0:
263,228,19011,1,8,0:0:0:0:
262,228,19126,1,0,0:0:0:0:
232,221,19357,1,0,0:0:0:0:
232,221,19588,1,8,0:0:0:0:
196,177,19818,1,8,0:0:0:0:
196,177,19934,1,0,0:0:0:0:
213,167,20049,1,0,0:0:0:0:
216,170,20165,1,8,0:0:0:0:
200,143,20280,1,8,0:0:0:0:
190,172,20511,1,0,0:0:0:0:
200,143,20741,1,8,0:0:0:0:
206,143,20857,1,0,0:0:0:0:
206,143,20972,1,0,0:0:0:0:
209,142,21203,1,0,0:0:0:0:
211,159,21434,1,8,0:0:0:0:
230,147,21664,1,8,0:0:0:0:
230,147,21780,1,0,0:0:0:0:
275,215,22011,1,0,0:0:0:0:
225,167,22126,1,8,0:0:0:0:
237,249,22357,1,0,0:0:0:0:
223,157,22587,1,8,0:0:0:0:
263,228,22703,1,8,0:0:0:0:
204,201,22818,1,4,0:0:0:0:
232,221,23049,1,0,0:0:0:0:
232,221,23280,1,8,0:0:0:0:
196,177,23510,1,8,0:0:0:0:
196,177,23626,1,0,0:0:0:0:
213,167,23741,1,0,0:0:0:0:
216,170,23856,1,8,0:0:0:0:
246,225,23972,1,0,0:0:0:0:
190,172,24203,1,0,0:0:0:0:
200,143,24433,1,8,0:0:0:0:
206,143,24549,1,0,0:0:0:0:
206,143,24664,1,0,0:0:0:0:
209,142,24895,1,0,0:0:0:0:
211,159,25126,1,8,0:0:0:0:
230,147,25356,1,8,0:0:0:0:
230,147,25472,1,0,0:0:0:0:
275,215,25702,1,0,0:0:0:0:
225,167,25818,1,8,0:0:0:0:
237,249,26049,1,0,0:0:0:0:
209,158,26279,1,0,0:0:0:0:
263,228,26395,1,8,0:0:0:0:
262,228,26510,1,0,0:0:0:0:
232,221,26741,1,0,0:0:0:0:
232,221,26972,1,8,0:0:0:0:
196,177,27202,1,8,0:0:0:0:
196,177,27318,1,0,0:0:0:0:
213,167,27433,1,0,0:0:0:0:
216,170,27548,1,8,0:0:0:0:
200,143,27664,1,8,0:0:0:0:
190,172,27895,1,0,0:0:0:0:
200,143,28125,1,8,0:0:0:0:
206,143,28241,1,0,0:0:0:0:
206,143,28356,1,0,0:0:0:0:
209,142,28587,1,0,0:0:0:0:
211,159,28818,1,8,0:0:0:0:
211,223,29048,1,0,0:0:0:0:
230,147,29164,1,0,0:0:0:0:
228,201,29279,1,8,0:0:0:0:
197,184,29394,1,8,0:0:0:0:
198,195,29510,1,0,0:0:0:0:
262,184,29625,1,8,0:0:0:0:
262,184,29683,1,8,0:0:0:0:
219,179,29741,1,8,0:0:0:0:
219,179,29856,1,0,0:0:0:0:
203,169,30087,1,0,0:0:0:0:
249,171,30202,1,12,0:0:0:0:
232,221,30433,1,0,0:0:0:0:
232,221,30664,1,8,0:0:0:0:
205,162,30894,1,0,0:0:0:0:
196,177,31010,1,0,0:0:0:0:
222,191,31125,1,8,0:0:0:0:
222,191,31240,1,0,0:0:0:0:
200,143,31356,1,8,0:0:0:0:
190,172,31586,1,0,0:0:0:0:
200,143,31817,1,8,0:0:0:0:
191,145,31933,1,8,0:0:0:0:
206,143,32048,1,0,0:0:0:0:
209,142,32279,1,0,0:0:0:0:
211,159,32509,1,8,0:0:0:0:
230,147,32740,1,8,0:0:0:0:
230,147,32856,1,0,0:0:0:0:
244,222,33086,1,0,0:0:0:0:
225,167,33202,1,8,0:0:0:0:
237,249,33432,1,0,0:0:0:0:
214,152,33663,1,8,0:0:0:0:
210,177,33779,1,0,0:0:0:0:
210,177,33894,1,8,0:0:0:0:
232,221,34125,1,0,0:0:0:0:
232,221,34355,1,8,0:0:0:0:
193,136,34586,1,0,0:0:0:0:
196,177,34702,1,0,0:0:0:0:
226,165,34817,1,8,0:0:0:0:
226,165,34932,1,8,0:0:0:0:
200,143,35048,1,8,0:0:0:0:
190,172,35278,1,0,0:0:0:0:
200,143,35509,1,8,0:0:0:0:
223,176,35625,1,8,0:0:0:0:
206,143,35740,1,0,0:0:0:0:
209,142,35971,1,0,0:0:0:0:
211,159,36201,1,8,0:0:0:0:
230,147,36432,1,8,0:0:0:0:
230,147,36548,1,0,0:0:0:0:
275,215,36778,1,0,0:0:0:0:
225,167,36894,1,8,0:0:0:0:
237,249,37124,1,0,0:0:0:0:
200,199,37355,1,8,0:0:0:0:
226,190,37471,1,8,0:0:0:0:
215,191,37586,1,4,0:0:0:0:
232,221,37817,1,0,0:0:0:0:
232,221,38047,1,8,0:0:0:0:
205,162,38278,1,0,0:0:0:0:
196,177,38393,1,0,0:0:0:0:
222,191,38509,1,8,0:0:0:0:
222,191,38624,1,0,0:0:0:0:
200,143,38740,1,8,0:0:0:0:
190,172,38970,1,0,0:0:0:0:
200,143,39201,1,8,0:0:0:0:
191,145,39316,1,8,0:0:0:0:
206,143,39432,1,0,0:0:0:0:
209,142,39663,1,0,0:0:0:0:
211,159,39893,1,8,0:0:0:0:
230,147,40124,1,8,0:0:0:0:
230,147,40239,1,0,0:0:0:0:
244,222,40470,1,0,0:0:0:0:
225,167,40586,1,8,0:0:0:0:
237,249,40816,1,0,0:0:0:0:
214,152,41047,1,8,0:0:0:0:
210,177,41162,1,0,0:0:0:0:
210,177,41278,1,8,0:0:0:0:
232,221,41509,1,0,0:0:0:0:
232,221,41739,1,8,0:0:0:0:
193,136,41970,1,0,0:0:0:0:
196,177,42085,1,0,0:0:0:0:
226,165,42201,1,8,0:0:0:0:
226,165,42316,1,8,0:0:0:0:
200,143,42432,1,8,0:0:0:0:
190,172,42662,1,0,0:0:0:0:
200,143,42893,1,8,0:0:0:0:
223,176,43008,1,8,0:0:0:0:
206,143,43124,1,0,0:0:0:0:
209,142,43355,1,0,0:0:0:0:
211,159,43585,1,8,0:0:0:0:
171,156,43816,1,8,0:0:0:0:
230,147,43931,1,0,0:0:0:0:
227,169,44047,1,8,0:0:0:0:
201,177,44162,1,0,0:0:0:0:
206,133,44278,1,0,0:0:0:0:
262,184,44393,1,8,0:0:0:0:
262,184,44451,1,8,0:0:0:0:
219,179,44508,1,8,0:0:0:0:
219,179,44624,1,0,0:0:0:0:
203,169,44854,1,0,0:0:0:0:
249,171,44970,1,12,0:0:0:0:
232,221,45201,1,0,0:0:0:0:
232,221,45431,1,8,0:0:0:0:
205,162,45662,1,0,0:0:0:0:
196,177,45777,1,0,0:0:0:0:
222,191,45893,1,8,0:0:0:0:
200,143,46123,1,8,0:0:0:0:
201,176,46239,1,0,0:0:0:0:
199,161,46354,1,8,0:0:0:0:
201,176,46470,1,8,0:0:0:0:
184,182,46585,1,0,0:0:0:0:
226,230,46700,1,0,0:0:0:0:
237,171,46816,1,8,0:0:0:0:
209,142,47046,1,0,0:0:0:0:
211,159,47277,1,8,0:0:0:0:
236,223,47508,1,0,0:0:0:0:
228,208,47623,1,8,0:0:0:0:
211,216,47854,1,8,0:0:0:0:
225,167,47969,1,8,0:0:0:0:
237,249,48200,1,0,0:0:0:0:
214,152,48431,1,8,0:0:0:0:
210,177,48546,1,0,0:0:0:0:
210,177,48662,1,8,0:0:0:0:
232,221,48892,1,0,0:0:0:0:
232,221,49123,1,8,0:0:0:0:
193,136,49354,1,0,0:0:0:0:
196,177,49469,1,0,0:0:0:0:
226,165,49585,1,8,0:0:0:0:
200,143,49815,1,8,0:0:0:0:
190,153,49931,1,0,0:0:0:0:
181,132,50046,1,8,0:0:0:0:
190,152,50162,1,8,0:0:0:0:
191,186,50277,1,0,0:0:0:0:
219,165,50392,1,0,0:0:0:0:
206,143,50508,1,0,0:0:0:0:
209,142,50738,1,0,0:0:0:0:
211,159,50969,1,8,0:0:0:0:
252,226,51200,1,0,0:0:0:0:
252,226,51315,1,8,0:0:0:0:
206,163,51546,1,8,0:0:0:0:
225,167,51661,1,8,0:0:0:0:
237,249,51892,1,0,0:0:0:0:
200,199,52123,1,8,0:0:0:0:
226,190,52238,1,8,0:0:0:0:
215,191,52354,1,4,0:0:0:0:
232,221,52584,1,0,0:0:0:0:
232,221,52815,1,8,0:0:0:0:
205,162,53046,1,0,0:0:0:0:
196,177,53161,1,0,0:0:0:0:
222,191,53277,1,8,0:0:0:0:
200,143,53507,1,8,0:0:0:0:
201,176,53623,1,0,0:0:0:0:
199,161,53738,1,8,0:0:0:0:
201,176,53853,1,8,0:0:0:0:
184,182,53969,1,0,0:0:0:0:
235,175,54084,1,0,0:0:0:0:
237,171,54200,1,8,0:0:0:0:
209,142,54430,1,0,0:0:0:0:
211,159,54661,1,8,0:0:0:0:
236,223,54892,1,0,0:0:0:0:
228,208,55007,1,8,0:0:0:0:
211,216,55238,1,8,0:0:0:0:
225,167,55353,1,8,0:0:0:0:
237,249,55584,1,0,0:0:0:0:
214,152,55815,1,8,0:0:0:0:
210,177,55930,1,0,0:0:0:0:
210,177,56046,1,8,0:0:0:0:
232,221,56276,1,0,0:0:0:0:
232,221,56507,1,8,0:0:0:0:
193,136,56738,1,0,0:0:0:0:
196,177,56853,1,0,0:0:0:0:
226,165,56969,1,8,0:0:0:0:
200,143,57199,1,8,0:0:0:0:
190,153,57315,1,0,0:0:0:0:
181,132,57430,1,8,0:0:0:0:
190,152,57545,1,8,0:0:0:0:
191,186,57661,1,0,0:0:0:0:
226,169,57776,1,0,0:0:0:0:
206,143,57892,1,0,0:0:0:0:
209,142,58122,1,0,0:0:0:0:
211,159,58353,1,8,0:0:0:0:
223,135,58584,1,8,0:0:0:0:
223,135,58699,1,0,0:0:0:0:
227,169,58815,1,8,0:0:0:0:
212,191,58930,1,8,0:0:0:0:
206,133,59045,1,0,0:0:0:0:
262,184,59161,1,8,0:0:0:0:
262,184,59218,1,8,0:0:0:0:
219,179,59276,1,8,0:0:0:0:
219,179,59391,1,0,0:0:0:0:
203,169,59622,1,0,0:0:0:0:
249,171,59738,1,12,0:0:0:0:
211,152,59968,1,0,0:0:0:0:
205,219,60199,1,8,0:0:0:0:
205,219,60430,1,0,0:0:0:0:
206,202,60545,1,8,0:0:0:0:
247,305,60891,1,8,0:0:0:0:
247,305,61007,1,0,0:0:0:0:
262,300,61122,1,8,0:0:0:0:
266,298,61237,1,8,0:0:0:0:
267,298,61353,1,0,0:0:0:0:
222,233,61468,1,0,0:0:0:0:
222,233,61583,1,8,0:0:0:0:
333,286,61814,1,0,0:0:0:0:
248,283,62045,1,8,0:0:0:0:
212,227,62276,1,0,0:0:0:0:
211,227,62391,1,8,0:0:0:0:
257,282,62622,1,8,0:0:0:0:
256,268,62737,1,0,0:0:0:0:
256,268,62853,1,0,0:0:0:0:
246,233,62968,1,8,0:0:0:0:
247,239,63199,1,8,0:0:0:0:
185,211,63314,1,0,0:0:0:0:
217,215,63429,1,12,0:0:0:0:
217,215,63660,1,0,0:0:0:0:
217,215,63891,1,8,0:0:0:0:
229,225,64122,1,0,0:0:0:0:
231,225,64237,1,8,0:0:0:0:
213,170,64468,1,0,0:0:0:0:
213,170,64583,1,8,0:0:0:0:
219,202,64699,1,0,0:0:0:0:
226,209,64814,1,8,0:0:0:0:
226,209,64929,1,8,0:0:0:0:
226,209,65045,1,0,0:0:0:0:
200,194,65160,1,0,0:0:0:0:
213,170,65275,1,0,0:0:0:0:
213,170,65506,1,0,0:0:0:0:
217,170,65737,1,8,0:0:0:0:
201,155,65968,1,0,0:0:0:0:
201,155,66083,1,8,0:0:0:0:
200,150,66198,1,8,0:0:0:0:
209,160,66314,1,8,0:0:0:0:
225,175,66429,1,0,0:0:0:0:
217,170,66660,1,8,0:0:0:0:
226,200,66891,1,0,0:0:0:0:
226,200,67006,1,0,0:0:0:0:
215,174,67121,1,12,0:0:0:0:
211,152,67352,1,0,0:0:0:0:
205,219,67583,1,8,0:0:0:0:
205,219,67814,1,0,0:0:0:0:
206,202,67929,1,8,0:0:0:0:
247,305,68275,1,8,0:0:0:0:
247,305,68390,1,0,0:0:0:0:
262,300,68506,1,8,0:0:0:0:
266,298,68621,1,8,0:0:0:0:
267,298,68737,1,0,0:0:0:0:
222,233,68852,1,0,0:0:0:0:
222,233,68967,1,8,0:0:0:0:
333,286,69198,1,0,0:0:0:0:
248,283,69429,1,8,0:0:0:0:
212,227,69660,1,0,0:0:0:0:
211,227,69775,1,8,0:0:0:0:
257,282,70006,1,8,0:0:0:0:
256,268,70121,1,0,0:0:0:0:
256,268,70236,1,0,0:0:0:0:
246,233,70352,1,8,0:0:0:0:
247,239,70583,1,8,0:0:0:0:
237,299,70698,1,0,0:0:0:0:
217,215,70813,1,12,0:0:0:0:
217,215,71044,1,0,0:0:0:0:
217,215,71275,1,8,0:0:0:0:
229,225,71506,1,0,0:0:0:0:
231,225,71621,1,8,0:0:0:0:
213,170,71852,1,0,0:0:0:0:
213,170,71967,1,8,0:0:0:0:
219,202,72082,1,0,0:0:0:0:
226,209,72198,1,8,0:0:0:0:
226,209,72313,1,8,0:0:0:0:
226,209,72429,1,0,0:0:0:0:
200,194,72544,1,0,0:0:0:0:
213,170,72659,1,0,0:0:0:0:
213,170,72890,1,0,0:0:0:0:
217,170,73121,1,8,0:0:0:0:
201,155,73352,5,0,0:0:0:0:
201,155,73467,1,8,0:0:0:0:
200,150,73582,1,8,0:0:0:0:
209,160,73698,1,8,0:0:0:0:
225,175,73813,1,0,0:0:0:0:
217,170,74044,1,8,0:0:0:0:
226,200,74275,1,0,0:0:0:0:
226,200,74390,1,0,0:0:0:0:
215,174,74505,1,12,0:0:0:0:
221,139,74736,1,0,0:0:0:0:
221,139,74967,1,8,0:0:0:0:
229,153,75198,1,0,0:0:0:0:
229,153,75313,1,8,0:0:0:0:
230,173,75544,1,0,0:0:0:0:
230,176,75659,1,8,0:0:0:0:
226,181,75774,1,0,0:0:0:0:
217,172,75890,1,8,0:0:0:0:
217,172,76005,1,8,0:0:0:0:
217,172,76120,1,0,0:0:0:0:
250,225,76236,1,0,0:0:0:0:
250,225,76351,1,8,0:0:0:0:
219,184,76582,1,0,0:0:0:0:
211,229,76813,1,8,0:0:0:0:
211,229,77043,1,0,0:0:0:0:
211,229,77159,1,8,0:0:0:0:
243,197,77390,1,8,0:0:0:0:
243,197,77505,1,0,0:0:0:0:
254,214,77736,1,8,0:0:0:0:
255,215,77966,1,8,0:0:0:0:
270,231,78082,1,8,0:0:0:0:
270,231,78197,1,4,0:0:0:0:
221,139,78428,1,0,0:0:0:0:
221,139,78659,1,8,0:0:0:0:
229,153,78889,1,0,0:0:0:0:
229,153,79005,1,8,0:0:0:0:
230,173,79236,1,0,0:0:0:0:
230,176,79351,1,8,0:0:0:0:
226,181,79466,1,0,0:0:0:0:
217,172,79582,1,8,0:0:0:0:
217,172,79697,1,8,0:0:0:0:
217,172,79812,1,0,0:0:0:0:
199,162,79928,1,0,0:0:0:0:
216,180,80043,1,0,0:0:0:0:
219,184,80274,1,0,0:0:0:0:
211,229,80505,1,8,0:0:0:0:
211,229,80735,1,0,0:0:0:0:
211,229,80851,1,8,0:0:0:0:
243,197,81082,1,8,0:0:0:0:
243,197,81197,1,0,0:0:0:0:
254,214,81428,1,8,0:0:0:0:
255,215,81658,1,8,0:0:0:0:
270,231,81774,1,8,0:0:0:0:
270,231,81889,1,4,0:0:0:0:
221,139,82120,1,0,0:0:0:0:
221,139,82351,1,8,0:0:0:0:
229,153,82581,1,0,0:0:0:0:
229,153,82697,1,8,0:0:0:0:
230,173,82928,1,0,0:0:0:0:
230,176,83043,1,8,0:0:0:0:
226,181,83158,1,0,0:0:0:0:
217,172,83274,1,8,0:0:0:0:
217,172,83389,1,8,0:0:0:0:
217,172,83504,1,0,0:0:0:0:
197,166,83620,1,0,0:0:0:0:
206,174,83735,1,8,0:0:0:0:
219,184,83966,1,0,0:0:0:0:
211,229,84197,1,8,0:0:0:0:
211,229,84427,1,0,0:0:0:0:
211,229,84543,1,8,0:0:0:0:
243,197,84773,1,8,0:0:0:0:
243,197,84889,1,0,0:0:0:0:
254,214,85120,1,8,0:0:0:0:
255,215,85350,1,8,0:0:0:0:
270,231,85466,1,8,0:0:0:0:
270,231,85581,1,4,0:0:0:0:
221,139,85812,1,0,0:0:0:0:
221,139,86043,1,8,0:0:0:0:
229,153,86273,1,0,0:0:0:0:
229,153,86389,1,8,0:0:0:0:
230,173,86619,1,0,0:0:0:0:
230,176,86735,1,8,0:0:0:0:
226,181,86850,1,0,0:0:0:0:
217,172,86966,1,8,0:0:0:0:
217,172,87081,1,8,0:0:0:0:
217,172,87196,1,0,0:0:0:0:
226,167,87312,1,0,0:0:0:0:
216,180,87427,1,0,0:0:0:0:
267,207,87658,1,0,0:0:0:0:
271,210,87773,1,8,0:0:0:0:
271,210,87889,1,8,0:0:0:0:
271,210,88119,1,8,0:0:0:0:
271,210,88235,1,0,0:0:0:0:
271,210,88350,1,8,0:0:0:0:
184,167,88465,1,0,0:0:0:0:
272,210,88581,1,0,0:0:0:0:
261,159,88696,1,8,0:0:0:0:
261,159,88754,1,8,0:0:0:0:
261,159,88812,1,8,0:0:0:0:
261,159,88927,1,0,0:0:0:0:
211,152,89158,1,8,0:0:0:0:
215,149,89273,1,4,0:0:0:0:
231,206,89504,1,0,0:0:0:0:
189,171,89735,1,8,0:0:0:0:
189,171,89965,1,8,0:0:0:0:
189,171,90081,1,0,0:0:0:0:
203,183,90311,1,0,0:0:0:0:
203,183,90427,1,8,0:0:0:0:
197,157,90658,1,0,0:0:0:0:
231,228,90888,1,0,0:0:0:0:
206,167,91004,1,0,0:0:0:0:
206,167,91119,1,12,0:0:0:0:
170,185,91350,1,0,0:0:0:0:
183,159,91580,1,8,0:0:0:0:
211,223,91811,1,0,0:0:0:0:
230,147,91927,1,0,0:0:0:0:
228,201,92042,1,8,0:0:0:0:
197,184,92157,1,8,0:0:0:0:
198,195,92273,1,0,0:0:0:0:
262,184,92388,1,8,0:0:0:0:
262,184,92446,1,8,0:0:0:0:
219,179,92503,1,8,0:0:0:0:
219,179,92619,1,0,0:0:0:0:
208,189,92850,1,0,0:0:0:0:
208,189,92965,1,12,0:0:0:0:
233,215,93426,1,8,0:0:0:0:
224,213,93888,1,0,0:0:0:0:
224,213,94119,1,0,0:0:0:0:
242,211,94580,1,8,0:0:0:0:
242,211,94811,1,0,0:0:0:0:
234,194,95157,1,0,0:0:0:0:
234,194,95272,1,8,0:0:0:0:
188,165,95503,1,0,0:0:0:0:
202,166,95849,1,8,0:0:0:0:
203,168,95965,1,0,0:0:0:0:
209,157,96195,1,0,0:0:0:0:
209,157,96426,1,8,0:0:0:0:
215,167,96542,1,0,0:0:0:0:
215,167,96657,1,8,0:0:0:0:
233,215,97118,1,8,0:0:0:0:
224,213,97580,1,0,0:0:0:0:
224,213,97811,1,0,0:0:0:0:
242,211,98272,1,8,0:0:0:0:
242,211,98503,1,0,0:0:0:0:
234,194,98849,1,0,0:0:0:0:
234,194,98964,1,8,0:0:0:0:
188,165,99195,1,0,0:0:0:0:
202,166,99541,1,8,0:0:0:0:
151,122,99657,1,8,0:0:0:0:
209,157,99887,1,0,0:0:0:0:
209,157,100118,1,8,0:0:0:0:
215,167,100233,1,0,0:0:0:0:
215,167,100349,1,8,0:0:0:0:
233,215,100810,1,8,0:0:0:0:
224,213,101272,1,0,0:0:0:0:
224,213,101503,1,0,0:0:0:0:
242,211,101964,1,8,0:0:0:0:
242,211,102195,1,0,0:0:0:0:
234,194,102541,1,0,0:0:0:0:
234,194,102656,1,8,0:0:0:0:
188,165,102887,1,0,0:0:0:0:
202,166,103233,1,8,0:0:0:0:
192,94,103349,1,8,0:0:0:0:
209,157,103579,1,0,0:0:0:0:
209,157,103810,1,8,0:0:0:0:
215,167,103925,1,0,0:0:0:0:
215,167,104041,1,8,0:0:0:0:
233,215,104502,1,8,0:0:0:0:
224,213,104964,1,0,0:0:0:0:
224,213,105195,1,0,0:0:0:0:
242,211,105656,1,8,0:0:0:0:
242,211,105887,1,0,0:0:0:0:
234,194,106233,1,0,0:0:0:0:
248,230,106348,5,8,0:0:0:0:
291,199,106579,1,0,0:0:0:0:
291,199,106656,1,0,0:0:0:0:
290,203,106733,1,0,0:0:0:0:
290,203,106810,1,8,0:0:0:0:
243,228,106925,1,0,0:0:0:0:
233,187,107156,1,8,0:0:0:0:
221,192,107387,1,8,0:0:0:0:
200,197,107617,1,8,0:0:0:0:
200,197,107733,1,4,0:0:0:0:
232,221,107963,1,0,0:0:0:0:
232,221,108194,1,8,0:0:0:0:
216,165,108425,1,8,0:0:0:0:
263,162,108540,1,0,0:0:0:0:
216,165,108656,1,0,0:0:0:0:
246,255,108771,1,8,0:0:0:0:
206,214,108886,1,0,0:0:0:0:
190,172,109117,1,0,0:0:0:0:
200,143,109348,1,8,0:0:0:0:
206,143,109463,1,0,0:0:0:0:
206,143,109579,1,0,0:0:0:0:
209,142,109809,1,0,0:0:0:0:
211,159,110040,1,8,0:0:0:0:
230,147,110271,1,8,0:0:0:0:
230,147,110386,1,0,0:0:0:0:
275,215,110617,1,0,0:0:0:0:
225,167,110732,1,8,0:0:0:0:
237,249,110963,1,0,0:0:0:0:
245,247,111194,1,8,0:0:0:0:
263,228,111309,1,8,0:0:0:0:
262,228,111425,1,4,0:0:0:0:
232,221,111655,1,0,0:0:0:0:
232,221,111886,1,8,0:0:0:0:
216,165,112117,1,8,0:0:0:0:
192,157,112232,1,0,0:0:0:0:
216,165,112348,1,0,0:0:0:0:
216,118,112463,1,8,0:0:0:0:
200,143,112578,1,8,0:0:0:0:
190,172,112809,1,0,0:0:0:0:
200,143,113040,1,8,0:0:0:0:
206,143,113155,1,0,0:0:0:0:
206,143,113271,1,0,0:0:0:0:
209,142,113501,1,0,0:0:0:0:
211,159,113732,1,8,0:0:0:0:
230,147,113963,1,8,0:0:0:0:
230,147,114078,1,0,0:0:0:0:
275,215,114309,1,0,0:0:0:0:
225,167,114424,1,8,0:0:0:0:
237,249,114655,1,0,0:0:0:0:
245,247,114886,1,8,0:0:0:0:
263,228,115001,1,8,0:0:0:0:
262,228,115117,1,4,0:0:0:0:
232,221,115347,1,0,0:0:0:0:
232,221,115578,1,8,0:0:0:0:
216,165,115809,1,8,0:0:0:0:
184,153,115924,1,0,0:0:0:0:
216,165,116040,1,0,0:0:0:0:
228,201,116155,1,8,0:0:0:0:
193,149,116270,1,0,0:0:0:0:
190,172,116501,1,0,0:0:0:0:
200,143,116732,1,8,0:0:0:0:
206,143,116847,1,0,0:0:0:0:
206,143,116963,1,0,0:0:0:0:
209,142,117193,1,0,0:0:0:0:
211,159,117424,1,8,0:0:0:0:
230,147,117655,1,8,0:0:0:0:
230,147,117770,1,0,0:0:0:0:
275,215,118001,1,0,0:0:0:0:
225,167,118116,1,8,0:0:0:0:
237,249,118347,1,0,0:0:0:0:
245,247,118578,1,8,0:0:0:0:
263,228,118693,1,8,0:0:0:0:
262,228,118809,1,4,0:0:0:0:
232,221,119039,1,0,0:0:0:0:
232,221,119270,1,8,0:0:0:0:
216,165,119501,1,8,0:0:0:0:
236,173,119616,1,0,0:0:0:0:
216,165,119732,1,0,0:0:0:0:
224,150,119847,1,8,0:0:0:0:
200,143,119962,1,8,0:0:0:0:
190,172,120193,1,0,0:0:0:0:
200,143,120424,1,8,0:0:0:0:
206,143,120539,1,0,0:0:0:0:
206,143,120655,1,0,0:0:0:0:
209,142,120885,1,0,0:0:0:0:
211,159,121116,1,8,0:0:0:0:
171,156,121347,1,8,0:0:0:0:
230,147,121462,1,0,0:0:0:0:
227,169,121577,1,8,0:0:0:0:
138,121,121693,1,8,0:0:0:0:
197,134,121808,1,0,0:0:0:0:
262,184,121924,1,8,0:0:0:0:
262,184,121981,1,8,0:0:0:0:
219,179,122039,1,8,0:0:0:0:
219,179,122154,1,0,0:0:0:0:
203,169,122385,1,0,0:0:0:0:
249,171,122500,1,12,0:0:0:0:
211,152,122731,1,0,0:0:0:0:
205,219,122962,1,8,0:0:0:0:
205,219,123193,1,0,0:0:0:0:
206,202,123308,1,8,0:0:0:0:
247,305,123654,1,8,0:0:0:0:
247,305,123770,1,0,0:0:0:0:
262,300,123885,1,8,0:0:0:0:
266,298,124000,1,8,0:0:0:0:
267,298,124116,1,0,0:0:0:0:
222,233,124231,1,0,0:0:0:0:
222,233,124346,1,8,0:0:0:0:
333,286,124577,1,0,0:0:0:0:
248,283,124808,1,8,0:0:0:0:
212,227,125039,1,0,0:0:0:0:
211,227,125154,1,8,0:0:0:0:
257,282,125385,1,8,0:0:0:0:
256,268,125500,1,0,0:0:0:0:
256,268,125616,1,0,0:0:0:0:
246,233,125731,1,8,0:0:0:0:
247,239,125962,1,8,0:0:0:0:
185,211,126077,1,0,0:0:0:0:
217,215,126192,1,12,0:0:0:0:
217,215,126423,1,0,0:0:0:0:
217,215,126654,1,8,0:0:0:0:
229,225,126885,1,0,0:0:0:0:
231,225,127000,1,8,0:0:0:0:
213,170,127231,1,0,0:0:0:0:
213,170,127346,1,8,0:0:0:0:
219,202,127462,1,0,0:0:0:0:
226,209,127577,1,8,0:0:0:0:
226,209,127692,1,8,0:0:0:0:
226,209,127808,1,0,0:0:0:0:
200,194,127923,1,0,0:0:0:0:
213,170,128038,1,0,0:0:0:0:
213,170,128269,1,0,0:0:0:0:
217,170,128500,1,8,0:0:0:0:
201,155,128731,1,0,0:0:0:0:
201,155,128846,1,8,0:0:0:0:
200,150,128961,1,8,0:0:0:0:
209,160,129077,1,8,0:0:0:0:
225,175,129192,1,0,0:0:0:0:
217,170,129423,1,8,0:0:0:0:
226,200,129654,1,0,0:0:0:0:
226,200,129769,1,0,0:0:0:0:
215,174,129884,1,12,0:0:0:0:
211,152,130115,1,0,0:0:0:0:
205,219,130346,1,8,0:0:0:0:
205,219,130577,1,0,0:0:0:0:
206,202,130692,1,8,0:0:0:0:
247,305,131038,1,8,0:0:0:0:
247,305,131153,1,0,0:0:0:0:
262,300,131269,1,8,0:0:0:0:
266,298,131384,1,8,0:0:0:0:
267,298,131500,1,0,0:0:0:0:
222,233,131615,1,0,0:0:0:0:
222,233,131730,1,8,0:0:0:0:
333,286,131961,1,0,0:0:0:0:
248,283,132192,1,8,0:0:0:0:
212,227,132423,1,0,0:0:0:0:
211,227,132538,1,8,0:0:0:0:
257,282,132769,1,8,0:0:0:0:
256,268,132884,1,0,0:0:0:0:
256,268,132999,1,0,0:0:0:0:
246,233,133115,1,8,0:0:0:0:
247,239,133346,1,8,0:0:0:0:
237,299,133461,1,0,0:0:0:0:
217,215,133576,1,12,0:0:0:0:
217,215,133807,1,0,0:0:0:0:
217,215,134038,1,8,0:0:0:0:
229,225,134269,1,0,0:0:0:0:
231,225,134384,1,8,0:0:0:0:
213,170,134615,1,0,0:0:0:0:
213,170,134730,1,8,0:0:0:0:
219,202,134845,1,0,0:0:0:0:
226,209,134961,1,8,0:0:0:0:
226,209,135076,1,8,0:0:0:0:
226,209,135192,1,0,0:0:0:0:
200,194,135307,1,0,0:0:0:0:
213,170,135422,1,0,0:0:0:0:
213,170,135653,1,0,0:0:0:0:
217,170,135884,1,8,0:0:0:0:
201,155,136114,5,0,0:0:0:0:
201,155,136230,1,8,0:0:0:0:
200,150,136345,1,8,0:0:0:0:
209,160,136461,1,8,0:0:0:0:
225,175,136576,1,0,0:0:0:0:
217,170,136807,1,8,0:0:0:0:
226,200,137037,1,0,0:0:0:0:
226,200,137153,1,0,0:0:0:0:
215,174,137268,1,12,0:0:0:0:
221,139,137499,1,0,0:0:0:0:
221,139,137730,1,8,0:0:0:0:
229,153,137960,1,0,0:0:0:0:
229,153,138076,1,8,0:0:0:0:
230,173,138307,1,0,0:0:0:0:
230,176,138422,1,8,0:0:0:0:
226,181,138537,1,0,0:0:0:0:
217,172,138653,1,8,0:0:0:0:
217,172,138768,1,8,0:0:0:0:
217,172,138883,1,0,0:0:0:0:
250,225,138999,1,0,0:0:0:0:
250,225,139114,1,8,0:0:0:0:
219,184,139345,1,0,0:0:0:0:
211,229,139576,1,8,0:0:0:0:
211,229,139806,1,0,0:0:0:0:
211,229,139922,1,8,0:0:0:0:
243,197,140153,1,8,0:0:0:0:
243,197,140268,1,0,0:0:0:0:
254,214,140499,1,8,0:0:0:0:
255,215,140729,1,8,0:0:0:0:
270,231,140845,1,8,0:0:0:0:
270,231,140960,1,4,0:0:0:0:
221,139,141191,1,0,0:0:0:0:
221,139,141422,1,8,0:0:0:0:
229,153,141652,1,0,0:0:0:0:
229,153,141768,1,8,0:0:0:0:
230,173,141999,1,0,0:0:0:0:
230,176,142114,1,8,0:0:0:0:
226,181,142229,1,0,0:0:0:0:
217,172,142345,1,8,0:0:0:0:
217,172,142460,1,8,0:0:0:0:
217,172,142575,1,0,0:0:0:0:
199,162,142691,1,0,0:0:0:0:
216,180,142806,1,0,0:0:0:0:
219,184,143037,1,0,0:0:0:0:
211,229,143268,1,8,0:0:0:0:
211,229,143498,1,0,0:0:0:0:
211,229,143614,1,8,0:0:0:0:
243,197,143844,1,8,0:0:0:0:
243,197,143960,1,0,0:0:0:0:
254,214,144191,1,8,0:0:0:0:
255,215,144421,1,8,0:0:0:0:
270,231,144537,1,8,0:0:0:0:
270,231,144652,1,4,0:0:0:0:
221,139,144883,1,0,0:0:0:0:
221,139,145114,1,8,0:0:0:0:
229,153,145344,1,0,0:0:0:0:
229,153,145460,1,8,0:0:0:0:
230,173,145690,1,0,0:0:0:0:
230,176,145806,1,8,0:0:0:0:
226,181,145921,1,0,0:0:0:0:
217,172,146037,1,8,0:0:0:0:
217,172,146152,1,8,0:0:0:0:
217,172,146267,1,0,0:0:0:0:
197,166,146383,1,0,0:0:0:0:
206,174,146498,1,8,0:0:0:0:
219,184,146729,1,0,0:0:0:0:
211,229,146960,1,8,0:0:0:0:
211,229,147190,1,0,0:0:0:0:
211,229,147306,1,8,0:0:0:0:
243,197,147536,1,8,0:0:0:0:
243,197,147652,1,0,0:0:0:0:
254,214,147883,1,8,0:0:0:0:
255,215,148113,1,8,0:0:0:0:
270,231,148229,1,8,0:0:0:0:
270,231,148344,1,4,0:0:0:0:
221,139,148575,1,0,0:0:0:0:
221,139,148806,1,8,0:0:0:0:
229,153,149036,1,0,0:0:0:0:
229,153,149152,1,8,0:0:0:0:
230,173,149382,1,0,0:0:0:0:
230,176,149498,1,8,0:0:0:0:
226,181,149613,1,0,0:0:0:0:
217,172,149729,1,8,0:0:0:0:
217,172,149844,1,8,0:0:0:0:
217,172,149959,1,0,0:0:0:0:
226,167,150075,1,0,0:0:0:0:
216,180,150190,1,0,0:0:0:0:
267,207,150421,1,0,0:0:0:0:
271,210,150536,1,8,0:0:0:0:
271,210,150652,1,8,0:0:0:0:
271,210,150882,1,8,0:0:0:0:
271,210,150998,1,0,0:0:0:0:
271,210,151113,5,8,0:0:0:0:
184,167,151228,1,0,0:0:0:0:
272,210,151344,1,0,0:0:0:0:
261,159,151459,1,8,0:0:0:0:
261,159,151517,1,8,0:0:0:0:
261,159,151574,1,8,0:0:0:0:
261,159,151690,1,0,0:0:0:0:
211,152,151921,1,8,0:0:0:0:
215,149,152036,1,4,0:0:0:0:
232,221,152267,5,0,0:0:0:0:
232,221,152497,1,8,0:0:0:0:
216,165,152728,1,8,0:0:0:0:
230,197,152844,1,0,0:0:0:0:
197,214,152959,1,0,0:0:0:0:
230,197,153074,1,8,0:0:0:0:
222,206,153190,1,0,0:0:0:0:
190,172,153420,1,0,0:0:0:0:
200,143,153651,1,8,0:0:0:0:
206,143,153767,1,0,0:0:0:0:
206,143,153882,1,0,0:0:0:0:
209,142,154113,1,0,0:0:0:0:
211,159,154343,1,8,0:0:0:0:
230,147,154574,1,8,0:0:0:0:
230,147,154690,1,0,0:0:0:0:
275,215,154920,1,0,0:0:0:0:
225,167,155036,1,8,0:0:0:0:
237,249,155266,1,0,0:0:0:0:
245,247,155497,1,8,0:0:0:0:
263,228,155613,1,8,0:0:0:0:
262,228,155728,1,0,0:0:0:0:
232,221,155959,1,0,0:0:0:0:
232,221,156189,1,8,0:0:0:0:
216,165,156420,1,8,0:0:0:0:
217,137,156536,1,0,0:0:0:0:
216,165,156651,1,0,0:0:0:0:
199,117,156766,1,8,0:0:0:0:
200,143,156882,1,8,0:0:0:0:
190,172,157112,1,0,0:0:0:0:
200,143,157343,1,8,0:0:0:0:
206,143,157459,1,0,0:0:0:0:
206,143,157574,1,0,0:0:0:0:
209,142,157805,1,0,0:0:0:0:
211,159,158035,1,8,0:0:0:0:
230,147,158266,1,8,0:0:0:0:
230,147,158381,1,0,0:0:0:0:
275,215,158612,1,0,0:0:0:0:
225,167,158728,1,8,0:0:0:0:
237,249,158958,1,0,0:0:0:0:
196,145,159189,1,0,0:0:0:0:
206,172,159304,1,0,0:0:0:0:
243,209,159420,1,12,0:0:0:0:
232,221,159651,1,0,0:0:0:0:
232,221,159881,1,8,0:0:0:0:
205,162,160112,1,0,0:0:0:0:
196,177,160227,1,0,0:0:0:0:
222,191,160343,1,8,0:0:0:0:
222,191,160458,1,0,0:0:0:0:
200,143,160574,1,8,0:0:0:0:
190,172,160804,1,0,0:0:0:0:
200,143,161035,1,8,0:0:0:0:
191,145,161150,1,8,0:0:0:0:
206,143,161266,1,0,0:0:0:0:
209,142,161497,1,0,0:0:0:0:
211,159,161727,1,8,0:0:0:0:
230,147,161958,1,8,0:0:0:0:
230,147,162073,1,0,0:0:0:0:
244,222,162304,1,0,0:0:0:0:
225,167,162420,1,8,0:0:0:0:
237,249,162650,1,0,0:0:0:0:
214,152,162881,1,8,0:0:0:0:
210,177,162996,1,0,0:0:0:0:
210,177,163112,1,8,0:0:0:0:
232,221,163343,1,0,0:0:0:0:
232,221,163573,1,8,0:0:0:0:
193,136,163804,1,0,0:0:0:0:
196,177,163919,1,0,0:0:0:0:
226,165,164035,1,8,0:0:0:0:
226,165,164150,1,8,0:0:0:0:
200,143,164266,1,8,0:0:0:0:
190,172,164496,1,0,0:0:0:0:
200,143,164727,1,8,0:0:0:0:
223,176,164842,1,8,0:0:0:0:
206,143,164958,1,0,0:0:0:0:
209,142,165189,1,0,0:0:0:0:
211,159,165419,1,8,0:0:0:0:
187,126,165650,1,0,0:0:0:0:
230,147,165765,1,0,0:0:0:0:
227,169,165881,1,8,0:0:0:0:
208,147,165996,1,8,0:0:0:0:
206,133,166111,1,0,0:0:0:0:
262,184,166227,1,8,0:0:0:0:
262,184,166285,1,8,0:0:0:0:
219,179,166342,1,8,0:0:0:0:
219,179,166458,1,0,0:0:0:0:
203,169,166688,1,0,0:0:0:0:
249,171,166804,1,12,0:0:0:0:
232,221,167034,1,0,0:0:0:0:
232,221,167265,1,8,0:0:0:0:
205,162,167496,1,0,0:0:0:0:
196,177,167611,1,0,0:0:0:0:
222,191,167727,1,8,0:0:0:0:
200,143,167957,1,8,0:0:0:0:
201,176,168073,1,0,0:0:0:0:
199,161,168188,1,8,0:0:0:0:
201,176,168304,1,8,0:0:0:0:
184,182,168419,1,0,0:0:0:0:
226,230,168534,1,0,0:0:0:0:
237,171,168650,1,8,0:0:0:0:
209,142,168880,1,0,0:0:0:0:
211,159,169111,1,8,0:0:0:0:
236,223,169342,1,0,0:0:0:0:
228,208,169457,1,8,0:0:0:0:
211,216,169688,1,8,0:0:0:0:
225,167,169803,1,8,0:0:0:0:
237,249,170034,1,0,0:0:0:0:
214,152,170265,1,8,0:0:0:0:
210,177,170380,1,0,0:0:0:0:
210,177,170496,1,8,0:0:0:0:
232,221,170726,1,0,0:0:0:0:
232,221,170957,1,8,0:0:0:0:
193,136,171188,1,0,0:0:0:0:
196,177,171303,1,0,0:0:0:0:
226,165,171419,1,8,0:0:0:0:
200,143,171649,1,8,0:0:0:0:
190,153,171765,1,0,0:0:0:0:
181,132,171880,1,8,0:0:0:0:
190,152,171996,1,8,0:0:0:0:
191,186,172111,1,0,0:0:0:0:
219,165,172226,1,0,0:0:0:0:
206,143,172342,1,0,0:0:0:0:
209,142,172572,1,0,0:0:0:0:
211,159,172803,1,8,0:0:0:0:
252,226,173034,1,0,0:0:0:0:
252,226,173149,1,8,0:0:0:0:
206,163,173380,1,8,0:0:0:0:
225,167,173495,1,8,0:0:0:0:
237,249,173726,1,0,0:0:0:0:
200,199,173957,1,8,0:0:0:0:
226,190,174072,1,8,0:0:0:0:
215,191,174188,1,4,0:0:0:0:
232,221,174418,1,0,0:0:0:0:
232,221,174649,1,8,0:0:0:0:
205,162,174880,1,0,0:0:0:0:
196,177,174995,1,0,0:0:0:0:
222,191,175111,1,8,0:0:0:0:
200,143,175341,1,8,0:0:0:0:
201,176,175457,1,0,0:0:0:0:
199,161,175572,1,8,0:0:0:0:
201,176,175687,1,8,0:0:0:0:
184,182,175803,1,0,0:0:0:0:
226,230,175918,1,0,0:0:0:0:
237,171,176034,1,8,0:0:0:0:
209,142,176264,1,0,0:0:0:0:
211,159,176495,1,8,0:0:0:0:
236,223,176726,1,0,0:0:0:0:
228,208,176841,1,8,0:0:0:0:
211,216,177072,1,8,0:0:0:0:
225,167,177187,1,8,0:0:0:0:
237,249,177418,1,0,0:0:0:0:
214,152,177649,1,8,0:0:0:0:
210,177,177764,1,0,0:0:0:0:
210,177,177880,1,8,0:0:0:0:
232,221,178110,1,0,0:0:0:0:
232,221,178341,1,8,0:0:0:0:
193,136,178572,1,0,0:0:0:0:
196,177,178687,1,0,0:0:0:0:
226,165,178803,1,8,0:0:0:0:
200,143,179033,1,8,0:0:0:0:
190,153,179149,1,0,0:0:0:0:
181,132,179264,1,8,0:0:0:0:
190,152,179379,1,8,0:0:0:0:
191,186,179495,1,0,0:0:0:0:
219,165,179610,1,0,0:0:0:0:
206,143,179726,1,0,0:0:0:0:
209,142,179956,1,0,0:0:0:0:
211,159,180187,1,8,0:0:0:0:
208,167,180418,1,8,0:0:0:0:
208,167,180533,1,0,0:0:0:0:
227,169,180649,1,8,0:0:0:0:
212,191,180764,1,8,0:0:0:0:
206,133,180879,1,0,0:0:0:0:
262,184,180995,1,8,0:0:0:0:
262,184,181052,1,8,0:0:0:0:
219,179,181110,1,8,0:0:0:0:
219,179,181225,1,0,0:0:0:0:
203,169,181456,1,0,0:1:0:0:
249,171,181571,1,12,0:0:0:0:
211,152,181802,1,0,0:0:0:0:
205,219,182033,1,8,0:0:0:0:
205,219,182264,1,0,0:0:0:0:
206,202,182379,1,8,0:0:0:0:
247,305,182725,1,8,0:0:0:0:
247,305,182841,1,0,0:0:0:0:
262,300,182956,1,8,0:0:0:0:
266,298,183071,1,8,0:0:0:0:
267,298,183187,1,0,0:0:0:0:
222,233,183302,1,0,0:0:0:0:
222,233,183417,1,8,0:0:0:0:
333,286,183648,1,0,0:0:0:0:
248,283,183879,1,8,0:0:0:0:
212,227,184110,1,0,0:0:0:0:
211,227,184225,1,8,0:0:0:0:
257,282,184456,1,8,0:0:0:0:
256,268,184571,1,0,0:0:0:0:
256,268,184687,1,0,0:0:0:0:
246,233,184802,1,8,0:0:0:0:
247,239,185033,1,8,0:0:0:0:
185,211,185148,1,0,0:0:0:0:
217,215,185263,1,12,0:0:0:0:
217,215,185494,1,0,0:0:0:0:
217,215,185725,1,8,0:0:0:0:
229,225,185956,1,0,0:0:0:0:
231,225,186071,1,8,0:0:0:0:
213,170,186302,1,0,0:0:0:0:
213,170,186417,1,8,0:0:0:0:
219,202,186533,1,0,0:0:0:0:
226,209,186648,1,8,0:0:0:0:
226,209,186763,1,8,0:0:0:0:
226,209,186879,1,0,0:0:0:0:
200,194,186994,1,0,0:0:0:0:
213,170,187109,1,0,0:0:0:0:
213,170,187340,1,0,0:0:0:0:
217,170,187571,1,8,0:0:0:0:
201,155,187802,1,0,0:0:0:0:
201,155,187917,1,8,0:0:0:0:
200,150,188032,1,8,0:0:0:0:
209,160,188148,1,8,0:0:0:0:
225,175,188263,1,0,0:0:0:0:
217,170,188494,1,8,0:0:0:0:
226,200,188725,1,0,0:0:0:0:
226,200,188840,1,0,0:0:0:0:
215,174,188955,1,12,0:0:0:0:
211,152,189186,1,0,0:0:0:0:
205,219,189417,1,8,0:0:0:0:
205,219,189648,1,0,0:0:0:0:
206,202,189763,1,8,0:0:0:0:
247,305,190109,1,8,0:0:0:0:
247,305,190224,1,0,0:0:0:0:
262,300,190340,1,8,0:0:0:0:
266,298,190455,1,8,0:0:0:0:
267,298,190571,1,0,0:0:0:0:
222,233,190686,1,0,0:0:0:0:
222,233,190801,1,8,0:0:0:0:
333,286,191032,1,0,0:0:0:0:
248,283,191263,1,8,0:0:0:0:
212,227,191494,1,0,0:0:0:0:
211,227,191609,1,8,0:0:0:0:
257,282,191840,1,8,0:0:0:0:
256,268,191955,1,0,0:0:0:0:
256,268,192070,1,0,0:0:0:0:
246,233,192186,1,8,0:0:0:0:
247,239,192417,1,8,0:0:0:0:
237,299,192532,1,0,0:0:0:0:
217,215,192647,1,12,0:0:0:0:
217,215,192878,1,0,0:0:0:0:
217,215,193109,1,8,0:0:0:0:
229,225,193340,1,0,0:0:0:0:
231,225,193455,1,8,0:0:0:0:
213,170,193686,1,0,0:0:0:0:
213,170,193801,1,8,0:0:0:0:
219,202,193916,1,0,0:0:0:0:
226,209,194032,1,8,0:0:0:0:
226,209,194147,1,8,0:0:0:0:
226,209,194263,1,0,0:0:0:0:
200,194,194378,1,0,0:0:0:0:
213,170,194493,1,0,0:0:0:0:
213,170,194724,1,0,0:0:0:0:
217,170,194955,1,8,0:0:0:0:
201,155,195186,5,0,0:0:0:0:
201,155,195301,1,8,0:0:0:0:
200,150,195416,1,8,0:0:0:0:
209,160,195532,1,8,0:0:0:0:
225,175,195647,1,0,0:0:0:0:
217,170,195878,1,8,0:0:0:0:
226,200,196108,1,0,0:0:0:0:
226,200,196224,1,0,0:0:0:0:
215,174,196339,1,12,0:0:0:0:
221,139,196570,1,0,0:0:0:0:
221,139,196801,1,8,0:0:0:0:
229,153,197031,1,0,0:0:0:0:
229,153,197147,1,8,0:0:0:0:
230,173,197378,1,0,0:0:0:0:
230,176,197493,1,8,0:0:0:0:
226,181,197608,1,0,0:0:0:0:
217,172,197724,1,8,0:0:0:0:
217,172,197839,1,8,0:0:0:0:
217,172,197954,1,0,0:0:0:0:
250,225,198070,1,0,0:0:0:0:
250,225,198185,1,8,0:0:0:0:
219,184,198416,1,0,0:0:0:0:
211,229,198647,1,8,0:0:0:0:
211,229,198877,1,0,0:0:0:0:
211,229,198993,1,8,0:0:0:0:
243,197,199224,1,8,0:0:0:0:
243,197,199339,1,0,0:0:0:0:
254,214,199570,1,8,0:0:0:0:
255,215,199800,1,8,0:0:0:0:
270,231,199916,1,8,0:0:0:0:
270,231,200031,1,4,0:0:0:0:
221,139,200262,1,0,0:0:0:0:
221,139,200493,1,8,0:0:0:0:
229,153,200723,1,0,0:0:0:0:
229,153,200839,1,8,0:0:0:0:
230,173,201070,1,0,0:0:0:0:
230,176,201185,1,8,0:0:0:0:
226,181,201300,1,0,0:0:0:0:
217,172,201416,1,8,0:0:0:0:
217,172,201531,1,8,0:0:0:0:
217,172,201646,1,0,0:0:0:0:
199,162,201762,1,0,0:0:0:0:
216,180,201877,1,0,0:0:0:0:
219,184,202108,1,0,0:0:0:0:
211,229,202339,1,8,0:0:0:0:
211,229,202569,1,0,0:0:0:0:
211,229,202685,1,8,0:0:0:0:
243,197,202916,1,8,0:0:0:0:
243,197,203031,1,0,0:0:0:0:
254,214,203262,1,8,0:0:0:0:
255,215,203492,1,8,0:0:0:0:
270,231,203608,1,8,0:0:0:0:
270,231,203723,1,4,0:0:0:0:
221,139,203954,1,0,0:0:0:0:
221,139,204185,1,8,0:0:0:0:
229,153,204415,1,0,0:0:0:0:
229,153,204531,1,8,0:0:0:0:
230,173,204761,1,0,0:0:0:0:
230,176,204877,1,8,0:0:0:0:
226,181,204992,1,0,0:0:0:0:
217,172,205108,1,8,0:0:0:0:
217,172,205223,1,8,0:0:0:0:
217,172,205338,1,0,0:0:0:0:
197,166,205454,1,0,0:0:0:0:
206,174,205569,1,8,0:0:0:0:
219,184,205800,1,0,0:0:0:0:
211,229,206031,1,8,0:0:0:0:
211,229,206261,1,0,0:0:0:0:
211,229,206377,1,8,0:0:0:0:
243,197,206607,1,8,0:0:0:0:
243,197,206723,1,0,0:0:0:0:
254,214,206954,1,8,0:0:0:0:
255,215,207184,1,8,0:0:0:0:
270,231,207300,1,8,0:0:0:0:
270,231,207415,1,4,0:0:0:0:
221,139,207646,1,0,0:0:0:0:
221,139,207877,1,8,0:0:0:0:
229,153,208107,1,0,0:0:0:0:
229,153,208223,1,8,0:0:0:0:
230,173,208453,1,0,0:0:0:0:
230,176,208569,1,8,0:0:0:0:
226,181,208684,1,0,0:0:0:0:
217,172,208800,1,8,0:0:0:0:
217,172,208915,1,8,0:0:0:0:
217,172,209030,1,0,0:0:0:0:
226,167,209146,1,0,0:0:0:0:
216,180,209261,1,0,0:0:0:0:
267,207,209492,1,0,0:0:0:0:
271,210,209607,1,8,0:0:0:0:
271,210,209723,1,8,0:0:0:0:
271,210,209953,1,8,0:0:0:0:
271,210,210069,1,0,0:0:0:0:
271,210,210184,1,8,0:0:0:0:
184,167,210299,1,0,0:0:0:0:
272,210,210415,1,0,0:0:0:0:
261,159,210530,1,8,0:0:0:0:
261,159,210588,1,8,0:0:0:0:
261,159,210646,1,8,0:0:0:0:
261,159,210761,1,0,0:0:0:0:
211,152,210992,1,8,0:0:0:0:
251,210,222183,5,8,0:0:0:0:
257,212,222414,1,0,0:0:0:0:
221,195,222760,5,0,0:0:0:0:
251,210,223106,1,8,0:0:0:0:
237,248,225413,1,0,0:0:0:0:
237,248,225529,1,0,0:0:0:0:
237,248,225644,1,0,0:0:0:0:
237,248,225759,1,0,0:0:0:0:
210,179,225875,1,12,0:0:0:0:
218,186,226105,1,0,0:0:0:0:
218,186,226336,1,8,0:0:0:0:
228,211,226682,1,8,0:0:0:0:
228,211,226798,1,0,0:0:0:0:
228,211,227028,1,0,0:0:0:0:
228,211,227259,1,8,0:0:0:0:
223,205,227605,1,0,0:0:0:0:
216,210,227721,1,0,0:0:0:0:
215,213,227951,1,0,0:0:0:0:
215,214,228182,1,8,0:0:0:0:
230,190,228528,1,8,0:0:0:0:
230,190,228644,1,0,0:0:0:0:
214,184,228874,1,8,0:0:0:0:
214,184,229105,1,0,0:0:0:0:
255,242,229567,5,0,0:0:0:0:
218,186,229797,1,0,0:0:0:0:
237,203,230028,1,0,0:0:0:0:
228,211,230374,1,8,0:0:0:0:
228,211,230490,1,0,0:0:0:0:
228,211,230720,1,0,0:0:0:0:
228,211,230951,1,8,0:0:0:0:
223,205,231297,1,0,0:0:0:0:
216,210,231413,1,0,0:0:0:0:
215,213,231643,1,0,0:0:0:0:
215,214,231874,1,8,0:0:0:0:
230,190,232220,1,8,0:0:0:0:
230,190,232336,1,0,0:0:0:0:
221,203,232566,1,8,0:0:0:0:
188,130,232797,1,0,0:0:0:0:
216,227,233259,1,0,0:0:0:0:
218,186,233489,1,0,0:0:0:0:
218,186,233720,1,8,0:0:0:0:
228,211,234066,1,8,0:0:0:0:
228,211,234182,1,0,0:0:0:0:
228,211,234412,1,0,0:0:0:0:
228,173,234643,1,0,0:0:0:0:
223,205,234989,1,0,0:0:0:0:
216,210,235105,1,0,0:0:0:0:
215,213,235335,1,0,0:0:0:0:
215,214,235566,1,8,0:0:0:0:
230,190,235912,1,8,0:0:0:0:
230,190,236028,1,0,0:0:0:0:
206,170,236258,1,8,0:0:0:0:
206,170,236489,1,0,0:0:0:0:
204,237,236951,1,0,0:0:0:0:
218,186,237181,1,0,0:0:0:0:
218,186,237412,1,8,0:0:0:0:
228,211,237758,1,8,0:0:0:0:
228,211,237874,1,0,0:0:0:0:
228,211,238104,1,0,0:0:0:0:
200,165,238335,1,8,0:0:0:0:
223,205,238681,1,0,0:0:0:0:
216,210,238797,1,0,0:0:0:0:
215,213,239027,1,0,0:0:0:0:
218,195,239258,1,0,0:0:0:0:
230,190,239604,1,8,0:0:0:0:
230,190,239720,1,0,0:0:0:0:
198,188,239950,1,8,0:0:0:0:
198,188,240181,1,0,0:0:0:0:
229,178,240412,1,8,0:0:0:0:
230,177,240527,1,0,0:0:0:0:
218,185,240643,1,0,0:0:0:0:
218,186,240873,1,0,0:0:0:0:
218,186,241104,1,8,0:0:0:0:
228,211,241450,1,8,0:0:0:0:
228,211,241566,1,0,0:0:0:0:
228,211,241796,1,0,0:0:0:0:
228,211,242027,1,8,0:0:0:0:
223,205,242373,1,0,0:0:0:0:
216,210,242489,1,0,0:0:0:0:
215,213,242719,1,0,0:0:0:0:
215,214,242950,1,8,0:0:0:0:
230,190,243296,1,8,0:0:0:0:
230,190,243412,1,0,0:0:0:0:
214,184,243642,1,8,0:0:0:0:
214,184,243873,1,0,0:0:0:0:
255,242,244335,5,0,0:0:0:0:
218,186,244565,1,0,0:0:0:0:
237,203,244796,1,0,0:0:0:0:
228,211,245142,1,8,0:0:0:0:
228,211,245258,1,0,0:0:0:0:
228,211,245488,1,0,0:0:0:0:
228,211,245719,1,8,0:0:0:0:
223,205,246065,1,0,0:0:0:0:
216,210,246181,1,0,0:0:0:0:
215,213,246411,1,0,0:0:0:0:
215,214,246642,1,8,0:0:0:0:
230,190,246988,1,8,0:0:0:0:
230,190,247104,1,0,0:0:0:0:
221,203,247334,1,8,0:0:0:0:
188,130,247565,1,0,0:0:0:0:
216,227,248027,1,0,0:0:0:0:
218,186,248257,1,0,0:0:0:0:
218,186,248488,1,8,0:0:0:0:
228,211,248834,1,8,0:0:0:0:
228,211,248950,1,0,0:0:0:0:
228,211,249180,1,0,0:0:0:0:
228,173,249411,1,0,0:0:0:0:
223,205,249757,1,0,0:0:0:0:
216,210,249873,1,0,0:0:0:0:
215,213,250103,1,0,0:0:0:0:
215,214,250334,1,8,0:0:0:0:
230,190,250680,1,8,0:0:0:0:
230,190,250796,1,0,0:0:0:0:
206,170,251026,1,8,0:0:0:0:
206,170,251257,1,0,0:0:0:0:
204,237,251719,1,0,0:0:0:0:
218,186,251949,1,0,0:0:0:0:
218,186,252180,1,8,0:0:0:0:
228,211,252526,1,8,0:0:0:0:
228,211,252642,1,0,0:0:0:0:
228,211,252872,1,0,0:0:0:0:
200,165,253103,1,8,0:0:0:0:
223,205,253449,1,0,0:0:0:0:
216,210,253565,1,0,0:0:0:0:
215,213,253795,1,0,0:0:0:0:
218,195,254026,1,0,0:0:0:0:
230,190,254372,1,8,0:0:0:0:
230,190,254488,1,0,0:0:0:0:
198,188,254718,1,8,0:0:0:0:
198,188,254949,1,0,0:0:0:0:
229,178,255180,1,8,0:0:0:0:
230,177,255295,1,0,0:0:0:0:
210,237,255411,1,0,0:0:0:0:
218,186,255641,1,0,0:0:0:0:
218,186,255872,1,8,0:0:0:0:
228,211,256218,1,8,0:0:0:0:
228,211,256334,1,0,0:0:0:0:
228,211,256564,1,0,0:0:0:0:
228,211,256795,1,8,0:0:0:0:
223,205,257141,1,0,0:0:0:0:
216,210,257257,1,0,0:0:0:0:
215,213,257487,1,0,0:0:0:0:
215,214,257718,1,8,0:0:0:0:
230,190,258064,1,8,0:0:0:0:
230,190,258180,1,0,0:0:0:0:
214,184,258410,1,8,0:0:0:0:
214,184,258641,1,0,0:0:0:0:
216,211,259102,1,8,0:0:0:0:
226,198,259333,1,0,0:0:0:0:
219,185,259679,1,0,0:0:0:0:
232,183,260025,1,8,0:0:0:0:
250,186,260256,1,0,0:0:0:0:
250,186,260487,1,8,0:0:0:0:
177,198,260717,1,0,0:0:0:0:
264,248,260794,1,0,0:0:0:0:
264,248,260871,1,0,0:0:0:0:
264,248,260948,1,8,0:0:0:0:
270,222,261179,1,8,0:0:0:0:
217,189,261294,1,8,0:0:0:0:
217,189,261410,1,0,0:0:0:0:
277,249,261756,1,0,0:0:0:0:
280,208,261871,1,8,0:0:0:0:
260,179,262102,1,8,0:0:0:0:
216,184,262563,1,0,0:0:0:0:
216,184,262794,1,8,0:0:0:0:
248,230,268794,5,8,0:0:0:0:
291,199,269024,1,0,0:0:0:0:
291,199,269101,1,0,0:0:0:0:
290,203,269178,1,0,0:0:0:0:
290,203,269255,1,8,0:0:0:0:
243,228,269370,1,0,0:0:0:0:
233,187,269601,1,8,0:0:0:0:
221,192,269832,5,8,0:0:0:0:
200,197,270063,1,8,0:0:0:0:
200,197,270178,1,4,0:0:0:0:
232,221,270409,1,0,0:0:0:0:
232,221,270640,1,8,0:0:0:0:
196,177,270870,1,8,0:0:0:0:
196,177,270986,1,0,0:0:0:0:
213,167,271101,1,0,0:0:0:0:
216,170,271216,1,8,0:0:0:0:
210,162,271332,1,0,0:0:0:0:
190,172,271562,1,0,0:0:0:0:
200,143,271793,1,8,0:0:0:0:
206,143,271909,1,0,0:0:0:0:
206,143,272024,1,0,0:0:0:0:
209,142,272255,1,0,0:0:0:0:
211,159,272485,1,8,0:0:0:0:
230,147,272716,1,8,0:0:0:0:
230,147,272832,1,0,0:0:0:0:
275,215,273062,1,0,0:0:0:0:
225,167,273178,1,8,0:0:0:0:
237,249,273408,1,0,0:0:0:0:
209,158,273639,1,0,0:0:0:0:
263,228,273755,1,8,0:0:0:0:
262,228,273870,1,0,0:0:0:0:
232,221,274101,1,0,0:0:0:0:
232,221,274331,1,8,0:0:0:0:
196,177,274562,1,8,0:0:0:0:
196,177,274678,1,0,0:0:0:0:
213,167,274793,1,0,0:0:0:0:
216,170,274908,1,8,0:0:0:0:
215,196,275024,1,8,0:0:0:0:
190,172,275254,1,0,0:0:0:0:
200,143,275485,1,8,0:0:0:0:
206,143,275601,1,0,0:0:0:0:
206,143,275716,1,0,0:0:0:0:
209,142,275947,1,0,0:0:0:0:
211,159,276177,1,8,0:0:0:0:
230,147,276408,1,8,0:0:0:0:
230,147,276524,1,0,0:0:0:0:
275,215,276754,1,0,0:0:0:0:
225,167,276870,1,8,0:0:0:0:
237,249,277100,1,0,0:0:0:0:
223,157,277331,1,8,0:0:0:0:
263,228,277447,1,8,0:0:0:0:
244,198,277562,1,4,0:0:0:0:
232,221,277793,1,0,0:0:0:0:
232,221,278023,5,8,0:0:0:0:
205,162,278254,1,0,0:0:0:0:
196,177,278369,1,0,0:0:0:0:
222,191,278485,1,8,0:0:0:0:
222,191,278600,1,0,0:0:0:0:
200,143,278716,1,8,0:0:0:0:
190,172,278946,1,0,0:0:0:0:
200,143,279177,1,8,0:0:0:0:
191,145,279292,1,8,0:0:0:0:
206,143,279408,1,0,0:0:0:0:
209,142,279639,1,0,0:0:0:0:
211,159,279869,1,8,0:0:0:0:
230,147,280100,1,8,0:0:0:0:
230,147,280215,1,0,0:0:0:0:
244,222,280446,1,0,0:0:0:0:
225,167,280562,1,8,0:0:0:0:
237,249,280792,1,0,0:0:0:0:
214,152,281023,1,8,0:0:0:0:
210,177,281138,1,0,0:0:0:0:
210,177,281254,1,8,0:0:0:0:
232,221,281485,1,0,0:0:0:0:
232,221,281715,1,8,0:0:0:0:
193,136,281946,1,0,0:0:0:0:
196,177,282061,1,0,0:0:0:0:
226,165,282177,1,8,0:0:0:0:
226,165,282292,1,8,0:0:0:0:
200,143,282408,1,8,0:0:0:0:
190,172,282638,1,0,0:0:0:0:
200,143,282869,1,8,0:0:0:0:
223,176,282984,1,8,0:0:0:0:
206,143,283100,1,0,0:0:0:0:
209,142,283331,1,0,0:0:0:0:
211,159,283561,1,8,0:0:0:0:
221,232,283792,1,0,0:0:0:0:
230,147,283907,1,0,0:0:0:0:
227,169,284023,1,8,0:0:0:0:
221,232,284138,1,8,0:0:0:0:
206,133,284254,1,0,0:0:0:0:
262,184,284369,1,8,0:0:0:0:
262,184,284427,1,8,0:0:0:0:
219,179,284484,1,8,0:0:0:0:
219,179,284600,1,0,0:0:0:0:
203,169,284830,1,0,0:0:0:0:
249,171,284946,1,12,0:0:0:0:
232,221,285177,1,0,0:0:0:0:
232,221,285407,1,8,0:0:0:0:
205,162,285638,1,0,0:0:0:0:
196,177,285753,1,0,0:0:0:0:
222,191,285869,1,8,0:0:0:0:
200,143,286099,1,8,0:0:0:0:
201,176,286215,1,0,0:0:0:0:
199,161,286330,1,8,0:0:0:0:
201,176,286446,1,8,0:0:0:0:
184,182,286561,1,0,0:0:0:0:
226,230,286676,1,0,0:0:0:0:
237,171,286792,1,8,0:0:0:0:
209,142,287022,1,0,0:0:0:0:
211,159,287253,1,8,0:0:0:0:
236,223,287484,1,0,0:0:0:0:
228,208,287599,1,8,0:0:0:0:
211,216,287830,1,8,0:0:0:0:
225,167,287945,1,8,0:0:0:0:
237,249,288176,1,0,0:0:0:0:
214,152,288407,1,8,0:0:0:0:
210,177,288522,1,0,0:0:0:0:
210,177,288638,1,8,0:0:0:0:
232,221,288868,1,0,0:0:0:0:
232,221,289099,1,8,0:0:0:0:
193,136,289330,1,0,0:0:0:0:
196,177,289445,1,0,0:0:0:0:
226,165,289561,1,8,0:0:0:0:
200,143,289791,1,8,0:0:0:0:
190,153,289907,1,0,0:0:0:0:
181,132,290022,1,8,0:0:0:0:
190,152,290138,1,8,0:0:0:0:
191,186,290253,1,0,0:0:0:0:
219,165,290368,1,0,0:0:0:0:
206,143,290484,1,0,0:0:0:0:
209,142,290714,1,0,0:0:0:0:
211,159,290945,1,8,0:0:0:0:
252,226,291176,1,0,0:0:0:0:
252,226,291291,1,8,0:0:0:0:
206,163,291522,1,8,0:0:0:0:
225,167,291637,1,8,0:0:0:0:
237,249,291868,1,0,0:0:0:0:
200,199,292099,1,8,0:0:0:0:
226,190,292214,1,8,0:0:0:0:
215,191,292330,1,4,0:0:0:0:
232,221,292560,1,0,0:0:0:0:
232,221,292791,1,8,0:0:0:0:
205,162,293022,1,0,0:0:0:0:
196,177,293137,1,0,0:0:0:0:
222,191,293253,1,8,0:0:0:0:
200,143,293483,1,8,0:0:0:0:
201,176,293599,1,0,0:0:0:0:
199,161,293714,1,8,0:0:0:0:
201,176,293829,1,8,0:0:0:0:
184,182,293945,1,0,0:0:0:0:
235,175,294060,1,0,0:0:0:0:
237,171,294176,1,8,0:0:0:0:
209,142,294406,1,0,0:0:0:0:
211,159,294637,1,8,0:0:0:0:
236,223,294868,1,0,0:0:0:0:
228,208,294983,1,8,0:0:0:0:
211,216,295214,1,8,0:0:0:0:
225,167,295329,1,8,0:0:0:0:
237,249,295560,1,0,0:0:0:0:
214,152,295791,1,8,0:0:0:0:
210,177,295906,1,0,0:0:0:0:
210,177,296022,1,8,0:0:0:0:
232,221,296252,1,0,0:0:0:0:
232,221,296483,1,8,0:0:0:0:
193,136,296714,1,0,0:0:0:0:
196,177,296829,1,0,0:0:0:0:
226,165,296945,1,8,0:0:0:0:
200,143,297175,1,8,0:0:0:0:
190,153,297291,1,0,0:0:0:0:
181,132,297406,1,8,0:0:0:0:
190,152,297521,1,8,0:0:0:0:
191,186,297637,1,0,0:0:0:0:
226,169,297752,1,0,0:0:0:0:
206,143,297868,1,0,0:0:0:0:
209,142,298098,1,0,0:0:0:0:
211,159,298329,1,8,0:0:0:0:
215,206,298560,1,8,0:0:0:0:
215,206,298675,1,0,0:0:0:0:
227,169,298791,1,8,0:0:0:0:
212,191,298906,1,8,0:0:0:0:
206,133,299021,1,0,0:0:0:0:
262,184,299137,1,8,0:0:0:0:
262,184,299194,1,8,0:0:0:0:
219,179,299252,1,8,0:0:0:0:
219,179,299367,1,0,0:0:0:0:
203,169,299598,1,0,0:0:0:0:
249,171,299714,1,12,0:0:0:0:
211,152,299944,1,0,0:0:0:0:
205,219,300175,1,8,0:0:0:0:
205,219,300405,1,0,0:0:0:0:
206,202,300521,1,8,0:0:0:0:
247,305,300867,1,8,0:0:0:0:
247,305,300982,1,0,0:0:0:0:
262,300,301098,1,8,0:0:0:0:
266,298,301213,1,8,0:0:0:0:
267,298,301328,1,0,0:0:0:0:
222,233,301444,1,0,0:0:0:0:
222,233,301559,1,8,0:0:0:0:
333,286,301790,1,0,0:0:0:0:
248,283,302021,1,8,0:0:0:0:
212,227,302251,1,0,0:0:0:0:
211,227,302367,1,8,0:0:0:0:
257,282,302598,1,8,0:0:0:0:
256,268,302713,1,0,0:0:0:0:
256,268,302828,1,0,0:0:0:0:
246,233,302944,1,8,0:0:0:0:
247,239,303174,1,8,0:0:0:0:
185,211,303290,1,0,0:0:0:0:
217,215,303405,1,12,0:0:0:0:
217,215,303636,1,0,0:0:0:0:
217,215,303867,1,8,0:0:0:0:
229,225,304097,1,0,0:0:0:0:
231,225,304213,1,8,0:0:0:0:
213,170,304444,1,0,0:0:0:0:
213,170,304559,1,8,0:0:0:0:
219,202,304674,1,0,0:0:0:0:
226,209,304790,1,8,0:0:0:0:
226,209,304905,1,8,0:0:0:0:
226,209,305020,1,0,0:0:0:0:
200,194,305136,1,0,0:0:0:0:
213,170,305251,1,0,0:0:0:0:
213,170,305482,1,0,0:0:0:0:
217,170,305713,1,8,0:0:0:0:
201,155,305943,1,0,0:0:0:0:
201,155,306059,1,8,0:0:0:0:
200,150,306174,1,8,0:0:0:0:
209,160,306289,1,8,0:0:0:0:
225,175,306405,1,0,0:0:0:0:
217,170,306636,1,8,0:0:0:0:
226,200,306866,1,0,0:0:0:0:
226,200,306982,1,0,0:0:0:0:
215,174,307097,1,12,0:0:0:0:
211,152,307328,1,0,0:0:0:0:
205,219,307559,1,8,0:0:0:0:
205,219,307789,1,0,0:0:0:0:
206,202,307905,1,8,0:0:0:0:
247,305,308251,1,8,0:0:0:0:
247,305,308366,1,0,0:0:0:0:
262,300,308482,1,8,0:0:0:0:
266,298,308597,1,8,0:0:0:0:
267,298,308712,1,0,0:0:0:0:
222,233,308828,1,0,0:0:0:0:
222,233,308943,1,8,0:0:0:0:
333,286,309174,1,0,0:0:0:0:
248,283,309405,1,8,0:0:0:0:
212,227,309635,1,0,0:0:0:0:
211,227,309751,1,8,0:0:0:0:
257,282,309981,1,8,0:0:0:0:
256,268,310097,1,0,0:0:0:0:
256,268,310212,1,0,0:0:0:0:
246,233,310328,1,8,0:0:0:0:
247,239,310558,1,8,0:0:0:0:
237,299,310674,1,0,0:0:0:0:
217,215,310789,1,12,0:0:0:0:
217,215,311020,1,0,0:0:0:0:
217,215,311251,1,8,0:0:0:0:
229,225,311481,1,0,0:0:0:0:
231,225,311597,1,8,0:0:0:0:
213,170,311827,1,0,0:0:0:0:
213,170,311943,1,8,0:0:0:0:
219,202,312058,1,0,0:0:0:0:
226,209,312173,1,8,0:0:0:0:
226,209,312289,1,8,0:0:0:0:
226,209,312404,1,0,0:0:0:0:
200,194,312520,1,0,0:0:0:0:
213,170,312635,1,0,0:0:0:0:
213,170,312866,1,0,0:0:0:0:
217,170,313096,1,8,0:0:0:0:
201,155,313327,5,0,0:0:0:0:
201,155,313443,1,8,0:0:0:0:
200,150,313558,1,8,0:0:0:0:
209,160,313673,1,8,0:0:0:0:
225,175,313789,1,0,0:0:0:0:
217,170,314019,1,8,0:0:0:0:
226,200,314250,1,0,0:0:0:0:
226,200,314366,1,0,0:0:0:0:
215,174,314481,1,12,0:0:0:0:
221,139,314712,1,0,0:0:0:0:
221,139,314942,1,8,0:0:0:0:
229,153,315173,1,0,0:0:0:0:
229,153,315289,1,8,0:0:0:0:
230,173,315519,1,0,0:0:0:0:
230,176,315635,1,8,0:0:0:0:
226,181,315750,1,0,0:0:0:0:
217,172,315865,1,8,0:0:0:0:
217,172,315981,1,8,0:0:0:0:
217,172,316096,1,0,0:0:0:0:
250,225,316212,1,0,0:0:0:0:
250,225,316327,1,8,0:0:0:0:
219,184,316558,1,0,0:0:0:0:
211,229,316788,1,8,0:0:0:0:
211,229,317019,1,0,0:0:0:0:
211,229,317135,1,8,0:0:0:0:
243,197,317365,1,8,0:0:0:0:
243,197,317481,1,0,0:0:0:0:
254,214,317711,1,8,0:0:0:0:
255,215,317942,1,8,0:0:0:0:
270,231,318058,1,8,0:0:0:0:
270,231,318173,1,4,0:0:0:0:
221,139,318404,1,0,0:0:0:0:
221,139,318634,1,8,0:0:0:0:
229,153,318865,1,0,0:0:0:0:
229,153,318981,1,8,0:0:0:0:
230,173,319211,1,0,0:0:0:0:
230,176,319327,1,8,0:0:0:0:
226,181,319442,1,0,0:0:0:0:
217,172,319557,1,8,0:0:0:0:
217,172,319673,1,8,0:0:0:0:
217,172,319788,1,0,0:0:0:0:
199,162,319903,1,0,0:0:0:0:
216,180,320019,1,0,0:0:0:0:
219,184,320250,1,0,0:0:0:0:
211,229,320480,1,8,0:0:0:0:
211,229,320711,1,0,0:0:0:0:
211,229,320826,1,8,0:0:0:0:
243,197,321057,1,8,0:0:0:0:
243,197,321173,1,0,0:0:0:0:
254,214,321403,1,8,0:0:0:0:
255,215,321634,1,8,0:0:0:0:
270,231,321749,1,8,0:0:0:0:
270,231,321865,1,4,0:0:0:0:
221,139,322096,1,0,0:0:0:0:
221,139,322326,1,8,0:0:0:0:
229,153,322557,1,0,0:0:0:0:
229,153,322672,1,8,0:0:0:0:
230,173,322903,1,0,0:0:0:0:
230,176,323019,1,8,0:0:0:0:
226,181,323134,1,0,0:0:0:0:
217,172,323249,1,8,0:0:0:0:
217,172,323365,1,8,0:0:0:0:
217,172,323480,1,0,0:0:0:0:
197,166,323595,1,0,0:0:0:0:
206,174,323711,1,8,0:0:0:0:
219,184,323942,1,0,0:0:0:0:
211,229,324172,1,8,0:0:0:0:
211,229,324403,1,0,0:0:0:0:
211,229,324518,1,8,0:0:0:0:
243,197,324749,1,8,0:0:0:0:
243,197,324865,1,0,0:0:0:0:
254,214,325095,1,8,0:0:0:0:
255,215,325326,1,8,0:0:0:0:
270,231,325441,1,8,0:0:0:0:
270,231,325557,1,4,0:0:0:0:
221,139,325788,1,0,0:0:0:0:
221,139,326018,1,8,0:0:0:0:
229,153,326249,1,0,0:0:0:0:
229,153,326364,1,8,0:0:0:0:
230,173,326595,1,0,0:0:0:0:
230,176,326711,1,8,0:0:0:0:
226,181,326826,1,0,0:0:0:0:
217,172,326941,1,8,0:0:0:0:
217,172,327057,1,8,0:0:0:0:
217,172,327172,1,0,0:0:0:0:
226,167,327287,1,0,0:0:0:0:
216,180,327403,1,0,0:0:0:0:
267,207,327633,1,0,0:0:0:0:
271,210,327749,1,8,0:0:0:0:
271,210,327864,1,8,0:0:0:0:
271,210,328095,1,8,0:0:0:0:
271,210,328211,1,0,0:0:0:0:
271,210,328326,1,8,0:0:0:0:
184,167,328441,1,0,0:0:0:0:
272,210,328557,1,0,0:0:0:0:
261,159,328672,1,8,0:0:0:0:
261,159,328730,1,8,0:0:0:0:
261,159,328788,1,8,0:0:0:0:
261,159,328903,1,0,0:0:0:0:
211,152,329134,1,8,0:0:0:0:
215,149,329249,1,4,0:0:0:0:
