osu file format v14

[General]
AudioFilename: The Price is Right losing horn.mp3
AudioLeadIn: 0
PreviewTime: 266
Countdown: 0
SampleSet: None
StackLeniency: 0.7
Mode: 0
LetterboxInBreaks: 1
WidescreenStoryboard: 1

[Editor]
Bookmarks: 641,1141
DistanceSpacing: 1.04
BeatDivisor: 16
GridSize: 4
TimelineZoom: 7.299995

[Metadata]
Title:Losing Horn
TitleUnicode:Losing Horn
Artist:The Price is Right
ArtistUnicode:The Price is Right
Creator:Spaghetti
Version:verb (used without object), believed, believing.
Source:
Tags:sad tuba
BeatmapID:819774
BeatmapSetID:347064

[Difficulty]
HPDrainRate:0.1
CircleSize:6.5
OverallDifficulty:7.7
ApproachRate:8.7
SliderMultiplier:3.59999990463257
SliderTickRate:1

[Events]
//Background and Video events
0,0,"tubas.jpg",0,0
//Break Periods
//Storyboard Layer 0 (Background)
//Storyboard Layer 1 (Fail)
//Storyboard Layer 2 (Pass)
//Storyboard Layer 3 (Foreground)
//Storyboard Sound Samples

[TimingPoints]
266,375,4,1,0,80,1,0
1641,-100,4,1,0,5,0,0
1766,-125,4,1,0,80,0,1
4766,-100,4,1,0,5,0,0

[HitObjects]
312,72,266,6,0,P|224:64|320:76,1,809.999978542328
256,192,289,12,0,1766,0:0:0:0:
156,264,312,5,0,0:0:0:0:
156,264,383,1,0,0:0:0:0:
156,264,406,1,0,0:0:0:0:
156,264,430,1,0,0:0:0:0:
376,284,500,6,0,P|409:202|370:291,1,809.999978542328
156,264,617,1,0,0:0:0:0:
156,264,711,1,0,0:0:0:0:
123,188,828,6,0,P|388:181|125:212,1,809.999978542328
228,256,851,1,0,0:0:0:0:
132,136,1133,1,0,0:0:0:0:
188,132,1508,1,0,0:0:0:0:
256,192,1812,12,0,3289,0:0:0:0:
122,188,1836,6,0,P|387:181|124:212,2,809.999978542328
122,188,1859,6,0,P|387:181|124:212,2,809.999978542328
122,188,1883,6,0,P|387:181|124:212,2,809.999978542328
168,192,2164,1,0,0:0:0:0:
256,192,3828,1,0,0:0:0:0:
256,192,4015,12,0,4046,0:0:0:0:
123,180,4039,5,0,0:0:0:0:
123,180,4062,1,0,0:0:0:0:
256,192,4078,12,0,4109,0:0:0:0:
202,260,4086,5,0,0:0:0:0:
202,260,4109,5,0,0:0:0:0:
202,260,4133,5,0,0:0:0:0:
256,192,4141,12,0,4172,0:0:0:0:
202,260,4156,5,0,0:0:0:0:
202,260,4180,5,0,0:0:0:0:
256,192,4203,12,0,4234,0:0:0:0:
202,260,4226,5,0,0:0:0:0:
202,260,4250,5,0,0:0:0:0:
256,192,4266,12,0,4297,0:0:0:0:
202,260,4273,5,0,0:0:0:0:
202,260,4297,5,0,0:0:0:0:
202,260,4320,5,0,0:0:0:0:
256,192,4328,12,0,4359,0:0:0:0:
202,260,4343,5,0,0:0:0:0:
202,260,4367,5,0,0:0:0:0:
202,260,4390,5,0,0:0:0:0:
256,192,4391,12,0,4422,0:0:0:0:
202,260,4414,5,0,0:0:0:0:
202,260,4437,5,0,0:0:0:0:
256,192,4453,12,0,4484,0:0:0:0:
202,260,4460,5,0,0:0:0:0:
202,260,4484,5,0,0:0:0:0:
202,260,4507,5,0,0:0:0:0:
256,192,4516,12,0,4547,0:0:0:0:
202,260,4531,5,0,0:0:0:0:
202,260,4555,5,0,0:0:0:0:
256,192,4578,12,0,4609,0:0:0:0:
202,260,4602,5,0,0:0:0:0:
202,260,4625,5,0,0:0:0:0:
256,192,4641,12,0,4672,0:0:0:0:
202,260,4649,5,0,0:0:0:0:
256,192,4672,12,0,4703,0:0:0:0:
202,260,4695,5,0,0:0:0:0:
256,192,4703,12,0,4734,0:0:0:0:
202,260,4719,5,0,0:0:0:0:
202,260,4742,5,0,0:0:0:0:
114,180,4766,6,0,P|379:173|116:204,2,809.999978542328
256,192,4789,12,0,4812,0:0:0:0:
256,192,4836,12,0,4859,0:0:0:0:
256,192,4883,12,0,4906,0:0:0:0:
256,192,4930,12,0,4953,0:0:0:0:
256,192,4976,12,0,4999,0:0:0:0:
256,192,5023,12,0,5046,0:0:0:0:
256,192,5070,12,0,5093,0:0:0:0:
256,192,5117,12,0,5096,0:0:0:0:
256,192,5141,12,0,5096,0:0:0:0:
