osu file format v14

[General]
AudioFilename: The Price is Right losing horn.mp3
AudioLeadIn: 0
PreviewTime: 266
Countdown: 0
SampleSet: Soft
StackLeniency: 0.7
Mode: 0
LetterboxInBreaks: 1
WidescreenStoryboard: 1

[Editor]
DistanceSpacing: 1
BeatDivisor: 8
GridSize: 4
TimelineZoom: 4.399998

[Metadata]
Title:Losing Horn
TitleUnicode:Losing Horn
Artist:The Price is Right
ArtistUnicode:The Price is Right
Creator:Spaghetti
Version:Noeltunia
Source:
Tags:sad tuba
BeatmapID:804533
BeatmapSetID:347064

[Difficulty]
HPDrainRate:7
CircleSize:4
OverallDifficulty:8
ApproachRate:10
SliderMultiplier:2.3
SliderTickRate:1

[Events]
//Background and Video events
0,0,"tubas.jpg",0,0
//Break Periods
//Storyboard Layer 0 (Background)
//Storyboard Layer 1 (Fail)
//Storyboard Layer 2 (Pass)
//Storyboard Layer 3 (Foreground)
//Storyboard Sound Samples

[TimingPoints]
266,375,4,2,1,80,1,0
266,-66.6666666666667,4,2,1,80,0,0
453,-66.6666666666667,4,2,1,5,0,0
547,-66.6666666666667,4,2,1,80,0,0
828,-33.33333,4,2,1,80,0,0
922,-33.33333,4,2,1,5,0,0
1016,-200,4,2,1,80,0,0
1672,-200,4,2,1,5,0,0
1766,-100,4,2,2,100,0,1
4766,-100,4,2,2,5,0,0

[HitObjects]
424,84,266,6,0,B|384:72|320:124|292:136|292:136|324:140|344:132,1,172.500006580353
344,216,547,2,0,B|374:187|361:105|364:75|364:75|345:101|342:122,1,172.500006580353
268,128,828,6,0,B|240:144|240:144|288:144|340:160|340:160|296:124,1,172.500026321415
276,236,1016,6,0,P|200:200|208:228,1,201.25
228,280,1766,5,0,0:0:0:0:
244,304,1812,1,0,0:0:0:0:
260,328,1859,1,0,0:0:0:0:
276,352,1906,1,0,0:0:0:0:
312,308,1953,1,0,0:0:0:0:
324,280,2000,1,0,0:0:0:0:
336,252,2047,1,0,0:0:0:0:
344,224,2094,1,0,0:0:0:0:
288,228,2141,1,0,0:0:0:0:
276,252,2187,1,0,0:0:0:0:
309,271,2233,1,0,0:0:0:0:
232,236,2234,1,0,0:0:0:0:
343,291,2280,1,0,0:0:0:0:
204,240,2281,1,0,0:0:0:0:
377,311,2327,1,0,0:0:0:0:
395,236,2374,1,0,0:0:0:0:
393,194,2421,1,0,0:0:0:0:
391,153,2468,1,0,0:0:0:0:
384,114,2515,1,0,0:0:0:0:
318,152,2562,1,0,0:0:0:0:
286,174,2608,1,0,0:0:0:0:
254,195,2655,1,0,0:0:0:0:
222,217,2702,1,0,0:0:0:0:
307,241,2750,1,0,0:0:0:0:
350,242,2796,1,0,0:0:0:0:
395,244,2843,1,0,0:0:0:0:
440,246,2890,1,0,0:0:0:0:
418,162,2937,1,0,0:0:0:0:
393,121,2984,1,0,0:0:0:0:
370,81,3031,1,0,0:0:0:0:
342,46,3078,1,0,0:0:0:0:
296,119,3125,1,0,0:0:0:0:
276,158,3171,1,0,0:0:0:0:
255,196,3218,1,0,0:0:0:0:
235,235,3265,1,0,0:0:0:0:
235,235,3312,1,0,0:0:0:0:
255,196,3359,1,0,0:0:0:0:
276,158,3406,1,0,0:0:0:0:
296,119,3452,1,0,0:0:0:0:
342,46,3499,1,0,0:0:0:0:
370,81,3546,1,0,0:0:0:0:
393,121,3593,1,0,0:0:0:0:
418,162,3640,1,0,0:0:0:0:
440,246,3687,1,0,0:0:0:0:
395,244,3734,1,0,0:0:0:0:
350,242,3781,1,0,0:0:0:0:
307,241,3827,1,0,0:0:0:0:
222,217,3875,1,0,0:0:0:0:
254,195,3922,1,0,0:0:0:0:
286,174,3969,1,0,0:0:0:0:
318,152,4015,1,0,0:0:0:0:
384,114,4062,1,0,0:0:0:0:
391,153,4109,1,0,0:0:0:0:
393,194,4156,1,0,0:0:0:0:
395,236,4203,1,0,0:0:0:0:
377,311,4250,1,0,0:0:0:0:
204,240,4296,1,0,0:0:0:0:
343,291,4297,1,0,0:0:0:0:
232,236,4343,1,0,0:0:0:0:
309,271,4344,1,0,0:0:0:0:
276,252,4390,1,0,0:0:0:0:
288,228,4436,1,0,0:0:0:0:
344,224,4483,1,0,0:0:0:0:
336,252,4530,1,0,0:0:0:0:
324,280,4577,1,0,0:0:0:0:
312,308,4624,1,0,0:0:0:0:
276,352,4671,1,0,0:0:0:0:
260,328,4718,1,0,0:0:0:0:
244,304,4765,1,0,0:0:0:0:
228,280,4811,1,0,0:0:0:0:
