osu file format v14

[General]
AudioFilename: The Price is Right losing horn.mp3
AudioLeadIn: 0
PreviewTime: 266
Countdown: 0
SampleSet: None
StackLeniency: 0
Mode: 0
LetterboxInBreaks: 1
WidescreenStoryboard: 1

[Editor]
DistanceSpacing: 0.5
BeatDivisor: 1
GridSize: 4
TimelineZoom: 4.6

[Metadata]
Title:Losing Horn
TitleUnicode:Losing Horn
Artist:The Price is Right
ArtistUnicode:The Price is Right
Creator:Spaghetti
Version:Millhiorn
Source:
Tags:sad tuba
BeatmapID:766919
BeatmapSetID:347064

[Difficulty]
HPDrainRate:0
CircleSize:2
OverallDifficulty:0
ApproachRate:10
SliderMultiplier:3.6
SliderTickRate:1

[Events]
//Background and Video events
0,0,"tubas.jpg",0,0
//Break Periods
//Storyboard Layer 0 (Background)
//Storyboard Layer 1 (Fail)
//Storyboard Layer 2 (Pass)
//Storyboard Layer 3 (Foreground)
//Storyboard Sound Samples

[TimingPoints]
266,375,4,1,0,5,1,0
266,-12.5,4,1,0,5,0,0
1766,46.875,4,1,0,5,1,1
1766,-25,4,1,0,5,0,1
4766,-25,4,1,0,5,0,0

[Colours]
Combo1 : 128,128,0
Combo2 : 128,128,128
Combo3 : 155,155,155
Combo4 : 158,158,158
Combo5 : 192,192,192
Combo6 : 128,128,64

[HitObjects]
0,0,266,6,0,L|132:132,1,179.999995231629
512,0,570,2,0,L|380:132,1,179.999995231629
256,384,898,2,0,L|256:200,1,179.999995231629
256,384,1062,2,0,L|256:200,1,179.999995231629
392,116,1905,2,0,P|256:341|120:116,1,629.9999833107
192,168,1907,2,0,P|216:136|264:128,1,89.9999976158143
409,167,1907,2,0,P|205:332|154:74,1,629.9999833107
110,136,1907,2,0,P|370:96|285:345,1,629.9999833107
28,0,1907,2,0,L|28:96,1,89.9999976158143
411,194,1909,2,0,P|181:321|176:58,1,629.9999833107
284,144,1909,2,0,P|324:140|300:168,1,89.9999976158143
122,112,1910,2,0,P|385:117|258:347,1,629.9999833107
320,216,1912,2,0,P|296:248|248:256,1,89.9999976158143
228,240,1912,2,0,P|188:244|212:216,1,89.9999976158143
28,90,1912,2,0,L|28:184,1,89.9999976158143
138,90,1913,2,0,P|396:141|231:345,1,629.9999833107
409,221,1913,2,0,P|160:306|200:46,1,629.9999833107
185,165,1915,2,0,P|212:130|264:121,1,89.9999976158143
389,271,1915,2,0,P|126:266|253:36,1,629.9999833107
286,139,1915,2,0,P|330:134|304:165,1,89.9999976158143
28,180,1915,2,0,L|28:272,1,89.9999976158143
354,312,1916,2,0,P|109:217|307:44,1,629.9999833107
373,293,1917,2,0,P|115:242|280:38,1,629.9999833107
307,339,1918,2,0,P|109:166|354:71,1,629.9999833107
225,244,1918,2,0,P|181:249|207:218,1,89.9999976158143
28,270,1918,2,0,L|28:360,1,89.9999976158143
326,218,1920,2,0,P|300:253|247:262,1,89.9999976158143
280,345,1920,2,0,P|115:141|373:90,1,629.9999833107
289,134,1921,2,0,P|337:129|308:163,1,89.9999976158143
28,360,1921,2,0,L|124:360,1,89.9999976158143
179,163,1924,2,0,P|208:124|265:115,1,89.9999976158143
222,249,1924,2,0,P|174:254|203:220,1,89.9999976158143
118,360,1924,2,0,L|212:360,1,89.9999976158143
253,347,1925,2,0,P|126:117|389:112,1,629.9999833107
200,337,1927,2,0,P|160:77|409:162,1,629.9999833107
292,128,1927,2,0,P|345:123|314:160,1,89.9999976158143
332,220,1929,2,0,P|304:259|246:268,1,89.9999976158143
176,325,1929,2,0,P|181:62|411:189,1,629.9999833107
219,255,1930,2,0,P|166:260|197:223,1,89.9999976158143
212,360,1930,2,0,L|308:360,1,89.9999976158143
171,160,1932,2,0,P|203:118|266:107,1,89.9999976158143
302,360,1933,2,0,L|392:360,1,89.9999976158143
200,337,1934,2,0,P|160:77|409:162,1,629.9999833107
295,124,1935,2,0,P|351:119|317:158,1,89.9999976158143
154,309,1936,2,0,P|205:51|409:216,1,629.9999833107
392,360,1936,2,0,L|484:360,1,89.9999976158143
340,223,1937,2,0,P|308:265|245:276,1,89.9999976158143
120,268,1937,2,0,P|256:43|392:268,1,629.9999833107
135,290,1938,2,0,P|230:45|403:243,1,629.9999833107
216,259,1938,2,0,P|160:264|194:225,1,89.9999976158143
102,216,1939,2,0,P|306:51|357:309,1,629.9999833107
482,360,1939,2,0,L|482:264,1,89.9999976158143
108,243,1940,2,0,P|281:45|376:290,1,629.9999833107
100,189,1941,2,0,P|330:62|335:325,1,629.9999833107
299,118,1941,2,0,P|360:111|323:155,1,89.9999976158143
166,158,1942,2,0,P|200:113|267:102,1,89.9999976158143
100,189,1942,2,0,P|330:62|335:325,1,629.9999833107
102,162,1944,2,0,P|351:77|311:337,1,629.9999833107
212,265,1944,2,0,P|151:272|188:228,1,89.9999976158143
482,270,1944,2,0,L|482:176,1,89.9999976158143
345,225,1947,2,0,P|311:270|244:281,1,89.9999976158143
303,111,1947,2,0,P|370:104|329:151,1,89.9999976158143
482,180,1947,2,0,L|482:88,1,89.9999976158143
157,155,1950,2,0,P|194:105|268:93,1,89.9999976158143
208,272,1950,2,0,P|141:279|182:232,1,89.9999976158143
482,90,1950,2,0,L|482:0,1,89.9999976158143
307,103,1953,2,0,P|381:95|337:147,1,179.999995231629
482,0,1953,2,0,L|386:0,1,89.9999976158143
180,56,1954,2,0,P|405:192|180:328,1,629.9999833107
354,228,1955,2,0,P|317:278|243:290,1,89.9999976158143
231,38,1956,2,0,P|396:242|138:293,1,629.9999833107
204,280,1956,2,0,P|130:288|174:236,1,179.999995231629
392,0,1956,2,0,L|298:0,1,89.9999976158143
180,56,1957,2,0,P|405:192|180:328,1,629.9999833107
258,36,1958,2,0,P|385:266|122:271,1,629.9999833107
148,151,1959,2,0,P|188:97|269:84,1,89.9999976158143
231,38,1959,2,0,P|396:242|138:293,1,629.9999833107
258,36,1961,2,0,P|385:266|122:271,1,629.9999833107
285,38,1962,2,0,P|370:287|110:247,1,629.9999833107
306,105,1962,2,0,P|378:98|335:148,1,89.9999976158143
298,0,1962,2,0,L|202:0,1,89.9999976158143
363,232,1964,2,0,P|323:286|242:299,1,89.9999976158143
335,58,1964,2,0,P|330:321|100:194,1,629.9999833107
285,38,1965,2,0,P|370:287|110:247,1,629.9999833107
205,278,1965,2,0,P|133:285|176:235,1,89.9999976158143
208,0,1965,2,0,L|118:0,1,89.9999976158143
357,74,1966,2,0,P|306:332|102:167,1,629.9999833107
137,147,1967,2,0,P|182:88|270:73,1,89.9999976158143
335,58,1967,2,0,P|330:321|100:194,1,629.9999833107
376,93,1968,2,0,P|281:338|108:140,1,629.9999833107
311,97,1968,2,0,P|390:89|343:144,1,179.999995231629
118,0,1968,2,0,L|26:0,1,89.9999976158143
357,74,1969,2,0,P|306:332|102:167,1,629.9999833107
403,140,1970,2,0,P|230:338|135:93,1,629.9999833107
200,286,1971,2,0,P|121:294|168:239,1,179.999995231629
374,236,1972,2,0,P|329:295|241:310,1,89.9999976158143
409,167,1972,2,0,P|205:332|154:74,1,629.9999833107
411,194,1974,2,0,P|181:321|176:58,1,629.9999833107
316,88,1974,2,0,P|402:79|350:140,1,179.999995231629
401,247,1976,2,0,P|141:287|226:38,1,629.9999833107
144,150,1977,2,0,P|186:94|269:80,1,89.9999976158143
411,194,1977,2,0,P|181:321|176:58,1,629.9999833107
195,295,1977,2,0,P|109:304|161:243,1,179.999995231629
389,271,1978,2,0,P|126:266|253:36,1,629.9999833107
401,247,1979,2,0,P|141:287|226:38,1,629.9999833107
322,78,1980,2,0,P|417:68|360:135,1,179.999995231629
389,271,1981,2,0,P|126:266|253:36,1,629.9999833107
367,233,1982,2,0,P|325:289|242:303,1,89.9999976158143
401,247,1983,2,0,P|141:287|226:38,1,629.9999833107
189,305,1983,2,0,P|94:315|151:248,1,179.999995231629
133,146,1985,2,0,P|179:85|271:69,1,89.9999976158143
373,293,1985,2,0,P|115:242|280:38,1,629.9999833107
401,247,1986,2,0,P|141:287|226:38,1,629.9999833107
354,312,1987,2,0,P|109:217|307:44,1,629.9999833107
373,293,1988,2,0,P|115:242|280:38,1,629.9999833107
326,71,1988,2,0,P|427:61|366:131,1,179.999995231629
332,328,1989,2,0,P|107:192|332:56,1,629.9999833107
378,237,1990,2,0,P|332:298|240:314,1,89.9999976158143
354,312,1990,2,0,P|109:217|307:44,1,629.9999833107
280,345,1991,2,0,P|115:141|373:90,1,629.9999833107
185,312,1991,2,0,P|84:322|145:252,1,179.999995231629
307,339,1992,2,0,P|109:166|354:71,1,629.9999833107
253,347,1993,2,0,P|126:117|389:112,1,629.9999833107
122,142,1994,2,0,P|172:75|272:58,1,179.999995231629
253,347,1994,2,0,P|126:117|389:112,1,629.9999833107
333,59,1994,2,0,P|444:48|377:125,1,269.999992847443
226,345,1996,2,0,P|141:96|401:136,1,629.9999833107
178,324,1997,2,0,P|67:335|134:258,1,269.999992847443
389,241,1999,2,0,P|339:308|239:325,1,179.999995231629
340,47,2000,2,0,P|461:34|388:119,1,269.999992847443
109,137,2002,2,0,P|164:63|274:45,1,179.999995231629
171,336,2003,2,0,P|50:349|123:264,1,269.999992847443
349,32,2006,2,0,P|481:19|402:112,1,269.999992847443
402,246,2007,2,0,P|347:320|237:338,1,179.999995231629
162,351,2009,2,0,P|30:364|109:271,1,269.999992847443
100,133,2012,2,0,P|158:56|275:36,1,179.999995231629
411,250,2017,2,0,P|353:327|236:347,1,179.999995231629
85,127,2020,2,0,P|149:42|277:21,1,179.999995231629
426,256,2025,2,0,P|362:341|234:362,1,179.999995231629
392,116,2027,2,0,P|256:341|120:116,1,629.9999833107
28,0,2029,2,0,L|28:96,1,89.9999976158143
192,168,2029,2,0,P|216:136|264:128,1,89.9999976158143
110,136,2029,2,0,P|370:96|285:345,1,629.9999833107
409,167,2029,2,0,P|205:332|154:74,1,629.9999833107
411,194,2031,2,0,P|181:321|176:58,1,629.9999833107
284,144,2031,2,0,P|324:140|300:168,1,89.9999976158143
122,112,2032,2,0,P|385:117|258:347,1,629.9999833107
28,90,2034,2,0,L|28:184,1,89.9999976158143
228,240,2034,2,0,P|188:244|212:216,1,89.9999976158143
320,216,2034,2,0,P|296:248|248:256,1,89.9999976158143
138,90,2035,2,0,P|396:141|231:345,1,629.9999833107
409,221,2035,2,0,P|160:306|200:46,1,629.9999833107
389,271,2037,2,0,P|126:266|253:36,1,629.9999833107
28,180,2037,2,0,L|28:272,1,89.9999976158143
286,139,2037,2,0,P|330:134|304:165,1,89.9999976158143
185,165,2037,2,0,P|212:130|264:121,1,89.9999976158143
354,312,2038,2,0,P|109:217|307:44,1,629.9999833107
373,293,2039,2,0,P|115:242|280:38,1,629.9999833107
28,270,2040,2,0,L|28:360,1,89.9999976158143
225,244,2040,2,0,P|181:249|207:218,1,89.9999976158143
307,339,2040,2,0,P|109:166|354:71,1,629.9999833107
280,345,2042,2,0,P|115:141|373:90,1,629.9999833107
326,218,2042,2,0,P|300:253|247:262,1,89.9999976158143
289,134,2043,2,0,P|337:129|308:163,1,89.9999976158143
28,360,2043,2,0,L|124:360,1,89.9999976158143
118,360,2046,2,0,L|212:360,1,89.9999976158143
179,163,2046,2,0,P|208:124|265:115,1,89.9999976158143
222,249,2046,2,0,P|174:254|203:220,1,89.9999976158143
253,347,2047,2,0,P|126:117|389:112,1,629.9999833107
292,128,2049,2,0,P|345:123|314:160,1,89.9999976158143
200,337,2049,2,0,P|160:77|409:162,1,629.9999833107
332,220,2051,2,0,P|304:259|246:268,1,89.9999976158143
176,325,2051,2,0,P|181:62|411:189,1,629.9999833107
212,360,2052,2,0,L|308:360,1,89.9999976158143
219,255,2052,2,0,P|166:260|197:223,1,89.9999976158143
171,160,2054,2,0,P|203:118|266:107,1,89.9999976158143
302,360,2055,2,0,L|392:360,1,89.9999976158143
200,337,2056,2,0,P|160:77|409:162,1,629.9999833107
295,124,2057,2,0,P|351:119|317:158,1,89.9999976158143
154,309,2058,2,0,P|205:51|409:216,1,629.9999833107
392,360,2058,2,0,L|484:360,1,89.9999976158143
120,268,2059,2,0,P|256:43|392:268,1,629.9999833107
340,223,2059,2,0,P|308:265|245:276,1,89.9999976158143
135,290,2060,2,0,P|230:45|403:243,1,629.9999833107
216,259,2060,2,0,P|160:264|194:225,1,89.9999976158143
102,216,2061,2,0,P|306:51|357:309,1,629.9999833107
482,360,2061,2,0,L|482:264,1,89.9999976158143
108,243,2062,2,0,P|281:45|376:290,1,629.9999833107
299,118,2063,2,0,P|360:111|323:155,1,89.9999976158143
100,189,2063,2,0,P|330:62|335:325,1,629.9999833107
100,189,2064,2,0,P|330:62|335:325,1,629.9999833107
166,158,2064,2,0,P|200:113|267:102,1,89.9999976158143
482,270,2066,2,0,L|482:176,1,89.9999976158143
102,162,2066,2,0,P|351:77|311:337,1,629.9999833107
212,265,2066,2,0,P|151:272|188:228,1,89.9999976158143
482,180,2069,2,0,L|482:88,1,89.9999976158143
345,225,2069,2,0,P|311:270|244:281,1,89.9999976158143
303,111,2069,2,0,P|370:104|329:151,1,89.9999976158143
208,272,2072,2,0,P|141:279|182:232,1,89.9999976158143
157,155,2072,2,0,P|194:105|268:93,1,89.9999976158143
482,90,2072,2,0,L|482:0,1,89.9999976158143
307,103,2075,2,0,P|381:95|337:147,1,179.999995231629
482,0,2075,2,0,L|386:0,1,89.9999976158143
180,56,2076,2,0,P|405:192|180:328,1,629.9999833107
354,228,2077,2,0,P|317:278|243:290,1,89.9999976158143
392,0,2078,2,0,L|298:0,1,89.9999976158143
204,280,2078,2,0,P|130:288|174:236,1,179.999995231629
231,38,2078,2,0,P|396:242|138:293,1,629.9999833107
180,56,2079,2,0,P|405:192|180:328,1,629.9999833107
258,36,2080,2,0,P|385:266|122:271,1,629.9999833107
148,151,2081,2,0,P|188:97|269:84,1,89.9999976158143
231,38,2081,2,0,P|396:242|138:293,1,629.9999833107
258,36,2083,2,0,P|385:266|122:271,1,629.9999833107
285,38,2084,2,0,P|370:287|110:247,1,629.9999833107
298,0,2084,2,0,L|202:0,1,89.9999976158143
306,105,2084,2,0,P|378:98|335:148,1,89.9999976158143
363,232,2086,2,0,P|323:286|242:299,1,89.9999976158143
335,58,2086,2,0,P|330:321|100:194,1,629.9999833107
205,278,2087,2,0,P|133:285|176:235,1,89.9999976158143
285,38,2087,2,0,P|370:287|110:247,1,629.9999833107
208,0,2087,2,0,L|118:0,1,89.9999976158143
357,74,2088,2,0,P|306:332|102:167,1,629.9999833107
137,147,2089,2,0,P|182:88|270:73,1,89.9999976158143
335,58,2089,2,0,P|330:321|100:194,1,629.9999833107
118,0,2090,2,0,L|26:0,1,89.9999976158143
376,93,2090,2,0,P|281:338|108:140,1,629.9999833107
311,97,2090,2,0,P|390:89|343:144,1,179.999995231629
357,74,2091,2,0,P|306:332|102:167,1,629.9999833107
403,140,2092,2,0,P|230:338|135:93,1,629.9999833107
200,286,2093,2,0,P|121:294|168:239,1,179.999995231629
374,236,2094,2,0,P|329:295|241:310,1,89.9999976158143
409,167,2094,2,0,P|205:332|154:74,1,629.9999833107
316,88,2096,2,0,P|402:79|350:140,1,179.999995231629
411,194,2096,2,0,P|181:321|176:58,1,629.9999833107
401,247,2098,2,0,P|141:287|226:38,1,629.9999833107
144,150,2099,2,0,P|186:94|269:80,1,89.9999976158143
195,295,2099,2,0,P|109:304|161:243,1,179.999995231629
411,194,2099,2,0,P|181:321|176:58,1,629.9999833107
389,271,2100,2,0,P|126:266|253:36,1,629.9999833107
401,247,2101,2,0,P|141:287|226:38,1,629.9999833107
322,78,2102,2,0,P|417:68|360:135,1,179.999995231629
389,271,2103,2,0,P|126:266|253:36,1,629.9999833107
367,233,2104,2,0,P|325:289|242:303,1,89.9999976158143
189,305,2105,2,0,P|94:315|151:248,1,179.999995231629
401,247,2105,2,0,P|141:287|226:38,1,629.9999833107
373,293,2107,2,0,P|115:242|280:38,1,629.9999833107
133,146,2107,2,0,P|179:85|271:69,1,89.9999976158143
401,247,2108,2,0,P|141:287|226:38,1,629.9999833107
354,312,2109,2,0,P|109:217|307:44,1,629.9999833107
373,293,2110,2,0,P|115:242|280:38,1,629.9999833107
326,71,2110,2,0,P|427:61|366:131,1,179.999995231629
332,328,2111,2,0,P|107:192|332:56,1,629.9999833107
354,312,2112,2,0,P|109:217|307:44,1,629.9999833107
378,237,2112,2,0,P|332:298|240:314,1,89.9999976158143
280,345,2113,2,0,P|115:141|373:90,1,629.9999833107
185,312,2113,2,0,P|84:322|145:252,1,179.999995231629
307,339,2114,2,0,P|109:166|354:71,1,629.9999833107
253,347,2115,2,0,P|126:117|389:112,1,629.9999833107
253,347,2116,2,0,P|126:117|389:112,1,629.9999833107
122,142,2116,2,0,P|172:75|272:58,1,179.999995231629
333,59,2116,2,0,P|444:48|377:125,1,269.999992847443
226,345,2118,2,0,P|141:96|401:136,1,629.9999833107
178,324,2119,2,0,P|67:335|134:258,1,269.999992847443
389,241,2121,2,0,P|339:308|239:325,1,179.999995231629
340,47,2122,2,0,P|461:34|388:119,1,269.999992847443
109,137,2124,2,0,P|164:63|274:45,1,179.999995231629
171,336,2125,2,0,P|50:349|123:264,1,269.999992847443
349,32,2128,2,0,P|481:19|402:112,1,269.999992847443
402,246,2129,2,0,P|347:320|237:338,1,179.999995231629
162,351,2131,2,0,P|30:364|109:271,1,269.999992847443
100,133,2134,2,0,P|158:56|275:36,1,179.999995231629
411,250,2139,2,0,P|353:327|236:347,1,179.999995231629
392,116,2141,2,0,P|256:341|120:116,1,629.9999833107
85,127,2142,2,0,P|149:42|277:21,1,179.999995231629
28,0,2143,2,0,L|28:96,1,89.9999976158143
192,168,2143,2,0,P|216:136|264:128,1,89.9999976158143
409,167,2143,2,0,P|205:332|154:74,1,629.9999833107
110,136,2143,2,0,P|370:96|285:345,1,629.9999833107
284,144,2145,2,0,P|324:140|300:168,1,89.9999976158143
411,194,2145,2,0,P|181:321|176:58,1,629.9999833107
122,112,2146,2,0,P|385:117|258:347,1,629.9999833107
426,256,2147,2,0,P|362:341|234:362,1,179.999995231629
228,240,2148,2,0,P|188:244|212:216,1,89.9999976158143
28,90,2148,2,0,L|28:184,1,89.9999976158143
320,216,2148,2,0,P|296:248|248:256,1,89.9999976158143
138,90,2149,2,0,P|396:141|231:345,1,629.9999833107
409,221,2149,2,0,P|160:306|200:46,1,629.9999833107
286,139,2151,2,0,P|330:134|304:165,1,89.9999976158143
28,180,2151,2,0,L|28:272,1,89.9999976158143
389,271,2151,2,0,P|126:266|253:36,1,629.9999833107
185,165,2151,2,0,P|212:130|264:121,1,89.9999976158143
354,312,2152,2,0,P|109:217|307:44,1,629.9999833107
373,293,2153,2,0,P|115:242|280:38,1,629.9999833107
225,244,2154,2,0,P|181:249|207:218,1,89.9999976158143
307,339,2154,2,0,P|109:166|354:71,1,629.9999833107
28,270,2154,2,0,L|28:360,1,89.9999976158143
280,345,2156,2,0,P|115:141|373:90,1,629.9999833107
326,218,2156,2,0,P|300:253|247:262,1,89.9999976158143
289,134,2157,2,0,P|337:129|308:163,1,89.9999976158143
28,360,2157,2,0,L|124:360,1,89.9999976158143
50,115,2159,2,0,P|127:12|281:-13,1,269.999992847443
222,249,2160,2,0,P|174:254|203:220,1,89.9999976158143
118,360,2160,2,0,L|212:360,1,89.9999976158143
179,163,2160,2,0,P|208:124|265:115,1,89.9999976158143
253,347,2161,2,0,P|126:117|389:112,1,629.9999833107
292,128,2163,2,0,P|345:123|314:160,1,89.9999976158143
200,337,2163,2,0,P|160:77|409:162,1,629.9999833107
461,268,2164,2,0,P|384:371|230:397,1,269.999992847443
176,325,2165,2,0,P|181:62|411:189,1,629.9999833107
332,220,2165,2,0,P|304:259|246:268,1,89.9999976158143
212,360,2166,2,0,L|308:360,1,89.9999976158143
219,255,2166,2,0,P|166:260|197:223,1,89.9999976158143
171,160,2168,2,0,P|203:118|266:107,1,89.9999976158143
302,360,2169,2,0,L|392:360,1,89.9999976158143
200,337,2170,2,0,P|160:77|409:162,1,629.9999833107
295,124,2171,2,0,P|351:119|317:158,1,89.9999976158143
154,309,2172,2,0,P|205:51|409:216,1,629.9999833107
392,360,2172,2,0,L|484:360,1,89.9999976158143
340,223,2173,2,0,P|308:265|245:276,1,89.9999976158143
120,268,2173,2,0,P|256:43|392:268,1,629.9999833107
135,290,2174,2,0,P|230:45|403:243,1,629.9999833107
216,259,2174,2,0,P|160:264|194:225,1,89.9999976158143
482,360,2175,2,0,L|482:264,1,89.9999976158143
102,216,2175,2,0,P|306:51|357:309,1,629.9999833107
108,243,2176,2,0,P|281:45|376:290,1,629.9999833107
299,118,2177,2,0,P|360:111|323:155,1,89.9999976158143
100,189,2177,2,0,P|330:62|335:325,1,629.9999833107
100,189,2178,2,0,P|330:62|335:325,1,629.9999833107
166,158,2178,2,0,P|200:113|267:102,1,89.9999976158143
102,162,2180,2,0,P|351:77|311:337,1,629.9999833107
212,265,2180,2,0,P|151:272|188:228,1,89.9999976158143
482,270,2180,2,0,L|482:176,1,89.9999976158143
345,225,2183,2,0,P|311:270|244:281,1,89.9999976158143
303,111,2183,2,0,P|370:104|329:151,1,89.9999976158143
482,180,2183,2,0,L|482:88,1,89.9999976158143
482,90,2186,2,0,L|482:0,1,89.9999976158143
157,155,2186,2,0,P|194:105|268:93,1,89.9999976158143
208,272,2186,2,0,P|141:279|182:232,1,89.9999976158143
482,0,2189,2,0,L|386:0,1,89.9999976158143
307,103,2189,2,0,P|381:95|337:147,1,179.999995231629
180,56,2190,2,0,P|405:192|180:328,1,629.9999833107
354,228,2191,2,0,P|317:278|243:290,1,89.9999976158143
204,280,2192,2,0,P|130:288|174:236,1,179.999995231629
231,38,2192,2,0,P|396:242|138:293,1,629.9999833107
392,0,2192,2,0,L|298:0,1,89.9999976158143
180,56,2193,2,0,P|405:192|180:328,1,629.9999833107
258,36,2194,2,0,P|385:266|122:271,1,629.9999833107
231,38,2195,2,0,P|396:242|138:293,1,629.9999833107
148,151,2195,2,0,P|188:97|269:84,1,89.9999976158143
258,36,2197,2,0,P|385:266|122:271,1,629.9999833107
298,0,2198,2,0,L|202:0,1,89.9999976158143
306,105,2198,2,0,P|378:98|335:148,1,89.9999976158143
285,38,2198,2,0,P|370:287|110:247,1,629.9999833107
363,232,2200,2,0,P|323:286|242:299,1,89.9999976158143
335,58,2200,2,0,P|330:321|100:194,1,629.9999833107
208,0,2201,2,0,L|118:0,1,89.9999976158143
285,38,2201,2,0,P|370:287|110:247,1,629.9999833107
205,278,2201,2,0,P|133:285|176:235,1,89.9999976158143
357,74,2202,2,0,P|306:332|102:167,1,629.9999833107
137,147,2203,2,0,P|182:88|270:73,1,89.9999976158143
335,58,2203,2,0,P|330:321|100:194,1,629.9999833107
311,97,2204,2,0,P|390:89|343:144,1,179.999995231629
118,0,2204,2,0,L|26:0,1,89.9999976158143
376,93,2204,2,0,P|281:338|108:140,1,629.9999833107
357,74,2205,2,0,P|306:332|102:167,1,629.9999833107
403,140,2206,2,0,P|230:338|135:93,1,629.9999833107
200,286,2207,2,0,P|121:294|168:239,1,179.999995231629
409,167,2208,2,0,P|205:332|154:74,1,629.9999833107
374,236,2208,2,0,P|329:295|241:310,1,89.9999976158143
411,194,2210,2,0,P|181:321|176:58,1,629.9999833107
316,88,2210,2,0,P|402:79|350:140,1,179.999995231629
401,247,2212,2,0,P|141:287|226:38,1,629.9999833107
195,295,2213,2,0,P|109:304|161:243,1,179.999995231629
144,150,2213,2,0,P|186:94|269:80,1,89.9999976158143
411,194,2213,2,0,P|181:321|176:58,1,629.9999833107
389,271,2214,2,0,P|126:266|253:36,1,629.9999833107
401,247,2215,2,0,P|141:287|226:38,1,629.9999833107
322,78,2216,2,0,P|417:68|360:135,1,179.999995231629
389,271,2217,2,0,P|126:266|253:36,1,629.9999833107
367,233,2218,2,0,P|325:289|242:303,1,89.9999976158143
401,247,2219,2,0,P|141:287|226:38,1,629.9999833107
189,305,2219,2,0,P|94:315|151:248,1,179.999995231629
373,293,2221,2,0,P|115:242|280:38,1,629.9999833107
133,146,2221,2,0,P|179:85|271:69,1,89.9999976158143
401,247,2222,2,0,P|141:287|226:38,1,629.9999833107
354,312,2223,2,0,P|109:217|307:44,1,629.9999833107
326,71,2224,2,0,P|427:61|366:131,1,179.999995231629
373,293,2224,2,0,P|115:242|280:38,1,629.9999833107
332,328,2225,2,0,P|107:192|332:56,1,629.9999833107
354,312,2226,2,0,P|109:217|307:44,1,629.9999833107
378,237,2226,2,0,P|332:298|240:314,1,89.9999976158143
185,312,2227,2,0,P|84:322|145:252,1,179.999995231629
280,345,2227,2,0,P|115:141|373:90,1,629.9999833107
307,339,2228,2,0,P|109:166|354:71,1,629.9999833107
253,347,2229,2,0,P|126:117|389:112,1,629.9999833107
253,347,2230,2,0,P|126:117|389:112,1,629.9999833107
122,142,2230,2,0,P|172:75|272:58,1,179.999995231629
333,59,2230,2,0,P|444:48|377:125,1,269.999992847443
226,345,2232,2,0,P|141:96|401:136,1,629.9999833107
178,324,2233,2,0,P|67:335|134:258,1,269.999992847443
389,241,2235,2,0,P|339:308|239:325,1,179.999995231629
340,47,2236,2,0,P|461:34|388:119,1,269.999992847443
109,137,2238,2,0,P|164:63|274:45,1,179.999995231629
171,336,2239,2,0,P|50:349|123:264,1,269.999992847443
349,32,2242,2,0,P|481:19|402:112,1,269.999992847443
402,246,2243,2,0,P|347:320|237:338,1,179.999995231629
162,351,2245,2,0,P|30:364|109:271,1,269.999992847443
100,133,2248,2,0,P|158:56|275:36,1,179.999995231629
411,250,2253,2,0,P|353:327|236:347,1,179.999995231629
85,127,2256,2,0,P|149:42|277:21,1,179.999995231629
426,256,2261,2,0,P|362:341|234:362,1,179.999995231629
392,116,2263,2,0,P|256:341|120:116,1,629.9999833107
192,168,2265,2,0,P|216:136|264:128,1,89.9999976158143
110,136,2265,2,0,P|370:96|285:345,1,629.9999833107
409,167,2265,2,0,P|205:332|154:74,1,629.9999833107
28,0,2265,2,0,L|28:96,1,89.9999976158143
284,144,2267,2,0,P|324:140|300:168,1,89.9999976158143
411,194,2267,2,0,P|181:321|176:58,1,629.9999833107
122,112,2268,2,0,P|385:117|258:347,1,629.9999833107
28,90,2270,2,0,L|28:184,1,89.9999976158143
320,216,2270,2,0,P|296:248|248:256,1,89.9999976158143
228,240,2270,2,0,P|188:244|212:216,1,89.9999976158143
409,221,2271,2,0,P|160:306|200:46,1,629.9999833107
138,90,2271,2,0,P|396:141|231:345,1,629.9999833107
389,271,2273,2,0,P|126:266|253:36,1,629.9999833107
286,139,2273,2,0,P|330:134|304:165,1,89.9999976158143
28,180,2273,2,0,L|28:272,1,89.9999976158143
185,165,2273,2,0,P|212:130|264:121,1,89.9999976158143
354,312,2274,2,0,P|109:217|307:44,1,629.9999833107
373,293,2275,2,0,P|115:242|280:38,1,629.9999833107
28,270,2276,2,0,L|28:360,1,89.9999976158143
307,339,2276,2,0,P|109:166|354:71,1,629.9999833107
225,244,2276,2,0,P|181:249|207:218,1,89.9999976158143
326,218,2278,2,0,P|300:253|247:262,1,89.9999976158143
280,345,2278,2,0,P|115:141|373:90,1,629.9999833107
289,134,2279,2,0,P|337:129|308:163,1,89.9999976158143
28,360,2279,2,0,L|124:360,1,89.9999976158143
222,249,2282,2,0,P|174:254|203:220,1,89.9999976158143
118,360,2282,2,0,L|212:360,1,89.9999976158143
179,163,2282,2,0,P|208:124|265:115,1,89.9999976158143
253,347,2283,2,0,P|126:117|389:112,1,629.9999833107
292,128,2285,2,0,P|345:123|314:160,1,89.9999976158143
200,337,2285,2,0,P|160:77|409:162,1,629.9999833107
332,220,2287,2,0,P|304:259|246:268,1,89.9999976158143
176,325,2287,2,0,P|181:62|411:189,1,629.9999833107
219,255,2288,2,0,P|166:260|197:223,1,89.9999976158143
212,360,2288,2,0,L|308:360,1,89.9999976158143
171,160,2290,2,0,P|203:118|266:107,1,89.9999976158143
302,360,2291,2,0,L|392:360,1,89.9999976158143
200,337,2292,2,0,P|160:77|409:162,1,629.9999833107
295,124,2293,2,0,P|351:119|317:158,1,89.9999976158143
154,309,2294,2,0,P|205:51|409:216,1,629.9999833107
392,360,2294,2,0,L|484:360,1,89.9999976158143
120,268,2295,2,0,P|256:43|392:268,1,629.9999833107
340,223,2295,2,0,P|308:265|245:276,1,89.9999976158143
216,259,2296,2,0,P|160:264|194:225,1,89.9999976158143
135,290,2296,2,0,P|230:45|403:243,1,629.9999833107
482,360,2297,2,0,L|482:264,1,89.9999976158143
102,216,2297,2,0,P|306:51|357:309,1,629.9999833107
108,243,2298,2,0,P|281:45|376:290,1,629.9999833107
299,118,2299,2,0,P|360:111|323:155,1,89.9999976158143
100,189,2299,2,0,P|330:62|335:325,1,629.9999833107
166,158,2300,2,0,P|200:113|267:102,1,89.9999976158143
100,189,2300,2,0,P|330:62|335:325,1,629.9999833107
102,162,2302,2,0,P|351:77|311:337,1,629.9999833107
212,265,2302,2,0,P|151:272|188:228,1,89.9999976158143
482,270,2302,2,0,L|482:176,1,89.9999976158143
303,111,2305,2,0,P|370:104|329:151,1,89.9999976158143
345,225,2305,2,0,P|311:270|244:281,1,89.9999976158143
482,180,2305,2,0,L|482:88,1,89.9999976158143
482,90,2308,2,0,L|482:0,1,89.9999976158143
208,272,2308,2,0,P|141:279|182:232,1,89.9999976158143
157,155,2308,2,0,P|194:105|268:93,1,89.9999976158143
307,103,2311,2,0,P|381:95|337:147,1,179.999995231629
482,0,2311,2,0,L|386:0,1,89.9999976158143
180,56,2312,2,0,P|405:192|180:328,1,629.9999833107
354,228,2313,2,0,P|317:278|243:290,1,89.9999976158143
392,0,2314,2,0,L|298:0,1,89.9999976158143
231,38,2314,2,0,P|396:242|138:293,1,629.9999833107
204,280,2314,2,0,P|130:288|174:236,1,179.999995231629
180,56,2315,2,0,P|405:192|180:328,1,629.9999833107
258,36,2316,2,0,P|385:266|122:271,1,629.9999833107
231,38,2317,2,0,P|396:242|138:293,1,629.9999833107
148,151,2317,2,0,P|188:97|269:84,1,89.9999976158143
258,36,2319,2,0,P|385:266|122:271,1,629.9999833107
306,105,2320,2,0,P|378:98|335:148,1,89.9999976158143
298,0,2320,2,0,L|202:0,1,89.9999976158143
285,38,2320,2,0,P|370:287|110:247,1,629.9999833107
363,232,2322,2,0,P|323:286|242:299,1,89.9999976158143
335,58,2322,2,0,P|330:321|100:194,1,629.9999833107
205,278,2323,2,0,P|133:285|176:235,1,89.9999976158143
208,0,2323,2,0,L|118:0,1,89.9999976158143
285,38,2323,2,0,P|370:287|110:247,1,629.9999833107
357,74,2324,2,0,P|306:332|102:167,1,629.9999833107
137,147,2325,2,0,P|182:88|270:73,1,89.9999976158143
335,58,2325,2,0,P|330:321|100:194,1,629.9999833107
311,97,2326,2,0,P|390:89|343:144,1,179.999995231629
376,93,2326,2,0,P|281:338|108:140,1,629.9999833107
118,0,2326,2,0,L|26:0,1,89.9999976158143
357,74,2327,2,0,P|306:332|102:167,1,629.9999833107
403,140,2328,2,0,P|230:338|135:93,1,629.9999833107
200,286,2329,2,0,P|121:294|168:239,1,179.999995231629
374,236,2330,2,0,P|329:295|241:310,1,89.9999976158143
409,167,2330,2,0,P|205:332|154:74,1,629.9999833107
316,88,2332,2,0,P|402:79|350:140,1,179.999995231629
411,194,2332,2,0,P|181:321|176:58,1,629.9999833107
401,247,2334,2,0,P|141:287|226:38,1,629.9999833107
195,295,2335,2,0,P|109:304|161:243,1,179.999995231629
411,194,2335,2,0,P|181:321|176:58,1,629.9999833107
144,150,2335,2,0,P|186:94|269:80,1,89.9999976158143
389,271,2336,2,0,P|126:266|253:36,1,629.9999833107
401,247,2337,2,0,P|141:287|226:38,1,629.9999833107
322,78,2338,2,0,P|417:68|360:135,1,179.999995231629
389,271,2339,2,0,P|126:266|253:36,1,629.9999833107
367,233,2340,2,0,P|325:289|242:303,1,89.9999976158143
401,247,2341,2,0,P|141:287|226:38,1,629.9999833107
189,305,2341,2,0,P|94:315|151:248,1,179.999995231629
133,146,2343,2,0,P|179:85|271:69,1,89.9999976158143
373,293,2343,2,0,P|115:242|280:38,1,629.9999833107
401,247,2344,2,0,P|141:287|226:38,1,629.9999833107
354,312,2345,2,0,P|109:217|307:44,1,629.9999833107
373,293,2346,2,0,P|115:242|280:38,1,629.9999833107
326,71,2346,2,0,P|427:61|366:131,1,179.999995231629
332,328,2347,2,0,P|107:192|332:56,1,629.9999833107
378,237,2348,2,0,P|332:298|240:314,1,89.9999976158143
354,312,2348,2,0,P|109:217|307:44,1,629.9999833107
185,312,2349,2,0,P|84:322|145:252,1,179.999995231629
280,345,2349,2,0,P|115:141|373:90,1,629.9999833107
307,339,2350,2,0,P|109:166|354:71,1,629.9999833107
253,347,2351,2,0,P|126:117|389:112,1,629.9999833107
253,347,2352,2,0,P|126:117|389:112,1,629.9999833107
122,142,2352,2,0,P|172:75|272:58,1,179.999995231629
333,59,2352,2,0,P|444:48|377:125,1,269.999992847443
226,345,2354,2,0,P|141:96|401:136,1,629.9999833107
178,324,2355,2,0,P|67:335|134:258,1,269.999992847443
389,241,2357,2,0,P|339:308|239:325,1,179.999995231629
340,47,2358,2,0,P|461:34|388:119,1,269.999992847443
109,137,2360,2,0,P|164:63|274:45,1,179.999995231629
171,336,2361,2,0,P|50:349|123:264,1,269.999992847443
349,32,2364,2,0,P|481:19|402:112,1,269.999992847443
402,246,2365,2,0,P|347:320|237:338,1,179.999995231629
162,351,2367,2,0,P|30:364|109:271,1,269.999992847443
100,133,2370,2,0,P|158:56|275:36,1,179.999995231629
392,116,2375,2,0,P|256:341|120:116,1,629.9999833107
192,168,2377,2,0,P|216:136|264:128,1,89.9999976158143
28,0,2377,2,0,L|28:96,1,89.9999976158143
110,136,2377,2,0,P|370:96|285:345,1,629.9999833107
409,167,2377,2,0,P|205:332|154:74,1,629.9999833107
85,127,2378,2,0,P|149:42|277:21,1,179.999995231629
284,144,2379,2,0,P|324:140|300:168,1,89.9999976158143
411,194,2379,2,0,P|181:321|176:58,1,629.9999833107
122,112,2380,2,0,P|385:117|258:347,1,629.9999833107
28,90,2382,2,0,L|28:184,1,89.9999976158143
320,216,2382,2,0,P|296:248|248:256,1,89.9999976158143
228,240,2382,2,0,P|188:244|212:216,1,89.9999976158143
409,221,2383,2,0,P|160:306|200:46,1,629.9999833107
138,90,2383,2,0,P|396:141|231:345,1,629.9999833107
28,180,2385,2,0,L|28:272,1,89.9999976158143
286,139,2385,2,0,P|330:134|304:165,1,89.9999976158143
185,165,2385,2,0,P|212:130|264:121,1,89.9999976158143
389,271,2385,2,0,P|126:266|253:36,1,629.9999833107
354,312,2386,2,0,P|109:217|307:44,1,629.9999833107
373,293,2387,2,0,P|115:242|280:38,1,629.9999833107
28,270,2388,2,0,L|28:360,1,89.9999976158143
225,244,2388,2,0,P|181:249|207:218,1,89.9999976158143
307,339,2388,2,0,P|109:166|354:71,1,629.9999833107
280,345,2390,2,0,P|115:141|373:90,1,629.9999833107
326,218,2390,2,0,P|300:253|247:262,1,89.9999976158143
28,360,2391,2,0,L|124:360,1,89.9999976158143
289,134,2391,2,0,P|337:129|308:163,1,89.9999976158143
442,261,2392,2,0,P|372:355|232:378,1,179.999995231629
222,249,2394,2,0,P|174:254|203:220,1,89.9999976158143
118,360,2394,2,0,L|212:360,1,89.9999976158143
179,163,2394,2,0,P|208:124|265:115,1,89.9999976158143
253,347,2395,2,0,P|126:117|389:112,1,629.9999833107
292,128,2397,2,0,P|345:123|314:160,1,89.9999976158143
200,337,2397,2,0,P|160:77|409:162,1,629.9999833107
332,220,2399,2,0,P|304:259|246:268,1,89.9999976158143
176,325,2399,2,0,P|181:62|411:189,1,629.9999833107
212,360,2400,2,0,L|308:360,1,89.9999976158143
219,255,2400,2,0,P|166:260|197:223,1,89.9999976158143
171,160,2402,2,0,P|203:118|266:107,1,89.9999976158143
302,360,2403,2,0,L|392:360,1,89.9999976158143
200,337,2404,2,0,P|160:77|409:162,1,629.9999833107
295,124,2405,2,0,P|351:119|317:158,1,89.9999976158143
392,360,2406,2,0,L|484:360,1,89.9999976158143
154,309,2406,2,0,P|205:51|409:216,1,629.9999833107
120,268,2407,2,0,P|256:43|392:268,1,629.9999833107
340,223,2407,2,0,P|308:265|245:276,1,89.9999976158143
216,259,2408,2,0,P|160:264|194:225,1,89.9999976158143
135,290,2408,2,0,P|230:45|403:243,1,629.9999833107
102,216,2409,2,0,P|306:51|357:309,1,629.9999833107
482,360,2409,2,0,L|482:264,1,89.9999976158143
108,243,2410,2,0,P|281:45|376:290,1,629.9999833107
100,189,2411,2,0,P|330:62|335:325,1,629.9999833107
299,118,2411,2,0,P|360:111|323:155,1,89.9999976158143
100,189,2412,2,0,P|330:62|335:325,1,629.9999833107
166,158,2412,2,0,P|200:113|267:102,1,89.9999976158143
482,270,2414,2,0,L|482:176,1,89.9999976158143
212,265,2414,2,0,P|151:272|188:228,1,89.9999976158143
102,162,2414,2,0,P|351:77|311:337,1,629.9999833107
345,225,2417,2,0,P|311:270|244:281,1,89.9999976158143
482,180,2417,2,0,L|482:88,1,89.9999976158143
303,111,2417,2,0,P|370:104|329:151,1,89.9999976158143
157,155,2420,2,0,P|194:105|268:93,1,89.9999976158143
482,90,2420,2,0,L|482:0,1,89.9999976158143
208,272,2420,2,0,P|141:279|182:232,1,89.9999976158143
307,103,2423,2,0,P|381:95|337:147,1,179.999995231629
482,0,2423,2,0,L|386:0,1,89.9999976158143
180,56,2424,2,0,P|405:192|180:328,1,629.9999833107
354,228,2425,2,0,P|317:278|243:290,1,89.9999976158143
231,38,2426,2,0,P|396:242|138:293,1,629.9999833107
392,0,2426,2,0,L|298:0,1,89.9999976158143
204,280,2426,2,0,P|130:288|174:236,1,179.999995231629
180,56,2427,2,0,P|405:192|180:328,1,629.9999833107
258,36,2428,2,0,P|385:266|122:271,1,629.9999833107
231,38,2429,2,0,P|396:242|138:293,1,629.9999833107
148,151,2429,2,0,P|188:97|269:84,1,89.9999976158143
258,36,2431,2,0,P|385:266|122:271,1,629.9999833107
285,38,2432,2,0,P|370:287|110:247,1,629.9999833107
306,105,2432,2,0,P|378:98|335:148,1,89.9999976158143
298,0,2432,2,0,L|202:0,1,89.9999976158143
335,58,2434,2,0,P|330:321|100:194,1,629.9999833107
363,232,2434,2,0,P|323:286|242:299,1,89.9999976158143
285,38,2435,2,0,P|370:287|110:247,1,629.9999833107
208,0,2435,2,0,L|118:0,1,89.9999976158143
205,278,2435,2,0,P|133:285|176:235,1,89.9999976158143
357,74,2436,2,0,P|306:332|102:167,1,629.9999833107
335,58,2437,2,0,P|330:321|100:194,1,629.9999833107
137,147,2437,2,0,P|182:88|270:73,1,89.9999976158143
311,97,2438,2,0,P|390:89|343:144,1,179.999995231629
376,93,2438,2,0,P|281:338|108:140,1,629.9999833107
118,0,2438,2,0,L|26:0,1,89.9999976158143
357,74,2439,2,0,P|306:332|102:167,1,629.9999833107
403,140,2440,2,0,P|230:338|135:93,1,629.9999833107
200,286,2441,2,0,P|121:294|168:239,1,179.999995231629
374,236,2442,2,0,P|329:295|241:310,1,89.9999976158143
409,167,2442,2,0,P|205:332|154:74,1,629.9999833107
316,88,2444,2,0,P|402:79|350:140,1,179.999995231629
411,194,2444,2,0,P|181:321|176:58,1,629.9999833107
401,247,2446,2,0,P|141:287|226:38,1,629.9999833107
144,150,2447,2,0,P|186:94|269:80,1,89.9999976158143
411,194,2447,2,0,P|181:321|176:58,1,629.9999833107
195,295,2447,2,0,P|109:304|161:243,1,179.999995231629
389,271,2448,2,0,P|126:266|253:36,1,629.9999833107
401,247,2449,2,0,P|141:287|226:38,1,629.9999833107
322,78,2450,2,0,P|417:68|360:135,1,179.999995231629
389,271,2451,2,0,P|126:266|253:36,1,629.9999833107
367,233,2452,2,0,P|325:289|242:303,1,89.9999976158143
189,305,2453,2,0,P|94:315|151:248,1,179.999995231629
401,247,2453,2,0,P|141:287|226:38,1,629.9999833107
373,293,2455,2,0,P|115:242|280:38,1,629.9999833107
133,146,2455,2,0,P|179:85|271:69,1,89.9999976158143
401,247,2456,2,0,P|141:287|226:38,1,629.9999833107
354,312,2457,2,0,P|109:217|307:44,1,629.9999833107
373,293,2458,2,0,P|115:242|280:38,1,629.9999833107
326,71,2458,2,0,P|427:61|366:131,1,179.999995231629
332,328,2459,2,0,P|107:192|332:56,1,629.9999833107
354,312,2460,2,0,P|109:217|307:44,1,629.9999833107
378,237,2460,2,0,P|332:298|240:314,1,89.9999976158143
185,312,2461,2,0,P|84:322|145:252,1,179.999995231629
280,345,2461,2,0,P|115:141|373:90,1,629.9999833107
307,339,2462,2,0,P|109:166|354:71,1,629.9999833107
253,347,2463,2,0,P|126:117|389:112,1,629.9999833107
253,347,2464,2,0,P|126:117|389:112,1,629.9999833107
333,59,2464,2,0,P|444:48|377:125,1,269.999992847443
122,142,2464,2,0,P|172:75|272:58,1,179.999995231629
226,345,2466,2,0,P|141:96|401:136,1,629.9999833107
178,324,2467,2,0,P|67:335|134:258,1,269.999992847443
389,241,2469,2,0,P|339:308|239:325,1,179.999995231629
340,47,2470,2,0,P|461:34|388:119,1,269.999992847443
109,137,2472,2,0,P|164:63|274:45,1,179.999995231629
171,336,2473,2,0,P|50:349|123:264,1,269.999992847443
349,32,2476,2,0,P|481:19|402:112,1,269.999992847443
402,246,2477,2,0,P|347:320|237:338,1,179.999995231629
162,351,2479,2,0,P|30:364|109:271,1,269.999992847443
100,133,2482,2,0,P|158:56|275:36,1,179.999995231629
411,250,2487,2,0,P|353:327|236:347,1,179.999995231629
85,127,2490,2,0,P|149:42|277:21,1,179.999995231629
426,256,2495,2,0,P|362:341|234:362,1,179.999995231629
392,116,2497,2,0,P|256:341|120:116,1,629.9999833107
110,136,2499,2,0,P|370:96|285:345,1,629.9999833107
409,167,2499,2,0,P|205:332|154:74,1,629.9999833107
28,0,2499,2,0,L|28:96,1,89.9999976158143
192,168,2499,2,0,P|216:136|264:128,1,89.9999976158143
411,194,2501,2,0,P|181:321|176:58,1,629.9999833107
284,144,2501,2,0,P|324:140|300:168,1,89.9999976158143
122,112,2502,2,0,P|385:117|258:347,1,629.9999833107
228,240,2504,2,0,P|188:244|212:216,1,89.9999976158143
320,216,2504,2,0,P|296:248|248:256,1,89.9999976158143
28,90,2504,2,0,L|28:184,1,89.9999976158143
138,90,2505,2,0,P|396:141|231:345,1,629.9999833107
409,221,2505,2,0,P|160:306|200:46,1,629.9999833107
28,180,2507,2,0,L|28:272,1,89.9999976158143
389,271,2507,2,0,P|126:266|253:36,1,629.9999833107
185,165,2507,2,0,P|212:130|264:121,1,89.9999976158143
286,139,2507,2,0,P|330:134|304:165,1,89.9999976158143
354,312,2508,2,0,P|109:217|307:44,1,629.9999833107
373,293,2509,2,0,P|115:242|280:38,1,629.9999833107
225,244,2510,2,0,P|181:249|207:218,1,89.9999976158143
28,270,2510,2,0,L|28:360,1,89.9999976158143
307,339,2510,2,0,P|109:166|354:71,1,629.9999833107
326,218,2512,2,0,P|300:253|247:262,1,89.9999976158143
280,345,2512,2,0,P|115:141|373:90,1,629.9999833107
289,134,2513,2,0,P|337:129|308:163,1,89.9999976158143
28,360,2513,2,0,L|124:360,1,89.9999976158143
118,360,2516,2,0,L|212:360,1,89.9999976158143
222,249,2516,2,0,P|174:254|203:220,1,89.9999976158143
179,163,2516,2,0,P|208:124|265:115,1,89.9999976158143
253,347,2517,2,0,P|126:117|389:112,1,629.9999833107
292,128,2519,2,0,P|345:123|314:160,1,89.9999976158143
200,337,2519,2,0,P|160:77|409:162,1,629.9999833107
176,325,2521,2,0,P|181:62|411:189,1,629.9999833107
332,220,2521,2,0,P|304:259|246:268,1,89.9999976158143
219,255,2522,2,0,P|166:260|197:223,1,89.9999976158143
212,360,2522,2,0,L|308:360,1,89.9999976158143
171,160,2524,2,0,P|203:118|266:107,1,89.9999976158143
302,360,2525,2,0,L|392:360,1,89.9999976158143
200,337,2526,2,0,P|160:77|409:162,1,629.9999833107
295,124,2527,2,0,P|351:119|317:158,1,89.9999976158143
154,309,2528,2,0,P|205:51|409:216,1,629.9999833107
392,360,2528,2,0,L|484:360,1,89.9999976158143
120,268,2529,2,0,P|256:43|392:268,1,629.9999833107
340,223,2529,2,0,P|308:265|245:276,1,89.9999976158143
135,290,2530,2,0,P|230:45|403:243,1,629.9999833107
216,259,2530,2,0,P|160:264|194:225,1,89.9999976158143
102,216,2531,2,0,P|306:51|357:309,1,629.9999833107
482,360,2531,2,0,L|482:264,1,89.9999976158143
108,243,2532,2,0,P|281:45|376:290,1,629.9999833107
299,118,2533,2,0,P|360:111|323:155,1,89.9999976158143
100,189,2533,2,0,P|330:62|335:325,1,629.9999833107
166,158,2534,2,0,P|200:113|267:102,1,89.9999976158143
100,189,2534,2,0,P|330:62|335:325,1,629.9999833107
102,162,2536,2,0,P|351:77|311:337,1,629.9999833107
482,270,2536,2,0,L|482:176,1,89.9999976158143
212,265,2536,2,0,P|151:272|188:228,1,89.9999976158143
303,111,2539,2,0,P|370:104|329:151,1,89.9999976158143
345,225,2539,2,0,P|311:270|244:281,1,89.9999976158143
482,180,2539,2,0,L|482:88,1,89.9999976158143
482,90,2542,2,0,L|482:0,1,89.9999976158143
157,155,2542,2,0,P|194:105|268:93,1,89.9999976158143
208,272,2542,2,0,P|141:279|182:232,1,89.9999976158143
307,103,2545,2,0,P|381:95|337:147,1,179.999995231629
482,0,2545,2,0,L|386:0,1,89.9999976158143
180,56,2546,2,0,P|405:192|180:328,1,629.9999833107
354,228,2547,2,0,P|317:278|243:290,1,89.9999976158143
231,38,2548,2,0,P|396:242|138:293,1,629.9999833107
392,0,2548,2,0,L|298:0,1,89.9999976158143
204,280,2548,2,0,P|130:288|174:236,1,179.999995231629
180,56,2549,2,0,P|405:192|180:328,1,629.9999833107
258,36,2550,2,0,P|385:266|122:271,1,629.9999833107
148,151,2551,2,0,P|188:97|269:84,1,89.9999976158143
231,38,2551,2,0,P|396:242|138:293,1,629.9999833107
258,36,2553,2,0,P|385:266|122:271,1,629.9999833107
298,0,2554,2,0,L|202:0,1,89.9999976158143
285,38,2554,2,0,P|370:287|110:247,1,629.9999833107
306,105,2554,2,0,P|378:98|335:148,1,89.9999976158143
363,232,2556,2,0,P|323:286|242:299,1,89.9999976158143
335,58,2556,2,0,P|330:321|100:194,1,629.9999833107
205,278,2557,2,0,P|133:285|176:235,1,89.9999976158143
208,0,2557,2,0,L|118:0,1,89.9999976158143
285,38,2557,2,0,P|370:287|110:247,1,629.9999833107
357,74,2558,2,0,P|306:332|102:167,1,629.9999833107
137,147,2559,2,0,P|182:88|270:73,1,89.9999976158143
335,58,2559,2,0,P|330:321|100:194,1,629.9999833107
118,0,2560,2,0,L|26:0,1,89.9999976158143
311,97,2560,2,0,P|390:89|343:144,1,179.999995231629
376,93,2560,2,0,P|281:338|108:140,1,629.9999833107
357,74,2561,2,0,P|306:332|102:167,1,629.9999833107
403,140,2562,2,0,P|230:338|135:93,1,629.9999833107
200,286,2563,2,0,P|121:294|168:239,1,179.999995231629
374,236,2564,2,0,P|329:295|241:310,1,89.9999976158143
409,167,2564,2,0,P|205:332|154:74,1,629.9999833107
316,88,2566,2,0,P|402:79|350:140,1,179.999995231629
411,194,2566,2,0,P|181:321|176:58,1,629.9999833107
401,247,2568,2,0,P|141:287|226:38,1,629.9999833107
195,295,2569,2,0,P|109:304|161:243,1,179.999995231629
144,150,2569,2,0,P|186:94|269:80,1,89.9999976158143
411,194,2569,2,0,P|181:321|176:58,1,629.9999833107
389,271,2570,2,0,P|126:266|253:36,1,629.9999833107
401,247,2571,2,0,P|141:287|226:38,1,629.9999833107
322,78,2572,2,0,P|417:68|360:135,1,179.999995231629
389,271,2573,2,0,P|126:266|253:36,1,629.9999833107
367,233,2574,2,0,P|325:289|242:303,1,89.9999976158143
401,247,2575,2,0,P|141:287|226:38,1,629.9999833107
189,305,2575,2,0,P|94:315|151:248,1,179.999995231629
133,146,2577,2,0,P|179:85|271:69,1,89.9999976158143
373,293,2577,2,0,P|115:242|280:38,1,629.9999833107
401,247,2578,2,0,P|141:287|226:38,1,629.9999833107
354,312,2579,2,0,P|109:217|307:44,1,629.9999833107
326,71,2580,2,0,P|427:61|366:131,1,179.999995231629
373,293,2580,2,0,P|115:242|280:38,1,629.9999833107
332,328,2581,2,0,P|107:192|332:56,1,629.9999833107
354,312,2582,2,0,P|109:217|307:44,1,629.9999833107
378,237,2582,2,0,P|332:298|240:314,1,89.9999976158143
185,312,2583,2,0,P|84:322|145:252,1,179.999995231629
280,345,2583,2,0,P|115:141|373:90,1,629.9999833107
307,339,2584,2,0,P|109:166|354:71,1,629.9999833107
253,347,2585,2,0,P|126:117|389:112,1,629.9999833107
333,59,2586,2,0,P|444:48|377:125,1,269.999992847443
122,142,2586,2,0,P|172:75|272:58,1,179.999995231629
253,347,2586,2,0,P|126:117|389:112,1,629.9999833107
226,345,2588,2,0,P|141:96|401:136,1,629.9999833107
178,324,2589,2,0,P|67:335|134:258,1,269.999992847443
389,241,2591,2,0,P|339:308|239:325,1,179.999995231629
340,47,2592,2,0,P|461:34|388:119,1,269.999992847443
109,137,2594,2,0,P|164:63|274:45,1,179.999995231629
171,336,2595,2,0,P|50:349|123:264,1,269.999992847443
349,32,2598,2,0,P|481:19|402:112,1,269.999992847443
402,246,2599,2,0,P|347:320|237:338,1,179.999995231629
162,351,2601,2,0,P|30:364|109:271,1,269.999992847443
100,133,2604,2,0,P|158:56|275:36,1,179.999995231629
411,250,2609,2,0,P|353:327|236:347,1,179.999995231629
392,116,2611,2,0,P|256:341|120:116,1,629.9999833107
85,127,2612,2,0,P|149:42|277:21,1,179.999995231629
192,168,2613,2,0,P|216:136|264:128,1,89.9999976158143
28,0,2613,2,0,L|28:96,1,89.9999976158143
409,167,2613,2,0,P|205:332|154:74,1,629.9999833107
110,136,2613,2,0,P|370:96|285:345,1,629.9999833107
411,194,2615,2,0,P|181:321|176:58,1,629.9999833107
284,144,2615,2,0,P|324:140|300:168,1,89.9999976158143
122,112,2616,2,0,P|385:117|258:347,1,629.9999833107
426,256,2617,2,0,P|362:341|234:362,1,179.999995231629
320,216,2618,2,0,P|296:248|248:256,1,89.9999976158143
228,240,2618,2,0,P|188:244|212:216,1,89.9999976158143
28,90,2618,2,0,L|28:184,1,89.9999976158143
409,221,2619,2,0,P|160:306|200:46,1,629.9999833107
138,90,2619,2,0,P|396:141|231:345,1,629.9999833107
28,180,2621,2,0,L|28:272,1,89.9999976158143
286,139,2621,2,0,P|330:134|304:165,1,89.9999976158143
389,271,2621,2,0,P|126:266|253:36,1,629.9999833107
185,165,2621,2,0,P|212:130|264:121,1,89.9999976158143
354,312,2622,2,0,P|109:217|307:44,1,629.9999833107
373,293,2623,2,0,P|115:242|280:38,1,629.9999833107
225,244,2624,2,0,P|181:249|207:218,1,89.9999976158143
28,270,2624,2,0,L|28:360,1,89.9999976158143
307,339,2624,2,0,P|109:166|354:71,1,629.9999833107
326,218,2626,2,0,P|300:253|247:262,1,89.9999976158143
280,345,2626,2,0,P|115:141|373:90,1,629.9999833107
289,134,2627,2,0,P|337:129|308:163,1,89.9999976158143
28,360,2627,2,0,L|124:360,1,89.9999976158143
50,115,2629,2,0,P|127:12|281:-13,1,269.999992847443
179,163,2630,2,0,P|208:124|265:115,1,89.9999976158143
222,249,2630,2,0,P|174:254|203:220,1,89.9999976158143
118,360,2630,2,0,L|212:360,1,89.9999976158143
253,347,2631,2,0,P|126:117|389:112,1,629.9999833107
200,337,2633,2,0,P|160:77|409:162,1,629.9999833107
292,128,2633,2,0,P|345:123|314:160,1,89.9999976158143
461,268,2634,2,0,P|384:371|230:397,1,269.999992847443
332,220,2635,2,0,P|304:259|246:268,1,89.9999976158143
176,325,2635,2,0,P|181:62|411:189,1,629.9999833107
212,360,2636,2,0,L|308:360,1,89.9999976158143
219,255,2636,2,0,P|166:260|197:223,1,89.9999976158143
171,160,2638,2,0,P|203:118|266:107,1,89.9999976158143
302,360,2639,2,0,L|392:360,1,89.9999976158143
200,337,2640,2,0,P|160:77|409:162,1,629.9999833107
295,124,2641,2,0,P|351:119|317:158,1,89.9999976158143
392,360,2642,2,0,L|484:360,1,89.9999976158143
154,309,2642,2,0,P|205:51|409:216,1,629.9999833107
340,223,2643,2,0,P|308:265|245:276,1,89.9999976158143
120,268,2643,2,0,P|256:43|392:268,1,629.9999833107
216,259,2644,2,0,P|160:264|194:225,1,89.9999976158143
135,290,2644,2,0,P|230:45|403:243,1,629.9999833107
102,216,2645,2,0,P|306:51|357:309,1,629.9999833107
482,360,2645,2,0,L|482:264,1,89.9999976158143
108,243,2646,2,0,P|281:45|376:290,1,629.9999833107
100,189,2647,2,0,P|330:62|335:325,1,629.9999833107
299,118,2647,2,0,P|360:111|323:155,1,89.9999976158143
100,189,2648,2,0,P|330:62|335:325,1,629.9999833107
166,158,2648,2,0,P|200:113|267:102,1,89.9999976158143
212,265,2650,2,0,P|151:272|188:228,1,89.9999976158143
482,270,2650,2,0,L|482:176,1,89.9999976158143
102,162,2650,2,0,P|351:77|311:337,1,629.9999833107
303,111,2653,2,0,P|370:104|329:151,1,89.9999976158143
345,225,2653,2,0,P|311:270|244:281,1,89.9999976158143
482,180,2653,2,0,L|482:88,1,89.9999976158143
157,155,2656,2,0,P|194:105|268:93,1,89.9999976158143
208,272,2656,2,0,P|141:279|182:232,1,89.9999976158143
482,90,2656,2,0,L|482:0,1,89.9999976158143
482,0,2659,2,0,L|386:0,1,89.9999976158143
307,103,2659,2,0,P|381:95|337:147,1,179.999995231629
180,56,2660,2,0,P|405:192|180:328,1,629.9999833107
354,228,2661,2,0,P|317:278|243:290,1,89.9999976158143
204,280,2662,2,0,P|130:288|174:236,1,179.999995231629
392,0,2662,2,0,L|298:0,1,89.9999976158143
231,38,2662,2,0,P|396:242|138:293,1,629.9999833107
180,56,2663,2,0,P|405:192|180:328,1,629.9999833107
258,36,2664,2,0,P|385:266|122:271,1,629.9999833107
231,38,2665,2,0,P|396:242|138:293,1,629.9999833107
148,151,2665,2,0,P|188:97|269:84,1,89.9999976158143
258,36,2667,2,0,P|385:266|122:271,1,629.9999833107
306,105,2668,2,0,P|378:98|335:148,1,89.9999976158143
285,38,2668,2,0,P|370:287|110:247,1,629.9999833107
298,0,2668,2,0,L|202:0,1,89.9999976158143
363,232,2670,2,0,P|323:286|242:299,1,89.9999976158143
335,58,2670,2,0,P|330:321|100:194,1,629.9999833107
208,0,2671,2,0,L|118:0,1,89.9999976158143
285,38,2671,2,0,P|370:287|110:247,1,629.9999833107
205,278,2671,2,0,P|133:285|176:235,1,89.9999976158143
357,74,2672,2,0,P|306:332|102:167,1,629.9999833107
335,58,2673,2,0,P|330:321|100:194,1,629.9999833107
137,147,2673,2,0,P|182:88|270:73,1,89.9999976158143
376,93,2674,2,0,P|281:338|108:140,1,629.9999833107
118,0,2674,2,0,L|26:0,1,89.9999976158143
311,97,2674,2,0,P|390:89|343:144,1,179.999995231629
357,74,2675,2,0,P|306:332|102:167,1,629.9999833107
403,140,2676,2,0,P|230:338|135:93,1,629.9999833107
200,286,2677,2,0,P|121:294|168:239,1,179.999995231629
409,167,2678,2,0,P|205:332|154:74,1,629.9999833107
374,236,2678,2,0,P|329:295|241:310,1,89.9999976158143
316,88,2680,2,0,P|402:79|350:140,1,179.999995231629
411,194,2680,2,0,P|181:321|176:58,1,629.9999833107
401,247,2682,2,0,P|141:287|226:38,1,629.9999833107
195,295,2683,2,0,P|109:304|161:243,1,179.999995231629
411,194,2683,2,0,P|181:321|176:58,1,629.9999833107
144,150,2683,2,0,P|186:94|269:80,1,89.9999976158143
389,271,2684,2,0,P|126:266|253:36,1,629.9999833107
401,247,2685,2,0,P|141:287|226:38,1,629.9999833107
322,78,2686,2,0,P|417:68|360:135,1,179.999995231629
389,271,2687,2,0,P|126:266|253:36,1,629.9999833107
367,233,2688,2,0,P|325:289|242:303,1,89.9999976158143
189,305,2689,2,0,P|94:315|151:248,1,179.999995231629
401,247,2689,2,0,P|141:287|226:38,1,629.9999833107
373,293,2691,2,0,P|115:242|280:38,1,629.9999833107
133,146,2691,2,0,P|179:85|271:69,1,89.9999976158143
401,247,2692,2,0,P|141:287|226:38,1,629.9999833107
354,312,2693,2,0,P|109:217|307:44,1,629.9999833107
373,293,2694,2,0,P|115:242|280:38,1,629.9999833107
326,71,2694,2,0,P|427:61|366:131,1,179.999995231629
332,328,2695,2,0,P|107:192|332:56,1,629.9999833107
354,312,2696,2,0,P|109:217|307:44,1,629.9999833107
378,237,2696,2,0,P|332:298|240:314,1,89.9999976158143
185,312,2697,2,0,P|84:322|145:252,1,179.999995231629
280,345,2697,2,0,P|115:141|373:90,1,629.9999833107
307,339,2698,2,0,P|109:166|354:71,1,629.9999833107
253,347,2699,2,0,P|126:117|389:112,1,629.9999833107
333,59,2700,2,0,P|444:48|377:125,1,269.999992847443
122,142,2700,2,0,P|172:75|272:58,1,179.999995231629
253,347,2700,2,0,P|126:117|389:112,1,629.9999833107
226,345,2702,2,0,P|141:96|401:136,1,629.9999833107
178,324,2703,2,0,P|67:335|134:258,1,269.999992847443
389,241,2705,2,0,P|339:308|239:325,1,179.999995231629
340,47,2706,2,0,P|461:34|388:119,1,269.999992847443
109,137,2708,2,0,P|164:63|274:45,1,179.999995231629
171,336,2709,2,0,P|50:349|123:264,1,269.999992847443
349,32,2712,2,0,P|481:19|402:112,1,269.999992847443
402,246,2713,2,0,P|347:320|237:338,1,179.999995231629
162,351,2715,2,0,P|30:364|109:271,1,269.999992847443
100,133,2718,2,0,P|158:56|275:36,1,179.999995231629
411,250,2723,2,0,P|353:327|236:347,1,179.999995231629
85,127,2726,2,0,P|149:42|277:21,1,179.999995231629
426,256,2731,2,0,P|362:341|234:362,1,179.999995231629
392,116,2733,2,0,P|256:341|120:116,1,629.9999833107
28,0,2735,2,0,L|28:96,1,89.9999976158143
110,136,2735,2,0,P|370:96|285:345,1,629.9999833107
409,167,2735,2,0,P|205:332|154:74,1,629.9999833107
192,168,2735,2,0,P|216:136|264:128,1,89.9999976158143
411,194,2737,2,0,P|181:321|176:58,1,629.9999833107
284,144,2737,2,0,P|324:140|300:168,1,89.9999976158143
122,112,2738,2,0,P|385:117|258:347,1,629.9999833107
320,216,2740,2,0,P|296:248|248:256,1,89.9999976158143
28,90,2740,2,0,L|28:184,1,89.9999976158143
228,240,2740,2,0,P|188:244|212:216,1,89.9999976158143
409,221,2741,2,0,P|160:306|200:46,1,629.9999833107
138,90,2741,2,0,P|396:141|231:345,1,629.9999833107
286,139,2743,2,0,P|330:134|304:165,1,89.9999976158143
389,271,2743,2,0,P|126:266|253:36,1,629.9999833107
28,180,2743,2,0,L|28:272,1,89.9999976158143
185,165,2743,2,0,P|212:130|264:121,1,89.9999976158143
354,312,2744,2,0,P|109:217|307:44,1,629.9999833107
373,293,2745,2,0,P|115:242|280:38,1,629.9999833107
28,270,2746,2,0,L|28:360,1,89.9999976158143
225,244,2746,2,0,P|181:249|207:218,1,89.9999976158143
307,339,2746,2,0,P|109:166|354:71,1,629.9999833107
280,345,2748,2,0,P|115:141|373:90,1,629.9999833107
326,218,2748,2,0,P|300:253|247:262,1,89.9999976158143
289,134,2749,2,0,P|337:129|308:163,1,89.9999976158143
28,360,2749,2,0,L|124:360,1,89.9999976158143
179,163,2752,2,0,P|208:124|265:115,1,89.9999976158143
118,360,2752,2,0,L|212:360,1,89.9999976158143
222,249,2752,2,0,P|174:254|203:220,1,89.9999976158143
253,347,2753,2,0,P|126:117|389:112,1,629.9999833107
292,128,2755,2,0,P|345:123|314:160,1,89.9999976158143
200,337,2755,2,0,P|160:77|409:162,1,629.9999833107
176,325,2757,2,0,P|181:62|411:189,1,629.9999833107
332,220,2757,2,0,P|304:259|246:268,1,89.9999976158143
212,360,2758,2,0,L|308:360,1,89.9999976158143
219,255,2758,2,0,P|166:260|197:223,1,89.9999976158143
171,160,2760,2,0,P|203:118|266:107,1,89.9999976158143
302,360,2761,2,0,L|392:360,1,89.9999976158143
200,337,2762,2,0,P|160:77|409:162,1,629.9999833107
295,124,2763,2,0,P|351:119|317:158,1,89.9999976158143
154,309,2764,2,0,P|205:51|409:216,1,629.9999833107
392,360,2764,2,0,L|484:360,1,89.9999976158143
340,223,2765,2,0,P|308:265|245:276,1,89.9999976158143
120,268,2765,2,0,P|256:43|392:268,1,629.9999833107
216,259,2766,2,0,P|160:264|194:225,1,89.9999976158143
135,290,2766,2,0,P|230:45|403:243,1,629.9999833107
482,360,2767,2,0,L|482:264,1,89.9999976158143
102,216,2767,2,0,P|306:51|357:309,1,629.9999833107
108,243,2768,2,0,P|281:45|376:290,1,629.9999833107
299,118,2769,2,0,P|360:111|323:155,1,89.9999976158143
100,189,2769,2,0,P|330:62|335:325,1,629.9999833107
166,158,2770,2,0,P|200:113|267:102,1,89.9999976158143
100,189,2770,2,0,P|330:62|335:325,1,629.9999833107
102,162,2772,2,0,P|351:77|311:337,1,629.9999833107
212,265,2772,2,0,P|151:272|188:228,1,89.9999976158143
482,270,2772,2,0,L|482:176,1,89.9999976158143
482,180,2775,2,0,L|482:88,1,89.9999976158143
303,111,2775,2,0,P|370:104|329:151,1,89.9999976158143
345,225,2775,2,0,P|311:270|244:281,1,89.9999976158143
157,155,2778,2,0,P|194:105|268:93,1,89.9999976158143
208,272,2778,2,0,P|141:279|182:232,1,89.9999976158143
482,90,2778,2,0,L|482:0,1,89.9999976158143
307,103,2781,2,0,P|381:95|337:147,1,179.999995231629
482,0,2781,2,0,L|386:0,1,89.9999976158143
180,56,2782,2,0,P|405:192|180:328,1,629.9999833107
354,228,2783,2,0,P|317:278|243:290,1,89.9999976158143
231,38,2784,2,0,P|396:242|138:293,1,629.9999833107
392,0,2784,2,0,L|298:0,1,89.9999976158143
204,280,2784,2,0,P|130:288|174:236,1,179.999995231629
180,56,2785,2,0,P|405:192|180:328,1,629.9999833107
258,36,2786,2,0,P|385:266|122:271,1,629.9999833107
231,38,2787,2,0,P|396:242|138:293,1,629.9999833107
148,151,2787,2,0,P|188:97|269:84,1,89.9999976158143
258,36,2789,2,0,P|385:266|122:271,1,629.9999833107
306,105,2790,2,0,P|378:98|335:148,1,89.9999976158143
285,38,2790,2,0,P|370:287|110:247,1,629.9999833107
298,0,2790,2,0,L|202:0,1,89.9999976158143
335,58,2792,2,0,P|330:321|100:194,1,629.9999833107
363,232,2792,2,0,P|323:286|242:299,1,89.9999976158143
285,38,2793,2,0,P|370:287|110:247,1,629.9999833107
205,278,2793,2,0,P|133:285|176:235,1,89.9999976158143
208,0,2793,2,0,L|118:0,1,89.9999976158143
357,74,2794,2,0,P|306:332|102:167,1,629.9999833107
137,147,2795,2,0,P|182:88|270:73,1,89.9999976158143
335,58,2795,2,0,P|330:321|100:194,1,629.9999833107
376,93,2796,2,0,P|281:338|108:140,1,629.9999833107
118,0,2796,2,0,L|26:0,1,89.9999976158143
311,97,2796,2,0,P|390:89|343:144,1,179.999995231629
357,74,2797,2,0,P|306:332|102:167,1,629.9999833107
403,140,2798,2,0,P|230:338|135:93,1,629.9999833107
200,286,2799,2,0,P|121:294|168:239,1,179.999995231629
374,236,2800,2,0,P|329:295|241:310,1,89.9999976158143
409,167,2800,2,0,P|205:332|154:74,1,629.9999833107
411,194,2802,2,0,P|181:321|176:58,1,629.9999833107
316,88,2802,2,0,P|402:79|350:140,1,179.999995231629
401,247,2804,2,0,P|141:287|226:38,1,629.9999833107
144,150,2805,2,0,P|186:94|269:80,1,89.9999976158143
195,295,2805,2,0,P|109:304|161:243,1,179.999995231629
411,194,2805,2,0,P|181:321|176:58,1,629.9999833107
389,271,2806,2,0,P|126:266|253:36,1,629.9999833107
401,247,2807,2,0,P|141:287|226:38,1,629.9999833107
322,78,2808,2,0,P|417:68|360:135,1,179.999995231629
389,271,2809,2,0,P|126:266|253:36,1,629.9999833107
367,233,2810,2,0,P|325:289|242:303,1,89.9999976158143
189,305,2811,2,0,P|94:315|151:248,1,179.999995231629
401,247,2811,2,0,P|141:287|226:38,1,629.9999833107
133,146,2813,2,0,P|179:85|271:69,1,89.9999976158143
373,293,2813,2,0,P|115:242|280:38,1,629.9999833107
401,247,2814,2,0,P|141:287|226:38,1,629.9999833107
354,312,2815,2,0,P|109:217|307:44,1,629.9999833107
326,71,2816,2,0,P|427:61|366:131,1,179.999995231629
373,293,2816,2,0,P|115:242|280:38,1,629.9999833107
332,328,2817,2,0,P|107:192|332:56,1,629.9999833107
378,237,2818,2,0,P|332:298|240:314,1,89.9999976158143
354,312,2818,2,0,P|109:217|307:44,1,629.9999833107
185,312,2819,2,0,P|84:322|145:252,1,179.999995231629
280,345,2819,2,0,P|115:141|373:90,1,629.9999833107
307,339,2820,2,0,P|109:166|354:71,1,629.9999833107
253,347,2821,2,0,P|126:117|389:112,1,629.9999833107
333,59,2822,2,0,P|444:48|377:125,1,269.999992847443
122,142,2822,2,0,P|172:75|272:58,1,179.999995231629
253,347,2822,2,0,P|126:117|389:112,1,629.9999833107
226,345,2824,2,0,P|141:96|401:136,1,629.9999833107
178,324,2825,2,0,P|67:335|134:258,1,269.999992847443
389,241,2827,2,0,P|339:308|239:325,1,179.999995231629
340,47,2828,2,0,P|461:34|388:119,1,269.999992847443
109,137,2830,2,0,P|164:63|274:45,1,179.999995231629
171,336,2831,2,0,P|50:349|123:264,1,269.999992847443
349,32,2834,2,0,P|481:19|402:112,1,269.999992847443
402,246,2835,2,0,P|347:320|237:338,1,179.999995231629
162,351,2837,2,0,P|30:364|109:271,1,269.999992847443
100,133,2840,2,0,P|158:56|275:36,1,179.999995231629
392,116,2844,2,0,P|256:341|120:116,1,629.9999833107
411,250,2845,2,0,P|353:327|236:347,1,179.999995231629
28,0,2846,2,0,L|28:96,1,89.9999976158143
409,167,2846,2,0,P|205:332|154:74,1,629.9999833107
192,168,2846,2,0,P|216:136|264:128,1,89.9999976158143
110,136,2846,2,0,P|370:96|285:345,1,629.9999833107
284,144,2848,2,0,P|324:140|300:168,1,89.9999976158143
411,194,2848,2,0,P|181:321|176:58,1,629.9999833107
122,112,2849,2,0,P|385:117|258:347,1,629.9999833107
228,240,2851,2,0,P|188:244|212:216,1,89.9999976158143
320,216,2851,2,0,P|296:248|248:256,1,89.9999976158143
28,90,2851,2,0,L|28:184,1,89.9999976158143
409,221,2852,2,0,P|160:306|200:46,1,629.9999833107
138,90,2852,2,0,P|396:141|231:345,1,629.9999833107
426,256,2853,2,0,P|362:341|234:362,1,179.999995231629
389,271,2854,2,0,P|126:266|253:36,1,629.9999833107
286,139,2854,2,0,P|330:134|304:165,1,89.9999976158143
185,165,2854,2,0,P|212:130|264:121,1,89.9999976158143
28,180,2854,2,0,L|28:272,1,89.9999976158143
354,312,2855,2,0,P|109:217|307:44,1,629.9999833107
373,293,2856,2,0,P|115:242|280:38,1,629.9999833107
225,244,2857,2,0,P|181:249|207:218,1,89.9999976158143
28,270,2857,2,0,L|28:360,1,89.9999976158143
307,339,2857,2,0,P|109:166|354:71,1,629.9999833107
326,218,2859,2,0,P|300:253|247:262,1,89.9999976158143
280,345,2859,2,0,P|115:141|373:90,1,629.9999833107
289,134,2860,2,0,P|337:129|308:163,1,89.9999976158143
28,360,2860,2,0,L|124:360,1,89.9999976158143
442,261,2862,2,0,P|372:355|232:378,1,179.999995231629
222,249,2863,2,0,P|174:254|203:220,1,89.9999976158143
118,360,2863,2,0,L|212:360,1,89.9999976158143
179,163,2863,2,0,P|208:124|265:115,1,89.9999976158143
253,347,2864,2,0,P|126:117|389:112,1,629.9999833107
50,115,2865,2,0,P|127:12|281:-13,1,269.999992847443
200,337,2866,2,0,P|160:77|409:162,1,629.9999833107
292,128,2866,2,0,P|345:123|314:160,1,89.9999976158143
332,220,2868,2,0,P|304:259|246:268,1,89.9999976158143
176,325,2868,2,0,P|181:62|411:189,1,629.9999833107
212,360,2869,2,0,L|308:360,1,89.9999976158143
219,255,2869,2,0,P|166:260|197:223,1,89.9999976158143
461,268,2870,2,0,P|384:371|230:397,1,269.999992847443
171,160,2871,2,0,P|203:118|266:107,1,89.9999976158143
302,360,2872,2,0,L|392:360,1,89.9999976158143
200,337,2873,2,0,P|160:77|409:162,1,629.9999833107
295,124,2874,2,0,P|351:119|317:158,1,89.9999976158143
392,360,2875,2,0,L|484:360,1,89.9999976158143
154,309,2875,2,0,P|205:51|409:216,1,629.9999833107
340,223,2876,2,0,P|308:265|245:276,1,89.9999976158143
120,268,2876,2,0,P|256:43|392:268,1,629.9999833107
216,259,2877,2,0,P|160:264|194:225,1,89.9999976158143
135,290,2877,2,0,P|230:45|403:243,1,629.9999833107
102,216,2878,2,0,P|306:51|357:309,1,629.9999833107
482,360,2878,2,0,L|482:264,1,89.9999976158143
108,243,2879,2,0,P|281:45|376:290,1,629.9999833107
299,118,2880,2,0,P|360:111|323:155,1,89.9999976158143
100,189,2880,2,0,P|330:62|335:325,1,629.9999833107
166,158,2881,2,0,P|200:113|267:102,1,89.9999976158143
100,189,2881,2,0,P|330:62|335:325,1,629.9999833107
212,265,2883,2,0,P|151:272|188:228,1,89.9999976158143
102,162,2883,2,0,P|351:77|311:337,1,629.9999833107
482,270,2883,2,0,L|482:176,1,89.9999976158143
482,180,2886,2,0,L|482:88,1,89.9999976158143
345,225,2886,2,0,P|311:270|244:281,1,89.9999976158143
303,111,2886,2,0,P|370:104|329:151,1,89.9999976158143
482,90,2889,2,0,L|482:0,1,89.9999976158143
157,155,2889,2,0,P|194:105|268:93,1,89.9999976158143
208,272,2889,2,0,P|141:279|182:232,1,89.9999976158143
307,103,2892,2,0,P|381:95|337:147,1,179.999995231629
482,0,2892,2,0,L|386:0,1,89.9999976158143
180,56,2893,2,0,P|405:192|180:328,1,629.9999833107
354,228,2894,2,0,P|317:278|243:290,1,89.9999976158143
204,280,2895,2,0,P|130:288|174:236,1,179.999995231629
231,38,2895,2,0,P|396:242|138:293,1,629.9999833107
392,0,2895,2,0,L|298:0,1,89.9999976158143
180,56,2896,2,0,P|405:192|180:328,1,629.9999833107
258,36,2897,2,0,P|385:266|122:271,1,629.9999833107
231,38,2898,2,0,P|396:242|138:293,1,629.9999833107
148,151,2898,2,0,P|188:97|269:84,1,89.9999976158143
258,36,2900,2,0,P|385:266|122:271,1,629.9999833107
306,105,2901,2,0,P|378:98|335:148,1,89.9999976158143
298,0,2901,2,0,L|202:0,1,89.9999976158143
285,38,2901,2,0,P|370:287|110:247,1,629.9999833107
335,58,2903,2,0,P|330:321|100:194,1,629.9999833107
363,232,2903,2,0,P|323:286|242:299,1,89.9999976158143
208,0,2904,2,0,L|118:0,1,89.9999976158143
285,38,2904,2,0,P|370:287|110:247,1,629.9999833107
205,278,2904,2,0,P|133:285|176:235,1,89.9999976158143
357,74,2905,2,0,P|306:332|102:167,1,629.9999833107
335,58,2906,2,0,P|330:321|100:194,1,629.9999833107
137,147,2906,2,0,P|182:88|270:73,1,89.9999976158143
311,97,2907,2,0,P|390:89|343:144,1,179.999995231629
376,93,2907,2,0,P|281:338|108:140,1,629.9999833107
118,0,2907,2,0,L|26:0,1,89.9999976158143
357,74,2908,2,0,P|306:332|102:167,1,629.9999833107
403,140,2909,2,0,P|230:338|135:93,1,629.9999833107
200,286,2910,2,0,P|121:294|168:239,1,179.999995231629
409,167,2911,2,0,P|205:332|154:74,1,629.9999833107
374,236,2911,2,0,P|329:295|241:310,1,89.9999976158143
411,194,2913,2,0,P|181:321|176:58,1,629.9999833107
316,88,2913,2,0,P|402:79|350:140,1,179.999995231629
401,247,2915,2,0,P|141:287|226:38,1,629.9999833107
411,194,2916,2,0,P|181:321|176:58,1,629.9999833107
144,150,2916,2,0,P|186:94|269:80,1,89.9999976158143
195,295,2916,2,0,P|109:304|161:243,1,179.999995231629
389,271,2917,2,0,P|126:266|253:36,1,629.9999833107
401,247,2918,2,0,P|141:287|226:38,1,629.9999833107
322,78,2919,2,0,P|417:68|360:135,1,179.999995231629
389,271,2920,2,0,P|126:266|253:36,1,629.9999833107
367,233,2921,2,0,P|325:289|242:303,1,89.9999976158143
401,247,2922,2,0,P|141:287|226:38,1,629.9999833107
189,305,2922,2,0,P|94:315|151:248,1,179.999995231629
133,146,2924,2,0,P|179:85|271:69,1,89.9999976158143
373,293,2924,2,0,P|115:242|280:38,1,629.9999833107
401,247,2925,2,0,P|141:287|226:38,1,629.9999833107
354,312,2926,2,0,P|109:217|307:44,1,629.9999833107
326,71,2927,2,0,P|427:61|366:131,1,179.999995231629
373,293,2927,2,0,P|115:242|280:38,1,629.9999833107
332,328,2928,2,0,P|107:192|332:56,1,629.9999833107
378,237,2929,2,0,P|332:298|240:314,1,89.9999976158143
354,312,2929,2,0,P|109:217|307:44,1,629.9999833107
280,345,2930,2,0,P|115:141|373:90,1,629.9999833107
185,312,2930,2,0,P|84:322|145:252,1,179.999995231629
307,339,2931,2,0,P|109:166|354:71,1,629.9999833107
253,347,2932,2,0,P|126:117|389:112,1,629.9999833107
253,347,2933,2,0,P|126:117|389:112,1,629.9999833107
333,59,2933,2,0,P|444:48|377:125,1,269.999992847443
122,142,2933,2,0,P|172:75|272:58,1,179.999995231629
226,345,2935,2,0,P|141:96|401:136,1,629.9999833107
178,324,2936,2,0,P|67:335|134:258,1,269.999992847443
389,241,2938,2,0,P|339:308|239:325,1,179.999995231629
340,47,2939,2,0,P|461:34|388:119,1,269.999992847443
109,137,2941,2,0,P|164:63|274:45,1,179.999995231629
171,336,2942,2,0,P|50:349|123:264,1,269.999992847443
349,32,2945,2,0,P|481:19|402:112,1,269.999992847443
402,246,2946,2,0,P|347:320|237:338,1,179.999995231629
162,351,2948,2,0,P|30:364|109:271,1,269.999992847443
100,133,2951,2,0,P|158:56|275:36,1,179.999995231629
411,250,2956,2,0,P|353:327|236:347,1,179.999995231629
85,127,2959,2,0,P|149:42|277:21,1,179.999995231629
426,256,2964,2,0,P|362:341|234:362,1,179.999995231629
392,116,2966,2,0,P|256:341|120:116,1,629.9999833107
110,136,2968,2,0,P|370:96|285:345,1,629.9999833107
409,167,2968,2,0,P|205:332|154:74,1,629.9999833107
192,168,2968,2,0,P|216:136|264:128,1,89.9999976158143
28,0,2968,2,0,L|28:96,1,89.9999976158143
284,144,2970,2,0,P|324:140|300:168,1,89.9999976158143
411,194,2970,2,0,P|181:321|176:58,1,629.9999833107
122,112,2971,2,0,P|385:117|258:347,1,629.9999833107
320,216,2973,2,0,P|296:248|248:256,1,89.9999976158143
28,90,2973,2,0,L|28:184,1,89.9999976158143
228,240,2973,2,0,P|188:244|212:216,1,89.9999976158143
409,221,2974,2,0,P|160:306|200:46,1,629.9999833107
138,90,2974,2,0,P|396:141|231:345,1,629.9999833107
28,180,2976,2,0,L|28:272,1,89.9999976158143
286,139,2976,2,0,P|330:134|304:165,1,89.9999976158143
185,165,2976,2,0,P|212:130|264:121,1,89.9999976158143
389,271,2976,2,0,P|126:266|253:36,1,629.9999833107
354,312,2977,2,0,P|109:217|307:44,1,629.9999833107
373,293,2978,2,0,P|115:242|280:38,1,629.9999833107
307,339,2979,2,0,P|109:166|354:71,1,629.9999833107
28,270,2979,2,0,L|28:360,1,89.9999976158143
225,244,2979,2,0,P|181:249|207:218,1,89.9999976158143
280,345,2981,2,0,P|115:141|373:90,1,629.9999833107
326,218,2981,2,0,P|300:253|247:262,1,89.9999976158143
28,360,2982,2,0,L|124:360,1,89.9999976158143
289,134,2982,2,0,P|337:129|308:163,1,89.9999976158143
179,163,2985,2,0,P|208:124|265:115,1,89.9999976158143
222,249,2985,2,0,P|174:254|203:220,1,89.9999976158143
118,360,2985,2,0,L|212:360,1,89.9999976158143
253,347,2986,2,0,P|126:117|389:112,1,629.9999833107
292,128,2988,2,0,P|345:123|314:160,1,89.9999976158143
200,337,2988,2,0,P|160:77|409:162,1,629.9999833107
332,220,2990,2,0,P|304:259|246:268,1,89.9999976158143
176,325,2990,2,0,P|181:62|411:189,1,629.9999833107
219,255,2991,2,0,P|166:260|197:223,1,89.9999976158143
212,360,2991,2,0,L|308:360,1,89.9999976158143
171,160,2993,2,0,P|203:118|266:107,1,89.9999976158143
302,360,2994,2,0,L|392:360,1,89.9999976158143
200,337,2995,2,0,P|160:77|409:162,1,629.9999833107
295,124,2996,2,0,P|351:119|317:158,1,89.9999976158143
392,360,2997,2,0,L|484:360,1,89.9999976158143
154,309,2997,2,0,P|205:51|409:216,1,629.9999833107
340,223,2998,2,0,P|308:265|245:276,1,89.9999976158143
120,268,2998,2,0,P|256:43|392:268,1,629.9999833107
135,290,2999,2,0,P|230:45|403:243,1,629.9999833107
216,259,2999,2,0,P|160:264|194:225,1,89.9999976158143
102,216,3000,2,0,P|306:51|357:309,1,629.9999833107
482,360,3000,2,0,L|482:264,1,89.9999976158143
108,243,3001,2,0,P|281:45|376:290,1,629.9999833107
299,118,3002,2,0,P|360:111|323:155,1,89.9999976158143
100,189,3002,2,0,P|330:62|335:325,1,629.9999833107
100,189,3003,2,0,P|330:62|335:325,1,629.9999833107
166,158,3003,2,0,P|200:113|267:102,1,89.9999976158143
212,265,3005,2,0,P|151:272|188:228,1,89.9999976158143
482,270,3005,2,0,L|482:176,1,89.9999976158143
102,162,3005,2,0,P|351:77|311:337,1,629.9999833107
345,225,3008,2,0,P|311:270|244:281,1,89.9999976158143
303,111,3008,2,0,P|370:104|329:151,1,89.9999976158143
482,180,3008,2,0,L|482:88,1,89.9999976158143
157,155,3011,2,0,P|194:105|268:93,1,89.9999976158143
208,272,3011,2,0,P|141:279|182:232,1,89.9999976158143
482,90,3011,2,0,L|482:0,1,89.9999976158143
307,103,3014,2,0,P|381:95|337:147,1,179.999995231629
482,0,3014,2,0,L|386:0,1,89.9999976158143
180,56,3015,2,0,P|405:192|180:328,1,629.9999833107
354,228,3016,2,0,P|317:278|243:290,1,89.9999976158143
204,280,3017,2,0,P|130:288|174:236,1,179.999995231629
231,38,3017,2,0,P|396:242|138:293,1,629.9999833107
392,0,3017,2,0,L|298:0,1,89.9999976158143
180,56,3018,2,0,P|405:192|180:328,1,629.9999833107
258,36,3019,2,0,P|385:266|122:271,1,629.9999833107
148,151,3020,2,0,P|188:97|269:84,1,89.9999976158143
231,38,3020,2,0,P|396:242|138:293,1,629.9999833107
258,36,3022,2,0,P|385:266|122:271,1,629.9999833107
298,0,3023,2,0,L|202:0,1,89.9999976158143
306,105,3023,2,0,P|378:98|335:148,1,89.9999976158143
285,38,3023,2,0,P|370:287|110:247,1,629.9999833107
363,232,3025,2,0,P|323:286|242:299,1,89.9999976158143
335,58,3025,2,0,P|330:321|100:194,1,629.9999833107
285,38,3026,2,0,P|370:287|110:247,1,629.9999833107
205,278,3026,2,0,P|133:285|176:235,1,89.9999976158143
208,0,3026,2,0,L|118:0,1,89.9999976158143
357,74,3027,2,0,P|306:332|102:167,1,629.9999833107
335,58,3028,2,0,P|330:321|100:194,1,629.9999833107
137,147,3028,2,0,P|182:88|270:73,1,89.9999976158143
376,93,3029,2,0,P|281:338|108:140,1,629.9999833107
311,97,3029,2,0,P|390:89|343:144,1,179.999995231629
118,0,3029,2,0,L|26:0,1,89.9999976158143
357,74,3030,2,0,P|306:332|102:167,1,629.9999833107
403,140,3031,2,0,P|230:338|135:93,1,629.9999833107
200,286,3032,2,0,P|121:294|168:239,1,179.999995231629
409,167,3033,2,0,P|205:332|154:74,1,629.9999833107
374,236,3033,2,0,P|329:295|241:310,1,89.9999976158143
316,88,3035,2,0,P|402:79|350:140,1,179.999995231629
411,194,3035,2,0,P|181:321|176:58,1,629.9999833107
401,247,3037,2,0,P|141:287|226:38,1,629.9999833107
411,194,3038,2,0,P|181:321|176:58,1,629.9999833107
144,150,3038,2,0,P|186:94|269:80,1,89.9999976158143
195,295,3038,2,0,P|109:304|161:243,1,179.999995231629
389,271,3039,2,0,P|126:266|253:36,1,629.9999833107
401,247,3040,2,0,P|141:287|226:38,1,629.9999833107
322,78,3041,2,0,P|417:68|360:135,1,179.999995231629
389,271,3042,2,0,P|126:266|253:36,1,629.9999833107
367,233,3043,2,0,P|325:289|242:303,1,89.9999976158143
189,305,3044,2,0,P|94:315|151:248,1,179.999995231629
401,247,3044,2,0,P|141:287|226:38,1,629.9999833107
373,293,3046,2,0,P|115:242|280:38,1,629.9999833107
133,146,3046,2,0,P|179:85|271:69,1,89.9999976158143
401,247,3047,2,0,P|141:287|226:38,1,629.9999833107
354,312,3048,2,0,P|109:217|307:44,1,629.9999833107
373,293,3049,2,0,P|115:242|280:38,1,629.9999833107
326,71,3049,2,0,P|427:61|366:131,1,179.999995231629
332,328,3050,2,0,P|107:192|332:56,1,629.9999833107
378,237,3051,2,0,P|332:298|240:314,1,89.9999976158143
354,312,3051,2,0,P|109:217|307:44,1,629.9999833107
185,312,3052,2,0,P|84:322|145:252,1,179.999995231629
280,345,3052,2,0,P|115:141|373:90,1,629.9999833107
307,339,3053,2,0,P|109:166|354:71,1,629.9999833107
253,347,3054,2,0,P|126:117|389:112,1,629.9999833107
333,59,3055,2,0,P|444:48|377:125,1,269.999992847443
253,347,3055,2,0,P|126:117|389:112,1,629.9999833107
122,142,3055,2,0,P|172:75|272:58,1,179.999995231629
226,345,3057,2,0,P|141:96|401:136,1,629.9999833107
178,324,3058,2,0,P|67:335|134:258,1,269.999992847443
389,241,3060,2,0,P|339:308|239:325,1,179.999995231629
340,47,3061,2,0,P|461:34|388:119,1,269.999992847443
109,137,3063,2,0,P|164:63|274:45,1,179.999995231629
171,336,3064,2,0,P|50:349|123:264,1,269.999992847443
349,32,3067,2,0,P|481:19|402:112,1,269.999992847443
402,246,3068,2,0,P|347:320|237:338,1,179.999995231629
162,351,3070,2,0,P|30:364|109:271,1,269.999992847443
100,133,3073,2,0,P|158:56|275:36,1,179.999995231629
411,250,3078,2,0,P|353:327|236:347,1,179.999995231629
392,116,3080,2,0,P|256:341|120:116,1,629.9999833107
85,127,3081,2,0,P|149:42|277:21,1,179.999995231629
28,0,3082,2,0,L|28:96,1,89.9999976158143
110,136,3082,2,0,P|370:96|285:345,1,629.9999833107
192,168,3082,2,0,P|216:136|264:128,1,89.9999976158143
409,167,3082,2,0,P|205:332|154:74,1,629.9999833107
284,144,3084,2,0,P|324:140|300:168,1,89.9999976158143
411,194,3084,2,0,P|181:321|176:58,1,629.9999833107
122,112,3085,2,0,P|385:117|258:347,1,629.9999833107
426,256,3086,2,0,P|362:341|234:362,1,179.999995231629
28,90,3087,2,0,L|28:184,1,89.9999976158143
320,216,3087,2,0,P|296:248|248:256,1,89.9999976158143
228,240,3087,2,0,P|188:244|212:216,1,89.9999976158143
138,90,3088,2,0,P|396:141|231:345,1,629.9999833107
409,221,3088,2,0,P|160:306|200:46,1,629.9999833107
28,180,3090,2,0,L|28:272,1,89.9999976158143
185,165,3090,2,0,P|212:130|264:121,1,89.9999976158143
389,271,3090,2,0,P|126:266|253:36,1,629.9999833107
286,139,3090,2,0,P|330:134|304:165,1,89.9999976158143
354,312,3091,2,0,P|109:217|307:44,1,629.9999833107
373,293,3092,2,0,P|115:242|280:38,1,629.9999833107
307,339,3093,2,0,P|109:166|354:71,1,629.9999833107
28,270,3093,2,0,L|28:360,1,89.9999976158143
225,244,3093,2,0,P|181:249|207:218,1,89.9999976158143
280,345,3095,2,0,P|115:141|373:90,1,629.9999833107
326,218,3095,2,0,P|300:253|247:262,1,89.9999976158143
28,360,3096,2,0,L|124:360,1,89.9999976158143
289,134,3096,2,0,P|337:129|308:163,1,89.9999976158143
50,115,3098,2,0,P|127:12|281:-13,1,269.999992847443
118,360,3099,2,0,L|212:360,1,89.9999976158143
222,249,3099,2,0,P|174:254|203:220,1,89.9999976158143
179,163,3099,2,0,P|208:124|265:115,1,89.9999976158143
253,347,3100,2,0,P|126:117|389:112,1,629.9999833107
292,128,3102,2,0,P|345:123|314:160,1,89.9999976158143
200,337,3102,2,0,P|160:77|409:162,1,629.9999833107
461,268,3103,2,0,P|384:371|230:397,1,269.999992847443
332,220,3104,2,0,P|304:259|246:268,1,89.9999976158143
176,325,3104,2,0,P|181:62|411:189,1,629.9999833107
219,255,3105,2,0,P|166:260|197:223,1,89.9999976158143
212,360,3105,2,0,L|308:360,1,89.9999976158143
171,160,3107,2,0,P|203:118|266:107,1,89.9999976158143
302,360,3108,2,0,L|392:360,1,89.9999976158143
200,337,3109,2,0,P|160:77|409:162,1,629.9999833107
295,124,3110,2,0,P|351:119|317:158,1,89.9999976158143
392,360,3111,2,0,L|484:360,1,89.9999976158143
154,309,3111,2,0,P|205:51|409:216,1,629.9999833107
340,223,3112,2,0,P|308:265|245:276,1,89.9999976158143
120,268,3112,2,0,P|256:43|392:268,1,629.9999833107
216,259,3113,2,0,P|160:264|194:225,1,89.9999976158143
135,290,3113,2,0,P|230:45|403:243,1,629.9999833107
482,360,3114,2,0,L|482:264,1,89.9999976158143
102,216,3114,2,0,P|306:51|357:309,1,629.9999833107
108,243,3115,2,0,P|281:45|376:290,1,629.9999833107
100,189,3116,2,0,P|330:62|335:325,1,629.9999833107
299,118,3116,2,0,P|360:111|323:155,1,89.9999976158143
166,158,3117,2,0,P|200:113|267:102,1,89.9999976158143
100,189,3117,2,0,P|330:62|335:325,1,629.9999833107
212,265,3119,2,0,P|151:272|188:228,1,89.9999976158143
482,270,3119,2,0,L|482:176,1,89.9999976158143
102,162,3119,2,0,P|351:77|311:337,1,629.9999833107
303,111,3122,2,0,P|370:104|329:151,1,89.9999976158143
482,180,3122,2,0,L|482:88,1,89.9999976158143
345,225,3122,2,0,P|311:270|244:281,1,89.9999976158143
157,155,3125,2,0,P|194:105|268:93,1,89.9999976158143
482,90,3125,2,0,L|482:0,1,89.9999976158143
208,272,3125,2,0,P|141:279|182:232,1,89.9999976158143
307,103,3128,2,0,P|381:95|337:147,1,179.999995231629
482,0,3128,2,0,L|386:0,1,89.9999976158143
180,56,3129,2,0,P|405:192|180:328,1,629.9999833107
354,228,3130,2,0,P|317:278|243:290,1,89.9999976158143
231,38,3131,2,0,P|396:242|138:293,1,629.9999833107
392,0,3131,2,0,L|298:0,1,89.9999976158143
204,280,3131,2,0,P|130:288|174:236,1,179.999995231629
180,56,3132,2,0,P|405:192|180:328,1,629.9999833107
258,36,3133,2,0,P|385:266|122:271,1,629.9999833107
231,38,3134,2,0,P|396:242|138:293,1,629.9999833107
148,151,3134,2,0,P|188:97|269:84,1,89.9999976158143
258,36,3136,2,0,P|385:266|122:271,1,629.9999833107
306,105,3137,2,0,P|378:98|335:148,1,89.9999976158143
298,0,3137,2,0,L|202:0,1,89.9999976158143
285,38,3137,2,0,P|370:287|110:247,1,629.9999833107
335,58,3139,2,0,P|330:321|100:194,1,629.9999833107
363,232,3139,2,0,P|323:286|242:299,1,89.9999976158143
285,38,3140,2,0,P|370:287|110:247,1,629.9999833107
208,0,3140,2,0,L|118:0,1,89.9999976158143
205,278,3140,2,0,P|133:285|176:235,1,89.9999976158143
357,74,3141,2,0,P|306:332|102:167,1,629.9999833107
137,147,3142,2,0,P|182:88|270:73,1,89.9999976158143
335,58,3142,2,0,P|330:321|100:194,1,629.9999833107
376,93,3143,2,0,P|281:338|108:140,1,629.9999833107
311,97,3143,2,0,P|390:89|343:144,1,179.999995231629
118,0,3143,2,0,L|26:0,1,89.9999976158143
357,74,3144,2,0,P|306:332|102:167,1,629.9999833107
403,140,3145,2,0,P|230:338|135:93,1,629.9999833107
200,286,3146,2,0,P|121:294|168:239,1,179.999995231629
409,167,3147,2,0,P|205:332|154:74,1,629.9999833107
374,236,3147,2,0,P|329:295|241:310,1,89.9999976158143
411,194,3149,2,0,P|181:321|176:58,1,629.9999833107
316,88,3149,2,0,P|402:79|350:140,1,179.999995231629
401,247,3151,2,0,P|141:287|226:38,1,629.9999833107
411,194,3152,2,0,P|181:321|176:58,1,629.9999833107
195,295,3152,2,0,P|109:304|161:243,1,179.999995231629
144,150,3152,2,0,P|186:94|269:80,1,89.9999976158143
389,271,3153,2,0,P|126:266|253:36,1,629.9999833107
401,247,3154,2,0,P|141:287|226:38,1,629.9999833107
322,78,3155,2,0,P|417:68|360:135,1,179.999995231629
389,271,3156,2,0,P|126:266|253:36,1,629.9999833107
367,233,3157,2,0,P|325:289|242:303,1,89.9999976158143
189,305,3158,2,0,P|94:315|151:248,1,179.999995231629
401,247,3158,2,0,P|141:287|226:38,1,629.9999833107
373,293,3160,2,0,P|115:242|280:38,1,629.9999833107
133,146,3160,2,0,P|179:85|271:69,1,89.9999976158143
401,247,3161,2,0,P|141:287|226:38,1,629.9999833107
354,312,3162,2,0,P|109:217|307:44,1,629.9999833107
326,71,3163,2,0,P|427:61|366:131,1,179.999995231629
373,293,3163,2,0,P|115:242|280:38,1,629.9999833107
332,328,3164,2,0,P|107:192|332:56,1,629.9999833107
378,237,3165,2,0,P|332:298|240:314,1,89.9999976158143
354,312,3165,2,0,P|109:217|307:44,1,629.9999833107
280,345,3166,2,0,P|115:141|373:90,1,629.9999833107
185,312,3166,2,0,P|84:322|145:252,1,179.999995231629
307,339,3167,2,0,P|109:166|354:71,1,629.9999833107
253,347,3168,2,0,P|126:117|389:112,1,629.9999833107
122,142,3169,2,0,P|172:75|272:58,1,179.999995231629
253,347,3169,2,0,P|126:117|389:112,1,629.9999833107
333,59,3169,2,0,P|444:48|377:125,1,269.999992847443
226,345,3171,2,0,P|141:96|401:136,1,629.9999833107
178,324,3172,2,0,P|67:335|134:258,1,269.999992847443
389,241,3174,2,0,P|339:308|239:325,1,179.999995231629
340,47,3175,2,0,P|461:34|388:119,1,269.999992847443
109,137,3177,2,0,P|164:63|274:45,1,179.999995231629
171,336,3178,2,0,P|50:349|123:264,1,269.999992847443
349,32,3181,2,0,P|481:19|402:112,1,269.999992847443
402,246,3182,2,0,P|347:320|237:338,1,179.999995231629
162,351,3184,2,0,P|30:364|109:271,1,269.999992847443
100,133,3187,2,0,P|158:56|275:36,1,179.999995231629
411,250,3192,2,0,P|353:327|236:347,1,179.999995231629
85,127,3195,2,0,P|149:42|277:21,1,179.999995231629
426,256,3200,2,0,P|362:341|234:362,1,179.999995231629
392,116,3202,2,0,P|256:341|120:116,1,629.9999833107
409,167,3204,2,0,P|205:332|154:74,1,629.9999833107
28,0,3204,2,0,L|28:96,1,89.9999976158143
110,136,3204,2,0,P|370:96|285:345,1,629.9999833107
192,168,3204,2,0,P|216:136|264:128,1,89.9999976158143
411,194,3206,2,0,P|181:321|176:58,1,629.9999833107
284,144,3206,2,0,P|324:140|300:168,1,89.9999976158143
122,112,3207,2,0,P|385:117|258:347,1,629.9999833107
320,216,3209,2,0,P|296:248|248:256,1,89.9999976158143
228,240,3209,2,0,P|188:244|212:216,1,89.9999976158143
28,90,3209,2,0,L|28:184,1,89.9999976158143
138,90,3210,2,0,P|396:141|231:345,1,629.9999833107
409,221,3210,2,0,P|160:306|200:46,1,629.9999833107
286,139,3212,2,0,P|330:134|304:165,1,89.9999976158143
185,165,3212,2,0,P|212:130|264:121,1,89.9999976158143
28,180,3212,2,0,L|28:272,1,89.9999976158143
389,271,3212,2,0,P|126:266|253:36,1,629.9999833107
354,312,3213,2,0,P|109:217|307:44,1,629.9999833107
373,293,3214,2,0,P|115:242|280:38,1,629.9999833107
307,339,3215,2,0,P|109:166|354:71,1,629.9999833107
225,244,3215,2,0,P|181:249|207:218,1,89.9999976158143
28,270,3215,2,0,L|28:360,1,89.9999976158143
280,345,3217,2,0,P|115:141|373:90,1,629.9999833107
326,218,3217,2,0,P|300:253|247:262,1,89.9999976158143
289,134,3218,2,0,P|337:129|308:163,1,89.9999976158143
28,360,3218,2,0,L|124:360,1,89.9999976158143
118,360,3221,2,0,L|212:360,1,89.9999976158143
179,163,3221,2,0,P|208:124|265:115,1,89.9999976158143
222,249,3221,2,0,P|174:254|203:220,1,89.9999976158143
253,347,3222,2,0,P|126:117|389:112,1,629.9999833107
200,337,3224,2,0,P|160:77|409:162,1,629.9999833107
292,128,3224,2,0,P|345:123|314:160,1,89.9999976158143
176,325,3226,2,0,P|181:62|411:189,1,629.9999833107
332,220,3226,2,0,P|304:259|246:268,1,89.9999976158143
212,360,3227,2,0,L|308:360,1,89.9999976158143
219,255,3227,2,0,P|166:260|197:223,1,89.9999976158143
171,160,3229,2,0,P|203:118|266:107,1,89.9999976158143
302,360,3230,2,0,L|392:360,1,89.9999976158143
200,337,3231,2,0,P|160:77|409:162,1,629.9999833107
295,124,3232,2,0,P|351:119|317:158,1,89.9999976158143
154,309,3233,2,0,P|205:51|409:216,1,629.9999833107
392,360,3233,2,0,L|484:360,1,89.9999976158143
340,223,3234,2,0,P|308:265|245:276,1,89.9999976158143
120,268,3234,2,0,P|256:43|392:268,1,629.9999833107
216,259,3235,2,0,P|160:264|194:225,1,89.9999976158143
135,290,3235,2,0,P|230:45|403:243,1,629.9999833107
102,216,3236,2,0,P|306:51|357:309,1,629.9999833107
482,360,3236,2,0,L|482:264,1,89.9999976158143
108,243,3237,2,0,P|281:45|376:290,1,629.9999833107
299,118,3238,2,0,P|360:111|323:155,1,89.9999976158143
100,189,3238,2,0,P|330:62|335:325,1,629.9999833107
100,189,3239,2,0,P|330:62|335:325,1,629.9999833107
166,158,3239,2,0,P|200:113|267:102,1,89.9999976158143
482,270,3241,2,0,L|482:176,1,89.9999976158143
102,162,3241,2,0,P|351:77|311:337,1,629.9999833107
212,265,3241,2,0,P|151:272|188:228,1,89.9999976158143
345,225,3244,2,0,P|311:270|244:281,1,89.9999976158143
303,111,3244,2,0,P|370:104|329:151,1,89.9999976158143
482,180,3244,2,0,L|482:88,1,89.9999976158143
208,272,3247,2,0,P|141:279|182:232,1,89.9999976158143
157,155,3247,2,0,P|194:105|268:93,1,89.9999976158143
482,90,3247,2,0,L|482:0,1,89.9999976158143
482,0,3250,2,0,L|386:0,1,89.9999976158143
307,103,3250,2,0,P|381:95|337:147,1,179.999995231629
180,56,3251,2,0,P|405:192|180:328,1,629.9999833107
354,228,3252,2,0,P|317:278|243:290,1,89.9999976158143
231,38,3253,2,0,P|396:242|138:293,1,629.9999833107
204,280,3253,2,0,P|130:288|174:236,1,179.999995231629
392,0,3253,2,0,L|298:0,1,89.9999976158143
180,56,3254,2,0,P|405:192|180:328,1,629.9999833107
258,36,3255,2,0,P|385:266|122:271,1,629.9999833107
231,38,3256,2,0,P|396:242|138:293,1,629.9999833107
148,151,3256,2,0,P|188:97|269:84,1,89.9999976158143
258,36,3258,2,0,P|385:266|122:271,1,629.9999833107
298,0,3259,2,0,L|202:0,1,89.9999976158143
285,38,3259,2,0,P|370:287|110:247,1,629.9999833107
306,105,3259,2,0,P|378:98|335:148,1,89.9999976158143
335,58,3261,2,0,P|330:321|100:194,1,629.9999833107
363,232,3261,2,0,P|323:286|242:299,1,89.9999976158143
208,0,3262,2,0,L|118:0,1,89.9999976158143
285,38,3262,2,0,P|370:287|110:247,1,629.9999833107
205,278,3262,2,0,P|133:285|176:235,1,89.9999976158143
357,74,3263,2,0,P|306:332|102:167,1,629.9999833107
335,58,3264,2,0,P|330:321|100:194,1,629.9999833107
137,147,3264,2,0,P|182:88|270:73,1,89.9999976158143
118,0,3265,2,0,L|26:0,1,89.9999976158143
311,97,3265,2,0,P|390:89|343:144,1,179.999995231629
376,93,3265,2,0,P|281:338|108:140,1,629.9999833107
357,74,3266,2,0,P|306:332|102:167,1,629.9999833107
403,140,3267,2,0,P|230:338|135:93,1,629.9999833107
200,286,3268,2,0,P|121:294|168:239,1,179.999995231629
409,167,3269,2,0,P|205:332|154:74,1,629.9999833107
374,236,3269,2,0,P|329:295|241:310,1,89.9999976158143
316,88,3271,2,0,P|402:79|350:140,1,179.999995231629
411,194,3271,2,0,P|181:321|176:58,1,629.9999833107
401,247,3273,2,0,P|141:287|226:38,1,629.9999833107
411,194,3274,2,0,P|181:321|176:58,1,629.9999833107
195,295,3274,2,0,P|109:304|161:243,1,179.999995231629
144,150,3274,2,0,P|186:94|269:80,1,89.9999976158143
389,271,3275,2,0,P|126:266|253:36,1,629.9999833107
401,247,3276,2,0,P|141:287|226:38,1,629.9999833107
322,78,3277,2,0,P|417:68|360:135,1,179.999995231629
389,271,3278,2,0,P|126:266|253:36,1,629.9999833107
367,233,3279,2,0,P|325:289|242:303,1,89.9999976158143
401,247,3280,2,0,P|141:287|226:38,1,629.9999833107
189,305,3280,2,0,P|94:315|151:248,1,179.999995231629
133,146,3282,2,0,P|179:85|271:69,1,89.9999976158143
373,293,3282,2,0,P|115:242|280:38,1,629.9999833107
401,247,3283,2,0,P|141:287|226:38,1,629.9999833107
354,312,3284,2,0,P|109:217|307:44,1,629.9999833107
373,293,3285,2,0,P|115:242|280:38,1,629.9999833107
326,71,3285,2,0,P|427:61|366:131,1,179.999995231629
332,328,3286,2,0,P|107:192|332:56,1,629.9999833107
378,237,3287,2,0,P|332:298|240:314,1,89.9999976158143
354,312,3287,2,0,P|109:217|307:44,1,629.9999833107
280,345,3288,2,0,P|115:141|373:90,1,629.9999833107
185,312,3288,2,0,P|84:322|145:252,1,179.999995231629
307,339,3289,2,0,P|109:166|354:71,1,629.9999833107
253,347,3290,2,0,P|126:117|389:112,1,629.9999833107
122,142,3291,2,0,P|172:75|272:58,1,179.999995231629
253,347,3291,2,0,P|126:117|389:112,1,629.9999833107
333,59,3291,2,0,P|444:48|377:125,1,269.999992847443
226,345,3293,2,0,P|141:96|401:136,1,629.9999833107
178,324,3294,2,0,P|67:335|134:258,1,269.999992847443
389,241,3296,2,0,P|339:308|239:325,1,179.999995231629
340,47,3297,2,0,P|461:34|388:119,1,269.999992847443
109,137,3299,2,0,P|164:63|274:45,1,179.999995231629
171,336,3300,2,0,P|50:349|123:264,1,269.999992847443
349,32,3303,2,0,P|481:19|402:112,1,269.999992847443
402,246,3304,2,0,P|347:320|237:338,1,179.999995231629
162,351,3306,2,0,P|30:364|109:271,1,269.999992847443
100,133,3309,2,0,P|158:56|275:36,1,179.999995231629
392,116,3314,2,0,P|256:341|120:116,1,629.9999833107
110,136,3316,2,0,P|370:96|285:345,1,629.9999833107
28,0,3316,2,0,L|28:96,1,89.9999976158143
192,168,3316,2,0,P|216:136|264:128,1,89.9999976158143
409,167,3316,2,0,P|205:332|154:74,1,629.9999833107
85,127,3317,2,0,P|149:42|277:21,1,179.999995231629
284,144,3318,2,0,P|324:140|300:168,1,89.9999976158143
411,194,3318,2,0,P|181:321|176:58,1,629.9999833107
122,112,3319,2,0,P|385:117|258:347,1,629.9999833107
320,216,3321,2,0,P|296:248|248:256,1,89.9999976158143
28,90,3321,2,0,L|28:184,1,89.9999976158143
228,240,3321,2,0,P|188:244|212:216,1,89.9999976158143
409,221,3322,2,0,P|160:306|200:46,1,629.9999833107
138,90,3322,2,0,P|396:141|231:345,1,629.9999833107
28,180,3324,2,0,L|28:272,1,89.9999976158143
286,139,3324,2,0,P|330:134|304:165,1,89.9999976158143
185,165,3324,2,0,P|212:130|264:121,1,89.9999976158143
389,271,3324,2,0,P|126:266|253:36,1,629.9999833107
354,312,3325,2,0,P|109:217|307:44,1,629.9999833107
373,293,3326,2,0,P|115:242|280:38,1,629.9999833107
28,270,3327,2,0,L|28:360,1,89.9999976158143
225,244,3327,2,0,P|181:249|207:218,1,89.9999976158143
307,339,3327,2,0,P|109:166|354:71,1,629.9999833107
280,345,3329,2,0,P|115:141|373:90,1,629.9999833107
326,218,3329,2,0,P|300:253|247:262,1,89.9999976158143
28,360,3330,2,0,L|124:360,1,89.9999976158143
289,134,3330,2,0,P|337:129|308:163,1,89.9999976158143
442,261,3331,2,0,P|372:355|232:378,1,179.999995231629
222,249,3333,2,0,P|174:254|203:220,1,89.9999976158143
118,360,3333,2,0,L|212:360,1,89.9999976158143
179,163,3333,2,0,P|208:124|265:115,1,89.9999976158143
253,347,3334,2,0,P|126:117|389:112,1,629.9999833107
292,128,3336,2,0,P|345:123|314:160,1,89.9999976158143
200,337,3336,2,0,P|160:77|409:162,1,629.9999833107
332,220,3338,2,0,P|304:259|246:268,1,89.9999976158143
176,325,3338,2,0,P|181:62|411:189,1,629.9999833107
212,360,3339,2,0,L|308:360,1,89.9999976158143
219,255,3339,2,0,P|166:260|197:223,1,89.9999976158143
171,160,3341,2,0,P|203:118|266:107,1,89.9999976158143
302,360,3342,2,0,L|392:360,1,89.9999976158143
200,337,3343,2,0,P|160:77|409:162,1,629.9999833107
295,124,3344,2,0,P|351:119|317:158,1,89.9999976158143
392,360,3345,2,0,L|484:360,1,89.9999976158143
154,309,3345,2,0,P|205:51|409:216,1,629.9999833107
120,268,3346,2,0,P|256:43|392:268,1,629.9999833107
340,223,3346,2,0,P|308:265|245:276,1,89.9999976158143
216,259,3347,2,0,P|160:264|194:225,1,89.9999976158143
135,290,3347,2,0,P|230:45|403:243,1,629.9999833107
102,216,3348,2,0,P|306:51|357:309,1,629.9999833107
482,360,3348,2,0,L|482:264,1,89.9999976158143
108,243,3349,2,0,P|281:45|376:290,1,629.9999833107
100,189,3350,2,0,P|330:62|335:325,1,629.9999833107
299,118,3350,2,0,P|360:111|323:155,1,89.9999976158143
100,189,3351,2,0,P|330:62|335:325,1,629.9999833107
166,158,3351,2,0,P|200:113|267:102,1,89.9999976158143
482,270,3353,2,0,L|482:176,1,89.9999976158143
212,265,3353,2,0,P|151:272|188:228,1,89.9999976158143
102,162,3353,2,0,P|351:77|311:337,1,629.9999833107
345,225,3356,2,0,P|311:270|244:281,1,89.9999976158143
482,180,3356,2,0,L|482:88,1,89.9999976158143
303,111,3356,2,0,P|370:104|329:151,1,89.9999976158143
157,155,3359,2,0,P|194:105|268:93,1,89.9999976158143
482,90,3359,2,0,L|482:0,1,89.9999976158143
208,272,3359,2,0,P|141:279|182:232,1,89.9999976158143
307,103,3362,2,0,P|381:95|337:147,1,179.999995231629
482,0,3362,2,0,L|386:0,1,89.9999976158143
180,56,3363,2,0,P|405:192|180:328,1,629.9999833107
354,228,3364,2,0,P|317:278|243:290,1,89.9999976158143
231,38,3365,2,0,P|396:242|138:293,1,629.9999833107
392,0,3365,2,0,L|298:0,1,89.9999976158143
204,280,3365,2,0,P|130:288|174:236,1,179.999995231629
180,56,3366,2,0,P|405:192|180:328,1,629.9999833107
258,36,3367,2,0,P|385:266|122:271,1,629.9999833107
231,38,3368,2,0,P|396:242|138:293,1,629.9999833107
148,151,3368,2,0,P|188:97|269:84,1,89.9999976158143
258,36,3370,2,0,P|385:266|122:271,1,629.9999833107
285,38,3371,2,0,P|370:287|110:247,1,629.9999833107
306,105,3371,2,0,P|378:98|335:148,1,89.9999976158143
298,0,3371,2,0,L|202:0,1,89.9999976158143
335,58,3373,2,0,P|330:321|100:194,1,629.9999833107
363,232,3373,2,0,P|323:286|242:299,1,89.9999976158143
285,38,3374,2,0,P|370:287|110:247,1,629.9999833107
208,0,3374,2,0,L|118:0,1,89.9999976158143
205,278,3374,2,0,P|133:285|176:235,1,89.9999976158143
357,74,3375,2,0,P|306:332|102:167,1,629.9999833107
335,58,3376,2,0,P|330:321|100:194,1,629.9999833107
137,147,3376,2,0,P|182:88|270:73,1,89.9999976158143
311,97,3377,2,0,P|390:89|343:144,1,179.999995231629
376,93,3377,2,0,P|281:338|108:140,1,629.9999833107
118,0,3377,2,0,L|26:0,1,89.9999976158143
357,74,3378,2,0,P|306:332|102:167,1,629.9999833107
403,140,3379,2,0,P|230:338|135:93,1,629.9999833107
200,286,3380,2,0,P|121:294|168:239,1,179.999995231629
374,236,3381,2,0,P|329:295|241:310,1,89.9999976158143
409,167,3381,2,0,P|205:332|154:74,1,629.9999833107
316,88,3383,2,0,P|402:79|350:140,1,179.999995231629
411,194,3383,2,0,P|181:321|176:58,1,629.9999833107
401,247,3385,2,0,P|141:287|226:38,1,629.9999833107
144,150,3386,2,0,P|186:94|269:80,1,89.9999976158143
411,194,3386,2,0,P|181:321|176:58,1,629.9999833107
195,295,3386,2,0,P|109:304|161:243,1,179.999995231629
389,271,3387,2,0,P|126:266|253:36,1,629.9999833107
401,247,3388,2,0,P|141:287|226:38,1,629.9999833107
322,78,3389,2,0,P|417:68|360:135,1,179.999995231629
389,271,3390,2,0,P|126:266|253:36,1,629.9999833107
367,233,3391,2,0,P|325:289|242:303,1,89.9999976158143
189,305,3392,2,0,P|94:315|151:248,1,179.999995231629
401,247,3392,2,0,P|141:287|226:38,1,629.9999833107
373,293,3394,2,0,P|115:242|280:38,1,629.9999833107
133,146,3394,2,0,P|179:85|271:69,1,89.9999976158143
401,247,3395,2,0,P|141:287|226:38,1,629.9999833107
354,312,3396,2,0,P|109:217|307:44,1,629.9999833107
373,293,3397,2,0,P|115:242|280:38,1,629.9999833107
326,71,3397,2,0,P|427:61|366:131,1,179.999995231629
332,328,3398,2,0,P|107:192|332:56,1,629.9999833107
354,312,3399,2,0,P|109:217|307:44,1,629.9999833107
378,237,3399,2,0,P|332:298|240:314,1,89.9999976158143
185,312,3400,2,0,P|84:322|145:252,1,179.999995231629
280,345,3400,2,0,P|115:141|373:90,1,629.9999833107
307,339,3401,2,0,P|109:166|354:71,1,629.9999833107
253,347,3402,2,0,P|126:117|389:112,1,629.9999833107
253,347,3403,2,0,P|126:117|389:112,1,629.9999833107
333,59,3403,2,0,P|444:48|377:125,1,269.999992847443
122,142,3403,2,0,P|172:75|272:58,1,179.999995231629
226,345,3405,2,0,P|141:96|401:136,1,629.9999833107
178,324,3406,2,0,P|67:335|134:258,1,269.999992847443
389,241,3408,2,0,P|339:308|239:325,1,179.999995231629
340,47,3409,2,0,P|461:34|388:119,1,269.999992847443
109,137,3411,2,0,P|164:63|274:45,1,179.999995231629
171,336,3412,2,0,P|50:349|123:264,1,269.999992847443
349,32,3415,2,0,P|481:19|402:112,1,269.999992847443
402,246,3416,2,0,P|347:320|237:338,1,179.999995231629
162,351,3418,2,0,P|30:364|109:271,1,269.999992847443
100,133,3421,2,0,P|158:56|275:36,1,179.999995231629
411,250,3426,2,0,P|353:327|236:347,1,179.999995231629
85,127,3429,2,0,P|149:42|277:21,1,179.999995231629
426,256,3434,2,0,P|362:341|234:362,1,179.999995231629
392,116,3436,2,0,P|256:341|120:116,1,629.9999833107
110,136,3438,2,0,P|370:96|285:345,1,629.9999833107
409,167,3438,2,0,P|205:332|154:74,1,629.9999833107
28,0,3438,2,0,L|28:96,1,89.9999976158143
192,168,3438,2,0,P|216:136|264:128,1,89.9999976158143
411,194,3440,2,0,P|181:321|176:58,1,629.9999833107
284,144,3440,2,0,P|324:140|300:168,1,89.9999976158143
122,112,3441,2,0,P|385:117|258:347,1,629.9999833107
228,240,3443,2,0,P|188:244|212:216,1,89.9999976158143
320,216,3443,2,0,P|296:248|248:256,1,89.9999976158143
28,90,3443,2,0,L|28:184,1,89.9999976158143
138,90,3444,2,0,P|396:141|231:345,1,629.9999833107
409,221,3444,2,0,P|160:306|200:46,1,629.9999833107
28,180,3446,2,0,L|28:272,1,89.9999976158143
389,271,3446,2,0,P|126:266|253:36,1,629.9999833107
185,165,3446,2,0,P|212:130|264:121,1,89.9999976158143
286,139,3446,2,0,P|330:134|304:165,1,89.9999976158143
354,312,3447,2,0,P|109:217|307:44,1,629.9999833107
373,293,3448,2,0,P|115:242|280:38,1,629.9999833107
225,244,3449,2,0,P|181:249|207:218,1,89.9999976158143
28,270,3449,2,0,L|28:360,1,89.9999976158143
307,339,3449,2,0,P|109:166|354:71,1,629.9999833107
326,218,3451,2,0,P|300:253|247:262,1,89.9999976158143
280,345,3451,2,0,P|115:141|373:90,1,629.9999833107
289,134,3452,2,0,P|337:129|308:163,1,89.9999976158143
28,360,3452,2,0,L|124:360,1,89.9999976158143
118,360,3455,2,0,L|212:360,1,89.9999976158143
222,249,3455,2,0,P|174:254|203:220,1,89.9999976158143
179,163,3455,2,0,P|208:124|265:115,1,89.9999976158143
253,347,3456,2,0,P|126:117|389:112,1,629.9999833107
292,128,3458,2,0,P|345:123|314:160,1,89.9999976158143
200,337,3458,2,0,P|160:77|409:162,1,629.9999833107
176,325,3460,2,0,P|181:62|411:189,1,629.9999833107
332,220,3460,2,0,P|304:259|246:268,1,89.9999976158143
219,255,3461,2,0,P|166:260|197:223,1,89.9999976158143
212,360,3461,2,0,L|308:360,1,89.9999976158143
171,160,3463,2,0,P|203:118|266:107,1,89.9999976158143
302,360,3464,2,0,L|392:360,1,89.9999976158143
200,337,3465,2,0,P|160:77|409:162,1,629.9999833107
295,124,3466,2,0,P|351:119|317:158,1,89.9999976158143
154,309,3467,2,0,P|205:51|409:216,1,629.9999833107
392,360,3467,2,0,L|484:360,1,89.9999976158143
120,268,3468,2,0,P|256:43|392:268,1,629.9999833107
340,223,3468,2,0,P|308:265|245:276,1,89.9999976158143
135,290,3469,2,0,P|230:45|403:243,1,629.9999833107
216,259,3469,2,0,P|160:264|194:225,1,89.9999976158143
102,216,3470,2,0,P|306:51|357:309,1,629.9999833107
482,360,3470,2,0,L|482:264,1,89.9999976158143
108,243,3471,2,0,P|281:45|376:290,1,629.9999833107
299,118,3472,2,0,P|360:111|323:155,1,89.9999976158143
100,189,3472,2,0,P|330:62|335:325,1,629.9999833107
166,158,3473,2,0,P|200:113|267:102,1,89.9999976158143
100,189,3473,2,0,P|330:62|335:325,1,629.9999833107
102,162,3475,2,0,P|351:77|311:337,1,629.9999833107
482,270,3475,2,0,L|482:176,1,89.9999976158143
212,265,3475,2,0,P|151:272|188:228,1,89.9999976158143
303,111,3478,2,0,P|370:104|329:151,1,89.9999976158143
345,225,3478,2,0,P|311:270|244:281,1,89.9999976158143
482,180,3478,2,0,L|482:88,1,89.9999976158143
482,90,3481,2,0,L|482:0,1,89.9999976158143
157,155,3481,2,0,P|194:105|268:93,1,89.9999976158143
208,272,3481,2,0,P|141:279|182:232,1,89.9999976158143
307,103,3484,2,0,P|381:95|337:147,1,179.999995231629
482,0,3484,2,0,L|386:0,1,89.9999976158143
180,56,3485,2,0,P|405:192|180:328,1,629.9999833107
354,228,3486,2,0,P|317:278|243:290,1,89.9999976158143
231,38,3487,2,0,P|396:242|138:293,1,629.9999833107
392,0,3487,2,0,L|298:0,1,89.9999976158143
204,280,3487,2,0,P|130:288|174:236,1,179.999995231629
180,56,3488,2,0,P|405:192|180:328,1,629.9999833107
258,36,3489,2,0,P|385:266|122:271,1,629.9999833107
148,151,3490,2,0,P|188:97|269:84,1,89.9999976158143
231,38,3490,2,0,P|396:242|138:293,1,629.9999833107
258,36,3492,2,0,P|385:266|122:271,1,629.9999833107
298,0,3493,2,0,L|202:0,1,89.9999976158143
285,38,3493,2,0,P|370:287|110:247,1,629.9999833107
306,105,3493,2,0,P|378:98|335:148,1,89.9999976158143
363,232,3495,2,0,P|323:286|242:299,1,89.9999976158143
335,58,3495,2,0,P|330:321|100:194,1,629.9999833107
205,278,3496,2,0,P|133:285|176:235,1,89.9999976158143
208,0,3496,2,0,L|118:0,1,89.9999976158143
285,38,3496,2,0,P|370:287|110:247,1,629.9999833107
357,74,3497,2,0,P|306:332|102:167,1,629.9999833107
137,147,3498,2,0,P|182:88|270:73,1,89.9999976158143
335,58,3498,2,0,P|330:321|100:194,1,629.9999833107
118,0,3499,2,0,L|26:0,1,89.9999976158143
311,97,3499,2,0,P|390:89|343:144,1,179.999995231629
376,93,3499,2,0,P|281:338|108:140,1,629.9999833107
357,74,3500,2,0,P|306:332|102:167,1,629.9999833107
403,140,3501,2,0,P|230:338|135:93,1,629.9999833107
200,286,3502,2,0,P|121:294|168:239,1,179.999995231629
374,236,3503,2,0,P|329:295|241:310,1,89.9999976158143
409,167,3503,2,0,P|205:332|154:74,1,629.9999833107
316,88,3505,2,0,P|402:79|350:140,1,179.999995231629
411,194,3505,2,0,P|181:321|176:58,1,629.9999833107
401,247,3507,2,0,P|141:287|226:38,1,629.9999833107
195,295,3508,2,0,P|109:304|161:243,1,179.999995231629
144,150,3508,2,0,P|186:94|269:80,1,89.9999976158143
411,194,3508,2,0,P|181:321|176:58,1,629.9999833107
389,271,3509,2,0,P|126:266|253:36,1,629.9999833107
401,247,3510,2,0,P|141:287|226:38,1,629.9999833107
322,78,3511,2,0,P|417:68|360:135,1,179.999995231629
389,271,3512,2,0,P|126:266|253:36,1,629.9999833107
367,233,3513,2,0,P|325:289|242:303,1,89.9999976158143
401,247,3514,2,0,P|141:287|226:38,1,629.9999833107
189,305,3514,2,0,P|94:315|151:248,1,179.999995231629
133,146,3516,2,0,P|179:85|271:69,1,89.9999976158143
373,293,3516,2,0,P|115:242|280:38,1,629.9999833107
401,247,3517,2,0,P|141:287|226:38,1,629.9999833107
354,312,3518,2,0,P|109:217|307:44,1,629.9999833107
326,71,3519,2,0,P|427:61|366:131,1,179.999995231629
373,293,3519,2,0,P|115:242|280:38,1,629.9999833107
332,328,3520,2,0,P|107:192|332:56,1,629.9999833107
354,312,3521,2,0,P|109:217|307:44,1,629.9999833107
378,237,3521,2,0,P|332:298|240:314,1,89.9999976158143
185,312,3522,2,0,P|84:322|145:252,1,179.999995231629
280,345,3522,2,0,P|115:141|373:90,1,629.9999833107
307,339,3523,2,0,P|109:166|354:71,1,629.9999833107
253,347,3524,2,0,P|126:117|389:112,1,629.9999833107
333,59,3525,2,0,P|444:48|377:125,1,269.999992847443
122,142,3525,2,0,P|172:75|272:58,1,179.999995231629
253,347,3525,2,0,P|126:117|389:112,1,629.9999833107
226,345,3527,2,0,P|141:96|401:136,1,629.9999833107
178,324,3528,2,0,P|67:335|134:258,1,269.999992847443
389,241,3530,2,0,P|339:308|239:325,1,179.999995231629
340,47,3531,2,0,P|461:34|388:119,1,269.999992847443
109,137,3533,2,0,P|164:63|274:45,1,179.999995231629
171,336,3534,2,0,P|50:349|123:264,1,269.999992847443
349,32,3537,2,0,P|481:19|402:112,1,269.999992847443
402,246,3538,2,0,P|347:320|237:338,1,179.999995231629
162,351,3540,2,0,P|30:364|109:271,1,269.999992847443
100,133,3543,2,0,P|158:56|275:36,1,179.999995231629
411,250,3548,2,0,P|353:327|236:347,1,179.999995231629
392,116,3550,2,0,P|256:341|120:116,1,629.9999833107
85,127,3551,2,0,P|149:42|277:21,1,179.999995231629
110,136,3552,2,0,P|370:96|285:345,1,629.9999833107
409,167,3552,2,0,P|205:332|154:74,1,629.9999833107
192,168,3552,2,0,P|216:136|264:128,1,89.9999976158143
28,0,3552,2,0,L|28:96,1,89.9999976158143
411,194,3554,2,0,P|181:321|176:58,1,629.9999833107
284,144,3554,2,0,P|324:140|300:168,1,89.9999976158143
122,112,3555,2,0,P|385:117|258:347,1,629.9999833107
426,256,3556,2,0,P|362:341|234:362,1,179.999995231629
320,216,3557,2,0,P|296:248|248:256,1,89.9999976158143
228,240,3557,2,0,P|188:244|212:216,1,89.9999976158143
28,90,3557,2,0,L|28:184,1,89.9999976158143
409,221,3558,2,0,P|160:306|200:46,1,629.9999833107
138,90,3558,2,0,P|396:141|231:345,1,629.9999833107
28,180,3560,2,0,L|28:272,1,89.9999976158143
286,139,3560,2,0,P|330:134|304:165,1,89.9999976158143
389,271,3560,2,0,P|126:266|253:36,1,629.9999833107
185,165,3560,2,0,P|212:130|264:121,1,89.9999976158143
354,312,3561,2,0,P|109:217|307:44,1,629.9999833107
373,293,3562,2,0,P|115:242|280:38,1,629.9999833107
225,244,3563,2,0,P|181:249|207:218,1,89.9999976158143
28,270,3563,2,0,L|28:360,1,89.9999976158143
307,339,3563,2,0,P|109:166|354:71,1,629.9999833107
326,218,3565,2,0,P|300:253|247:262,1,89.9999976158143
280,345,3565,2,0,P|115:141|373:90,1,629.9999833107
289,134,3566,2,0,P|337:129|308:163,1,89.9999976158143
28,360,3566,2,0,L|124:360,1,89.9999976158143
50,115,3568,2,0,P|127:12|281:-13,1,269.999992847443
179,163,3569,2,0,P|208:124|265:115,1,89.9999976158143
222,249,3569,2,0,P|174:254|203:220,1,89.9999976158143
118,360,3569,2,0,L|212:360,1,89.9999976158143
253,347,3570,2,0,P|126:117|389:112,1,629.9999833107
200,337,3572,2,0,P|160:77|409:162,1,629.9999833107
292,128,3572,2,0,P|345:123|314:160,1,89.9999976158143
461,268,3573,2,0,P|384:371|230:397,1,269.999992847443
332,220,3574,2,0,P|304:259|246:268,1,89.9999976158143
176,325,3574,2,0,P|181:62|411:189,1,629.9999833107
212,360,3575,2,0,L|308:360,1,89.9999976158143
219,255,3575,2,0,P|166:260|197:223,1,89.9999976158143
171,160,3577,2,0,P|203:118|266:107,1,89.9999976158143
302,360,3578,2,0,L|392:360,1,89.9999976158143
200,337,3579,2,0,P|160:77|409:162,1,629.9999833107
295,124,3580,2,0,P|351:119|317:158,1,89.9999976158143
392,360,3581,2,0,L|484:360,1,89.9999976158143
154,309,3581,2,0,P|205:51|409:216,1,629.9999833107
340,223,3582,2,0,P|308:265|245:276,1,89.9999976158143
120,268,3582,2,0,P|256:43|392:268,1,629.9999833107
216,259,3583,2,0,P|160:264|194:225,1,89.9999976158143
135,290,3583,2,0,P|230:45|403:243,1,629.9999833107
102,216,3584,2,0,P|306:51|357:309,1,629.9999833107
482,360,3584,2,0,L|482:264,1,89.9999976158143
108,243,3585,2,0,P|281:45|376:290,1,629.9999833107
100,189,3586,2,0,P|330:62|335:325,1,629.9999833107
299,118,3586,2,0,P|360:111|323:155,1,89.9999976158143
100,189,3587,2,0,P|330:62|335:325,1,629.9999833107
166,158,3587,2,0,P|200:113|267:102,1,89.9999976158143
212,265,3589,2,0,P|151:272|188:228,1,89.9999976158143
482,270,3589,2,0,L|482:176,1,89.9999976158143
102,162,3589,2,0,P|351:77|311:337,1,629.9999833107
303,111,3592,2,0,P|370:104|329:151,1,89.9999976158143
345,225,3592,2,0,P|311:270|244:281,1,89.9999976158143
482,180,3592,2,0,L|482:88,1,89.9999976158143
157,155,3595,2,0,P|194:105|268:93,1,89.9999976158143
208,272,3595,2,0,P|141:279|182:232,1,89.9999976158143
482,90,3595,2,0,L|482:0,1,89.9999976158143
482,0,3598,2,0,L|386:0,1,89.9999976158143
307,103,3598,2,0,P|381:95|337:147,1,179.999995231629
180,56,3599,2,0,P|405:192|180:328,1,629.9999833107
354,228,3600,2,0,P|317:278|243:290,1,89.9999976158143
204,280,3601,2,0,P|130:288|174:236,1,179.999995231629
392,0,3601,2,0,L|298:0,1,89.9999976158143
231,38,3601,2,0,P|396:242|138:293,1,629.9999833107
180,56,3602,2,0,P|405:192|180:328,1,629.9999833107
258,36,3603,2,0,P|385:266|122:271,1,629.9999833107
231,38,3604,2,0,P|396:242|138:293,1,629.9999833107
148,151,3604,2,0,P|188:97|269:84,1,89.9999976158143
258,36,3606,2,0,P|385:266|122:271,1,629.9999833107
306,105,3607,2,0,P|378:98|335:148,1,89.9999976158143
285,38,3607,2,0,P|370:287|110:247,1,629.9999833107
298,0,3607,2,0,L|202:0,1,89.9999976158143
363,232,3609,2,0,P|323:286|242:299,1,89.9999976158143
335,58,3609,2,0,P|330:321|100:194,1,629.9999833107
208,0,3610,2,0,L|118:0,1,89.9999976158143
285,38,3610,2,0,P|370:287|110:247,1,629.9999833107
205,278,3610,2,0,P|133:285|176:235,1,89.9999976158143
357,74,3611,2,0,P|306:332|102:167,1,629.9999833107
335,58,3612,2,0,P|330:321|100:194,1,629.9999833107
137,147,3612,2,0,P|182:88|270:73,1,89.9999976158143
376,93,3613,2,0,P|281:338|108:140,1,629.9999833107
118,0,3613,2,0,L|26:0,1,89.9999976158143
311,97,3613,2,0,P|390:89|343:144,1,179.999995231629
357,74,3614,2,0,P|306:332|102:167,1,629.9999833107
403,140,3615,2,0,P|230:338|135:93,1,629.9999833107
200,286,3616,2,0,P|121:294|168:239,1,179.999995231629
409,167,3617,2,0,P|205:332|154:74,1,629.9999833107
374,236,3617,2,0,P|329:295|241:310,1,89.9999976158143
316,88,3619,2,0,P|402:79|350:140,1,179.999995231629
411,194,3619,2,0,P|181:321|176:58,1,629.9999833107
401,247,3621,2,0,P|141:287|226:38,1,629.9999833107
195,295,3622,2,0,P|109:304|161:243,1,179.999995231629
411,194,3622,2,0,P|181:321|176:58,1,629.9999833107
144,150,3622,2,0,P|186:94|269:80,1,89.9999976158143
389,271,3623,2,0,P|126:266|253:36,1,629.9999833107
401,247,3624,2,0,P|141:287|226:38,1,629.9999833107
322,78,3625,2,0,P|417:68|360:135,1,179.999995231629
389,271,3626,2,0,P|126:266|253:36,1,629.9999833107
367,233,3627,2,0,P|325:289|242:303,1,89.9999976158143
189,305,3628,2,0,P|94:315|151:248,1,179.999995231629
401,247,3628,2,0,P|141:287|226:38,1,629.9999833107
373,293,3630,2,0,P|115:242|280:38,1,629.9999833107
133,146,3630,2,0,P|179:85|271:69,1,89.9999976158143
401,247,3631,2,0,P|141:287|226:38,1,629.9999833107
354,312,3632,2,0,P|109:217|307:44,1,629.9999833107
373,293,3633,2,0,P|115:242|280:38,1,629.9999833107
326,71,3633,2,0,P|427:61|366:131,1,179.999995231629
332,328,3634,2,0,P|107:192|332:56,1,629.9999833107
354,312,3635,2,0,P|109:217|307:44,1,629.9999833107
378,237,3635,2,0,P|332:298|240:314,1,89.9999976158143
185,312,3636,2,0,P|84:322|145:252,1,179.999995231629
280,345,3636,2,0,P|115:141|373:90,1,629.9999833107
307,339,3637,2,0,P|109:166|354:71,1,629.9999833107
253,347,3638,2,0,P|126:117|389:112,1,629.9999833107
333,59,3639,2,0,P|444:48|377:125,1,269.999992847443
122,142,3639,2,0,P|172:75|272:58,1,179.999995231629
253,347,3639,2,0,P|126:117|389:112,1,629.9999833107
226,345,3641,2,0,P|141:96|401:136,1,629.9999833107
178,324,3642,2,0,P|67:335|134:258,1,269.999992847443
389,241,3644,2,0,P|339:308|239:325,1,179.999995231629
340,47,3645,2,0,P|461:34|388:119,1,269.999992847443
109,137,3647,2,0,P|164:63|274:45,1,179.999995231629
171,336,3648,2,0,P|50:349|123:264,1,269.999992847443
349,32,3651,2,0,P|481:19|402:112,1,269.999992847443
402,246,3652,2,0,P|347:320|237:338,1,179.999995231629
162,351,3654,2,0,P|30:364|109:271,1,269.999992847443
100,133,3657,2,0,P|158:56|275:36,1,179.999995231629
411,250,3662,2,0,P|353:327|236:347,1,179.999995231629
85,127,3665,2,0,P|149:42|277:21,1,179.999995231629
426,256,3670,2,0,P|362:341|234:362,1,179.999995231629
392,116,3672,2,0,P|256:341|120:116,1,629.9999833107
28,0,3674,2,0,L|28:96,1,89.9999976158143
110,136,3674,2,0,P|370:96|285:345,1,629.9999833107
409,167,3674,2,0,P|205:332|154:74,1,629.9999833107
192,168,3674,2,0,P|216:136|264:128,1,89.9999976158143
411,194,3676,2,0,P|181:321|176:58,1,629.9999833107
284,144,3676,2,0,P|324:140|300:168,1,89.9999976158143
122,112,3677,2,0,P|385:117|258:347,1,629.9999833107
320,216,3679,2,0,P|296:248|248:256,1,89.9999976158143
28,90,3679,2,0,L|28:184,1,89.9999976158143
228,240,3679,2,0,P|188:244|212:216,1,89.9999976158143
409,221,3680,2,0,P|160:306|200:46,1,629.9999833107
138,90,3680,2,0,P|396:141|231:345,1,629.9999833107
286,139,3682,2,0,P|330:134|304:165,1,89.9999976158143
389,271,3682,2,0,P|126:266|253:36,1,629.9999833107
28,180,3682,2,0,L|28:272,1,89.9999976158143
185,165,3682,2,0,P|212:130|264:121,1,89.9999976158143
354,312,3683,2,0,P|109:217|307:44,1,629.9999833107
373,293,3684,2,0,P|115:242|280:38,1,629.9999833107
28,270,3685,2,0,L|28:360,1,89.9999976158143
225,244,3685,2,0,P|181:249|207:218,1,89.9999976158143
307,339,3685,2,0,P|109:166|354:71,1,629.9999833107
280,345,3687,2,0,P|115:141|373:90,1,629.9999833107
326,218,3687,2,0,P|300:253|247:262,1,89.9999976158143
289,134,3688,2,0,P|337:129|308:163,1,89.9999976158143
28,360,3688,2,0,L|124:360,1,89.9999976158143
179,163,3691,2,0,P|208:124|265:115,1,89.9999976158143
118,360,3691,2,0,L|212:360,1,89.9999976158143
222,249,3691,2,0,P|174:254|203:220,1,89.9999976158143
253,347,3692,2,0,P|126:117|389:112,1,629.9999833107
292,128,3694,2,0,P|345:123|314:160,1,89.9999976158143
200,337,3694,2,0,P|160:77|409:162,1,629.9999833107
176,325,3696,2,0,P|181:62|411:189,1,629.9999833107
332,220,3696,2,0,P|304:259|246:268,1,89.9999976158143
212,360,3697,2,0,L|308:360,1,89.9999976158143
219,255,3697,2,0,P|166:260|197:223,1,89.9999976158143
171,160,3699,2,0,P|203:118|266:107,1,89.9999976158143
302,360,3700,2,0,L|392:360,1,89.9999976158143
200,337,3701,2,0,P|160:77|409:162,1,629.9999833107
295,124,3702,2,0,P|351:119|317:158,1,89.9999976158143
154,309,3703,2,0,P|205:51|409:216,1,629.9999833107
392,360,3703,2,0,L|484:360,1,89.9999976158143
340,223,3704,2,0,P|308:265|245:276,1,89.9999976158143
120,268,3704,2,0,P|256:43|392:268,1,629.9999833107
216,259,3705,2,0,P|160:264|194:225,1,89.9999976158143
135,290,3705,2,0,P|230:45|403:243,1,629.9999833107
482,360,3706,2,0,L|482:264,1,89.9999976158143
102,216,3706,2,0,P|306:51|357:309,1,629.9999833107
108,243,3707,2,0,P|281:45|376:290,1,629.9999833107
299,118,3708,2,0,P|360:111|323:155,1,89.9999976158143
100,189,3708,2,0,P|330:62|335:325,1,629.9999833107
166,158,3709,2,0,P|200:113|267:102,1,89.9999976158143
100,189,3709,2,0,P|330:62|335:325,1,629.9999833107
102,162,3711,2,0,P|351:77|311:337,1,629.9999833107
212,265,3711,2,0,P|151:272|188:228,1,89.9999976158143
482,270,3711,2,0,L|482:176,1,89.9999976158143
482,180,3714,2,0,L|482:88,1,89.9999976158143
303,111,3714,2,0,P|370:104|329:151,1,89.9999976158143
345,225,3714,2,0,P|311:270|244:281,1,89.9999976158143
157,155,3717,2,0,P|194:105|268:93,1,89.9999976158143
208,272,3717,2,0,P|141:279|182:232,1,89.9999976158143
482,90,3717,2,0,L|482:0,1,89.9999976158143
307,103,3720,2,0,P|381:95|337:147,1,179.999995231629
482,0,3720,2,0,L|386:0,1,89.9999976158143
180,56,3721,2,0,P|405:192|180:328,1,629.9999833107
354,228,3722,2,0,P|317:278|243:290,1,89.9999976158143
231,38,3723,2,0,P|396:242|138:293,1,629.9999833107
392,0,3723,2,0,L|298:0,1,89.9999976158143
204,280,3723,2,0,P|130:288|174:236,1,179.999995231629
180,56,3724,2,0,P|405:192|180:328,1,629.9999833107
258,36,3725,2,0,P|385:266|122:271,1,629.9999833107
231,38,3726,2,0,P|396:242|138:293,1,629.9999833107
148,151,3726,2,0,P|188:97|269:84,1,89.9999976158143
258,36,3728,2,0,P|385:266|122:271,1,629.9999833107
306,105,3729,2,0,P|378:98|335:148,1,89.9999976158143
285,38,3729,2,0,P|370:287|110:247,1,629.9999833107
298,0,3729,2,0,L|202:0,1,89.9999976158143
335,58,3731,2,0,P|330:321|100:194,1,629.9999833107
363,232,3731,2,0,P|323:286|242:299,1,89.9999976158143
285,38,3732,2,0,P|370:287|110:247,1,629.9999833107
205,278,3732,2,0,P|133:285|176:235,1,89.9999976158143
208,0,3732,2,0,L|118:0,1,89.9999976158143
357,74,3733,2,0,P|306:332|102:167,1,629.9999833107
137,147,3734,2,0,P|182:88|270:73,1,89.9999976158143
335,58,3734,2,0,P|330:321|100:194,1,629.9999833107
376,93,3735,2,0,P|281:338|108:140,1,629.9999833107
118,0,3735,2,0,L|26:0,1,89.9999976158143
311,97,3735,2,0,P|390:89|343:144,1,179.999995231629
357,74,3736,2,0,P|306:332|102:167,1,629.9999833107
403,140,3737,2,0,P|230:338|135:93,1,629.9999833107
200,286,3738,2,0,P|121:294|168:239,1,179.999995231629
374,236,3739,2,0,P|329:295|241:310,1,89.9999976158143
409,167,3739,2,0,P|205:332|154:74,1,629.9999833107
411,194,3741,2,0,P|181:321|176:58,1,629.9999833107
316,88,3741,2,0,P|402:79|350:140,1,179.999995231629
401,247,3743,2,0,P|141:287|226:38,1,629.9999833107
144,150,3744,2,0,P|186:94|269:80,1,89.9999976158143
195,295,3744,2,0,P|109:304|161:243,1,179.999995231629
411,194,3744,2,0,P|181:321|176:58,1,629.9999833107
389,271,3745,2,0,P|126:266|253:36,1,629.9999833107
401,247,3746,2,0,P|141:287|226:38,1,629.9999833107
322,78,3747,2,0,P|417:68|360:135,1,179.999995231629
389,271,3748,2,0,P|126:266|253:36,1,629.9999833107
367,233,3749,2,0,P|325:289|242:303,1,89.9999976158143
189,305,3750,2,0,P|94:315|151:248,1,179.999995231629
401,247,3750,2,0,P|141:287|226:38,1,629.9999833107
133,146,3752,2,0,P|179:85|271:69,1,89.9999976158143
373,293,3752,2,0,P|115:242|280:38,1,629.9999833107
401,247,3753,2,0,P|141:287|226:38,1,629.9999833107
354,312,3754,2,0,P|109:217|307:44,1,629.9999833107
326,71,3755,2,0,P|427:61|366:131,1,179.999995231629
373,293,3755,2,0,P|115:242|280:38,1,629.9999833107
332,328,3756,2,0,P|107:192|332:56,1,629.9999833107
378,237,3757,2,0,P|332:298|240:314,1,89.9999976158143
354,312,3757,2,0,P|109:217|307:44,1,629.9999833107
185,312,3758,2,0,P|84:322|145:252,1,179.999995231629
280,345,3758,2,0,P|115:141|373:90,1,629.9999833107
307,339,3759,2,0,P|109:166|354:71,1,629.9999833107
253,347,3760,2,0,P|126:117|389:112,1,629.9999833107
333,59,3761,2,0,P|444:48|377:125,1,269.999992847443
122,142,3761,2,0,P|172:75|272:58,1,179.999995231629
253,347,3761,2,0,P|126:117|389:112,1,629.9999833107
226,345,3763,2,0,P|141:96|401:136,1,629.9999833107
178,324,3764,2,0,P|67:335|134:258,1,269.999992847443
389,241,3766,2,0,P|339:308|239:325,1,179.999995231629
340,47,3767,2,0,P|461:34|388:119,1,269.999992847443
109,137,3769,2,0,P|164:63|274:45,1,179.999995231629
171,336,3770,2,0,P|50:349|123:264,1,269.999992847443
349,32,3773,2,0,P|481:19|402:112,1,269.999992847443
402,246,3774,2,0,P|347:320|237:338,1,179.999995231629
162,351,3776,2,0,P|30:364|109:271,1,269.999992847443
100,133,3779,2,0,P|158:56|275:36,1,179.999995231629
411,250,3784,2,0,P|353:327|236:347,1,179.999995231629
85,127,3787,2,0,P|149:42|277:21,1,179.999995231629
426,256,3792,2,0,P|362:341|234:362,1,179.999995231629
69,122,3796,2,0,P|139:28|279:5,1,179.999995231629
442,261,3801,2,0,P|372:355|232:378,1,179.999995231629
50,115,3804,2,0,P|127:12|281:-13,1,269.999992847443
461,268,3809,2,0,P|384:371|230:397,1,269.999992847443
392,116,3828,2,0,P|256:341|120:116,1,629.9999833107
192,168,3830,2,0,P|216:136|264:128,1,89.9999976158143
110,136,3830,2,0,P|370:96|285:345,1,629.9999833107
28,0,3830,2,0,L|28:96,1,89.9999976158143
409,167,3830,2,0,P|205:332|154:74,1,629.9999833107
411,194,3832,2,0,P|181:321|176:58,1,629.9999833107
284,144,3832,2,0,P|324:140|300:168,1,89.9999976158143
122,112,3833,2,0,P|385:117|258:347,1,629.9999833107
28,90,3835,2,0,L|28:184,1,89.9999976158143
320,216,3835,2,0,P|296:248|248:256,1,89.9999976158143
228,240,3835,2,0,P|188:244|212:216,1,89.9999976158143
138,90,3836,2,0,P|396:141|231:345,1,629.9999833107
409,221,3836,2,0,P|160:306|200:46,1,629.9999833107
185,165,3838,2,0,P|212:130|264:121,1,89.9999976158143
28,180,3838,2,0,L|28:272,1,89.9999976158143
389,271,3838,2,0,P|126:266|253:36,1,629.9999833107
286,139,3838,2,0,P|330:134|304:165,1,89.9999976158143
354,312,3839,2,0,P|109:217|307:44,1,629.9999833107
373,293,3840,2,0,P|115:242|280:38,1,629.9999833107
307,339,3841,2,0,P|109:166|354:71,1,629.9999833107
28,270,3841,2,0,L|28:360,1,89.9999976158143
225,244,3841,2,0,P|181:249|207:218,1,89.9999976158143
280,345,3843,2,0,P|115:141|373:90,1,629.9999833107
326,218,3843,2,0,P|300:253|247:262,1,89.9999976158143
28,360,3844,2,0,L|124:360,1,89.9999976158143
289,134,3844,2,0,P|337:129|308:163,1,89.9999976158143
179,163,3847,2,0,P|208:124|265:115,1,89.9999976158143
118,360,3847,2,0,L|212:360,1,89.9999976158143
222,249,3847,2,0,P|174:254|203:220,1,89.9999976158143
253,347,3848,2,0,P|126:117|389:112,1,629.9999833107
292,128,3850,2,0,P|345:123|314:160,1,89.9999976158143
200,337,3850,2,0,P|160:77|409:162,1,629.9999833107
176,325,3852,2,0,P|181:62|411:189,1,629.9999833107
332,220,3852,2,0,P|304:259|246:268,1,89.9999976158143
219,255,3853,2,0,P|166:260|197:223,1,89.9999976158143
212,360,3853,2,0,L|308:360,1,89.9999976158143
171,160,3855,2,0,P|203:118|266:107,1,89.9999976158143
302,360,3856,2,0,L|392:360,1,89.9999976158143
200,337,3857,2,0,P|160:77|409:162,1,629.9999833107
295,124,3858,2,0,P|351:119|317:158,1,89.9999976158143
154,309,3859,2,0,P|205:51|409:216,1,629.9999833107
392,360,3859,2,0,L|484:360,1,89.9999976158143
120,268,3860,2,0,P|256:43|392:268,1,629.9999833107
340,223,3860,2,0,P|308:265|245:276,1,89.9999976158143
135,290,3861,2,0,P|230:45|403:243,1,629.9999833107
216,259,3861,2,0,P|160:264|194:225,1,89.9999976158143
482,360,3862,2,0,L|482:264,1,89.9999976158143
102,216,3862,2,0,P|306:51|357:309,1,629.9999833107
108,243,3863,2,0,P|281:45|376:290,1,629.9999833107
100,189,3864,2,0,P|330:62|335:325,1,629.9999833107
299,118,3864,2,0,P|360:111|323:155,1,89.9999976158143
100,189,3865,2,0,P|330:62|335:325,1,629.9999833107
166,158,3865,2,0,P|200:113|267:102,1,89.9999976158143
482,270,3867,2,0,L|482:176,1,89.9999976158143
102,162,3867,2,0,P|351:77|311:337,1,629.9999833107
212,265,3867,2,0,P|151:272|188:228,1,89.9999976158143
303,111,3870,2,0,P|370:104|329:151,1,89.9999976158143
345,225,3870,2,0,P|311:270|244:281,1,89.9999976158143
482,180,3870,2,0,L|482:88,1,89.9999976158143
208,272,3873,2,0,P|141:279|182:232,1,89.9999976158143
157,155,3873,2,0,P|194:105|268:93,1,89.9999976158143
482,90,3873,2,0,L|482:0,1,89.9999976158143
482,0,3876,2,0,L|386:0,1,89.9999976158143
307,103,3876,2,0,P|381:95|337:147,1,179.999995231629
180,56,3877,2,0,P|405:192|180:328,1,629.9999833107
354,228,3878,2,0,P|317:278|243:290,1,89.9999976158143
392,0,3879,2,0,L|298:0,1,89.9999976158143
231,38,3879,2,0,P|396:242|138:293,1,629.9999833107
204,280,3879,2,0,P|130:288|174:236,1,179.999995231629
180,56,3880,2,0,P|405:192|180:328,1,629.9999833107
258,36,3881,2,0,P|385:266|122:271,1,629.9999833107
148,151,3882,2,0,P|188:97|269:84,1,89.9999976158143
231,38,3882,2,0,P|396:242|138:293,1,629.9999833107
258,36,3884,2,0,P|385:266|122:271,1,629.9999833107
285,38,3885,2,0,P|370:287|110:247,1,629.9999833107
298,0,3885,2,0,L|202:0,1,89.9999976158143
306,105,3885,2,0,P|378:98|335:148,1,89.9999976158143
363,232,3887,2,0,P|323:286|242:299,1,89.9999976158143
335,58,3887,2,0,P|330:321|100:194,1,629.9999833107
205,278,3888,2,0,P|133:285|176:235,1,89.9999976158143
285,38,3888,2,0,P|370:287|110:247,1,629.9999833107
208,0,3888,2,0,L|118:0,1,89.9999976158143
357,74,3889,2,0,P|306:332|102:167,1,629.9999833107
137,147,3890,2,0,P|182:88|270:73,1,89.9999976158143
335,58,3890,2,0,P|330:321|100:194,1,629.9999833107
118,0,3891,2,0,L|26:0,1,89.9999976158143
376,93,3891,2,0,P|281:338|108:140,1,629.9999833107
311,97,3891,2,0,P|390:89|343:144,1,179.999995231629
357,74,3892,2,0,P|306:332|102:167,1,629.9999833107
403,140,3893,2,0,P|230:338|135:93,1,629.9999833107
200,286,3894,2,0,P|121:294|168:239,1,179.999995231629
374,236,3895,2,0,P|329:295|241:310,1,89.9999976158143
409,167,3895,2,0,P|205:332|154:74,1,629.9999833107
316,88,3897,2,0,P|402:79|350:140,1,179.999995231629
411,194,3897,2,0,P|181:321|176:58,1,629.9999833107
401,247,3899,2,0,P|141:287|226:38,1,629.9999833107
195,295,3900,2,0,P|109:304|161:243,1,179.999995231629
144,150,3900,2,0,P|186:94|269:80,1,89.9999976158143
411,194,3900,2,0,P|181:321|176:58,1,629.9999833107
389,271,3901,2,0,P|126:266|253:36,1,629.9999833107
401,247,3902,2,0,P|141:287|226:38,1,629.9999833107
322,78,3903,2,0,P|417:68|360:135,1,179.999995231629
389,271,3904,2,0,P|126:266|253:36,1,629.9999833107
367,233,3905,2,0,P|325:289|242:303,1,89.9999976158143
189,305,3906,2,0,P|94:315|151:248,1,179.999995231629
401,247,3906,2,0,P|141:287|226:38,1,629.9999833107
373,293,3908,2,0,P|115:242|280:38,1,629.9999833107
133,146,3908,2,0,P|179:85|271:69,1,89.9999976158143
401,247,3909,2,0,P|141:287|226:38,1,629.9999833107
354,312,3910,2,0,P|109:217|307:44,1,629.9999833107
373,293,3911,2,0,P|115:242|280:38,1,629.9999833107
326,71,3911,2,0,P|427:61|366:131,1,179.999995231629
332,328,3912,2,0,P|107:192|332:56,1,629.9999833107
354,312,3913,2,0,P|109:217|307:44,1,629.9999833107
378,237,3913,2,0,P|332:298|240:314,1,89.9999976158143
185,312,3914,2,0,P|84:322|145:252,1,179.999995231629
280,345,3914,2,0,P|115:141|373:90,1,629.9999833107
307,339,3915,2,0,P|109:166|354:71,1,629.9999833107
253,347,3916,2,0,P|126:117|389:112,1,629.9999833107
122,142,3917,2,0,P|172:75|272:58,1,179.999995231629
333,59,3917,2,0,P|444:48|377:125,1,269.999992847443
253,347,3917,2,0,P|126:117|389:112,1,629.9999833107
226,345,3919,2,0,P|141:96|401:136,1,629.9999833107
178,324,3920,2,0,P|67:335|134:258,1,269.999992847443
389,241,3922,2,0,P|339:308|239:325,1,179.999995231629
340,47,3923,2,0,P|461:34|388:119,1,269.999992847443
109,137,3925,2,0,P|164:63|274:45,1,179.999995231629
171,336,3926,2,0,P|50:349|123:264,1,269.999992847443
349,32,3929,2,0,P|481:19|402:112,1,269.999992847443
402,246,3930,2,0,P|347:320|237:338,1,179.999995231629
162,351,3932,2,0,P|30:364|109:271,1,269.999992847443
100,133,3935,2,0,P|158:56|275:36,1,179.999995231629
411,250,3940,2,0,P|353:327|236:347,1,179.999995231629
85,127,3943,2,0,P|149:42|277:21,1,179.999995231629
426,256,3948,2,0,P|362:341|234:362,1,179.999995231629
392,116,3950,2,0,P|256:341|120:116,1,629.9999833107
192,168,3952,2,0,P|216:136|264:128,1,89.9999976158143
28,0,3952,2,0,L|28:96,1,89.9999976158143
110,136,3952,2,0,P|370:96|285:345,1,629.9999833107
409,167,3952,2,0,P|205:332|154:74,1,629.9999833107
411,194,3954,2,0,P|181:321|176:58,1,629.9999833107
284,144,3954,2,0,P|324:140|300:168,1,89.9999976158143
122,112,3955,2,0,P|385:117|258:347,1,629.9999833107
228,240,3957,2,0,P|188:244|212:216,1,89.9999976158143
28,90,3957,2,0,L|28:184,1,89.9999976158143
320,216,3957,2,0,P|296:248|248:256,1,89.9999976158143
138,90,3958,2,0,P|396:141|231:345,1,629.9999833107
409,221,3958,2,0,P|160:306|200:46,1,629.9999833107
185,165,3960,2,0,P|212:130|264:121,1,89.9999976158143
389,271,3960,2,0,P|126:266|253:36,1,629.9999833107
28,180,3960,2,0,L|28:272,1,89.9999976158143
286,139,3960,2,0,P|330:134|304:165,1,89.9999976158143
354,312,3961,2,0,P|109:217|307:44,1,629.9999833107
373,293,3962,2,0,P|115:242|280:38,1,629.9999833107
225,244,3963,2,0,P|181:249|207:218,1,89.9999976158143
28,270,3963,2,0,L|28:360,1,89.9999976158143
307,339,3963,2,0,P|109:166|354:71,1,629.9999833107
326,218,3965,2,0,P|300:253|247:262,1,89.9999976158143
280,345,3965,2,0,P|115:141|373:90,1,629.9999833107
289,134,3966,2,0,P|337:129|308:163,1,89.9999976158143
28,360,3966,2,0,L|124:360,1,89.9999976158143
118,360,3969,2,0,L|212:360,1,89.9999976158143
222,249,3969,2,0,P|174:254|203:220,1,89.9999976158143
179,163,3969,2,0,P|208:124|265:115,1,89.9999976158143
253,347,3970,2,0,P|126:117|389:112,1,629.9999833107
200,337,3972,2,0,P|160:77|409:162,1,629.9999833107
292,128,3972,2,0,P|345:123|314:160,1,89.9999976158143
176,325,3974,2,0,P|181:62|411:189,1,629.9999833107
332,220,3974,2,0,P|304:259|246:268,1,89.9999976158143
212,360,3975,2,0,L|308:360,1,89.9999976158143
219,255,3975,2,0,P|166:260|197:223,1,89.9999976158143
171,160,3977,2,0,P|203:118|266:107,1,89.9999976158143
302,360,3978,2,0,L|392:360,1,89.9999976158143
200,337,3979,2,0,P|160:77|409:162,1,629.9999833107
295,124,3980,2,0,P|351:119|317:158,1,89.9999976158143
154,309,3981,2,0,P|205:51|409:216,1,629.9999833107
392,360,3981,2,0,L|484:360,1,89.9999976158143
120,268,3982,2,0,P|256:43|392:268,1,629.9999833107
340,223,3982,2,0,P|308:265|245:276,1,89.9999976158143
216,259,3983,2,0,P|160:264|194:225,1,89.9999976158143
135,290,3983,2,0,P|230:45|403:243,1,629.9999833107
482,360,3984,2,0,L|482:264,1,89.9999976158143
102,216,3984,2,0,P|306:51|357:309,1,629.9999833107
108,243,3985,2,0,P|281:45|376:290,1,629.9999833107
100,189,3986,2,0,P|330:62|335:325,1,629.9999833107
299,118,3986,2,0,P|360:111|323:155,1,89.9999976158143
166,158,3987,2,0,P|200:113|267:102,1,89.9999976158143
100,189,3987,2,0,P|330:62|335:325,1,629.9999833107
102,162,3989,2,0,P|351:77|311:337,1,629.9999833107
482,270,3989,2,0,L|482:176,1,89.9999976158143
212,265,3989,2,0,P|151:272|188:228,1,89.9999976158143
482,180,3992,2,0,L|482:88,1,89.9999976158143
303,111,3992,2,0,P|370:104|329:151,1,89.9999976158143
345,225,3992,2,0,P|311:270|244:281,1,89.9999976158143
482,90,3995,2,0,L|482:0,1,89.9999976158143
208,272,3995,2,0,P|141:279|182:232,1,89.9999976158143
157,155,3995,2,0,P|194:105|268:93,1,89.9999976158143
482,0,3998,2,0,L|386:0,1,89.9999976158143
307,103,3998,2,0,P|381:95|337:147,1,179.999995231629
180,56,3999,2,0,P|405:192|180:328,1,629.9999833107
354,228,4000,2,0,P|317:278|243:290,1,89.9999976158143
392,0,4001,2,0,L|298:0,1,89.9999976158143
231,38,4001,2,0,P|396:242|138:293,1,629.9999833107
204,280,4001,2,0,P|130:288|174:236,1,179.999995231629
180,56,4002,2,0,P|405:192|180:328,1,629.9999833107
258,36,4003,2,0,P|385:266|122:271,1,629.9999833107
231,38,4004,2,0,P|396:242|138:293,1,629.9999833107
148,151,4004,2,0,P|188:97|269:84,1,89.9999976158143
258,36,4006,2,0,P|385:266|122:271,1,629.9999833107
285,38,4007,2,0,P|370:287|110:247,1,629.9999833107
306,105,4007,2,0,P|378:98|335:148,1,89.9999976158143
298,0,4007,2,0,L|202:0,1,89.9999976158143
335,58,4009,2,0,P|330:321|100:194,1,629.9999833107
363,232,4009,2,0,P|323:286|242:299,1,89.9999976158143
208,0,4010,2,0,L|118:0,1,89.9999976158143
205,278,4010,2,0,P|133:285|176:235,1,89.9999976158143
285,38,4010,2,0,P|370:287|110:247,1,629.9999833107
357,74,4011,2,0,P|306:332|102:167,1,629.9999833107
137,147,4012,2,0,P|182:88|270:73,1,89.9999976158143
335,58,4012,2,0,P|330:321|100:194,1,629.9999833107
118,0,4013,2,0,L|26:0,1,89.9999976158143
311,97,4013,2,0,P|390:89|343:144,1,179.999995231629
376,93,4013,2,0,P|281:338|108:140,1,629.9999833107
357,74,4014,2,0,P|306:332|102:167,1,629.9999833107
403,140,4015,2,0,P|230:338|135:93,1,629.9999833107
200,286,4016,2,0,P|121:294|168:239,1,179.999995231629
374,236,4017,2,0,P|329:295|241:310,1,89.9999976158143
409,167,4017,2,0,P|205:332|154:74,1,629.9999833107
411,194,4019,2,0,P|181:321|176:58,1,629.9999833107
316,88,4019,2,0,P|402:79|350:140,1,179.999995231629
401,247,4021,2,0,P|141:287|226:38,1,629.9999833107
195,295,4022,2,0,P|109:304|161:243,1,179.999995231629
144,150,4022,2,0,P|186:94|269:80,1,89.9999976158143
411,194,4022,2,0,P|181:321|176:58,1,629.9999833107
389,271,4023,2,0,P|126:266|253:36,1,629.9999833107
401,247,4024,2,0,P|141:287|226:38,1,629.9999833107
322,78,4025,2,0,P|417:68|360:135,1,179.999995231629
389,271,4026,2,0,P|126:266|253:36,1,629.9999833107
367,233,4027,2,0,P|325:289|242:303,1,89.9999976158143
401,247,4028,2,0,P|141:287|226:38,1,629.9999833107
189,305,4028,2,0,P|94:315|151:248,1,179.999995231629
133,146,4030,2,0,P|179:85|271:69,1,89.9999976158143
373,293,4030,2,0,P|115:242|280:38,1,629.9999833107
401,247,4031,2,0,P|141:287|226:38,1,629.9999833107
354,312,4032,2,0,P|109:217|307:44,1,629.9999833107
326,71,4033,2,0,P|427:61|366:131,1,179.999995231629
373,293,4033,2,0,P|115:242|280:38,1,629.9999833107
332,328,4034,2,0,P|107:192|332:56,1,629.9999833107
354,312,4035,2,0,P|109:217|307:44,1,629.9999833107
378,237,4035,2,0,P|332:298|240:314,1,89.9999976158143
280,345,4036,2,0,P|115:141|373:90,1,629.9999833107
185,312,4036,2,0,P|84:322|145:252,1,179.999995231629
307,339,4037,2,0,P|109:166|354:71,1,629.9999833107
253,347,4038,2,0,P|126:117|389:112,1,629.9999833107
122,142,4039,2,0,P|172:75|272:58,1,179.999995231629
253,347,4039,2,0,P|126:117|389:112,1,629.9999833107
333,59,4039,2,0,P|444:48|377:125,1,269.999992847443
226,345,4041,2,0,P|141:96|401:136,1,629.9999833107
178,324,4042,2,0,P|67:335|134:258,1,269.999992847443
389,241,4044,2,0,P|339:308|239:325,1,179.999995231629
340,47,4045,2,0,P|461:34|388:119,1,269.999992847443
109,137,4047,2,0,P|164:63|274:45,1,179.999995231629
171,336,4048,2,0,P|50:349|123:264,1,269.999992847443
349,32,4051,2,0,P|481:19|402:112,1,269.999992847443
402,246,4052,2,0,P|347:320|237:338,1,179.999995231629
162,351,4054,2,0,P|30:364|109:271,1,269.999992847443
100,133,4057,2,0,P|158:56|275:36,1,179.999995231629
411,250,4062,2,0,P|353:327|236:347,1,179.999995231629
392,116,4064,2,0,P|256:341|120:116,1,629.9999833107
85,127,4065,2,0,P|149:42|277:21,1,179.999995231629
192,168,4066,2,0,P|216:136|264:128,1,89.9999976158143
409,167,4066,2,0,P|205:332|154:74,1,629.9999833107
28,0,4066,2,0,L|28:96,1,89.9999976158143
110,136,4066,2,0,P|370:96|285:345,1,629.9999833107
411,194,4068,2,0,P|181:321|176:58,1,629.9999833107
284,144,4068,2,0,P|324:140|300:168,1,89.9999976158143
122,112,4069,2,0,P|385:117|258:347,1,629.9999833107
426,256,4070,2,0,P|362:341|234:362,1,179.999995231629
228,240,4071,2,0,P|188:244|212:216,1,89.9999976158143
320,216,4071,2,0,P|296:248|248:256,1,89.9999976158143
28,90,4071,2,0,L|28:184,1,89.9999976158143
409,221,4072,2,0,P|160:306|200:46,1,629.9999833107
138,90,4072,2,0,P|396:141|231:345,1,629.9999833107
389,271,4074,2,0,P|126:266|253:36,1,629.9999833107
286,139,4074,2,0,P|330:134|304:165,1,89.9999976158143
28,180,4074,2,0,L|28:272,1,89.9999976158143
185,165,4074,2,0,P|212:130|264:121,1,89.9999976158143
354,312,4075,2,0,P|109:217|307:44,1,629.9999833107
373,293,4076,2,0,P|115:242|280:38,1,629.9999833107
225,244,4077,2,0,P|181:249|207:218,1,89.9999976158143
28,270,4077,2,0,L|28:360,1,89.9999976158143
307,339,4077,2,0,P|109:166|354:71,1,629.9999833107
326,218,4079,2,0,P|300:253|247:262,1,89.9999976158143
280,345,4079,2,0,P|115:141|373:90,1,629.9999833107
289,134,4080,2,0,P|337:129|308:163,1,89.9999976158143
28,360,4080,2,0,L|124:360,1,89.9999976158143
50,115,4082,2,0,P|127:12|281:-13,1,269.999992847443
179,163,4083,2,0,P|208:124|265:115,1,89.9999976158143
222,249,4083,2,0,P|174:254|203:220,1,89.9999976158143
118,360,4083,2,0,L|212:360,1,89.9999976158143
253,347,4084,2,0,P|126:117|389:112,1,629.9999833107
200,337,4086,2,0,P|160:77|409:162,1,629.9999833107
292,128,4086,2,0,P|345:123|314:160,1,89.9999976158143
461,268,4087,2,0,P|384:371|230:397,1,269.999992847443
176,325,4088,2,0,P|181:62|411:189,1,629.9999833107
332,220,4088,2,0,P|304:259|246:268,1,89.9999976158143
212,360,4089,2,0,L|308:360,1,89.9999976158143
219,255,4089,2,0,P|166:260|197:223,1,89.9999976158143
171,160,4091,2,0,P|203:118|266:107,1,89.9999976158143
302,360,4092,2,0,L|392:360,1,89.9999976158143
200,337,4093,2,0,P|160:77|409:162,1,629.9999833107
295,124,4094,2,0,P|351:119|317:158,1,89.9999976158143
154,309,4095,2,0,P|205:51|409:216,1,629.9999833107
392,360,4095,2,0,L|484:360,1,89.9999976158143
120,268,4096,2,0,P|256:43|392:268,1,629.9999833107
340,223,4096,2,0,P|308:265|245:276,1,89.9999976158143
135,290,4097,2,0,P|230:45|403:243,1,629.9999833107
216,259,4097,2,0,P|160:264|194:225,1,89.9999976158143
102,216,4098,2,0,P|306:51|357:309,1,629.9999833107
482,360,4098,2,0,L|482:264,1,89.9999976158143
108,243,4099,2,0,P|281:45|376:290,1,629.9999833107
299,118,4100,2,0,P|360:111|323:155,1,89.9999976158143
100,189,4100,2,0,P|330:62|335:325,1,629.9999833107
100,189,4101,2,0,P|330:62|335:325,1,629.9999833107
166,158,4101,2,0,P|200:113|267:102,1,89.9999976158143
102,162,4103,2,0,P|351:77|311:337,1,629.9999833107
482,270,4103,2,0,L|482:176,1,89.9999976158143
212,265,4103,2,0,P|151:272|188:228,1,89.9999976158143
345,225,4106,2,0,P|311:270|244:281,1,89.9999976158143
482,180,4106,2,0,L|482:88,1,89.9999976158143
303,111,4106,2,0,P|370:104|329:151,1,89.9999976158143
208,272,4109,2,0,P|141:279|182:232,1,89.9999976158143
482,90,4109,2,0,L|482:0,1,89.9999976158143
157,155,4109,2,0,P|194:105|268:93,1,89.9999976158143
482,0,4112,2,0,L|386:0,1,89.9999976158143
307,103,4112,2,0,P|381:95|337:147,1,179.999995231629
180,56,4113,2,0,P|405:192|180:328,1,629.9999833107
354,228,4114,2,0,P|317:278|243:290,1,89.9999976158143
204,280,4115,2,0,P|130:288|174:236,1,179.999995231629
392,0,4115,2,0,L|298:0,1,89.9999976158143
231,38,4115,2,0,P|396:242|138:293,1,629.9999833107
180,56,4116,2,0,P|405:192|180:328,1,629.9999833107
258,36,4117,2,0,P|385:266|122:271,1,629.9999833107
148,151,4118,2,0,P|188:97|269:84,1,89.9999976158143
231,38,4118,2,0,P|396:242|138:293,1,629.9999833107
258,36,4120,2,0,P|385:266|122:271,1,629.9999833107
285,38,4121,2,0,P|370:287|110:247,1,629.9999833107
298,0,4121,2,0,L|202:0,1,89.9999976158143
306,105,4121,2,0,P|378:98|335:148,1,89.9999976158143
363,232,4123,2,0,P|323:286|242:299,1,89.9999976158143
335,58,4123,2,0,P|330:321|100:194,1,629.9999833107
205,278,4124,2,0,P|133:285|176:235,1,89.9999976158143
208,0,4124,2,0,L|118:0,1,89.9999976158143
285,38,4124,2,0,P|370:287|110:247,1,629.9999833107
357,74,4125,2,0,P|306:332|102:167,1,629.9999833107
335,58,4126,2,0,P|330:321|100:194,1,629.9999833107
137,147,4126,2,0,P|182:88|270:73,1,89.9999976158143
118,0,4127,2,0,L|26:0,1,89.9999976158143
311,97,4127,2,0,P|390:89|343:144,1,179.999995231629
376,93,4127,2,0,P|281:338|108:140,1,629.9999833107
357,74,4128,2,0,P|306:332|102:167,1,629.9999833107
403,140,4129,2,0,P|230:338|135:93,1,629.9999833107
200,286,4130,2,0,P|121:294|168:239,1,179.999995231629
374,236,4131,2,0,P|329:295|241:310,1,89.9999976158143
409,167,4131,2,0,P|205:332|154:74,1,629.9999833107
316,88,4133,2,0,P|402:79|350:140,1,179.999995231629
411,194,4133,2,0,P|181:321|176:58,1,629.9999833107
401,247,4135,2,0,P|141:287|226:38,1,629.9999833107
144,150,4136,2,0,P|186:94|269:80,1,89.9999976158143
195,295,4136,2,0,P|109:304|161:243,1,179.999995231629
411,194,4136,2,0,P|181:321|176:58,1,629.9999833107
389,271,4137,2,0,P|126:266|253:36,1,629.9999833107
401,247,4138,2,0,P|141:287|226:38,1,629.9999833107
322,78,4139,2,0,P|417:68|360:135,1,179.999995231629
389,271,4140,2,0,P|126:266|253:36,1,629.9999833107
367,233,4141,2,0,P|325:289|242:303,1,89.9999976158143
401,247,4142,2,0,P|141:287|226:38,1,629.9999833107
189,305,4142,2,0,P|94:315|151:248,1,179.999995231629
133,146,4144,2,0,P|179:85|271:69,1,89.9999976158143
373,293,4144,2,0,P|115:242|280:38,1,629.9999833107
401,247,4145,2,0,P|141:287|226:38,1,629.9999833107
354,312,4146,2,0,P|109:217|307:44,1,629.9999833107
373,293,4147,2,0,P|115:242|280:38,1,629.9999833107
326,71,4147,2,0,P|427:61|366:131,1,179.999995231629
332,328,4148,2,0,P|107:192|332:56,1,629.9999833107
354,312,4149,2,0,P|109:217|307:44,1,629.9999833107
378,237,4149,2,0,P|332:298|240:314,1,89.9999976158143
185,312,4150,2,0,P|84:322|145:252,1,179.999995231629
280,345,4150,2,0,P|115:141|373:90,1,629.9999833107
307,339,4151,2,0,P|109:166|354:71,1,629.9999833107
253,347,4152,2,0,P|126:117|389:112,1,629.9999833107
333,59,4153,2,0,P|444:48|377:125,1,269.999992847443
253,347,4153,2,0,P|126:117|389:112,1,629.9999833107
122,142,4153,2,0,P|172:75|272:58,1,179.999995231629
226,345,4155,2,0,P|141:96|401:136,1,629.9999833107
178,324,4156,2,0,P|67:335|134:258,1,269.999992847443
389,241,4158,2,0,P|339:308|239:325,1,179.999995231629
340,47,4159,2,0,P|461:34|388:119,1,269.999992847443
109,137,4161,2,0,P|164:63|274:45,1,179.999995231629
171,336,4162,2,0,P|50:349|123:264,1,269.999992847443
349,32,4165,2,0,P|481:19|402:112,1,269.999992847443
402,246,4166,2,0,P|347:320|237:338,1,179.999995231629
162,351,4168,2,0,P|30:364|109:271,1,269.999992847443
100,133,4171,2,0,P|158:56|275:36,1,179.999995231629
411,250,4176,2,0,P|353:327|236:347,1,179.999995231629
85,127,4179,2,0,P|149:42|277:21,1,179.999995231629
426,256,4184,2,0,P|362:341|234:362,1,179.999995231629
392,116,4186,2,0,P|256:341|120:116,1,629.9999833107
110,136,4188,2,0,P|370:96|285:345,1,629.9999833107
192,168,4188,2,0,P|216:136|264:128,1,89.9999976158143
409,167,4188,2,0,P|205:332|154:74,1,629.9999833107
28,0,4188,2,0,L|28:96,1,89.9999976158143
284,144,4190,2,0,P|324:140|300:168,1,89.9999976158143
411,194,4190,2,0,P|181:321|176:58,1,629.9999833107
122,112,4191,2,0,P|385:117|258:347,1,629.9999833107
28,90,4193,2,0,L|28:184,1,89.9999976158143
228,240,4193,2,0,P|188:244|212:216,1,89.9999976158143
320,216,4193,2,0,P|296:248|248:256,1,89.9999976158143
409,221,4194,2,0,P|160:306|200:46,1,629.9999833107
138,90,4194,2,0,P|396:141|231:345,1,629.9999833107
28,180,4196,2,0,L|28:272,1,89.9999976158143
389,271,4196,2,0,P|126:266|253:36,1,629.9999833107
286,139,4196,2,0,P|330:134|304:165,1,89.9999976158143
185,165,4196,2,0,P|212:130|264:121,1,89.9999976158143
354,312,4197,2,0,P|109:217|307:44,1,629.9999833107
373,293,4198,2,0,P|115:242|280:38,1,629.9999833107
28,270,4199,2,0,L|28:360,1,89.9999976158143
225,244,4199,2,0,P|181:249|207:218,1,89.9999976158143
307,339,4199,2,0,P|109:166|354:71,1,629.9999833107
326,218,4201,2,0,P|300:253|247:262,1,89.9999976158143
280,345,4201,2,0,P|115:141|373:90,1,629.9999833107
28,360,4202,2,0,L|124:360,1,89.9999976158143
289,134,4202,2,0,P|337:129|308:163,1,89.9999976158143
222,249,4205,2,0,P|174:254|203:220,1,89.9999976158143
179,163,4205,2,0,P|208:124|265:115,1,89.9999976158143
118,360,4205,2,0,L|212:360,1,89.9999976158143
253,347,4206,2,0,P|126:117|389:112,1,629.9999833107
292,128,4208,2,0,P|345:123|314:160,1,89.9999976158143
200,337,4208,2,0,P|160:77|409:162,1,629.9999833107
332,220,4210,2,0,P|304:259|246:268,1,89.9999976158143
176,325,4210,2,0,P|181:62|411:189,1,629.9999833107
219,255,4211,2,0,P|166:260|197:223,1,89.9999976158143
212,360,4211,2,0,L|308:360,1,89.9999976158143
171,160,4213,2,0,P|203:118|266:107,1,89.9999976158143
302,360,4214,2,0,L|392:360,1,89.9999976158143
200,337,4215,2,0,P|160:77|409:162,1,629.9999833107
295,124,4216,2,0,P|351:119|317:158,1,89.9999976158143
392,360,4217,2,0,L|484:360,1,89.9999976158143
154,309,4217,2,0,P|205:51|409:216,1,629.9999833107
120,268,4218,2,0,P|256:43|392:268,1,629.9999833107
340,223,4218,2,0,P|308:265|245:276,1,89.9999976158143
135,290,4219,2,0,P|230:45|403:243,1,629.9999833107
216,259,4219,2,0,P|160:264|194:225,1,89.9999976158143
482,360,4220,2,0,L|482:264,1,89.9999976158143
102,216,4220,2,0,P|306:51|357:309,1,629.9999833107
108,243,4221,2,0,P|281:45|376:290,1,629.9999833107
100,189,4222,2,0,P|330:62|335:325,1,629.9999833107
299,118,4222,2,0,P|360:111|323:155,1,89.9999976158143
166,158,4223,2,0,P|200:113|267:102,1,89.9999976158143
100,189,4223,2,0,P|330:62|335:325,1,629.9999833107
212,265,4225,2,0,P|151:272|188:228,1,89.9999976158143
102,162,4225,2,0,P|351:77|311:337,1,629.9999833107
482,270,4225,2,0,L|482:176,1,89.9999976158143
482,180,4228,2,0,L|482:88,1,89.9999976158143
303,111,4228,2,0,P|370:104|329:151,1,89.9999976158143
345,225,4228,2,0,P|311:270|244:281,1,89.9999976158143
482,90,4231,2,0,L|482:0,1,89.9999976158143
157,155,4231,2,0,P|194:105|268:93,1,89.9999976158143
208,272,4231,2,0,P|141:279|182:232,1,89.9999976158143
307,103,4234,2,0,P|381:95|337:147,1,179.999995231629
482,0,4234,2,0,L|386:0,1,89.9999976158143
180,56,4235,2,0,P|405:192|180:328,1,629.9999833107
354,228,4236,2,0,P|317:278|243:290,1,89.9999976158143
392,0,4237,2,0,L|298:0,1,89.9999976158143
204,280,4237,2,0,P|130:288|174:236,1,179.999995231629
231,38,4237,2,0,P|396:242|138:293,1,629.9999833107
180,56,4238,2,0,P|405:192|180:328,1,629.9999833107
258,36,4239,2,0,P|385:266|122:271,1,629.9999833107
148,151,4240,2,0,P|188:97|269:84,1,89.9999976158143
231,38,4240,2,0,P|396:242|138:293,1,629.9999833107
258,36,4242,2,0,P|385:266|122:271,1,629.9999833107
306,105,4243,2,0,P|378:98|335:148,1,89.9999976158143
285,38,4243,2,0,P|370:287|110:247,1,629.9999833107
298,0,4243,2,0,L|202:0,1,89.9999976158143
363,232,4245,2,0,P|323:286|242:299,1,89.9999976158143
335,58,4245,2,0,P|330:321|100:194,1,629.9999833107
205,278,4246,2,0,P|133:285|176:235,1,89.9999976158143
285,38,4246,2,0,P|370:287|110:247,1,629.9999833107
208,0,4246,2,0,L|118:0,1,89.9999976158143
357,74,4247,2,0,P|306:332|102:167,1,629.9999833107
137,147,4248,2,0,P|182:88|270:73,1,89.9999976158143
335,58,4248,2,0,P|330:321|100:194,1,629.9999833107
376,93,4249,2,0,P|281:338|108:140,1,629.9999833107
311,97,4249,2,0,P|390:89|343:144,1,179.999995231629
118,0,4249,2,0,L|26:0,1,89.9999976158143
357,74,4250,2,0,P|306:332|102:167,1,629.9999833107
403,140,4251,2,0,P|230:338|135:93,1,629.9999833107
200,286,4252,2,0,P|121:294|168:239,1,179.999995231629
374,236,4253,2,0,P|329:295|241:310,1,89.9999976158143
409,167,4253,2,0,P|205:332|154:74,1,629.9999833107
411,194,4255,2,0,P|181:321|176:58,1,629.9999833107
316,88,4255,2,0,P|402:79|350:140,1,179.999995231629
401,247,4257,2,0,P|141:287|226:38,1,629.9999833107
144,150,4258,2,0,P|186:94|269:80,1,89.9999976158143
195,295,4258,2,0,P|109:304|161:243,1,179.999995231629
411,194,4258,2,0,P|181:321|176:58,1,629.9999833107
389,271,4259,2,0,P|126:266|253:36,1,629.9999833107
401,247,4260,2,0,P|141:287|226:38,1,629.9999833107
322,78,4261,2,0,P|417:68|360:135,1,179.999995231629
389,271,4262,2,0,P|126:266|253:36,1,629.9999833107
367,233,4263,2,0,P|325:289|242:303,1,89.9999976158143
189,305,4264,2,0,P|94:315|151:248,1,179.999995231629
401,247,4264,2,0,P|141:287|226:38,1,629.9999833107
373,293,4266,2,0,P|115:242|280:38,1,629.9999833107
133,146,4266,2,0,P|179:85|271:69,1,89.9999976158143
401,247,4267,2,0,P|141:287|226:38,1,629.9999833107
354,312,4268,2,0,P|109:217|307:44,1,629.9999833107
326,71,4269,2,0,P|427:61|366:131,1,179.999995231629
373,293,4269,2,0,P|115:242|280:38,1,629.9999833107
332,328,4270,2,0,P|107:192|332:56,1,629.9999833107
354,312,4271,2,0,P|109:217|307:44,1,629.9999833107
378,237,4271,2,0,P|332:298|240:314,1,89.9999976158143
185,312,4272,2,0,P|84:322|145:252,1,179.999995231629
280,345,4272,2,0,P|115:141|373:90,1,629.9999833107
307,339,4273,2,0,P|109:166|354:71,1,629.9999833107
253,347,4274,2,0,P|126:117|389:112,1,629.9999833107
333,59,4275,2,0,P|444:48|377:125,1,269.999992847443
253,347,4275,2,0,P|126:117|389:112,1,629.9999833107
122,142,4275,2,0,P|172:75|272:58,1,179.999995231629
226,345,4277,2,0,P|141:96|401:136,1,629.9999833107
178,324,4278,2,0,P|67:335|134:258,1,269.999992847443
389,241,4280,2,0,P|339:308|239:325,1,179.999995231629
340,47,4281,2,0,P|461:34|388:119,1,269.999992847443
109,137,4283,2,0,P|164:63|274:45,1,179.999995231629
171,336,4284,2,0,P|50:349|123:264,1,269.999992847443
349,32,4287,2,0,P|481:19|402:112,1,269.999992847443
402,246,4288,2,0,P|347:320|237:338,1,179.999995231629
162,351,4290,2,0,P|30:364|109:271,1,269.999992847443
100,133,4293,2,0,P|158:56|275:36,1,179.999995231629
392,116,4298,2,0,P|256:341|120:116,1,629.9999833107
192,168,4300,2,0,P|216:136|264:128,1,89.9999976158143
409,167,4300,2,0,P|205:332|154:74,1,629.9999833107
110,136,4300,2,0,P|370:96|285:345,1,629.9999833107
28,0,4300,2,0,L|28:96,1,89.9999976158143
85,127,4301,2,0,P|149:42|277:21,1,179.999995231629
411,194,4302,2,0,P|181:321|176:58,1,629.9999833107
284,144,4302,2,0,P|324:140|300:168,1,89.9999976158143
122,112,4303,2,0,P|385:117|258:347,1,629.9999833107
228,240,4305,2,0,P|188:244|212:216,1,89.9999976158143
28,90,4305,2,0,L|28:184,1,89.9999976158143
320,216,4305,2,0,P|296:248|248:256,1,89.9999976158143
138,90,4306,2,0,P|396:141|231:345,1,629.9999833107
409,221,4306,2,0,P|160:306|200:46,1,629.9999833107
185,165,4308,2,0,P|212:130|264:121,1,89.9999976158143
389,271,4308,2,0,P|126:266|253:36,1,629.9999833107
28,180,4308,2,0,L|28:272,1,89.9999976158143
286,139,4308,2,0,P|330:134|304:165,1,89.9999976158143
354,312,4309,2,0,P|109:217|307:44,1,629.9999833107
373,293,4310,2,0,P|115:242|280:38,1,629.9999833107
307,339,4311,2,0,P|109:166|354:71,1,629.9999833107
225,244,4311,2,0,P|181:249|207:218,1,89.9999976158143
28,270,4311,2,0,L|28:360,1,89.9999976158143
326,218,4313,2,0,P|300:253|247:262,1,89.9999976158143
280,345,4313,2,0,P|115:141|373:90,1,629.9999833107
289,134,4314,2,0,P|337:129|308:163,1,89.9999976158143
28,360,4314,2,0,L|124:360,1,89.9999976158143
442,261,4315,2,0,P|372:355|232:378,1,179.999995231629
179,163,4317,2,0,P|208:124|265:115,1,89.9999976158143
118,360,4317,2,0,L|212:360,1,89.9999976158143
222,249,4317,2,0,P|174:254|203:220,1,89.9999976158143
253,347,4318,2,0,P|126:117|389:112,1,629.9999833107
200,337,4320,2,0,P|160:77|409:162,1,629.9999833107
292,128,4320,2,0,P|345:123|314:160,1,89.9999976158143
176,325,4322,2,0,P|181:62|411:189,1,629.9999833107
332,220,4322,2,0,P|304:259|246:268,1,89.9999976158143
219,255,4323,2,0,P|166:260|197:223,1,89.9999976158143
212,360,4323,2,0,L|308:360,1,89.9999976158143
171,160,4325,2,0,P|203:118|266:107,1,89.9999976158143
302,360,4326,2,0,L|392:360,1,89.9999976158143
200,337,4327,2,0,P|160:77|409:162,1,629.9999833107
295,124,4328,2,0,P|351:119|317:158,1,89.9999976158143
154,309,4329,2,0,P|205:51|409:216,1,629.9999833107
392,360,4329,2,0,L|484:360,1,89.9999976158143
340,223,4330,2,0,P|308:265|245:276,1,89.9999976158143
120,268,4330,2,0,P|256:43|392:268,1,629.9999833107
135,290,4331,2,0,P|230:45|403:243,1,629.9999833107
216,259,4331,2,0,P|160:264|194:225,1,89.9999976158143
482,360,4332,2,0,L|482:264,1,89.9999976158143
102,216,4332,2,0,P|306:51|357:309,1,629.9999833107
108,243,4333,2,0,P|281:45|376:290,1,629.9999833107
299,118,4334,2,0,P|360:111|323:155,1,89.9999976158143
100,189,4334,2,0,P|330:62|335:325,1,629.9999833107
166,158,4335,2,0,P|200:113|267:102,1,89.9999976158143
100,189,4335,2,0,P|330:62|335:325,1,629.9999833107
102,162,4337,2,0,P|351:77|311:337,1,629.9999833107
212,265,4337,2,0,P|151:272|188:228,1,89.9999976158143
482,270,4337,2,0,L|482:176,1,89.9999976158143
303,111,4340,2,0,P|370:104|329:151,1,89.9999976158143
482,180,4340,2,0,L|482:88,1,89.9999976158143
345,225,4340,2,0,P|311:270|244:281,1,89.9999976158143
208,272,4343,2,0,P|141:279|182:232,1,89.9999976158143
482,90,4343,2,0,L|482:0,1,89.9999976158143
157,155,4343,2,0,P|194:105|268:93,1,89.9999976158143
482,0,4346,2,0,L|386:0,1,89.9999976158143
307,103,4346,2,0,P|381:95|337:147,1,179.999995231629
180,56,4347,2,0,P|405:192|180:328,1,629.9999833107
354,228,4348,2,0,P|317:278|243:290,1,89.9999976158143
204,280,4349,2,0,P|130:288|174:236,1,179.999995231629
392,0,4349,2,0,L|298:0,1,89.9999976158143
231,38,4349,2,0,P|396:242|138:293,1,629.9999833107
180,56,4350,2,0,P|405:192|180:328,1,629.9999833107
258,36,4351,2,0,P|385:266|122:271,1,629.9999833107
148,151,4352,2,0,P|188:97|269:84,1,89.9999976158143
231,38,4352,2,0,P|396:242|138:293,1,629.9999833107
258,36,4354,2,0,P|385:266|122:271,1,629.9999833107
298,0,4355,2,0,L|202:0,1,89.9999976158143
306,105,4355,2,0,P|378:98|335:148,1,89.9999976158143
285,38,4355,2,0,P|370:287|110:247,1,629.9999833107
363,232,4357,2,0,P|323:286|242:299,1,89.9999976158143
335,58,4357,2,0,P|330:321|100:194,1,629.9999833107
205,278,4358,2,0,P|133:285|176:235,1,89.9999976158143
208,0,4358,2,0,L|118:0,1,89.9999976158143
285,38,4358,2,0,P|370:287|110:247,1,629.9999833107
357,74,4359,2,0,P|306:332|102:167,1,629.9999833107
137,147,4360,2,0,P|182:88|270:73,1,89.9999976158143
335,58,4360,2,0,P|330:321|100:194,1,629.9999833107
118,0,4361,2,0,L|26:0,1,89.9999976158143
376,93,4361,2,0,P|281:338|108:140,1,629.9999833107
311,97,4361,2,0,P|390:89|343:144,1,179.999995231629
357,74,4362,2,0,P|306:332|102:167,1,629.9999833107
403,140,4363,2,0,P|230:338|135:93,1,629.9999833107
200,286,4364,2,0,P|121:294|168:239,1,179.999995231629
409,167,4365,2,0,P|205:332|154:74,1,629.9999833107
374,236,4365,2,0,P|329:295|241:310,1,89.9999976158143
411,194,4367,2,0,P|181:321|176:58,1,629.9999833107
316,88,4367,2,0,P|402:79|350:140,1,179.999995231629
401,247,4369,2,0,P|141:287|226:38,1,629.9999833107
195,295,4370,2,0,P|109:304|161:243,1,179.999995231629
411,194,4370,2,0,P|181:321|176:58,1,629.9999833107
144,150,4370,2,0,P|186:94|269:80,1,89.9999976158143
389,271,4371,2,0,P|126:266|253:36,1,629.9999833107
401,247,4372,2,0,P|141:287|226:38,1,629.9999833107
322,78,4373,2,0,P|417:68|360:135,1,179.999995231629
389,271,4374,2,0,P|126:266|253:36,1,629.9999833107
367,233,4375,2,0,P|325:289|242:303,1,89.9999976158143
401,247,4376,2,0,P|141:287|226:38,1,629.9999833107
189,305,4376,2,0,P|94:315|151:248,1,179.999995231629
133,146,4378,2,0,P|179:85|271:69,1,89.9999976158143
373,293,4378,2,0,P|115:242|280:38,1,629.9999833107
401,247,4379,2,0,P|141:287|226:38,1,629.9999833107
354,312,4380,2,0,P|109:217|307:44,1,629.9999833107
326,71,4381,2,0,P|427:61|366:131,1,179.999995231629
373,293,4381,2,0,P|115:242|280:38,1,629.9999833107
332,328,4382,2,0,P|107:192|332:56,1,629.9999833107
378,237,4383,2,0,P|332:298|240:314,1,89.9999976158143
354,312,4383,2,0,P|109:217|307:44,1,629.9999833107
280,345,4384,2,0,P|115:141|373:90,1,629.9999833107
185,312,4384,2,0,P|84:322|145:252,1,179.999995231629
307,339,4385,2,0,P|109:166|354:71,1,629.9999833107
253,347,4386,2,0,P|126:117|389:112,1,629.9999833107
122,142,4387,2,0,P|172:75|272:58,1,179.999995231629
333,59,4387,2,0,P|444:48|377:125,1,269.999992847443
253,347,4387,2,0,P|126:117|389:112,1,629.9999833107
226,345,4389,2,0,P|141:96|401:136,1,629.9999833107
178,324,4390,2,0,P|67:335|134:258,1,269.999992847443
389,241,4392,2,0,P|339:308|239:325,1,179.999995231629
340,47,4393,2,0,P|461:34|388:119,1,269.999992847443
109,137,4395,2,0,P|164:63|274:45,1,179.999995231629
171,336,4396,2,0,P|50:349|123:264,1,269.999992847443
349,32,4399,2,0,P|481:19|402:112,1,269.999992847443
402,246,4400,2,0,P|347:320|237:338,1,179.999995231629
162,351,4402,2,0,P|30:364|109:271,1,269.999992847443
100,133,4405,2,0,P|158:56|275:36,1,179.999995231629
411,250,4410,2,0,P|353:327|236:347,1,179.999995231629
85,127,4413,2,0,P|149:42|277:21,1,179.999995231629
426,256,4418,2,0,P|362:341|234:362,1,179.999995231629
392,116,4420,2,0,P|256:341|120:116,1,629.9999833107
28,0,4422,2,0,L|28:96,1,89.9999976158143
192,168,4422,2,0,P|216:136|264:128,1,89.9999976158143
110,136,4422,2,0,P|370:96|285:345,1,629.9999833107
409,167,4422,2,0,P|205:332|154:74,1,629.9999833107
284,144,4424,2,0,P|324:140|300:168,1,89.9999976158143
411,194,4424,2,0,P|181:321|176:58,1,629.9999833107
122,112,4425,2,0,P|385:117|258:347,1,629.9999833107
28,90,4427,2,0,L|28:184,1,89.9999976158143
320,216,4427,2,0,P|296:248|248:256,1,89.9999976158143
228,240,4427,2,0,P|188:244|212:216,1,89.9999976158143
409,221,4428,2,0,P|160:306|200:46,1,629.9999833107
138,90,4428,2,0,P|396:141|231:345,1,629.9999833107
185,165,4430,2,0,P|212:130|264:121,1,89.9999976158143
286,139,4430,2,0,P|330:134|304:165,1,89.9999976158143
28,180,4430,2,0,L|28:272,1,89.9999976158143
389,271,4430,2,0,P|126:266|253:36,1,629.9999833107
354,312,4431,2,0,P|109:217|307:44,1,629.9999833107
373,293,4432,2,0,P|115:242|280:38,1,629.9999833107
307,339,4433,2,0,P|109:166|354:71,1,629.9999833107
28,270,4433,2,0,L|28:360,1,89.9999976158143
225,244,4433,2,0,P|181:249|207:218,1,89.9999976158143
280,345,4435,2,0,P|115:141|373:90,1,629.9999833107
326,218,4435,2,0,P|300:253|247:262,1,89.9999976158143
28,360,4436,2,0,L|124:360,1,89.9999976158143
289,134,4436,2,0,P|337:129|308:163,1,89.9999976158143
179,163,4439,2,0,P|208:124|265:115,1,89.9999976158143
222,249,4439,2,0,P|174:254|203:220,1,89.9999976158143
118,360,4439,2,0,L|212:360,1,89.9999976158143
253,347,4440,2,0,P|126:117|389:112,1,629.9999833107
200,337,4442,2,0,P|160:77|409:162,1,629.9999833107
292,128,4442,2,0,P|345:123|314:160,1,89.9999976158143
332,220,4444,2,0,P|304:259|246:268,1,89.9999976158143
176,325,4444,2,0,P|181:62|411:189,1,629.9999833107
212,360,4445,2,0,L|308:360,1,89.9999976158143
219,255,4445,2,0,P|166:260|197:223,1,89.9999976158143
171,160,4447,2,0,P|203:118|266:107,1,89.9999976158143
302,360,4448,2,0,L|392:360,1,89.9999976158143
200,337,4449,2,0,P|160:77|409:162,1,629.9999833107
295,124,4450,2,0,P|351:119|317:158,1,89.9999976158143
392,360,4451,2,0,L|484:360,1,89.9999976158143
154,309,4451,2,0,P|205:51|409:216,1,629.9999833107
340,223,4452,2,0,P|308:265|245:276,1,89.9999976158143
120,268,4452,2,0,P|256:43|392:268,1,629.9999833107
216,259,4453,2,0,P|160:264|194:225,1,89.9999976158143
135,290,4453,2,0,P|230:45|403:243,1,629.9999833107
482,360,4454,2,0,L|482:264,1,89.9999976158143
102,216,4454,2,0,P|306:51|357:309,1,629.9999833107
108,243,4455,2,0,P|281:45|376:290,1,629.9999833107
100,189,4456,2,0,P|330:62|335:325,1,629.9999833107
299,118,4456,2,0,P|360:111|323:155,1,89.9999976158143
100,189,4457,2,0,P|330:62|335:325,1,629.9999833107
166,158,4457,2,0,P|200:113|267:102,1,89.9999976158143
212,265,4459,2,0,P|151:272|188:228,1,89.9999976158143
482,270,4459,2,0,L|482:176,1,89.9999976158143
102,162,4459,2,0,P|351:77|311:337,1,629.9999833107
482,180,4462,2,0,L|482:88,1,89.9999976158143
345,225,4462,2,0,P|311:270|244:281,1,89.9999976158143
303,111,4462,2,0,P|370:104|329:151,1,89.9999976158143
208,272,4465,2,0,P|141:279|182:232,1,89.9999976158143
157,155,4465,2,0,P|194:105|268:93,1,89.9999976158143
482,90,4465,2,0,L|482:0,1,89.9999976158143
482,0,4468,2,0,L|386:0,1,89.9999976158143
307,103,4468,2,0,P|381:95|337:147,1,179.999995231629
180,56,4469,2,0,P|405:192|180:328,1,629.9999833107
354,228,4470,2,0,P|317:278|243:290,1,89.9999976158143
204,280,4471,2,0,P|130:288|174:236,1,179.999995231629
392,0,4471,2,0,L|298:0,1,89.9999976158143
231,38,4471,2,0,P|396:242|138:293,1,629.9999833107
180,56,4472,2,0,P|405:192|180:328,1,629.9999833107
258,36,4473,2,0,P|385:266|122:271,1,629.9999833107
231,38,4474,2,0,P|396:242|138:293,1,629.9999833107
148,151,4474,2,0,P|188:97|269:84,1,89.9999976158143
258,36,4476,2,0,P|385:266|122:271,1,629.9999833107
306,105,4477,2,0,P|378:98|335:148,1,89.9999976158143
285,38,4477,2,0,P|370:287|110:247,1,629.9999833107
298,0,4477,2,0,L|202:0,1,89.9999976158143
335,58,4479,2,0,P|330:321|100:194,1,629.9999833107
363,232,4479,2,0,P|323:286|242:299,1,89.9999976158143
285,38,4480,2,0,P|370:287|110:247,1,629.9999833107
208,0,4480,2,0,L|118:0,1,89.9999976158143
205,278,4480,2,0,P|133:285|176:235,1,89.9999976158143
357,74,4481,2,0,P|306:332|102:167,1,629.9999833107
335,58,4482,2,0,P|330:321|100:194,1,629.9999833107
137,147,4482,2,0,P|182:88|270:73,1,89.9999976158143
376,93,4483,2,0,P|281:338|108:140,1,629.9999833107
311,97,4483,2,0,P|390:89|343:144,1,179.999995231629
118,0,4483,2,0,L|26:0,1,89.9999976158143
357,74,4484,2,0,P|306:332|102:167,1,629.9999833107
403,140,4485,2,0,P|230:338|135:93,1,629.9999833107
200,286,4486,2,0,P|121:294|168:239,1,179.999995231629
409,167,4487,2,0,P|205:332|154:74,1,629.9999833107
374,236,4487,2,0,P|329:295|241:310,1,89.9999976158143
411,194,4489,2,0,P|181:321|176:58,1,629.9999833107
316,88,4489,2,0,P|402:79|350:140,1,179.999995231629
401,247,4491,2,0,P|141:287|226:38,1,629.9999833107
411,194,4492,2,0,P|181:321|176:58,1,629.9999833107
144,150,4492,2,0,P|186:94|269:80,1,89.9999976158143
195,295,4492,2,0,P|109:304|161:243,1,179.999995231629
389,271,4493,2,0,P|126:266|253:36,1,629.9999833107
401,247,4494,2,0,P|141:287|226:38,1,629.9999833107
322,78,4495,2,0,P|417:68|360:135,1,179.999995231629
389,271,4496,2,0,P|126:266|253:36,1,629.9999833107
367,233,4497,2,0,P|325:289|242:303,1,89.9999976158143
189,305,4498,2,0,P|94:315|151:248,1,179.999995231629
401,247,4498,2,0,P|141:287|226:38,1,629.9999833107
373,293,4500,2,0,P|115:242|280:38,1,629.9999833107
133,146,4500,2,0,P|179:85|271:69,1,89.9999976158143
401,247,4501,2,0,P|141:287|226:38,1,629.9999833107
354,312,4502,2,0,P|109:217|307:44,1,629.9999833107
373,293,4503,2,0,P|115:242|280:38,1,629.9999833107
326,71,4503,2,0,P|427:61|366:131,1,179.999995231629
332,328,4504,2,0,P|107:192|332:56,1,629.9999833107
378,237,4505,2,0,P|332:298|240:314,1,89.9999976158143
354,312,4505,2,0,P|109:217|307:44,1,629.9999833107
280,345,4506,2,0,P|115:141|373:90,1,629.9999833107
185,312,4506,2,0,P|84:322|145:252,1,179.999995231629
307,339,4507,2,0,P|109:166|354:71,1,629.9999833107
253,347,4508,2,0,P|126:117|389:112,1,629.9999833107
253,347,4509,2,0,P|126:117|389:112,1,629.9999833107
122,142,4509,2,0,P|172:75|272:58,1,179.999995231629
333,59,4509,2,0,P|444:48|377:125,1,269.999992847443
226,345,4511,2,0,P|141:96|401:136,1,629.9999833107
178,324,4512,2,0,P|67:335|134:258,1,269.999992847443
389,241,4514,2,0,P|339:308|239:325,1,179.999995231629
340,47,4515,2,0,P|461:34|388:119,1,269.999992847443
109,137,4517,2,0,P|164:63|274:45,1,179.999995231629
171,336,4518,2,0,P|50:349|123:264,1,269.999992847443
349,32,4521,2,0,P|481:19|402:112,1,269.999992847443
402,246,4522,2,0,P|347:320|237:338,1,179.999995231629
162,351,4524,2,0,P|30:364|109:271,1,269.999992847443
100,133,4527,2,0,P|158:56|275:36,1,179.999995231629
411,250,4532,2,0,P|353:327|236:347,1,179.999995231629
392,116,4534,2,0,P|256:341|120:116,1,629.9999833107
85,127,4535,2,0,P|149:42|277:21,1,179.999995231629
192,168,4536,2,0,P|216:136|264:128,1,89.9999976158143
28,0,4536,2,0,L|28:96,1,89.9999976158143
110,136,4536,2,0,P|370:96|285:345,1,629.9999833107
409,167,4536,2,0,P|205:332|154:74,1,629.9999833107
284,144,4538,2,0,P|324:140|300:168,1,89.9999976158143
411,194,4538,2,0,P|181:321|176:58,1,629.9999833107
122,112,4539,2,0,P|385:117|258:347,1,629.9999833107
426,256,4540,2,0,P|362:341|234:362,1,179.999995231629
28,90,4541,2,0,L|28:184,1,89.9999976158143
228,240,4541,2,0,P|188:244|212:216,1,89.9999976158143
320,216,4541,2,0,P|296:248|248:256,1,89.9999976158143
138,90,4542,2,0,P|396:141|231:345,1,629.9999833107
409,221,4542,2,0,P|160:306|200:46,1,629.9999833107
389,271,4544,2,0,P|126:266|253:36,1,629.9999833107
185,165,4544,2,0,P|212:130|264:121,1,89.9999976158143
28,180,4544,2,0,L|28:272,1,89.9999976158143
286,139,4544,2,0,P|330:134|304:165,1,89.9999976158143
354,312,4545,2,0,P|109:217|307:44,1,629.9999833107
373,293,4546,2,0,P|115:242|280:38,1,629.9999833107
307,339,4547,2,0,P|109:166|354:71,1,629.9999833107
28,270,4547,2,0,L|28:360,1,89.9999976158143
225,244,4547,2,0,P|181:249|207:218,1,89.9999976158143
280,345,4549,2,0,P|115:141|373:90,1,629.9999833107
326,218,4549,2,0,P|300:253|247:262,1,89.9999976158143
28,360,4550,2,0,L|124:360,1,89.9999976158143
289,134,4550,2,0,P|337:129|308:163,1,89.9999976158143
50,115,4552,2,0,P|127:12|281:-13,1,269.999992847443
118,360,4553,2,0,L|212:360,1,89.9999976158143
222,249,4553,2,0,P|174:254|203:220,1,89.9999976158143
179,163,4553,2,0,P|208:124|265:115,1,89.9999976158143
253,347,4554,2,0,P|126:117|389:112,1,629.9999833107
292,128,4556,2,0,P|345:123|314:160,1,89.9999976158143
200,337,4556,2,0,P|160:77|409:162,1,629.9999833107
461,268,4557,2,0,P|384:371|230:397,1,269.999992847443
176,325,4558,2,0,P|181:62|411:189,1,629.9999833107
332,220,4558,2,0,P|304:259|246:268,1,89.9999976158143
219,255,4559,2,0,P|166:260|197:223,1,89.9999976158143
212,360,4559,2,0,L|308:360,1,89.9999976158143
171,160,4561,2,0,P|203:118|266:107,1,89.9999976158143
302,360,4562,2,0,L|392:360,1,89.9999976158143
200,337,4563,2,0,P|160:77|409:162,1,629.9999833107
295,124,4564,2,0,P|351:119|317:158,1,89.9999976158143
154,309,4565,2,0,P|205:51|409:216,1,629.9999833107
392,360,4565,2,0,L|484:360,1,89.9999976158143
120,268,4566,2,0,P|256:43|392:268,1,629.9999833107
340,223,4566,2,0,P|308:265|245:276,1,89.9999976158143
135,290,4567,2,0,P|230:45|403:243,1,629.9999833107
216,259,4567,2,0,P|160:264|194:225,1,89.9999976158143
482,360,4568,2,0,L|482:264,1,89.9999976158143
102,216,4568,2,0,P|306:51|357:309,1,629.9999833107
108,243,4569,2,0,P|281:45|376:290,1,629.9999833107
299,118,4570,2,0,P|360:111|323:155,1,89.9999976158143
100,189,4570,2,0,P|330:62|335:325,1,629.9999833107
166,158,4571,2,0,P|200:113|267:102,1,89.9999976158143
100,189,4571,2,0,P|330:62|335:325,1,629.9999833107
102,162,4573,2,0,P|351:77|311:337,1,629.9999833107
482,270,4573,2,0,L|482:176,1,89.9999976158143
212,265,4573,2,0,P|151:272|188:228,1,89.9999976158143
482,180,4576,2,0,L|482:88,1,89.9999976158143
345,225,4576,2,0,P|311:270|244:281,1,89.9999976158143
303,111,4576,2,0,P|370:104|329:151,1,89.9999976158143
482,90,4579,2,0,L|482:0,1,89.9999976158143
208,272,4579,2,0,P|141:279|182:232,1,89.9999976158143
157,155,4579,2,0,P|194:105|268:93,1,89.9999976158143
307,103,4582,2,0,P|381:95|337:147,1,179.999995231629
482,0,4582,2,0,L|386:0,1,89.9999976158143
180,56,4583,2,0,P|405:192|180:328,1,629.9999833107
354,228,4584,2,0,P|317:278|243:290,1,89.9999976158143
231,38,4585,2,0,P|396:242|138:293,1,629.9999833107
392,0,4585,2,0,L|298:0,1,89.9999976158143
204,280,4585,2,0,P|130:288|174:236,1,179.999995231629
180,56,4586,2,0,P|405:192|180:328,1,629.9999833107
258,36,4587,2,0,P|385:266|122:271,1,629.9999833107
148,151,4588,2,0,P|188:97|269:84,1,89.9999976158143
231,38,4588,2,0,P|396:242|138:293,1,629.9999833107
258,36,4590,2,0,P|385:266|122:271,1,629.9999833107
298,0,4591,2,0,L|202:0,1,89.9999976158143
285,38,4591,2,0,P|370:287|110:247,1,629.9999833107
306,105,4591,2,0,P|378:98|335:148,1,89.9999976158143
335,58,4593,2,0,P|330:321|100:194,1,629.9999833107
363,232,4593,2,0,P|323:286|242:299,1,89.9999976158143
205,278,4594,2,0,P|133:285|176:235,1,89.9999976158143
285,38,4594,2,0,P|370:287|110:247,1,629.9999833107
208,0,4594,2,0,L|118:0,1,89.9999976158143
357,74,4595,2,0,P|306:332|102:167,1,629.9999833107
137,147,4596,2,0,P|182:88|270:73,1,89.9999976158143
335,58,4596,2,0,P|330:321|100:194,1,629.9999833107
311,97,4597,2,0,P|390:89|343:144,1,179.999995231629
118,0,4597,2,0,L|26:0,1,89.9999976158143
376,93,4597,2,0,P|281:338|108:140,1,629.9999833107
357,74,4598,2,0,P|306:332|102:167,1,629.9999833107
403,140,4599,2,0,P|230:338|135:93,1,629.9999833107
200,286,4600,2,0,P|121:294|168:239,1,179.999995231629
374,236,4601,2,0,P|329:295|241:310,1,89.9999976158143
409,167,4601,2,0,P|205:332|154:74,1,629.9999833107
411,194,4603,2,0,P|181:321|176:58,1,629.9999833107
316,88,4603,2,0,P|402:79|350:140,1,179.999995231629
401,247,4605,2,0,P|141:287|226:38,1,629.9999833107
144,150,4606,2,0,P|186:94|269:80,1,89.9999976158143
411,194,4606,2,0,P|181:321|176:58,1,629.9999833107
195,295,4606,2,0,P|109:304|161:243,1,179.999995231629
389,271,4607,2,0,P|126:266|253:36,1,629.9999833107
401,247,4608,2,0,P|141:287|226:38,1,629.9999833107
322,78,4609,2,0,P|417:68|360:135,1,179.999995231629
389,271,4610,2,0,P|126:266|253:36,1,629.9999833107
367,233,4611,2,0,P|325:289|242:303,1,89.9999976158143
401,247,4612,2,0,P|141:287|226:38,1,629.9999833107
189,305,4612,2,0,P|94:315|151:248,1,179.999995231629
133,146,4614,2,0,P|179:85|271:69,1,89.9999976158143
373,293,4614,2,0,P|115:242|280:38,1,629.9999833107
401,247,4615,2,0,P|141:287|226:38,1,629.9999833107
354,312,4616,2,0,P|109:217|307:44,1,629.9999833107
326,71,4617,2,0,P|427:61|366:131,1,179.999995231629
373,293,4617,2,0,P|115:242|280:38,1,629.9999833107
332,328,4618,2,0,P|107:192|332:56,1,629.9999833107
378,237,4619,2,0,P|332:298|240:314,1,89.9999976158143
354,312,4619,2,0,P|109:217|307:44,1,629.9999833107
280,345,4620,2,0,P|115:141|373:90,1,629.9999833107
185,312,4620,2,0,P|84:322|145:252,1,179.999995231629
307,339,4621,2,0,P|109:166|354:71,1,629.9999833107
253,347,4622,2,0,P|126:117|389:112,1,629.9999833107
253,347,4623,2,0,P|126:117|389:112,1,629.9999833107
122,142,4623,2,0,P|172:75|272:58,1,179.999995231629
333,59,4623,2,0,P|444:48|377:125,1,269.999992847443
226,345,4625,2,0,P|141:96|401:136,1,629.9999833107
178,324,4626,2,0,P|67:335|134:258,1,269.999992847443
389,241,4628,2,0,P|339:308|239:325,1,179.999995231629
340,47,4629,2,0,P|461:34|388:119,1,269.999992847443
109,137,4631,2,0,P|164:63|274:45,1,179.999995231629
171,336,4632,2,0,P|50:349|123:264,1,269.999992847443
349,32,4635,2,0,P|481:19|402:112,1,269.999992847443
402,246,4636,2,0,P|347:320|237:338,1,179.999995231629
162,351,4638,2,0,P|30:364|109:271,1,269.999992847443
100,133,4641,2,0,P|158:56|275:36,1,179.999995231629
411,250,4646,2,0,P|353:327|236:347,1,179.999995231629
85,127,4649,2,0,P|149:42|277:21,1,179.999995231629
426,256,4654,2,0,P|362:341|234:362,1,179.999995231629
392,116,4656,2,0,P|256:341|120:116,1,629.9999833107
409,167,4658,2,0,P|205:332|154:74,1,629.9999833107
192,168,4658,2,0,P|216:136|264:128,1,89.9999976158143
28,0,4658,2,0,L|28:96,1,89.9999976158143
110,136,4658,2,0,P|370:96|285:345,1,629.9999833107
284,144,4660,2,0,P|324:140|300:168,1,89.9999976158143
411,194,4660,2,0,P|181:321|176:58,1,629.9999833107
122,112,4661,2,0,P|385:117|258:347,1,629.9999833107
228,240,4663,2,0,P|188:244|212:216,1,89.9999976158143
28,90,4663,2,0,L|28:184,1,89.9999976158143
320,216,4663,2,0,P|296:248|248:256,1,89.9999976158143
138,90,4664,2,0,P|396:141|231:345,1,629.9999833107
409,221,4664,2,0,P|160:306|200:46,1,629.9999833107
28,180,4666,2,0,L|28:272,1,89.9999976158143
185,165,4666,2,0,P|212:130|264:121,1,89.9999976158143
286,139,4666,2,0,P|330:134|304:165,1,89.9999976158143
389,271,4666,2,0,P|126:266|253:36,1,629.9999833107
354,312,4667,2,0,P|109:217|307:44,1,629.9999833107
373,293,4668,2,0,P|115:242|280:38,1,629.9999833107
307,339,4669,2,0,P|109:166|354:71,1,629.9999833107
225,244,4669,2,0,P|181:249|207:218,1,89.9999976158143
28,270,4669,2,0,L|28:360,1,89.9999976158143
326,218,4671,2,0,P|300:253|247:262,1,89.9999976158143
280,345,4671,2,0,P|115:141|373:90,1,629.9999833107
28,360,4672,2,0,L|124:360,1,89.9999976158143
289,134,4672,2,0,P|337:129|308:163,1,89.9999976158143
222,249,4675,2,0,P|174:254|203:220,1,89.9999976158143
118,360,4675,2,0,L|212:360,1,89.9999976158143
179,163,4675,2,0,P|208:124|265:115,1,89.9999976158143
253,347,4676,2,0,P|126:117|389:112,1,629.9999833107
200,337,4678,2,0,P|160:77|409:162,1,629.9999833107
292,128,4678,2,0,P|345:123|314:160,1,89.9999976158143
332,220,4680,2,0,P|304:259|246:268,1,89.9999976158143
176,325,4680,2,0,P|181:62|411:189,1,629.9999833107
219,255,4681,2,0,P|166:260|197:223,1,89.9999976158143
212,360,4681,2,0,L|308:360,1,89.9999976158143
171,160,4683,2,0,P|203:118|266:107,1,89.9999976158143
302,360,4684,2,0,L|392:360,1,89.9999976158143
200,337,4685,2,0,P|160:77|409:162,1,629.9999833107
295,124,4686,2,0,P|351:119|317:158,1,89.9999976158143
392,360,4687,2,0,L|484:360,1,89.9999976158143
154,309,4687,2,0,P|205:51|409:216,1,629.9999833107
120,268,4688,2,0,P|256:43|392:268,1,629.9999833107
340,223,4688,2,0,P|308:265|245:276,1,89.9999976158143
135,290,4689,2,0,P|230:45|403:243,1,629.9999833107
216,259,4689,2,0,P|160:264|194:225,1,89.9999976158143
102,216,4690,2,0,P|306:51|357:309,1,629.9999833107
482,360,4690,2,0,L|482:264,1,89.9999976158143
108,243,4691,2,0,P|281:45|376:290,1,629.9999833107
100,189,4692,2,0,P|330:62|335:325,1,629.9999833107
299,118,4692,2,0,P|360:111|323:155,1,89.9999976158143
100,189,4693,2,0,P|330:62|335:325,1,629.9999833107
166,158,4693,2,0,P|200:113|267:102,1,89.9999976158143
482,270,4695,2,0,L|482:176,1,89.9999976158143
212,265,4695,2,0,P|151:272|188:228,1,89.9999976158143
102,162,4695,2,0,P|351:77|311:337,1,629.9999833107
345,225,4698,2,0,P|311:270|244:281,1,89.9999976158143
303,111,4698,2,0,P|370:104|329:151,1,89.9999976158143
482,180,4698,2,0,L|482:88,1,89.9999976158143
482,90,4701,2,0,L|482:0,1,89.9999976158143
208,272,4701,2,0,P|141:279|182:232,1,89.9999976158143
157,155,4701,2,0,P|194:105|268:93,1,89.9999976158143
482,0,4704,2,0,L|386:0,1,89.9999976158143
307,103,4704,2,0,P|381:95|337:147,1,179.999995231629
180,56,4705,2,0,P|405:192|180:328,1,629.9999833107
354,228,4706,2,0,P|317:278|243:290,1,89.9999976158143
204,280,4707,2,0,P|130:288|174:236,1,179.999995231629
392,0,4707,2,0,L|298:0,1,89.9999976158143
231,38,4707,2,0,P|396:242|138:293,1,629.9999833107
180,56,4708,2,0,P|405:192|180:328,1,629.9999833107
258,36,4709,2,0,P|385:266|122:271,1,629.9999833107
148,151,4710,2,0,P|188:97|269:84,1,89.9999976158143
231,38,4710,2,0,P|396:242|138:293,1,629.9999833107
258,36,4712,2,0,P|385:266|122:271,1,629.9999833107
298,0,4713,2,0,L|202:0,1,89.9999976158143
285,38,4713,2,0,P|370:287|110:247,1,629.9999833107
306,105,4713,2,0,P|378:98|335:148,1,89.9999976158143
363,232,4715,2,0,P|323:286|242:299,1,89.9999976158143
335,58,4715,2,0,P|330:321|100:194,1,629.9999833107
208,0,4716,2,0,L|118:0,1,89.9999976158143
205,278,4716,2,0,P|133:285|176:235,1,89.9999976158143
285,38,4716,2,0,P|370:287|110:247,1,629.9999833107
357,74,4717,2,0,P|306:332|102:167,1,629.9999833107
335,58,4718,2,0,P|330:321|100:194,1,629.9999833107
137,147,4718,2,0,P|182:88|270:73,1,89.9999976158143
311,97,4719,2,0,P|390:89|343:144,1,179.999995231629
118,0,4719,2,0,L|26:0,1,89.9999976158143
376,93,4719,2,0,P|281:338|108:140,1,629.9999833107
357,74,4720,2,0,P|306:332|102:167,1,629.9999833107
403,140,4721,2,0,P|230:338|135:93,1,629.9999833107
200,286,4722,2,0,P|121:294|168:239,1,179.999995231629
409,167,4723,2,0,P|205:332|154:74,1,629.9999833107
374,236,4723,2,0,P|329:295|241:310,1,89.9999976158143
316,88,4725,2,0,P|402:79|350:140,1,179.999995231629
411,194,4725,2,0,P|181:321|176:58,1,629.9999833107
401,247,4727,2,0,P|141:287|226:38,1,629.9999833107
411,194,4728,2,0,P|181:321|176:58,1,629.9999833107
195,295,4728,2,0,P|109:304|161:243,1,179.999995231629
144,150,4728,2,0,P|186:94|269:80,1,89.9999976158143
389,271,4729,2,0,P|126:266|253:36,1,629.9999833107
401,247,4730,2,0,P|141:287|226:38,1,629.9999833107
322,78,4731,2,0,P|417:68|360:135,1,179.999995231629
389,271,4732,2,0,P|126:266|253:36,1,629.9999833107
367,233,4733,2,0,P|325:289|242:303,1,89.9999976158143
401,247,4734,2,0,P|141:287|226:38,1,629.9999833107
189,305,4734,2,0,P|94:315|151:248,1,179.999995231629
373,293,4736,2,0,P|115:242|280:38,1,629.9999833107
133,146,4736,2,0,P|179:85|271:69,1,89.9999976158143
401,247,4737,2,0,P|141:287|226:38,1,629.9999833107
354,312,4738,2,0,P|109:217|307:44,1,629.9999833107
373,293,4739,2,0,P|115:242|280:38,1,629.9999833107
326,71,4739,2,0,P|427:61|366:131,1,179.999995231629
332,328,4740,2,0,P|107:192|332:56,1,629.9999833107
354,312,4741,2,0,P|109:217|307:44,1,629.9999833107
378,237,4741,2,0,P|332:298|240:314,1,89.9999976158143
280,345,4742,2,0,P|115:141|373:90,1,629.9999833107
185,312,4742,2,0,P|84:322|145:252,1,179.999995231629
307,339,4743,2,0,P|109:166|354:71,1,629.9999833107
253,347,4744,2,0,P|126:117|389:112,1,629.9999833107
253,347,4745,2,0,P|126:117|389:112,1,629.9999833107
122,142,4745,2,0,P|172:75|272:58,1,179.999995231629
333,59,4745,2,0,P|444:48|377:125,1,269.999992847443
226,345,4747,2,0,P|141:96|401:136,1,629.9999833107
178,324,4748,2,0,P|67:335|134:258,1,269.999992847443
389,241,4750,2,0,P|339:308|239:325,1,179.999995231629
340,47,4751,2,0,P|461:34|388:119,1,269.999992847443
109,137,4753,2,0,P|164:63|274:45,1,179.999995231629
171,336,4754,2,0,P|50:349|123:264,1,269.999992847443
349,32,4757,2,0,P|481:19|402:112,1,269.999992847443
402,246,4758,2,0,P|347:320|237:338,1,179.999995231629
162,351,4760,2,0,P|30:364|109:271,1,269.999992847443
100,133,4763,2,0,P|158:56|275:36,1,179.999995231629
411,250,4768,2,0,P|353:327|236:347,1,179.999995231629
85,127,4771,2,0,P|149:42|277:21,1,179.999995231629
426,256,4776,2,0,P|362:341|234:362,1,179.999995231629
69,122,4780,2,0,P|139:28|279:5,1,179.999995231629
442,261,4785,2,0,P|372:355|232:378,1,179.999995231629
50,115,4788,2,0,P|127:12|281:-13,1,269.999992847443
461,268,4793,2,0,P|384:371|230:397,1,269.999992847443
