osu file format v14

[General]
AudioFilename: The Price is Right losing horn.mp3
AudioLeadIn: 0
PreviewTime: 266
Countdown: 0
SampleSet: None
StackLeniency: 0
Mode: 0
LetterboxInBreaks: 1
WidescreenStoryboard: 1

[Editor]
Bookmarks: 641,1141,4766
DistanceSpacing: 0.4
BeatDivisor: 16
GridSize: 32
TimelineZoom: 8

[Metadata]
Title:Losing Horn
TitleUnicode:Losing Horn
Artist:The Price is Right
ArtistUnicode:The Price is Right
Creator:Spaghetti
Version:Microhornism
Source:
Tags:sad tuba
BeatmapID:990696
BeatmapSetID:347064

[Difficulty]
HPDrainRate:10
CircleSize:7
OverallDifficulty:10
ApproachRate:10
SliderMultiplier:3.59999990463257
SliderTickRate:1

[Events]
//Background and Video events
0,0,"tubas.jpg",0,0
//Break Periods
//Storyboard Layer 0 (Background)
//Storyboard Layer 1 (Fail)
//Storyboard Layer 2 (Pass)
//Storyboard Layer 3 (Foreground)
//Storyboard Sound Samples

[TimingPoints]
266,375,4,1,0,100,1,0
266,-50,4,1,0,100,0,0
4578,-200,4,1,6,100,0,0

[HitObjects]
484,192,266,5,0,0:0:0:0:
62,71,266,5,0,0:0:0:0:
96,192,266,5,0,0:0:0:0:
391,276,266,5,0,0:0:0:0:
483,207,289,5,0,0:0:0:0:
97,181,289,5,0,0:0:0:0:
54,84,290,5,0,0:0:0:0:
397,267,290,5,0,0:0:0:0:
47,99,313,5,0,0:0:0:0:
481,223,313,5,0,0:0:0:0:
98,170,313,5,0,0:0:0:0:
402,257,313,5,0,0:0:0:0:
479,239,336,5,0,0:0:0:0:
100,159,336,5,0,0:0:0:0:
41,114,337,5,0,0:0:0:0:
406,246,337,5,0,0:0:0:0:
36,129,360,5,0,0:0:0:0:
475,254,360,5,0,0:0:0:0:
102,148,360,5,0,0:0:0:0:
409,236,360,5,0,0:0:0:0:
470,269,383,5,0,0:0:0:0:
106,138,383,5,0,0:0:0:0:
32,144,384,5,0,0:0:0:0:
412,225,384,5,0,0:0:0:0:
30,160,407,5,0,0:0:0:0:
464,284,407,5,0,0:0:0:0:
413,214,407,5,0,0:0:0:0:
110,127,407,5,0,0:0:0:0:
457,299,430,5,0,0:0:0:0:
115,117,430,5,0,0:0:0:0:
28,176,431,5,0,0:0:0:0:
415,203,431,5,0,0:0:0:0:
28,192,454,5,0,0:0:0:0:
449,312,454,5,0,0:0:0:0:
415,192,454,5,0,0:0:0:0:
121,108,454,5,0,0:0:0:0:
450,71,546,5,0,0:0:0:0:
28,192,546,5,0,0:0:0:0:
121,276,546,5,0,0:0:0:0:
416,192,546,5,0,0:0:0:0:
29,207,569,5,0,0:0:0:0:
415,181,569,5,0,0:0:0:0:
458,84,570,5,0,0:0:0:0:
115,267,570,5,0,0:0:0:0:
465,99,593,5,0,0:0:0:0:
31,223,593,5,0,0:0:0:0:
110,257,593,5,0,0:0:0:0:
414,170,593,5,0,0:0:0:0:
412,159,616,5,0,0:0:0:0:
33,239,616,5,0,0:0:0:0:
471,114,617,5,0,0:0:0:0:
106,246,617,5,0,0:0:0:0:
410,148,640,5,0,0:0:0:0:
103,236,640,5,0,0:0:0:0:
476,129,640,5,0,0:0:0:0:
37,254,640,5,0,0:0:0:0:
42,269,663,5,0,0:0:0:0:
406,138,663,5,0,0:0:0:0:
480,144,664,5,0,0:0:0:0:
100,225,664,5,0,0:0:0:0:
402,127,687,5,0,0:0:0:0:
99,214,687,5,0,0:0:0:0:
482,160,687,5,0,0:0:0:0:
48,284,687,5,0,0:0:0:0:
397,117,710,5,0,0:0:0:0:
55,299,710,5,0,0:0:0:0:
484,176,711,5,0,0:0:0:0:
97,203,711,5,0,0:0:0:0:
484,192,734,5,0,0:0:0:0:
391,108,734,5,0,0:0:0:0:
97,192,734,5,0,0:0:0:0:
63,312,734,5,0,0:0:0:0:
256,364,828,1,0,0:0:0:0:
256,20,828,1,0,0:0:0:0:
267,20,851,1,0,0:0:0:0:
245,364,851,1,0,0:0:0:0:
279,21,875,1,0,0:0:0:0:
233,363,875,1,0,0:0:0:0:
323,259,1016,1,0,0:0:0:0:
364,83,1016,1,0,0:0:0:0:
364,300,1016,1,0,0:0:0:0:
323,124,1016,1,0,0:0:0:0:
188,259,1016,1,0,0:0:0:0:
188,124,1016,1,0,0:0:0:0:
323,124,1016,1,0,0:0:0:0:
188,124,1016,1,0,0:0:0:0:
323,259,1016,1,0,0:0:0:0:
147,83,1016,1,0,0:0:0:0:
147,300,1016,1,0,0:0:0:0:
188,259,1016,1,0,0:0:0:0:
337,273,1016,1,0,0:0:0:0:
174,273,1016,1,0,0:0:0:0:
338,109,1016,1,0,0:0:0:0:
338,109,1016,1,0,0:0:0:0:
174,273,1016,1,0,0:0:0:0:
173,109,1016,1,0,0:0:0:0:
364,300,1016,1,0,0:0:0:0:
147,83,1016,1,0,0:0:0:0:
364,83,1016,1,0,0:0:0:0:
173,109,1016,1,0,0:0:0:0:
337,273,1016,1,0,0:0:0:0:
147,300,1016,1,0,0:0:0:0:
256,76,1016,1,0,0:0:0:0:
256,307,1016,1,0,0:0:0:0:
140,192,1016,1,0,0:0:0:0:
371,192,1016,1,0,0:0:0:0:
256,307,1016,1,0,0:0:0:0:
256,76,1016,1,0,0:0:0:0:
140,192,1016,1,0,0:0:0:0:
371,192,1016,1,0,0:0:0:0:
256,346,1016,1,0,0:0:0:0:
409,192,1016,1,0,0:0:0:0:
102,192,1016,1,0,0:0:0:0:
256,39,1016,1,0,0:0:0:0:
256,96,1016,1,0,0:0:0:0:
256,288,1016,1,0,0:0:0:0:
160,192,1016,1,0,0:0:0:0:
352,192,1016,1,0,0:0:0:0:
256,38,1016,1,0,0:0:0:0:
409,192,1016,1,0,0:0:0:0:
102,192,1016,1,0,0:0:0:0:
256,345,1016,1,0,0:0:0:0:
256,288,1016,1,0,0:0:0:0:
256,96,1016,1,0,0:0:0:0:
160,192,1016,1,0,0:0:0:0:
352,192,1016,1,0,0:0:0:0:
335,108,1039,1,0,0:0:0:0:
175,274,1039,1,0,0:0:0:0:
172,111,1039,1,0,0:0:0:0:
338,271,1039,1,0,0:0:0:0:
173,270,1039,1,0,0:0:0:0:
338,110,1039,1,0,0:0:0:0:
176,107,1039,1,0,0:0:0:0:
335,273,1039,1,0,0:0:0:0:
148,81,1039,1,0,0:0:0:0:
362,302,1039,1,0,0:0:0:0:
144,298,1039,1,0,0:0:0:0:
365,85,1039,1,0,0:0:0:0:
321,123,1039,1,0,0:0:0:0:
188,260,1039,1,0,0:0:0:0:
186,125,1039,1,0,0:0:0:0:
323,258,1039,1,0,0:0:0:0:
145,84,1039,1,0,0:0:0:0:
366,298,1039,1,0,0:0:0:0:
362,80,1039,1,0,0:0:0:0:
149,301,1039,1,0,0:0:0:0:
187,257,1039,1,0,0:0:0:0:
324,124,1039,1,0,0:0:0:0:
189,122,1039,1,0,0:0:0:0:
322,259,1039,1,0,0:0:0:0:
253,77,1039,1,0,0:0:0:0:
257,307,1039,1,0,0:0:0:0:
140,194,1039,1,0,0:0:0:0:
370,190,1039,1,0,0:0:0:0:
253,306,1039,1,0,0:0:0:0:
257,76,1039,1,0,0:0:0:0:
140,189,1039,1,0,0:0:0:0:
370,193,1039,1,0,0:0:0:0:
102,190,1039,1,0,0:0:0:0:
409,195,1039,1,0,0:0:0:0:
253,346,1039,1,0,0:0:0:0:
258,39,1039,1,0,0:0:0:0:
254,97,1039,1,0,0:0:0:0:
257,288,1039,1,0,0:0:0:0:
160,194,1039,1,0,0:0:0:0:
351,191,1039,1,0,0:0:0:0:
102,194,1039,1,0,0:0:0:0:
409,189,1039,1,0,0:0:0:0:
253,38,1039,1,0,0:0:0:0:
258,345,1039,1,0,0:0:0:0:
254,287,1039,1,0,0:0:0:0:
257,96,1039,1,0,0:0:0:0:
160,190,1039,1,0,0:0:0:0:
351,193,1039,1,0,0:0:0:0:
176,275,1062,1,0,0:0:0:0:
333,107,1062,1,0,0:0:0:0:
339,269,1062,1,0,0:0:0:0:
171,112,1062,1,0,0:0:0:0:
171,269,1062,1,0,0:0:0:0:
340,112,1062,1,0,0:0:0:0:
177,106,1062,1,0,0:0:0:0:
334,274,1062,1,0,0:0:0:0:
190,262,1062,1,0,0:0:0:0:
320,121,1062,1,0,0:0:0:0:
325,257,1062,1,0,0:0:0:0:
185,126,1062,1,0,0:0:0:0:
150,79,1062,1,0,0:0:0:0:
142,296,1062,1,0,0:0:0:0:
359,304,1062,1,0,0:0:0:0:
367,87,1062,1,0,0:0:0:0:
360,78,1062,1,0,0:0:0:0:
143,86,1062,1,0,0:0:0:0:
151,303,1062,1,0,0:0:0:0:
368,295,1062,1,0,0:0:0:0:
185,256,1062,1,0,0:0:0:0:
326,126,1062,1,0,0:0:0:0:
190,121,1062,1,0,0:0:0:0:
321,261,1062,1,0,0:0:0:0:
259,307,1062,1,0,0:0:0:0:
251,77,1062,1,0,0:0:0:0:
370,188,1062,1,0,0:0:0:0:
140,196,1062,1,0,0:0:0:0:
251,306,1062,1,0,0:0:0:0:
259,76,1062,1,0,0:0:0:0:
140,187,1062,1,0,0:0:0:0:
370,195,1062,1,0,0:0:0:0:
259,288,1062,1,0,0:0:0:0:
252,97,1062,1,0,0:0:0:0:
351,189,1062,1,0,0:0:0:0:
160,196,1062,1,0,0:0:0:0:
102,187,1062,1,0,0:0:0:0:
250,346,1062,1,0,0:0:0:0:
409,198,1062,1,0,0:0:0:0:
261,39,1062,1,0,0:0:0:0:
250,38,1062,1,0,0:0:0:0:
102,197,1062,1,0,0:0:0:0:
261,345,1062,1,0,0:0:0:0:
409,186,1062,1,0,0:0:0:0:
252,287,1062,1,0,0:0:0:0:
259,96,1062,1,0,0:0:0:0:
160,188,1062,1,0,0:0:0:0:
351,195,1062,1,0,0:0:0:0:
178,277,1086,1,0,0:0:0:0:
331,105,1086,1,0,0:0:0:0:
340,268,1086,1,0,0:0:0:0:
169,114,1086,1,0,0:0:0:0:
169,266,1086,1,0,0:0:0:0:
342,114,1086,1,0,0:0:0:0:
179,104,1086,1,0,0:0:0:0:
332,276,1086,1,0,0:0:0:0:
191,263,1086,1,0,0:0:0:0:
318,120,1086,1,0,0:0:0:0:
326,255,1086,1,0,0:0:0:0:
183,128,1086,1,0,0:0:0:0:
152,77,1086,1,0,0:0:0:0:
357,306,1086,1,0,0:0:0:0:
140,294,1086,1,0,0:0:0:0:
369,89,1086,1,0,0:0:0:0:
370,293,1086,1,0,0:0:0:0:
141,88,1086,1,0,0:0:0:0:
153,305,1086,1,0,0:0:0:0:
358,76,1086,1,0,0:0:0:0:
184,254,1086,1,0,0:0:0:0:
327,127,1086,1,0,0:0:0:0:
192,119,1086,1,0,0:0:0:0:
319,262,1086,1,0,0:0:0:0:
262,307,1086,1,0,0:0:0:0:
248,77,1086,1,0,0:0:0:0:
370,186,1086,1,0,0:0:0:0:
140,199,1086,1,0,0:0:0:0:
248,306,1086,1,0,0:0:0:0:
262,76,1086,1,0,0:0:0:0:
140,184,1086,1,0,0:0:0:0:
370,198,1086,1,0,0:0:0:0:
261,288,1086,1,0,0:0:0:0:
250,97,1086,1,0,0:0:0:0:
351,187,1086,1,0,0:0:0:0:
160,198,1086,1,0,0:0:0:0:
102,184,1086,1,0,0:0:0:0:
409,201,1086,1,0,0:0:0:0:
247,346,1086,1,0,0:0:0:0:
264,39,1086,1,0,0:0:0:0:
409,183,1086,1,0,0:0:0:0:
102,200,1086,1,0,0:0:0:0:
264,345,1086,1,0,0:0:0:0:
247,38,1086,1,0,0:0:0:0:
250,287,1086,1,0,0:0:0:0:
261,96,1086,1,0,0:0:0:0:
160,186,1086,1,0,0:0:0:0:
351,197,1086,1,0,0:0:0:0:
327,254,1109,1,0,0:0:0:0:
357,75,1109,1,0,0:0:0:0:
154,307,1109,1,0,0:0:0:0:
318,119,1109,1,0,0:0:0:0:
192,264,1109,1,0,0:0:0:0:
183,129,1109,1,0,0:0:0:0:
328,128,1109,1,0,0:0:0:0:
193,119,1109,1,0,0:0:0:0:
318,263,1109,1,0,0:0:0:0:
140,90,1109,1,0,0:0:0:0:
371,292,1109,1,0,0:0:0:0:
183,254,1109,1,0,0:0:0:0:
342,266,1109,1,0,0:0:0:0:
169,266,1109,1,0,0:0:0:0:
342,114,1109,1,0,0:0:0:0:
330,104,1109,1,0,0:0:0:0:
179,278,1109,1,0,0:0:0:0:
168,115,1109,1,0,0:0:0:0:
371,90,1109,1,0,0:0:0:0:
154,76,1109,1,0,0:0:0:0:
356,307,1109,1,0,0:0:0:0:
180,103,1109,1,0,0:0:0:0:
331,277,1109,1,0,0:0:0:0:
139,293,1109,1,0,0:0:0:0:
247,77,1109,1,0,0:0:0:0:
263,307,1109,1,0,0:0:0:0:
140,200,1109,1,0,0:0:0:0:
370,184,1109,1,0,0:0:0:0:
247,306,1109,1,0,0:0:0:0:
263,76,1109,1,0,0:0:0:0:
140,183,1109,1,0,0:0:0:0:
370,199,1109,1,0,0:0:0:0:
245,346,1109,1,0,0:0:0:0:
266,39,1109,1,0,0:0:0:0:
102,182,1109,1,0,0:0:0:0:
409,203,1109,1,0,0:0:0:0:
249,97,1109,1,0,0:0:0:0:
262,288,1109,1,0,0:0:0:0:
160,199,1109,1,0,0:0:0:0:
351,186,1109,1,0,0:0:0:0:
245,38,1109,1,0,0:0:0:0:
266,345,1109,1,0,0:0:0:0:
102,202,1109,1,0,0:0:0:0:
409,181,1109,1,0,0:0:0:0:
249,287,1109,1,0,0:0:0:0:
262,96,1109,1,0,0:0:0:0:
160,185,1109,1,0,0:0:0:0:
351,198,1109,1,0,0:0:0:0:
328,253,1133,1,0,3:0:0:0:
374,290,1133,1,0,3:0:0:0:
354,73,1133,1,0,3:0:0:0:
316,118,1133,1,0,3:0:0:0:
193,265,1133,1,0,3:0:0:0:
181,130,1133,1,0,3:0:0:0:
329,129,1133,1,0,3:0:0:0:
194,117,1133,1,0,3:0:0:0:
317,264,1133,1,0,3:0:0:0:
137,92,1133,1,0,3:0:0:0:
157,309,1133,1,0,3:0:0:0:
182,252,1133,1,0,3:0:0:0:
343,265,1133,1,0,3:0:0:0:
167,264,1133,1,0,3:0:0:0:
344,116,1133,1,0,3:0:0:0:
329,102,1133,1,0,3:0:0:0:
181,279,1133,1,0,3:0:0:0:
166,117,1133,1,0,3:0:0:0:
137,290,1133,1,0,3:0:0:0:
156,73,1133,1,0,3:0:0:0:
373,93,1133,1,0,3:0:0:0:
181,102,1133,1,0,3:0:0:0:
330,278,1133,1,0,3:0:0:0:
354,310,1133,1,0,3:0:0:0:
245,77,1133,1,0,3:0:0:0:
265,307,1133,1,0,3:0:0:0:
140,202,1133,1,0,3:0:0:0:
370,182,1133,1,0,3:0:0:0:
245,306,1133,1,0,3:0:0:0:
265,76,1133,1,0,3:0:0:0:
140,181,1133,1,0,3:0:0:0:
370,201,1133,1,0,3:0:0:0:
409,206,1133,1,0,3:0:0:0:
242,346,1133,1,0,3:0:0:0:
102,179,1133,1,0,3:0:0:0:
269,39,1133,1,0,3:0:0:0:
247,97,1133,1,0,3:0:0:0:
264,288,1133,1,0,3:0:0:0:
160,201,1133,1,0,3:0:0:0:
351,184,1133,1,0,3:0:0:0:
409,178,1133,1,0,3:0:0:0:
242,38,1133,1,0,3:0:0:0:
102,205,1133,1,0,3:0:0:0:
269,345,1133,1,0,3:0:0:0:
247,287,1133,1,0,3:0:0:0:
264,96,1133,1,0,3:0:0:0:
160,183,1133,1,0,3:0:0:0:
351,200,1133,1,0,3:0:0:0:
374,95,1156,1,0,3:0:0:0:
352,71,1156,1,0,3:0:0:0:
375,287,1156,1,0,3:0:0:0:
351,311,1156,1,0,3:0:0:0:
135,288,1156,1,0,3:0:0:0:
159,72,1156,1,0,3:0:0:0:
330,131,1156,1,0,3:0:0:0:
195,116,1156,1,0,3:0:0:0:
316,266,1156,1,0,3:0:0:0:
159,310,1156,1,0,3:0:0:0:
136,95,1156,1,0,3:0:0:0:
181,251,1156,1,0,3:0:0:0:
346,118,1156,1,0,3:0:0:0:
345,264,1156,1,0,3:0:0:0:
164,119,1156,1,0,3:0:0:0:
183,100,1156,1,0,3:0:0:0:
328,281,1156,1,0,3:0:0:0:
165,262,1156,1,0,3:0:0:0:
315,117,1156,1,0,3:0:0:0:
330,252,1156,1,0,3:0:0:0:
180,131,1156,1,0,3:0:0:0:
183,281,1156,1,0,3:0:0:0:
327,100,1156,1,0,3:0:0:0:
195,266,1156,1,0,3:0:0:0:
140,178,1156,1,0,3:0:0:0:
370,204,1156,1,0,3:0:0:0:
242,306,1156,1,0,3:0:0:0:
268,76,1156,1,0,3:0:0:0:
370,180,1156,1,0,3:0:0:0:
140,205,1156,1,0,3:0:0:0:
268,307,1156,1,0,3:0:0:0:
242,77,1156,1,0,3:0:0:0:
266,288,1156,1,0,3:0:0:0:
245,97,1156,1,0,3:0:0:0:
351,182,1156,1,0,3:0:0:0:
160,203,1156,1,0,3:0:0:0:
408,209,1156,1,0,3:0:0:0:
239,345,1156,1,0,3:0:0:0:
103,176,1156,1,0,3:0:0:0:
272,40,1156,1,0,3:0:0:0:
239,39,1156,1,0,3:0:0:0:
408,175,1156,1,0,3:0:0:0:
272,344,1156,1,0,3:0:0:0:
103,208,1156,1,0,3:0:0:0:
245,287,1156,1,0,3:0:0:0:
266,96,1156,1,0,3:0:0:0:
160,181,1156,1,0,3:0:0:0:
351,202,1156,1,0,3:0:0:0:
160,71,1180,1,0,3:0:0:0:
376,286,1180,1,0,3:0:0:0:
350,70,1180,1,0,3:0:0:0:
134,286,1180,1,0,3:0:0:0:
350,312,1180,1,0,3:0:0:0:
376,97,1180,1,0,3:0:0:0:
331,131,1180,1,0,3:0:0:0:
196,115,1180,1,0,3:0:0:0:
315,266,1180,1,0,3:0:0:0:
135,96,1180,1,0,3:0:0:0:
161,312,1180,1,0,3:0:0:0:
180,250,1180,1,0,3:0:0:0:
347,119,1180,1,0,3:0:0:0:
346,262,1180,1,0,3:0:0:0:
164,119,1180,1,0,3:0:0:0:
184,99,1180,1,0,3:0:0:0:
327,281,1180,1,0,3:0:0:0:
164,262,1180,1,0,3:0:0:0:
314,116,1180,1,0,3:0:0:0:
330,251,1180,1,0,3:0:0:0:
179,132,1180,1,0,3:0:0:0:
183,282,1180,1,0,3:0:0:0:
326,100,1180,1,0,3:0:0:0:
195,267,1180,1,0,3:0:0:0:
140,177,1180,1,0,3:0:0:0:
370,205,1180,1,0,3:0:0:0:
241,306,1180,1,0,3:0:0:0:
269,76,1180,1,0,3:0:0:0:
370,178,1180,1,0,3:0:0:0:
140,206,1180,1,0,3:0:0:0:
269,307,1180,1,0,3:0:0:0:
241,77,1180,1,0,3:0:0:0:
267,288,1180,1,0,3:0:0:0:
244,97,1180,1,0,3:0:0:0:
351,181,1180,1,0,3:0:0:0:
160,204,1180,1,0,3:0:0:0:
237,345,1180,1,0,3:0:0:0:
408,211,1180,1,0,3:0:0:0:
274,40,1180,1,0,3:0:0:0:
103,174,1180,1,0,3:0:0:0:
408,173,1180,1,0,3:0:0:0:
237,39,1180,1,0,3:0:0:0:
103,210,1180,1,0,3:0:0:0:
274,344,1180,1,0,3:0:0:0:
244,287,1180,1,0,3:0:0:0:
267,96,1180,1,0,3:0:0:0:
160,180,1180,1,0,3:0:0:0:
351,203,1180,1,0,3:0:0:0:
185,97,1203,1,0,3:0:0:0:
326,283,1203,1,0,3:0:0:0:
163,260,1203,1,0,3:0:0:0:
348,120,1203,1,0,3:0:0:0:
162,121,1203,1,0,3:0:0:0:
347,261,1203,1,0,3:0:0:0:
325,98,1203,1,0,3:0:0:0:
185,283,1203,1,0,3:0:0:0:
132,284,1203,1,0,3:0:0:0:
162,68,1203,1,0,3:0:0:0:
347,315,1203,1,0,3:0:0:0:
378,99,1203,1,0,3:0:0:0:
313,114,1203,1,0,3:0:0:0:
197,269,1203,1,0,3:0:0:0:
178,134,1203,1,0,3:0:0:0:
332,249,1203,1,0,3:0:0:0:
348,68,1203,1,0,3:0:0:0:
132,98,1203,1,0,3:0:0:0:
379,283,1203,1,0,3:0:0:0:
163,314,1203,1,0,3:0:0:0:
178,249,1203,1,0,3:0:0:0:
333,133,1203,1,0,3:0:0:0:
198,114,1203,1,0,3:0:0:0:
313,268,1203,1,0,3:0:0:0:
140,175,1203,1,0,3:0:0:0:
370,207,1203,1,0,3:0:0:0:
239,306,1203,1,0,3:0:0:0:
271,76,1203,1,0,3:0:0:0:
140,208,1203,1,0,3:0:0:0:
370,176,1203,1,0,3:0:0:0:
239,77,1203,1,0,3:0:0:0:
271,307,1203,1,0,3:0:0:0:
234,345,1203,1,0,3:0:0:0:
103,171,1203,1,0,3:0:0:0:
408,214,1203,1,0,3:0:0:0:
277,40,1203,1,0,3:0:0:0:
242,97,1203,1,0,3:0:0:0:
269,288,1203,1,0,3:0:0:0:
160,206,1203,1,0,3:0:0:0:
351,179,1203,1,0,3:0:0:0:
234,39,1203,1,0,3:0:0:0:
103,213,1203,1,0,3:0:0:0:
408,170,1203,1,0,3:0:0:0:
277,344,1203,1,0,3:0:0:0:
242,287,1203,1,0,3:0:0:0:
269,96,1203,1,0,3:0:0:0:
160,178,1203,1,0,3:0:0:0:
351,205,1203,1,0,3:0:0:0:
189,97,1226,1,0,3:0:0:0:
322,283,1226,1,0,3:0:0:0:
162,257,1226,1,0,3:0:0:0:
350,123,1226,1,0,3:0:0:0:
161,124,1226,1,0,3:0:0:0:
347,258,1226,1,0,3:0:0:0:
321,97,1226,1,0,3:0:0:0:
188,285,1226,1,0,3:0:0:0:
130,281,1226,1,0,3:0:0:0:
345,316,1226,1,0,3:0:0:0:
165,67,1226,1,0,3:0:0:0:
379,102,1226,1,0,3:0:0:0:
311,114,1226,1,0,3:0:0:0:
199,269,1226,1,0,3:0:0:0:
177,136,1226,1,0,3:0:0:0:
333,247,1226,1,0,3:0:0:0:
345,66,1226,1,0,3:0:0:0:
380,281,1226,1,0,3:0:0:0:
131,101,1226,1,0,3:0:0:0:
166,315,1226,1,0,3:0:0:0:
178,247,1226,1,0,3:0:0:0:
333,135,1226,1,0,3:0:0:0:
200,113,1226,1,0,3:0:0:0:
311,269,1226,1,0,3:0:0:0:
142,172,1226,1,0,3:0:0:0:
368,210,1226,1,0,3:0:0:0:
236,304,1226,1,0,3:0:0:0:
274,77,1226,1,0,3:0:0:0:
142,211,1226,1,0,3:0:0:0:
368,174,1226,1,0,3:0:0:0:
236,79,1226,1,0,3:0:0:0:
274,306,1226,1,0,3:0:0:0:
231,344,1226,1,0,3:0:0:0:
407,217,1226,1,0,3:0:0:0:
104,168,1226,1,0,3:0:0:0:
280,41,1226,1,0,3:0:0:0:
240,98,1226,1,0,3:0:0:0:
271,287,1226,1,0,3:0:0:0:
161,208,1226,1,0,3:0:0:0:
350,177,1226,1,0,3:0:0:0:
231,40,1226,1,0,3:0:0:0:
407,167,1226,1,0,3:0:0:0:
104,216,1226,1,0,3:0:0:0:
280,343,1226,1,0,3:0:0:0:
240,286,1226,1,0,3:0:0:0:
271,97,1226,1,0,3:0:0:0:
161,176,1226,1,0,3:0:0:0:
350,207,1226,1,0,3:0:0:0:
190,96,1250,1,0,3:0:0:0:
321,284,1250,1,0,3:0:0:0:
161,256,1250,1,0,3:0:0:0:
350,124,1250,1,0,3:0:0:0:
349,257,1250,1,0,3:0:0:0:
161,125,1250,1,0,3:0:0:0:
188,286,1250,1,0,3:0:0:0:
321,97,1250,1,0,3:0:0:0:
200,270,1250,1,0,3:0:0:0:
310,113,1250,1,0,3:0:0:0:
333,247,1250,1,0,3:0:0:0:
176,136,1250,1,0,3:0:0:0:
381,103,1250,1,0,3:0:0:0:
166,66,1250,1,0,3:0:0:0:
129,280,1250,1,0,3:0:0:0:
343,317,1250,1,0,3:0:0:0:
130,102,1250,1,0,3:0:0:0:
167,317,1250,1,0,3:0:0:0:
381,279,1250,1,0,3:0:0:0:
344,65,1250,1,0,3:0:0:0:
177,246,1250,1,0,3:0:0:0:
334,136,1250,1,0,3:0:0:0:
200,112,1250,1,0,3:0:0:0:
311,269,1250,1,0,3:0:0:0:
142,171,1250,1,0,3:0:0:0:
368,211,1250,1,0,3:0:0:0:
235,304,1250,1,0,3:0:0:0:
275,77,1250,1,0,3:0:0:0:
368,172,1250,1,0,3:0:0:0:
142,212,1250,1,0,3:0:0:0:
275,306,1250,1,0,3:0:0:0:
235,79,1250,1,0,3:0:0:0:
272,287,1250,1,0,3:0:0:0:
239,98,1250,1,0,3:0:0:0:
350,176,1250,1,0,3:0:0:0:
161,209,1250,1,0,3:0:0:0:
282,41,1250,1,0,3:0:0:0:
104,166,1250,1,0,3:0:0:0:
229,344,1250,1,0,3:0:0:0:
407,219,1250,1,0,3:0:0:0:
104,218,1250,1,0,3:0:0:0:
282,343,1250,1,0,3:0:0:0:
407,165,1250,1,0,3:0:0:0:
229,40,1250,1,0,3:0:0:0:
239,286,1250,1,0,3:0:0:0:
272,97,1250,1,0,3:0:0:0:
161,175,1250,1,0,3:0:0:0:
350,208,1250,1,0,3:0:0:0:
191,95,1273,1,0,3:0:0:0:
320,286,1273,1,0,3:0:0:0:
160,254,1273,1,0,3:0:0:0:
352,125,1273,1,0,3:0:0:0:
350,255,1273,1,0,3:0:0:0:
159,126,1273,1,0,3:0:0:0:
190,287,1273,1,0,3:0:0:0:
319,95,1273,1,0,3:0:0:0:
201,271,1273,1,0,3:0:0:0:
309,112,1273,1,0,3:0:0:0:
335,245,1273,1,0,3:0:0:0:
175,138,1273,1,0,3:0:0:0:
382,106,1273,1,0,3:0:0:0:
169,64,1273,1,0,3:0:0:0:
128,277,1273,1,0,3:0:0:0:
340,319,1273,1,0,3:0:0:0:
128,105,1273,1,0,3:0:0:0:
170,318,1273,1,0,3:0:0:0:
383,276,1273,1,0,3:0:0:0:
341,64,1273,1,0,3:0:0:0:
176,245,1273,1,0,3:0:0:0:
335,137,1273,1,0,3:0:0:0:
202,111,1273,1,0,3:0:0:0:
309,271,1273,1,0,3:0:0:0:
142,169,1273,1,0,3:0:0:0:
368,213,1273,1,0,3:0:0:0:
233,304,1273,1,0,3:0:0:0:
277,77,1273,1,0,3:0:0:0:
368,170,1273,1,0,3:0:0:0:
142,214,1273,1,0,3:0:0:0:
277,306,1273,1,0,3:0:0:0:
233,79,1273,1,0,3:0:0:0:
274,287,1273,1,0,3:0:0:0:
237,98,1273,1,0,3:0:0:0:
350,174,1273,1,0,3:0:0:0:
161,211,1273,1,0,3:0:0:0:
285,42,1273,1,0,3:0:0:0:
105,163,1273,1,0,3:0:0:0:
226,343,1273,1,0,3:0:0:0:
406,222,1273,1,0,3:0:0:0:
105,221,1273,1,0,3:0:0:0:
285,342,1273,1,0,3:0:0:0:
406,162,1273,1,0,3:0:0:0:
226,41,1273,1,0,3:0:0:0:
237,286,1273,1,0,3:0:0:0:
274,97,1273,1,0,3:0:0:0:
161,173,1273,1,0,3:0:0:0:
350,210,1273,1,0,3:0:0:0:
318,95,1297,1,0,3:0:0:0:
192,286,1297,1,0,3:0:0:0:
159,129,1297,1,0,3:0:0:0:
350,254,1297,1,0,3:0:0:0:
160,253,1297,1,0,3:0:0:0:
351,127,1297,1,0,3:0:0:0:
193,95,1297,1,0,3:0:0:0:
318,286,1297,1,0,3:0:0:0:
383,107,1297,1,0,3:0:0:0:
171,63,1297,1,0,3:0:0:0:
126,276,1297,1,0,3:0:0:0:
339,320,1297,1,0,3:0:0:0:
307,112,1297,1,0,3:0:0:0:
202,271,1297,1,0,3:0:0:0:
175,139,1297,1,0,3:0:0:0:
335,244,1297,1,0,3:0:0:0:
171,319,1297,1,0,3:0:0:0:
127,107,1297,1,0,3:0:0:0:
340,62,1297,1,0,3:0:0:0:
384,275,1297,1,0,3:0:0:0:
176,243,1297,1,0,3:0:0:0:
335,138,1297,1,0,3:0:0:0:
203,111,1297,1,0,3:0:0:0:
308,271,1297,1,0,3:0:0:0:
232,80,1297,1,0,3:0:0:0:
278,304,1297,1,0,3:0:0:0:
143,216,1297,1,0,3:0:0:0:
367,169,1297,1,0,3:0:0:0:
232,303,1297,1,0,3:0:0:0:
278,79,1297,1,0,3:0:0:0:
143,168,1297,1,0,3:0:0:0:
367,214,1297,1,0,3:0:0:0:
287,42,1297,1,0,3:0:0:0:
105,161,1297,1,0,3:0:0:0:
224,343,1297,1,0,3:0:0:0:
406,224,1297,1,0,3:0:0:0:
236,99,1297,1,0,3:0:0:0:
275,286,1297,1,0,3:0:0:0:
162,212,1297,1,0,3:0:0:0:
349,173,1297,1,0,3:0:0:0:
287,342,1297,1,0,3:0:0:0:
105,223,1297,1,0,3:0:0:0:
224,41,1297,1,0,3:0:0:0:
406,160,1297,1,0,3:0:0:0:
236,285,1297,1,0,3:0:0:0:
275,98,1297,1,0,3:0:0:0:
162,172,1297,1,0,3:0:0:0:
349,211,1297,1,0,3:0:0:0:
385,110,1320,1,0,3:0:0:0:
386,272,1320,1,0,3:0:0:0:
337,61,1320,1,0,3:0:0:0:
125,273,1320,1,0,3:0:0:0:
336,322,1320,1,0,3:0:0:0:
173,61,1320,1,0,3:0:0:0:
337,140,1320,1,0,3:0:0:0:
205,109,1320,1,0,3:0:0:0:
306,272,1320,1,0,3:0:0:0:
174,321,1320,1,0,3:0:0:0:
125,109,1320,1,0,3:0:0:0:
174,242,1320,1,0,3:0:0:0:
157,130,1320,1,0,3:0:0:0:
158,251,1320,1,0,3:0:0:0:
353,129,1320,1,0,3:0:0:0:
194,288,1320,1,0,3:0:0:0:
316,93,1320,1,0,3:0:0:0:
352,252,1320,1,0,3:0:0:0:
306,110,1320,1,0,3:0:0:0:
336,242,1320,1,0,3:0:0:0:
173,141,1320,1,0,3:0:0:0:
195,93,1320,1,0,3:0:0:0:
316,288,1320,1,0,3:0:0:0:
204,273,1320,1,0,3:0:0:0:
281,304,1320,1,0,3:0:0:0:
229,80,1320,1,0,3:0:0:0:
367,166,1320,1,0,3:0:0:0:
143,218,1320,1,0,3:0:0:0:
229,303,1320,1,0,3:0:0:0:
281,79,1320,1,0,3:0:0:0:
143,165,1320,1,0,3:0:0:0:
367,217,1320,1,0,3:0:0:0:
277,286,1320,1,0,3:0:0:0:
234,99,1320,1,0,3:0:0:0:
349,171,1320,1,0,3:0:0:0:
162,214,1320,1,0,3:0:0:0:
221,342,1320,1,0,3:0:0:0:
405,227,1320,1,0,3:0:0:0:
106,158,1320,1,0,3:0:0:0:
290,43,1320,1,0,3:0:0:0:
405,157,1320,1,0,3:0:0:0:
221,42,1320,1,0,3:0:0:0:
290,341,1320,1,0,3:0:0:0:
106,226,1320,1,0,3:0:0:0:
234,285,1320,1,0,3:0:0:0:
277,98,1320,1,0,3:0:0:0:
162,170,1320,1,0,3:0:0:0:
349,213,1320,1,0,3:0:0:0:
387,112,1344,1,0,3:0:0:0:
335,59,1344,1,0,3:0:0:0:
388,270,1344,1,0,3:0:0:0:
334,324,1344,1,0,3:0:0:0:
123,271,1344,1,0,3:0:0:0:
176,59,1344,1,0,3:0:0:0:
338,141,1344,1,0,3:0:0:0:
206,108,1344,1,0,3:0:0:0:
305,274,1344,1,0,3:0:0:0:
176,323,1344,1,0,3:0:0:0:
123,112,1344,1,0,3:0:0:0:
173,240,1344,1,0,3:0:0:0:
156,131,1344,1,0,3:0:0:0:
157,249,1344,1,0,3:0:0:0:
354,131,1344,1,0,3:0:0:0:
195,290,1344,1,0,3:0:0:0:
314,92,1344,1,0,3:0:0:0:
354,250,1344,1,0,3:0:0:0:
304,109,1344,1,0,3:0:0:0:
338,241,1344,1,0,3:0:0:0:
172,142,1344,1,0,3:0:0:0:
196,91,1344,1,0,3:0:0:0:
315,289,1344,1,0,3:0:0:0:
205,274,1344,1,0,3:0:0:0:
283,304,1344,1,0,3:0:0:0:
227,80,1344,1,0,3:0:0:0:
367,164,1344,1,0,3:0:0:0:
143,220,1344,1,0,3:0:0:0:
227,303,1344,1,0,3:0:0:0:
283,79,1344,1,0,3:0:0:0:
143,163,1344,1,0,3:0:0:0:
367,219,1344,1,0,3:0:0:0:
279,286,1344,1,0,3:0:0:0:
232,99,1344,1,0,3:0:0:0:
349,169,1344,1,0,3:0:0:0:
162,216,1344,1,0,3:0:0:0:
405,230,1344,1,0,3:0:0:0:
218,342,1344,1,0,3:0:0:0:
106,155,1344,1,0,3:0:0:0:
293,43,1344,1,0,3:0:0:0:
218,42,1344,1,0,3:0:0:0:
405,154,1344,1,0,3:0:0:0:
293,341,1344,1,0,3:0:0:0:
106,229,1344,1,0,3:0:0:0:
232,285,1344,1,0,3:0:0:0:
279,98,1344,1,0,3:0:0:0:
162,168,1344,1,0,3:0:0:0:
349,215,1344,1,0,3:0:0:0:
338,240,1367,1,0,3:0:0:0:
178,324,1367,1,0,3:0:0:0:
388,268,1367,1,0,3:0:0:0:
303,109,1367,1,0,3:0:0:0:
207,274,1367,1,0,3:0:0:0:
172,143,1367,1,0,3:0:0:0:
338,143,1367,1,0,3:0:0:0:
207,108,1367,1,0,3:0:0:0:
304,274,1367,1,0,3:0:0:0:
123,114,1367,1,0,3:0:0:0:
333,58,1367,1,0,3:0:0:0:
173,239,1367,1,0,3:0:0:0:
354,249,1367,1,0,3:0:0:0:
157,248,1367,1,0,3:0:0:0:
354,132,1367,1,0,3:0:0:0:
313,92,1367,1,0,3:0:0:0:
197,290,1367,1,0,3:0:0:0:
155,134,1367,1,0,3:0:0:0:
332,324,1367,1,0,3:0:0:0:
178,59,1367,1,0,3:0:0:0:
122,269,1367,1,0,3:0:0:0:
198,91,1367,1,0,3:0:0:0:
313,289,1367,1,0,3:0:0:0:
388,114,1367,1,0,3:0:0:0:
226,81,1367,1,0,3:0:0:0:
284,303,1367,1,0,3:0:0:0:
144,222,1367,1,0,3:0:0:0:
366,163,1367,1,0,3:0:0:0:
226,302,1367,1,0,3:0:0:0:
284,80,1367,1,0,3:0:0:0:
144,162,1367,1,0,3:0:0:0:
366,220,1367,1,0,3:0:0:0:
295,44,1367,1,0,3:0:0:0:
404,232,1367,1,0,3:0:0:0:
107,153,1367,1,0,3:0:0:0:
216,341,1367,1,0,3:0:0:0:
231,100,1367,1,0,3:0:0:0:
280,285,1367,1,0,3:0:0:0:
163,217,1367,1,0,3:0:0:0:
348,168,1367,1,0,3:0:0:0:
295,340,1367,1,0,3:0:0:0:
404,152,1367,1,0,3:0:0:0:
107,231,1367,1,0,3:0:0:0:
216,43,1367,1,0,3:0:0:0:
231,284,1367,1,0,3:0:0:0:
280,99,1367,1,0,3:0:0:0:
163,167,1367,1,0,3:0:0:0:
348,216,1367,1,0,3:0:0:0:
339,238,1391,1,0,3:0:0:0:
121,117,1391,1,0,3:0:0:0:
330,56,1391,1,0,3:0:0:0:
301,107,1391,1,0,3:0:0:0:
208,276,1391,1,0,3:0:0:0:
171,145,1391,1,0,3:0:0:0:
340,144,1391,1,0,3:0:0:0:
209,107,1391,1,0,3:0:0:0:
302,275,1391,1,0,3:0:0:0:
181,325,1391,1,0,3:0:0:0:
390,265,1391,1,0,3:0:0:0:
171,237,1391,1,0,3:0:0:0:
356,247,1391,1,0,3:0:0:0:
154,246,1391,1,0,3:0:0:0:
357,134,1391,1,0,3:0:0:0:
311,90,1391,1,0,3:0:0:0:
199,292,1391,1,0,3:0:0:0:
154,135,1391,1,0,3:0:0:0:
120,266,1391,1,0,3:0:0:0:
389,117,1391,1,0,3:0:0:0:
329,326,1391,1,0,3:0:0:0:
200,89,1391,1,0,3:0:0:0:
311,291,1391,1,0,3:0:0:0:
181,57,1391,1,0,3:0:0:0:
223,81,1391,1,0,3:0:0:0:
287,303,1391,1,0,3:0:0:0:
144,224,1391,1,0,3:0:0:0:
366,160,1391,1,0,3:0:0:0:
223,302,1391,1,0,3:0:0:0:
287,80,1391,1,0,3:0:0:0:
144,159,1391,1,0,3:0:0:0:
366,223,1391,1,0,3:0:0:0:
108,150,1391,1,0,3:0:0:0:
213,340,1391,1,0,3:0:0:0:
298,45,1391,1,0,3:0:0:0:
403,235,1391,1,0,3:0:0:0:
229,100,1391,1,0,3:0:0:0:
282,285,1391,1,0,3:0:0:0:
163,219,1391,1,0,3:0:0:0:
348,166,1391,1,0,3:0:0:0:
108,234,1391,1,0,3:0:0:0:
213,44,1391,1,0,3:0:0:0:
298,339,1391,1,0,3:0:0:0:
403,149,1391,1,0,3:0:0:0:
229,284,1391,1,0,3:0:0:0:
282,99,1391,1,0,3:0:0:0:
163,165,1391,1,0,3:0:0:0:
348,218,1391,1,0,3:0:0:0:
340,236,1414,1,0,3:0:0:0:
120,119,1414,1,0,3:0:0:0:
183,326,1414,1,0,3:0:0:0:
299,107,1414,1,0,3:0:0:0:
210,276,1414,1,0,3:0:0:0:
170,147,1414,1,0,3:0:0:0:
340,146,1414,1,0,3:0:0:0:
211,106,1414,1,0,3:0:0:0:
300,276,1414,1,0,3:0:0:0:
391,263,1414,1,0,3:0:0:0:
328,56,1414,1,0,3:0:0:0:
171,235,1414,1,0,3:0:0:0:
357,136,1414,1,0,3:0:0:0:
153,137,1414,1,0,3:0:0:0:
357,245,1414,1,0,3:0:0:0:
202,88,1414,1,0,3:0:0:0:
309,292,1414,1,0,3:0:0:0:
154,244,1414,1,0,3:0:0:0:
390,119,1414,1,0,3:0:0:0:
327,327,1414,1,0,3:0:0:0:
120,264,1414,1,0,3:0:0:0:
309,89,1414,1,0,3:0:0:0:
201,293,1414,1,0,3:0:0:0:
183,56,1414,1,0,3:0:0:0:
145,157,1414,1,0,3:0:0:0:
365,225,1414,1,0,3:0:0:0:
221,301,1414,1,0,3:0:0:0:
289,81,1414,1,0,3:0:0:0:
145,226,1414,1,0,3:0:0:0:
365,158,1414,1,0,3:0:0:0:
221,82,1414,1,0,3:0:0:0:
289,302,1414,1,0,3:0:0:0:
109,148,1414,1,0,3:0:0:0:
300,46,1414,1,0,3:0:0:0:
402,237,1414,1,0,3:0:0:0:
211,339,1414,1,0,3:0:0:0:
227,101,1414,1,0,3:0:0:0:
284,284,1414,1,0,3:0:0:0:
164,221,1414,1,0,3:0:0:0:
347,164,1414,1,0,3:0:0:0:
109,236,1414,1,0,3:0:0:0:
300,338,1414,1,0,3:0:0:0:
402,147,1414,1,0,3:0:0:0:
211,45,1414,1,0,3:0:0:0:
227,283,1414,1,0,3:0:0:0:
284,100,1414,1,0,3:0:0:0:
164,163,1414,1,0,3:0:0:0:
347,220,1414,1,0,3:0:0:0:
118,262,1437,1,0,3:0:0:0:
118,121,1437,1,0,3:0:0:0:
185,328,1437,1,0,3:0:0:0:
392,121,1437,1,0,3:0:0:0:
185,54,1437,1,0,3:0:0:0:
325,329,1437,1,0,3:0:0:0:
341,147,1437,1,0,3:0:0:0:
212,105,1437,1,0,3:0:0:0:
299,276,1437,1,0,3:0:0:0:
326,54,1437,1,0,3:0:0:0:
393,261,1437,1,0,3:0:0:0:
170,235,1437,1,0,3:0:0:0:
358,137,1437,1,0,3:0:0:0:
357,244,1437,1,0,3:0:0:0:
152,138,1437,1,0,3:0:0:0:
202,88,1437,1,0,3:0:0:0:
309,293,1437,1,0,3:0:0:0:
153,243,1437,1,0,3:0:0:0:
299,106,1437,1,0,3:0:0:0:
340,235,1437,1,0,3:0:0:0:
169,148,1437,1,0,3:0:0:0:
202,293,1437,1,0,3:0:0:0:
308,88,1437,1,0,3:0:0:0:
211,277,1437,1,0,3:0:0:0:
145,156,1437,1,0,3:0:0:0:
365,226,1437,1,0,3:0:0:0:
220,301,1437,1,0,3:0:0:0:
290,81,1437,1,0,3:0:0:0:
365,157,1437,1,0,3:0:0:0:
145,228,1437,1,0,3:0:0:0:
290,302,1437,1,0,3:0:0:0:
220,82,1437,1,0,3:0:0:0:
285,284,1437,1,0,3:0:0:0:
226,101,1437,1,0,3:0:0:0:
347,163,1437,1,0,3:0:0:0:
164,222,1437,1,0,3:0:0:0:
303,46,1437,1,0,3:0:0:0:
109,145,1437,1,0,3:0:0:0:
402,240,1437,1,0,3:0:0:0:
208,339,1437,1,0,3:0:0:0:
109,239,1437,1,0,3:0:0:0:
303,338,1437,1,0,3:0:0:0:
208,45,1437,1,0,3:0:0:0:
402,144,1437,1,0,3:0:0:0:
226,283,1437,1,0,3:0:0:0:
285,100,1437,1,0,3:0:0:0:
164,162,1437,1,0,3:0:0:0:
347,221,1437,1,0,3:0:0:0:
205,86,1461,1,0,3:0:0:0:
306,294,1461,1,0,3:0:0:0:
152,240,1461,1,0,3:0:0:0:
359,140,1461,1,0,3:0:0:0:
151,141,1461,1,0,3:0:0:0:
359,241,1461,1,0,3:0:0:0:
305,87,1461,1,0,3:0:0:0:
205,295,1461,1,0,3:0:0:0:
188,53,1461,1,0,3:0:0:0:
393,124,1461,1,0,3:0:0:0:
322,330,1461,1,0,3:0:0:0:
116,259,1461,1,0,3:0:0:0:
297,105,1461,1,0,3:0:0:0:
213,278,1461,1,0,3:0:0:0:
169,150,1461,1,0,3:0:0:0:
341,233,1461,1,0,3:0:0:0:
117,124,1461,1,0,3:0:0:0:
188,329,1461,1,0,3:0:0:0:
394,258,1461,1,0,3:0:0:0:
323,52,1461,1,0,3:0:0:0:
169,233,1461,1,0,3:0:0:0:
342,149,1461,1,0,3:0:0:0:
214,105,1461,1,0,3:0:0:0:
297,277,1461,1,0,3:0:0:0:
146,153,1461,1,0,3:0:0:0:
364,229,1461,1,0,3:0:0:0:
217,300,1461,1,0,3:0:0:0:
293,82,1461,1,0,3:0:0:0:
146,230,1461,1,0,3:0:0:0:
364,154,1461,1,0,3:0:0:0:
217,83,1461,1,0,3:0:0:0:
293,301,1461,1,0,3:0:0:0:
110,142,1461,1,0,3:0:0:0:
306,47,1461,1,0,3:0:0:0:
401,243,1461,1,0,3:0:0:0:
205,338,1461,1,0,3:0:0:0:
224,102,1461,1,0,3:0:0:0:
287,283,1461,1,0,3:0:0:0:
165,224,1461,1,0,3:0:0:0:
346,161,1461,1,0,3:0:0:0:
110,242,1461,1,0,3:0:0:0:
306,337,1461,1,0,3:0:0:0:
401,141,1461,1,0,3:0:0:0:
205,46,1461,1,0,3:0:0:0:
224,282,1461,1,0,3:0:0:0:
287,101,1461,1,0,3:0:0:0:
165,160,1461,1,0,3:0:0:0:
346,223,1461,1,0,3:0:0:0:
205,295,1484,1,0,3:0:0:0:
304,86,1484,1,0,3:0:0:0:
359,240,1484,1,0,3:0:0:0:
150,141,1484,1,0,3:0:0:0:
151,240,1484,1,0,3:0:0:0:
360,141,1484,1,0,3:0:0:0:
206,85,1484,1,0,3:0:0:0:
305,295,1484,1,0,3:0:0:0:
214,278,1484,1,0,3:0:0:0:
296,105,1484,1,0,3:0:0:0:
342,233,1484,1,0,3:0:0:0:
168,150,1484,1,0,3:0:0:0:
190,52,1484,1,0,3:0:0:0:
320,331,1484,1,0,3:0:0:0:
394,126,1484,1,0,3:0:0:0:
115,257,1484,1,0,3:0:0:0:
395,256,1484,1,0,3:0:0:0:
116,126,1484,1,0,3:0:0:0:
321,51,1484,1,0,3:0:0:0:
190,330,1484,1,0,3:0:0:0:
169,232,1484,1,0,3:0:0:0:
342,150,1484,1,0,3:0:0:0:
214,104,1484,1,0,3:0:0:0:
297,278,1484,1,0,3:0:0:0:
294,301,1484,1,0,3:0:0:0:
216,83,1484,1,0,3:0:0:0:
364,153,1484,1,0,3:0:0:0:
146,231,1484,1,0,3:0:0:0:
216,300,1484,1,0,3:0:0:0:
294,82,1484,1,0,3:0:0:0:
146,152,1484,1,0,3:0:0:0:
364,230,1484,1,0,3:0:0:0:
288,283,1484,1,0,3:0:0:0:
223,102,1484,1,0,3:0:0:0:
346,160,1484,1,0,3:0:0:0:
165,225,1484,1,0,3:0:0:0:
111,140,1484,1,0,3:0:0:0:
400,245,1484,1,0,3:0:0:0:
308,48,1484,1,0,3:0:0:0:
203,337,1484,1,0,3:0:0:0:
400,139,1484,1,0,3:0:0:0:
111,244,1484,1,0,3:0:0:0:
203,47,1484,1,0,3:0:0:0:
308,336,1484,1,0,3:0:0:0:
223,282,1484,1,0,3:0:0:0:
288,101,1484,1,0,3:0:0:0:
165,159,1484,1,0,3:0:0:0:
346,224,1484,1,0,3:0:0:0:
209,85,1508,1,0,3:0:0:0:
302,295,1508,1,0,3:0:0:0:
151,237,1508,1,0,3:0:0:0:
361,143,1508,1,0,3:0:0:0:
149,145,1508,1,0,3:0:0:0:
359,237,1508,1,0,3:0:0:0:
301,86,1508,1,0,3:0:0:0:
207,296,1508,1,0,3:0:0:0:
114,254,1508,1,0,3:0:0:0:
396,129,1508,1,0,3:0:0:0:
193,51,1508,1,0,3:0:0:0:
317,332,1508,1,0,3:0:0:0:
294,104,1508,1,0,3:0:0:0:
216,279,1508,1,0,3:0:0:0:
167,153,1508,1,0,3:0:0:0:
342,230,1508,1,0,3:0:0:0:
318,50,1508,1,0,3:0:0:0:
193,332,1508,1,0,3:0:0:0:
115,129,1508,1,0,3:0:0:0:
396,253,1508,1,0,3:0:0:0:
168,230,1508,1,0,3:0:0:0:
343,152,1508,1,0,3:0:0:0:
217,103,1508,1,0,3:0:0:0:
294,278,1508,1,0,3:0:0:0:
148,150,1508,1,0,3:0:0:0:
362,232,1508,1,0,3:0:0:0:
214,298,1508,1,0,3:0:0:0:
296,83,1508,1,0,3:0:0:0:
148,234,1508,1,0,3:0:0:0:
362,151,1508,1,0,3:0:0:0:
214,85,1508,1,0,3:0:0:0:
296,300,1508,1,0,3:0:0:0:
200,336,1508,1,0,3:0:0:0:
311,49,1508,1,0,3:0:0:0:
112,137,1508,1,0,3:0:0:0:
399,248,1508,1,0,3:0:0:0:
221,103,1508,1,0,3:0:0:0:
290,282,1508,1,0,3:0:0:0:
166,227,1508,1,0,3:0:0:0:
345,158,1508,1,0,3:0:0:0:
200,48,1508,1,0,3:0:0:0:
311,335,1508,1,0,3:0:0:0:
112,247,1508,1,0,3:0:0:0:
399,136,1508,1,0,3:0:0:0:
221,281,1508,1,0,3:0:0:0:
290,102,1508,1,0,3:0:0:0:
166,157,1508,1,0,3:0:0:0:
345,226,1508,1,0,3:0:0:0:
315,333,1531,1,0,3:0:0:0:
114,131,1531,1,0,3:0:0:0:
195,332,1531,1,0,3:0:0:0:
396,131,1531,1,0,3:0:0:0:
195,50,1531,1,0,3:0:0:0:
113,252,1531,1,0,3:0:0:0:
344,153,1531,1,0,3:0:0:0:
217,102,1531,1,0,3:0:0:0:
294,279,1531,1,0,3:0:0:0:
397,251,1531,1,0,3:0:0:0:
316,49,1531,1,0,3:0:0:0:
167,229,1531,1,0,3:0:0:0:
149,146,1531,1,0,3:0:0:0:
149,235,1531,1,0,3:0:0:0:
362,144,1531,1,0,3:0:0:0:
209,298,1531,1,0,3:0:0:0:
300,85,1531,1,0,3:0:0:0:
360,237,1531,1,0,3:0:0:0:
293,103,1531,1,0,3:0:0:0:
343,230,1531,1,0,3:0:0:0:
166,153,1531,1,0,3:0:0:0:
210,84,1531,1,0,3:0:0:0:
301,296,1531,1,0,3:0:0:0:
217,280,1531,1,0,3:0:0:0:
298,300,1531,1,0,3:0:0:0:
212,85,1531,1,0,3:0:0:0:
362,150,1531,1,0,3:0:0:0:
148,235,1531,1,0,3:0:0:0:
212,298,1531,1,0,3:0:0:0:
298,83,1531,1,0,3:0:0:0:
148,148,1531,1,0,3:0:0:0:
362,234,1531,1,0,3:0:0:0:
291,282,1531,1,0,3:0:0:0:
220,103,1531,1,0,3:0:0:0:
345,157,1531,1,0,3:0:0:0:
166,228,1531,1,0,3:0:0:0:
313,50,1531,1,0,3:0:0:0:
113,135,1531,1,0,3:0:0:0:
198,335,1531,1,0,3:0:0:0:
398,250,1531,1,0,3:0:0:0:
113,249,1531,1,0,3:0:0:0:
313,334,1531,1,0,3:0:0:0:
398,134,1531,1,0,3:0:0:0:
198,49,1531,1,0,3:0:0:0:
220,281,1531,1,0,3:0:0:0:
291,102,1531,1,0,3:0:0:0:
166,156,1531,1,0,3:0:0:0:
345,227,1531,1,0,3:0:0:0:
212,83,1555,1,0,3:0:0:0:
299,297,1555,1,0,3:0:0:0:
149,233,1555,1,0,3:0:0:0:
362,147,1555,1,0,3:0:0:0:
148,148,1555,1,0,3:0:0:0:
362,234,1555,1,0,3:0:0:0:
298,84,1555,1,0,3:0:0:0:
212,298,1555,1,0,3:0:0:0:
398,134,1555,1,0,3:0:0:0:
198,49,1555,1,0,3:0:0:0:
312,334,1555,1,0,3:0:0:0:
112,249,1555,1,0,3:0:0:0:
291,102,1555,1,0,3:0:0:0:
219,281,1555,1,0,3:0:0:0:
166,155,1555,1,0,3:0:0:0:
344,228,1555,1,0,3:0:0:0:
198,334,1555,1,0,3:0:0:0:
113,134,1555,1,0,3:0:0:0:
398,248,1555,1,0,3:0:0:0:
313,48,1555,1,0,3:0:0:0:
166,227,1555,1,0,3:0:0:0:
345,155,1555,1,0,3:0:0:0:
219,102,1555,1,0,3:0:0:0:
292,280,1555,1,0,3:0:0:0:
149,146,1555,1,0,3:0:0:0:
361,236,1555,1,0,3:0:0:0:
210,297,1555,1,0,3:0:0:0:
300,85,1555,1,0,3:0:0:0:
149,237,1555,1,0,3:0:0:0:
361,147,1555,1,0,3:0:0:0:
210,86,1555,1,0,3:0:0:0:
300,298,1555,1,0,3:0:0:0:
316,51,1555,1,0,3:0:0:0:
114,132,1555,1,0,3:0:0:0:
397,253,1555,1,0,3:0:0:0:
195,334,1555,1,0,3:0:0:0:
218,104,1555,1,0,3:0:0:0:
293,281,1555,1,0,3:0:0:0:
167,230,1555,1,0,3:0:0:0:
344,155,1555,1,0,3:0:0:0:
316,333,1555,1,0,3:0:0:0:
114,252,1555,1,0,3:0:0:0:
397,131,1555,1,0,3:0:0:0:
195,50,1555,1,0,3:0:0:0:
218,280,1555,1,0,3:0:0:0:
293,103,1555,1,0,3:0:0:0:
167,154,1555,1,0,3:0:0:0:
344,229,1555,1,0,3:0:0:0:
398,136,1578,1,0,3:0:0:0:
112,136,1578,1,0,3:0:0:0:
399,246,1578,1,0,3:0:0:0:
310,335,1578,1,0,3:0:0:0:
200,48,1578,1,0,3:0:0:0:
111,247,1578,1,0,3:0:0:0:
345,157,1578,1,0,3:0:0:0:
222,101,1578,1,0,3:0:0:0:
289,281,1578,1,0,3:0:0:0:
200,334,1578,1,0,3:0:0:0:
311,47,1578,1,0,3:0:0:0:
166,225,1578,1,0,3:0:0:0:
165,158,1578,1,0,3:0:0:0:
147,150,1578,1,0,3:0:0:0:
188,350,1578,1,0,3:0:0:0:
148,231,1578,1,0,3:0:0:0:
214,298,1578,1,0,3:0:0:0:
296,83,1578,1,0,3:0:0:0:
362,232,1578,1,0,3:0:0:0:
221,281,1578,1,0,3:0:0:0:
289,102,1578,1,0,3:0:0:0:
345,225,1578,1,0,3:0:0:0:
363,149,1578,1,0,3:0:0:0:
214,83,1578,1,0,3:0:0:0:
297,298,1578,1,0,3:0:0:0:
302,297,1578,1,0,3:0:0:0:
208,87,1578,1,0,3:0:0:0:
360,145,1578,1,0,3:0:0:0:
150,240,1578,1,0,3:0:0:0:
320,352,1578,1,0,3:0:0:0:
208,296,1578,1,0,3:0:0:0:
302,86,1578,1,0,3:0:0:0:
150,144,1578,1,0,3:0:0:0:
360,238,1578,1,0,3:0:0:0:
295,280,1578,1,0,3:0:0:0:
216,105,1578,1,0,3:0:0:0:
343,153,1578,1,0,3:0:0:0:
168,232,1578,1,0,3:0:0:0:
396,255,1578,1,0,3:0:0:0:
115,130,1578,1,0,3:0:0:0:
193,333,1578,1,0,3:0:0:0:
318,52,1578,1,0,3:0:0:0:
115,254,1578,1,0,3:0:0:0:
396,129,1578,1,0,3:0:0:0:
318,332,1578,1,0,3:0:0:0:
193,51,1578,1,0,3:0:0:0:
216,279,1578,1,0,3:0:0:0:
295,104,1578,1,0,3:0:0:0:
168,152,1578,1,0,3:0:0:0:
343,231,1578,1,0,3:0:0:0:
256,128,1601,1,0,0:0:0:0:
256,256,1601,1,0,0:0:0:0:
320,192,1601,1,0,0:0:0:0:
192,192,1601,1,0,0:0:0:0:
192,192,1601,1,0,0:0:0:0:
320,192,1601,1,0,0:0:0:0:
256,256,1601,1,0,0:0:0:0:
256,128,1601,1,0,0:0:0:0:
257,128,1624,1,0,3:0:0:0:
254,255,1624,1,0,3:0:0:0:
193,190,1624,1,0,3:0:0:0:
320,193,1624,1,0,3:0:0:0:
320,193,1624,1,0,3:0:0:0:
193,190,1624,1,0,3:0:0:0:
254,255,1624,1,0,3:0:0:0:
257,128,1624,1,0,3:0:0:0:
257,128,1647,1,0,3:0:0:0:
254,255,1647,1,0,3:0:0:0:
320,193,1647,1,0,3:0:0:0:
193,190,1647,1,0,3:0:0:0:
193,190,1647,1,0,3:0:0:0:
257,128,1647,1,0,3:0:0:0:
320,193,1647,1,0,3:0:0:0:
254,255,1647,1,0,3:0:0:0:
258,128,1671,1,0,3:0:0:0:
253,255,1671,1,0,3:0:0:0:
193,189,1671,1,0,3:0:0:0:
320,194,1671,1,0,3:0:0:0:
253,255,1671,1,0,3:0:0:0:
258,128,1671,1,0,3:0:0:0:
193,189,1671,1,0,3:0:0:0:
320,194,1671,1,0,3:0:0:0:
259,128,1694,1,0,3:0:0:0:
252,255,1694,1,0,3:0:0:0:
193,188,1694,1,0,3:0:0:0:
320,195,1694,1,0,3:0:0:0:
259,128,1694,1,0,3:0:0:0:
320,195,1694,1,0,3:0:0:0:
193,188,1694,1,0,3:0:0:0:
252,255,1694,1,0,3:0:0:0:
262,128,1718,1,0,3:0:0:0:
249,255,1718,1,0,3:0:0:0:
320,198,1718,1,0,3:0:0:0:
193,185,1718,1,0,3:0:0:0:
249,255,1718,1,0,3:0:0:0:
262,128,1718,1,0,3:0:0:0:
193,185,1718,1,0,3:0:0:0:
320,198,1718,1,0,3:0:0:0:
263,128,1741,1,0,3:0:0:0:
248,255,1741,1,0,3:0:0:0:
320,199,1741,1,0,3:0:0:0:
193,184,1741,1,0,3:0:0:0:
263,128,1741,1,0,3:0:0:0:
320,199,1741,1,0,3:0:0:0:
248,255,1741,1,0,3:0:0:0:
193,184,1741,1,0,3:0:0:0:
264,128,1765,1,0,3:0:0:0:
247,255,1765,1,0,3:0:0:0:
320,200,1765,1,0,3:0:0:0:
193,183,1765,1,0,3:0:0:0:
264,128,1765,1,0,3:0:0:0:
320,200,1765,1,0,3:0:0:0:
193,183,1765,1,0,3:0:0:0:
247,255,1765,1,0,3:0:0:0:
265,128,1788,1,0,3:0:0:0:
246,255,1788,1,0,3:0:0:0:
193,182,1788,1,0,3:0:0:0:
320,201,1788,1,0,3:0:0:0:
265,128,1788,1,0,3:0:0:0:
246,255,1788,1,0,3:0:0:0:
320,201,1788,1,0,3:0:0:0:
193,182,1788,1,0,3:0:0:0:
266,128,1811,1,0,3:0:0:0:
245,255,1811,1,0,3:0:0:0:
193,181,1811,1,0,3:0:0:0:
320,202,1811,1,0,3:0:0:0:
320,202,1811,1,0,3:0:0:0:
266,128,1811,1,0,3:0:0:0:
245,255,1811,1,0,3:0:0:0:
193,181,1811,1,0,3:0:0:0:
267,128,1835,1,0,3:0:0:0:
244,255,1835,1,0,3:0:0:0:
193,180,1835,1,0,3:0:0:0:
320,203,1835,1,0,3:0:0:0:
267,128,1835,1,0,3:0:0:0:
320,203,1835,1,0,3:0:0:0:
244,255,1835,1,0,3:0:0:0:
193,180,1835,1,0,3:0:0:0:
268,129,1858,1,0,3:0:0:0:
243,254,1858,1,0,3:0:0:0:
194,179,1858,1,0,3:0:0:0:
319,204,1858,1,0,3:0:0:0:
268,129,1858,1,0,3:0:0:0:
319,204,1858,1,0,3:0:0:0:
194,179,1858,1,0,3:0:0:0:
243,254,1858,1,0,3:0:0:0:
269,129,1882,1,0,3:0:0:0:
242,254,1882,1,0,3:0:0:0:
194,178,1882,1,0,3:0:0:0:
319,205,1882,1,0,3:0:0:0:
319,205,1882,1,0,3:0:0:0:
269,129,1882,1,0,3:0:0:0:
242,254,1882,1,0,3:0:0:0:
194,178,1882,1,0,3:0:0:0:
270,129,1905,1,0,3:0:0:0:
241,254,1905,1,0,3:0:0:0:
319,206,1905,1,0,3:0:0:0:
194,177,1905,1,0,3:0:0:0:
241,254,1905,1,0,3:0:0:0:
270,129,1905,1,0,3:0:0:0:
194,177,1905,1,0,3:0:0:0:
319,206,1905,1,0,3:0:0:0:
272,129,1929,1,0,3:0:0:0:
239,254,1929,1,0,3:0:0:0:
319,208,1929,1,0,3:0:0:0:
194,175,1929,1,0,3:0:0:0:
239,254,1929,1,0,3:0:0:0:
272,129,1929,1,0,3:0:0:0:
194,175,1929,1,0,3:0:0:0:
319,208,1929,1,0,3:0:0:0:
273,130,1952,1,0,3:0:0:0:
238,253,1952,1,0,3:0:0:0:
318,209,1952,1,0,3:0:0:0:
195,174,1952,1,0,3:0:0:0:
238,253,1952,1,0,3:0:0:0:
273,130,1952,1,0,3:0:0:0:
318,209,1952,1,0,3:0:0:0:
195,174,1952,1,0,3:0:0:0:
274,130,1976,1,0,3:0:0:0:
237,253,1976,1,0,3:0:0:0:
318,210,1976,1,0,3:0:0:0:
195,173,1976,1,0,3:0:0:0:
195,173,1976,1,0,3:0:0:0:
318,210,1976,1,0,3:0:0:0:
274,130,1976,1,0,3:0:0:0:
237,253,1976,1,0,3:0:0:0:
275,130,2000,1,0,3:0:0:0:
236,253,2000,1,0,3:0:0:0:
318,211,2000,1,0,3:0:0:0:
195,172,2000,1,0,3:0:0:0:
236,253,2000,1,0,3:0:0:0:
275,130,2000,1,0,3:0:0:0:
195,172,2000,1,0,3:0:0:0:
318,211,2000,1,0,3:0:0:0:
276,131,2023,1,0,3:0:0:0:
235,252,2023,1,0,3:0:0:0:
317,212,2023,1,0,3:0:0:0:
196,171,2023,1,0,3:0:0:0:
235,252,2023,1,0,3:0:0:0:
317,212,2023,1,0,3:0:0:0:
276,131,2023,1,0,3:0:0:0:
196,171,2023,1,0,3:0:0:0:
277,131,2047,1,0,3:0:0:0:
234,252,2047,1,0,3:0:0:0:
317,213,2047,1,0,3:0:0:0:
196,170,2047,1,0,3:0:0:0:
277,131,2047,1,0,3:0:0:0:
317,213,2047,1,0,3:0:0:0:
234,252,2047,1,0,3:0:0:0:
196,170,2047,1,0,3:0:0:0:
278,131,2070,1,0,3:0:0:0:
233,252,2070,1,0,3:0:0:0:
317,214,2070,1,0,3:0:0:0:
196,169,2070,1,0,3:0:0:0:
196,169,2070,1,0,3:0:0:0:
278,131,2070,1,0,3:0:0:0:
233,252,2070,1,0,3:0:0:0:
317,214,2070,1,0,3:0:0:0:
279,132,2094,1,0,3:0:0:0:
232,251,2094,1,0,3:0:0:0:
197,168,2094,1,0,3:0:0:0:
316,215,2094,1,0,3:0:0:0:
232,251,2094,1,0,3:0:0:0:
316,215,2094,1,0,3:0:0:0:
197,168,2094,1,0,3:0:0:0:
279,132,2094,1,0,3:0:0:0:
280,132,2117,1,0,3:0:0:0:
231,251,2117,1,0,3:0:0:0:
197,167,2117,1,0,3:0:0:0:
316,216,2117,1,0,3:0:0:0:
280,132,2117,1,0,3:0:0:0:
231,251,2117,1,0,3:0:0:0:
197,167,2117,1,0,3:0:0:0:
316,216,2117,1,0,3:0:0:0:
281,133,2141,1,0,3:0:0:0:
230,250,2141,1,0,3:0:0:0:
198,166,2141,1,0,3:0:0:0:
315,217,2141,1,0,3:0:0:0:
230,250,2141,1,0,3:0:0:0:
281,133,2141,1,0,3:0:0:0:
315,217,2141,1,0,3:0:0:0:
198,166,2141,1,0,3:0:0:0:
282,133,2164,1,0,3:0:0:0:
229,250,2164,1,0,3:0:0:0:
198,165,2164,1,0,3:0:0:0:
315,218,2164,1,0,3:0:0:0:
198,165,2164,1,0,3:0:0:0:
282,133,2164,1,0,3:0:0:0:
229,250,2164,1,0,3:0:0:0:
315,218,2164,1,0,3:0:0:0:
283,134,2187,1,0,3:0:0:0:
228,249,2187,1,0,3:0:0:0:
199,164,2187,1,0,3:0:0:0:
314,219,2187,1,0,3:0:0:0:
199,164,2187,1,0,3:0:0:0:
314,219,2187,1,0,3:0:0:0:
283,134,2187,1,0,3:0:0:0:
228,249,2187,1,0,3:0:0:0:
284,134,2211,1,0,3:0:0:0:
227,249,2211,1,0,3:0:0:0:
199,163,2211,1,0,3:0:0:0:
314,220,2211,1,0,3:0:0:0:
199,163,2211,1,0,3:0:0:0:
284,134,2211,1,0,3:0:0:0:
314,220,2211,1,0,3:0:0:0:
227,249,2211,1,0,3:0:0:0:
285,135,2234,1,0,3:0:0:0:
226,248,2234,1,0,3:0:0:0:
200,162,2234,1,0,3:0:0:0:
313,221,2234,1,0,3:0:0:0:
313,221,2234,1,0,3:0:0:0:
226,248,2234,1,0,3:0:0:0:
200,162,2234,1,0,3:0:0:0:
285,135,2234,1,0,3:0:0:0:
286,135,2258,1,0,3:0:0:0:
225,248,2258,1,0,3:0:0:0:
200,161,2258,1,0,3:0:0:0:
313,222,2258,1,0,3:0:0:0:
286,135,2258,1,0,3:0:0:0:
200,161,2258,1,0,3:0:0:0:
225,248,2258,1,0,3:0:0:0:
313,222,2258,1,0,3:0:0:0:
287,136,2281,1,0,3:0:0:0:
224,247,2281,1,0,3:0:0:0:
312,223,2281,1,0,3:0:0:0:
201,160,2281,1,0,3:0:0:0:
312,223,2281,1,0,3:0:0:0:
201,160,2281,1,0,3:0:0:0:
224,247,2281,1,0,3:0:0:0:
287,136,2281,1,0,3:0:0:0:
288,136,2305,1,0,3:3:0:0:
223,247,2305,1,0,3:3:0:0:
312,224,2305,1,0,3:3:0:0:
201,159,2305,1,0,3:3:0:0:
201,159,2305,1,0,3:3:0:0:
223,247,2305,1,0,3:3:0:0:
312,224,2305,1,0,3:3:0:0:
288,136,2305,1,0,3:3:0:0:
289,137,2328,1,0,3:3:0:0:
222,246,2328,1,0,3:3:0:0:
311,225,2328,1,0,3:3:0:0:
202,158,2328,1,0,3:3:0:0:
311,225,2328,1,0,3:3:0:0:
202,158,2328,1,0,3:3:0:0:
222,246,2328,1,0,3:3:0:0:
289,137,2328,1,0,3:3:0:0:
289,137,2351,1,0,3:3:0:0:
222,246,2351,1,0,3:3:0:0:
311,225,2351,1,0,3:3:0:0:
202,158,2351,1,0,3:3:0:0:
311,225,2351,1,0,3:3:0:0:
289,137,2351,1,0,3:3:0:0:
202,158,2351,1,0,3:3:0:0:
222,246,2351,1,0,3:3:0:0:
290,137,2375,1,0,3:3:0:0:
221,246,2375,1,0,3:3:0:0:
311,226,2375,1,0,3:3:0:0:
202,157,2375,1,0,3:3:0:0:
311,226,2375,1,0,3:3:0:0:
290,137,2375,1,0,3:3:0:0:
221,246,2375,1,0,3:3:0:0:
202,157,2375,1,0,3:3:0:0:
291,138,2398,1,0,3:3:0:0:
220,245,2398,1,0,3:3:0:0:
203,156,2398,1,0,3:3:0:0:
310,227,2398,1,0,3:3:0:0:
310,227,2398,1,0,3:3:0:0:
220,245,2398,1,0,3:3:0:0:
203,156,2398,1,0,3:3:0:0:
291,138,2398,1,0,3:3:0:0:
292,139,2422,1,0,3:3:0:0:
219,244,2422,1,0,3:3:0:0:
204,155,2422,1,0,3:3:0:0:
309,228,2422,1,0,3:3:0:0:
309,228,2422,1,0,3:3:0:0:
292,139,2422,1,0,3:3:0:0:
204,155,2422,1,0,3:3:0:0:
219,244,2422,1,0,3:3:0:0:
293,139,2445,1,0,3:3:0:0:
218,244,2445,1,0,3:3:0:0:
204,154,2445,1,0,3:3:0:0:
309,229,2445,1,0,3:3:0:0:
218,244,2445,1,0,3:3:0:0:
309,229,2445,1,0,3:3:0:0:
293,139,2445,1,0,3:3:0:0:
204,154,2445,1,0,3:3:0:0:
294,140,2469,1,0,3:3:0:0:
217,243,2469,1,0,3:3:0:0:
308,230,2469,1,0,3:3:0:0:
205,153,2469,1,0,3:3:0:0:
294,140,2469,1,0,3:3:0:0:
205,153,2469,1,0,3:3:0:0:
217,243,2469,1,0,3:3:0:0:
308,230,2469,1,0,3:3:0:0:
295,141,2492,1,0,3:3:0:0:
216,242,2492,1,0,3:3:0:0:
307,231,2492,1,0,3:3:0:0:
206,152,2492,1,0,3:3:0:0:
307,231,2492,1,0,3:3:0:0:
295,141,2492,1,0,3:3:0:0:
206,152,2492,1,0,3:3:0:0:
216,242,2492,1,0,3:3:0:0:
295,141,2516,1,0,3:3:0:0:
216,242,2516,1,0,3:3:0:0:
307,231,2516,1,0,3:3:0:0:
206,152,2516,1,0,3:3:0:0:
216,242,2516,1,0,3:3:0:0:
295,141,2516,1,0,3:3:0:0:
307,231,2516,1,0,3:3:0:0:
206,152,2516,1,0,3:3:0:0:
296,142,2539,1,0,3:3:0:0:
215,241,2539,1,0,3:3:0:0:
207,151,2539,1,0,3:3:0:0:
306,232,2539,1,0,3:3:0:0:
207,151,2539,1,0,3:3:0:0:
306,232,2539,1,0,3:3:0:0:
296,142,2539,1,0,3:3:0:0:
215,241,2539,1,0,3:3:0:0:
297,143,2562,1,0,3:3:0:0:
214,240,2562,1,0,3:3:0:0:
305,233,2562,1,0,3:3:0:0:
208,150,2562,1,0,3:3:0:0:
208,150,2562,1,0,3:3:0:0:
214,240,2562,1,0,3:3:0:0:
297,143,2562,1,0,3:3:0:0:
305,233,2562,1,0,3:3:0:0:
298,143,2586,1,0,3:3:0:0:
213,240,2586,1,0,3:3:0:0:
208,149,2586,1,0,3:3:0:0:
305,234,2586,1,0,3:3:0:0:
305,234,2586,1,0,3:3:0:0:
208,149,2586,1,0,3:3:0:0:
213,240,2586,1,0,3:3:0:0:
298,143,2586,1,0,3:3:0:0:
299,144,2609,1,0,3:3:0:0:
212,239,2609,1,0,3:3:0:0:
304,235,2609,1,0,3:3:0:0:
209,148,2609,1,0,3:3:0:0:
209,148,2609,1,0,3:3:0:0:
212,239,2609,1,0,3:3:0:0:
304,235,2609,1,0,3:3:0:0:
299,144,2609,1,0,3:3:0:0:
300,145,2633,1,0,3:3:0:0:
211,238,2633,1,0,3:3:0:0:
210,147,2633,1,0,3:3:0:0:
303,236,2633,1,0,3:3:0:0:
210,147,2633,1,0,3:3:0:0:
300,145,2633,1,0,3:3:0:0:
303,236,2633,1,0,3:3:0:0:
211,238,2633,1,0,3:3:0:0:
300,146,2656,1,0,3:3:0:0:
211,237,2656,1,0,3:3:0:0:
302,236,2656,1,0,3:3:0:0:
211,147,2656,1,0,3:3:0:0:
300,146,2656,1,0,3:3:0:0:
302,236,2656,1,0,3:3:0:0:
211,237,2656,1,0,3:3:0:0:
211,147,2656,1,0,3:3:0:0:
301,146,2680,1,0,3:3:0:0:
210,237,2680,1,0,3:3:0:0:
211,146,2680,1,0,3:3:0:0:
302,237,2680,1,0,3:3:0:0:
210,237,2680,1,0,3:3:0:0:
211,146,2680,1,0,3:3:0:0:
301,146,2680,1,0,3:3:0:0:
302,237,2680,1,0,3:3:0:0:
302,147,2703,1,0,3:3:0:0:
209,236,2703,1,0,3:3:0:0:
301,238,2703,1,0,3:3:0:0:
212,145,2703,1,0,3:3:0:0:
302,147,2703,1,0,3:3:0:0:
301,238,2703,1,0,3:3:0:0:
212,145,2703,1,0,3:3:0:0:
209,236,2703,1,0,3:3:0:0:
303,148,2726,1,0,3:3:0:0:
208,235,2726,1,0,3:3:0:0:
213,144,2726,1,0,3:3:0:0:
300,239,2726,1,0,3:3:0:0:
208,235,2726,1,0,3:3:0:0:
300,239,2726,1,0,3:3:0:0:
213,144,2726,1,0,3:3:0:0:
303,148,2726,1,0,3:3:0:0:
304,149,2750,1,0,3:3:0:0:
207,234,2750,1,0,3:3:0:0:
299,240,2750,1,0,3:3:0:0:
214,143,2750,1,0,3:3:0:0:
207,234,2750,1,0,3:3:0:0:
214,143,2750,1,0,3:3:0:0:
299,240,2750,1,0,3:3:0:0:
304,149,2750,1,0,3:3:0:0:
304,150,2773,1,0,3:3:0:0:
207,233,2773,1,0,3:3:0:0:
215,143,2773,1,0,3:3:0:0:
298,240,2773,1,0,3:3:0:0:
207,233,2773,1,0,3:3:0:0:
304,150,2773,1,0,3:3:0:0:
215,143,2773,1,0,3:3:0:0:
298,240,2773,1,0,3:3:0:0:
305,151,2797,1,0,3:3:0:0:
206,232,2797,1,0,3:3:0:0:
297,241,2797,1,0,3:3:0:0:
216,142,2797,1,0,3:3:0:0:
216,142,2797,1,0,3:3:0:0:
297,241,2797,1,0,3:3:0:0:
305,151,2797,1,0,3:3:0:0:
206,232,2797,1,0,3:3:0:0:
306,152,2820,1,0,3:3:0:0:
205,231,2820,1,0,3:3:0:0:
217,141,2820,1,0,3:3:0:0:
296,242,2820,1,0,3:3:0:0:
296,242,2820,1,0,3:3:0:0:
217,141,2820,1,0,3:3:0:0:
205,231,2820,1,0,3:3:0:0:
306,152,2820,1,0,3:3:0:0:
306,152,2844,1,0,3:3:0:0:
205,231,2844,1,0,3:3:0:0:
296,242,2844,1,0,3:3:0:0:
217,141,2844,1,0,3:3:0:0:
306,152,2844,1,0,3:3:0:0:
205,231,2844,1,0,3:3:0:0:
217,141,2844,1,0,3:3:0:0:
296,242,2844,1,0,3:3:0:0:
307,153,2867,1,0,3:3:0:0:
204,230,2867,1,0,3:3:0:0:
218,140,2867,1,0,3:3:0:0:
295,243,2867,1,0,3:3:0:0:
218,140,2867,1,0,3:3:0:0:
307,153,2867,1,0,3:3:0:0:
204,230,2867,1,0,3:3:0:0:
295,243,2867,1,0,3:3:0:0:
308,154,2891,1,0,3:3:0:0:
203,229,2891,1,0,3:3:0:0:
294,244,2891,1,0,3:3:0:0:
219,139,2891,1,0,3:3:0:0:
219,139,2891,1,0,3:3:0:0:
203,229,2891,1,0,3:3:0:0:
294,244,2891,1,0,3:3:0:0:
308,154,2891,1,0,3:3:0:0:
308,155,2914,1,0,3:3:0:0:
203,228,2914,1,0,3:3:0:0:
220,139,2914,1,0,3:3:0:0:
293,244,2914,1,0,3:3:0:0:
308,155,2914,1,0,3:3:0:0:
220,139,2914,1,0,3:3:0:0:
293,244,2914,1,0,3:3:0:0:
203,228,2914,1,0,3:3:0:0:
309,156,2937,1,0,3:3:0:0:
202,227,2937,1,0,3:3:0:0:
292,245,2937,1,0,3:3:0:0:
221,138,2937,1,0,3:3:0:0:
202,227,2937,1,0,3:3:0:0:
292,245,2937,1,0,3:3:0:0:
309,156,2937,1,0,3:3:0:0:
221,138,2937,1,0,3:3:0:0:
310,157,2961,1,0,3:3:0:0:
201,226,2961,1,0,3:3:0:0:
222,137,2961,1,0,3:3:0:0:
291,246,2961,1,0,3:3:0:0:
310,157,2961,1,0,3:3:0:0:
201,226,2961,1,0,3:3:0:0:
222,137,2961,1,0,3:3:0:0:
291,246,2961,1,0,3:3:0:0:
310,158,2984,1,0,3:3:0:0:
201,225,2984,1,0,3:3:0:0:
290,246,2984,1,0,3:3:0:0:
223,137,2984,1,0,3:3:0:0:
201,225,2984,1,0,3:3:0:0:
223,137,2984,1,0,3:3:0:0:
290,246,2984,1,0,3:3:0:0:
310,158,2984,1,0,3:3:0:0:
311,159,3008,1,0,3:3:0:0:
200,224,3008,1,0,3:3:0:0:
224,136,3008,1,0,3:3:0:0:
289,247,3008,1,0,3:3:0:0:
311,159,3008,1,0,3:3:0:0:
289,247,3008,1,0,3:3:0:0:
200,224,3008,1,0,3:3:0:0:
224,136,3008,1,0,3:3:0:0:
311,160,3031,1,0,3:3:0:0:
200,223,3031,1,0,3:3:0:0:
288,247,3031,1,0,3:3:0:0:
225,136,3031,1,0,3:3:0:0:
288,247,3031,1,0,3:3:0:0:
200,223,3031,1,0,3:3:0:0:
311,160,3031,1,0,3:3:0:0:
225,136,3031,1,0,3:3:0:0:
312,161,3055,1,0,3:3:0:0:
199,222,3055,1,0,3:3:0:0:
226,135,3055,1,0,3:3:0:0:
287,248,3055,1,0,3:3:0:0:
226,135,3055,1,0,3:3:0:0:
312,161,3055,1,0,3:3:0:0:
287,248,3055,1,0,3:3:0:0:
199,222,3055,1,0,3:3:0:0:
312,162,3078,1,0,3:3:0:0:
199,221,3078,1,0,3:3:0:0:
286,248,3078,1,0,3:3:0:0:
227,135,3078,1,0,3:3:0:0:
286,248,3078,1,0,3:3:0:0:
227,135,3078,1,0,3:3:0:0:
199,221,3078,1,0,3:3:0:0:
312,162,3078,1,0,3:3:0:0:
313,163,3101,1,0,3:3:0:0:
198,220,3101,1,0,3:3:0:0:
228,134,3101,1,0,3:3:0:0:
285,249,3101,1,0,3:3:0:0:
313,163,3101,1,0,3:3:0:0:
285,249,3101,1,0,3:3:0:0:
228,134,3101,1,0,3:3:0:0:
198,220,3101,1,0,3:3:0:0:
313,164,3125,1,0,3:3:0:0:
198,219,3125,1,0,3:3:0:0:
284,249,3125,1,0,3:3:0:0:
229,134,3125,1,0,3:3:0:0:
313,164,3125,1,0,3:3:0:0:
198,219,3125,1,0,3:3:0:0:
284,249,3125,1,0,3:3:0:0:
229,134,3125,1,0,3:3:0:0:
314,165,3148,1,0,3:3:0:0:
197,218,3148,1,0,3:3:0:0:
230,133,3148,1,0,3:3:0:0:
283,250,3148,1,0,3:3:0:0:
197,218,3148,1,0,3:3:0:0:
230,133,3148,1,0,3:3:0:0:
314,165,3148,1,0,3:3:0:0:
283,250,3148,1,0,3:3:0:0:
314,166,3172,1,0,3:3:0:0:
197,217,3172,1,0,3:3:0:0:
282,250,3172,1,0,3:3:0:0:
231,133,3172,1,0,3:3:0:0:
282,250,3172,1,0,3:3:0:0:
231,133,3172,1,0,3:3:0:0:
197,217,3172,1,0,3:3:0:0:
314,166,3172,1,0,3:3:0:0:
315,167,3195,1,0,3:3:0:0:
196,216,3195,1,0,3:3:0:0:
232,132,3195,1,0,3:3:0:0:
281,251,3195,1,0,3:3:0:0:
315,167,3195,1,0,3:3:0:0:
196,216,3195,1,0,3:3:0:0:
232,132,3195,1,0,3:3:0:0:
281,251,3195,1,0,3:3:0:0:
315,168,3219,1,0,3:3:0:0:
196,215,3219,1,0,3:3:0:0:
280,251,3219,1,0,3:3:0:0:
233,132,3219,1,0,3:3:0:0:
315,168,3219,1,0,3:3:0:0:
233,132,3219,1,0,3:3:0:0:
280,251,3219,1,0,3:3:0:0:
196,215,3219,1,0,3:3:0:0:
316,169,3242,1,0,3:3:0:0:
195,214,3242,1,0,3:3:0:0:
234,131,3242,1,0,3:3:0:0:
279,252,3242,1,0,3:3:0:0:
279,252,3242,1,0,3:3:0:0:
195,214,3242,1,0,3:3:0:0:
316,169,3242,1,0,3:3:0:0:
234,131,3242,1,0,3:3:0:0:
192,256,3266,1,0,0:0:0:0:
192,192,3266,1,0,0:0:0:0:
192,128,3266,1,0,0:0:0:0:
256,128,3266,1,0,0:0:0:0:
320,128,3266,1,0,0:0:0:0:
320,192,3266,1,0,0:0:0:0:
320,256,3266,1,0,0:0:0:0:
256,256,3266,1,0,0:0:0:0:
256,192,3266,1,0,0:0:0:0:
320,256,3289,1,0,0:0:0:0:
320,192,3289,1,0,0:0:0:0:
256,192,3289,1,0,0:0:0:0:
256,256,3289,1,0,0:0:0:0:
320,128,3289,1,0,0:0:0:0:
192,192,3289,1,0,0:0:0:0:
192,256,3289,1,0,0:0:0:0:
256,128,3289,1,0,0:0:0:0:
192,128,3289,1,0,0:0:0:0:
307,266,3312,1,0,0:0:0:0:
319,203,3312,1,0,0:0:0:0:
256,192,3312,1,0,0:0:0:0:
244,255,3312,1,0,0:0:0:0:
330,140,3312,1,0,0:0:0:0:
192,180,3312,1,0,0:0:0:0:
181,243,3312,1,0,0:0:0:0:
267,128,3312,1,0,0:0:0:0:
204,117,3312,1,0,0:0:0:0:
294,274,3336,1,0,0:0:0:0:
316,213,3336,1,0,0:0:0:0:
256,192,3336,1,0,0:0:0:0:
234,252,3336,1,0,0:0:0:0:
338,153,3336,1,0,0:0:0:0:
195,170,3336,1,0,0:0:0:0:
173,230,3336,1,0,0:0:0:0:
277,131,3336,1,0,0:0:0:0:
217,109,3336,1,0,0:0:0:0:
279,279,3359,1,0,0:0:0:0:
311,224,3359,1,0,0:0:0:0:
256,192,3359,1,0,0:0:0:0:
224,247,3359,1,0,0:0:0:0:
343,168,3359,1,0,0:0:0:0:
200,160,3359,1,0,0:0:0:0:
168,215,3359,1,0,0:0:0:0:
288,136,3359,1,0,0:0:0:0:
232,104,3359,1,0,0:0:0:0:
263,282,3383,1,0,0:0:0:0:
305,233,3383,1,0,0:0:0:0:
256,192,3383,1,0,0:0:0:0:
214,241,3383,1,0,0:0:0:0:
346,184,3383,1,0,0:0:0:0:
206,150,3383,1,0,0:0:0:0:
165,199,3383,1,0,0:0:0:0:
297,142,3383,1,0,0:0:0:0:
248,101,3383,1,0,0:0:0:0:
248,282,3406,1,0,0:0:0:0:
297,241,3406,1,0,0:0:0:0:
256,192,3406,1,0,0:0:0:0:
206,233,3406,1,0,0:0:0:0:
346,199,3406,1,0,0:0:0:0:
214,142,3406,1,0,0:0:0:0:
165,184,3406,1,0,0:0:0:0:
305,150,3406,1,0,0:0:0:0:
263,101,3406,1,0,0:0:0:0:
232,279,3430,1,0,0:0:0:0:
288,247,3430,1,0,0:0:0:0:
256,192,3430,1,0,0:0:0:0:
200,224,3430,1,0,0:0:0:0:
343,215,3430,1,0,0:0:0:0:
224,136,3430,1,0,0:0:0:0:
168,168,3430,1,0,0:0:0:0:
311,159,3430,1,0,0:0:0:0:
279,104,3430,1,0,0:0:0:0:
217,274,3453,1,0,0:0:0:0:
277,252,3453,1,0,0:0:0:0:
256,192,3453,1,0,0:0:0:0:
195,213,3453,1,0,0:0:0:0:
338,230,3453,1,0,0:0:0:0:
234,131,3453,1,0,0:0:0:0:
173,153,3453,1,0,0:0:0:0:
316,170,3453,1,0,0:0:0:0:
294,109,3453,1,0,0:0:0:0:
204,266,3476,1,0,0:0:0:0:
267,255,3476,1,0,0:0:0:0:
256,192,3476,1,0,0:0:0:0:
192,203,3476,1,0,0:0:0:0:
330,243,3476,1,0,0:0:0:0:
244,128,3476,1,0,0:0:0:0:
181,140,3476,1,0,0:0:0:0:
319,180,3476,1,0,0:0:0:0:
307,117,3476,1,0,0:0:0:0:
192,256,3500,1,0,0:0:0:0:
255,256,3500,1,0,0:0:0:0:
256,192,3500,1,0,0:0:0:0:
191,191,3500,1,0,0:0:0:0:
320,256,3500,1,0,0:0:0:0:
256,127,3500,1,0,0:0:0:0:
191,127,3500,1,0,0:0:0:0:
320,191,3500,1,0,0:0:0:0:
320,128,3500,1,0,0:0:0:0:
181,243,3523,1,0,0:0:0:0:
244,255,3523,1,0,0:0:0:0:
256,192,3523,1,0,0:0:0:0:
192,180,3523,1,0,0:0:0:0:
307,266,3523,1,0,0:0:0:0:
267,128,3523,1,0,0:0:0:0:
204,117,3523,1,0,0:0:0:0:
319,203,3523,1,0,0:0:0:0:
330,140,3523,1,0,0:0:0:0:
173,230,3547,1,0,0:0:0:0:
234,252,3547,1,0,0:0:0:0:
256,192,3547,1,0,0:0:0:0:
195,170,3547,1,0,0:0:0:0:
294,274,3547,1,0,0:0:0:0:
277,131,3547,1,0,0:0:0:0:
217,109,3547,1,0,0:0:0:0:
316,213,3547,1,0,0:0:0:0:
338,153,3547,1,0,0:0:0:0:
168,215,3570,1,0,0:0:0:0:
223,247,3570,1,0,0:0:0:0:
256,192,3570,1,0,0:0:0:0:
200,159,3570,1,0,0:0:0:0:
279,279,3570,1,0,0:0:0:0:
288,136,3570,1,0,0:0:0:0:
232,104,3570,1,0,0:0:0:0:
311,224,3570,1,0,0:0:0:0:
343,168,3570,1,0,0:0:0:0:
165,199,3594,1,0,0:0:0:0:
214,241,3594,1,0,0:0:0:0:
256,192,3594,1,0,0:0:0:0:
206,150,3594,1,0,0:0:0:0:
263,282,3594,1,0,0:0:0:0:
297,142,3594,1,0,0:0:0:0:
248,101,3594,1,0,0:0:0:0:
305,233,3594,1,0,0:0:0:0:
346,184,3594,1,0,0:0:0:0:
165,184,3617,1,0,0:0:0:0:
206,233,3617,1,0,0:0:0:0:
256,192,3617,1,0,0:0:0:0:
214,142,3617,1,0,0:0:0:0:
248,282,3617,1,0,0:0:0:0:
305,150,3617,1,0,0:0:0:0:
263,101,3617,1,0,0:0:0:0:
297,241,3617,1,0,0:0:0:0:
346,199,3617,1,0,0:0:0:0:
168,168,3641,1,0,0:0:0:0:
200,223,3641,1,0,0:0:0:0:
256,192,3641,1,0,0:0:0:0:
224,136,3641,1,0,0:0:0:0:
232,279,3641,1,0,0:0:0:0:
311,160,3641,1,0,0:0:0:0:
279,104,3641,1,0,0:0:0:0:
288,247,3641,1,0,0:0:0:0:
343,215,3641,1,0,0:0:0:0:
173,153,3664,1,0,0:0:0:0:
195,213,3664,1,0,0:0:0:0:
256,192,3664,1,0,0:0:0:0:
234,131,3664,1,0,0:0:0:0:
217,274,3664,1,0,0:0:0:0:
316,170,3664,1,0,0:0:0:0:
294,109,3664,1,0,0:0:0:0:
277,252,3664,1,0,0:0:0:0:
338,230,3664,1,0,0:0:0:0:
181,140,3687,1,0,0:0:0:0:
192,203,3687,1,0,0:0:0:0:
256,192,3687,1,0,0:0:0:0:
244,128,3687,1,0,0:0:0:0:
204,266,3687,1,0,0:0:0:0:
319,180,3687,1,0,0:0:0:0:
307,117,3687,1,0,0:0:0:0:
267,255,3687,1,0,0:0:0:0:
330,243,3687,1,0,0:0:0:0:
192,128,3711,1,0,3:0:0:0:
191,191,3711,1,0,3:0:0:0:
256,192,3711,1,0,3:0:0:0:
256,127,3711,1,0,3:0:0:0:
192,256,3711,1,0,3:0:0:0:
320,192,3711,1,0,3:0:0:0:
319,127,3711,1,0,3:0:0:0:
256,256,3711,1,0,3:0:0:0:
320,256,3711,1,0,3:0:0:0:
352,192,3734,6,0,B|216:192|216:192|200:192|176:226|200:260|220:260|220:260|372:260|372:260|392:260|448:204|392:148|372:148|372:148|196:148|196:148|176:148|80:224|176:304|196:304|196:304|396:304|396:304|416:304|544:204|416:104|396:104|396:104|188:104|188:104|132:112|132:112|120:116|120:116|108:120|108:120|88:128|88:128|80:132|80:132|60:152|60:152|44:104|60:60|60:60|80:76|80:76|88:80|88:80|108:88|108:88|120:92|120:92|132:96|132:96|188:104|188:104|148:104|148:104|168:104|168:104|108:104|108:104|128:104|128:104|68:104|68:104|88:104|88:104|44:104|44:104|52:104|52:104,1,2159.99994277954
256,32,3734,1,0,0:0:0:0:
256,352,3734,1,0,0:0:0:0:
258,32,3758,1,0,0:0:0:0:
253,351,3758,1,0,0:0:0:0:
261,32,3781,1,0,0:0:0:0:
250,351,3781,1,0,0:0:0:0:
264,32,3804,1,0,0:0:0:0:
247,351,3804,1,0,0:0:0:0:
268,32,3828,1,0,0:0:0:0:
244,352,3828,1,0,0:0:0:0:
270,32,3851,1,0,0:0:0:0:
241,351,3851,1,0,0:0:0:0:
273,32,3875,1,0,0:0:0:0:
238,351,3875,1,0,0:0:0:0:
276,32,3898,1,0,0:0:0:0:
235,351,3898,1,0,0:0:0:0:
279,33,3922,1,0,0:0:0:0:
232,350,3922,1,0,0:0:0:0:
281,33,3945,1,0,0:0:0:0:
230,350,3945,1,0,0:0:0:0:
284,34,3969,1,0,0:0:0:0:
227,349,3969,1,0,0:0:0:0:
287,34,3992,1,0,0:0:0:0:
224,349,3992,1,0,0:0:0:0:
290,35,4015,1,0,0:0:0:0:
221,348,4015,1,0,0:0:0:0:
292,35,4039,1,0,0:0:0:0:
219,348,4039,1,0,0:0:0:0:
295,36,4062,1,0,0:0:0:0:
216,347,4062,1,0,0:0:0:0:
298,37,4086,1,0,0:0:0:0:
213,346,4086,1,0,0:0:0:0:
301,37,4109,1,0,0:0:0:0:
210,346,4109,1,0,0:0:0:0:
301,37,4133,1,0,0:0:0:0:
210,346,4133,1,0,0:0:0:0:
303,38,4156,1,0,0:0:0:0:
208,345,4156,1,0,0:0:0:0:
306,39,4179,1,0,0:0:0:0:
205,344,4179,1,0,0:0:0:0:
309,40,4203,1,0,0:0:0:0:
202,343,4203,1,0,0:0:0:0:
311,41,4226,1,0,0:0:0:0:
200,342,4226,1,0,0:0:0:0:
314,42,4250,1,0,0:0:0:0:
197,341,4250,1,0,0:0:0:0:
314,42,4273,1,0,0:0:0:0:
197,341,4273,1,0,0:0:0:0:
316,43,4297,1,0,0:0:0:0:
195,340,4297,1,0,0:0:0:0:
319,44,4320,1,0,0:0:0:0:
192,339,4320,1,0,0:0:0:0:
321,45,4344,1,0,0:0:0:0:
190,338,4344,1,0,0:0:0:0:
324,46,4367,1,0,0:0:0:0:
187,337,4367,1,0,0:0:0:0:
327,48,4391,1,0,0:0:0:0:
184,335,4391,1,0,0:0:0:0:
329,49,4414,1,0,0:3:0:0:
182,334,4414,1,0,0:3:0:0:
332,50,4437,1,0,0:3:0:0:
179,333,4437,1,0,0:3:0:0:
334,52,4461,1,0,0:3:0:0:
177,331,4461,1,0,0:3:0:0:
336,53,4484,1,0,0:3:0:0:
175,330,4484,1,0,0:3:0:0:
339,54,4508,1,0,0:3:0:0:
172,329,4508,1,0,0:3:0:0:
341,56,4531,1,0,0:3:0:0:
170,327,4531,1,0,0:3:0:0:
344,57,4555,1,0,0:3:0:0:
167,326,4555,1,0,0:3:0:0:
346,59,4578,1,0,0:3:0:0:
165,324,4578,1,0,0:3:0:0:
348,61,4601,1,0,0:3:0:0:
163,322,4601,1,0,0:3:0:0:
350,62,4625,1,0,0:3:0:0:
161,321,4625,1,0,0:3:0:0:
353,64,4648,1,0,0:3:0:0:
158,319,4648,1,0,0:3:0:0:
355,66,4672,1,0,0:3:0:0:
156,317,4672,1,0,0:3:0:0:
155,316,4695,1,0,0:0:0:0:
356,67,4695,1,0,0:0:0:0:
153,314,4719,1,0,0:0:0:0:
358,69,4719,1,0,0:0:0:0:
360,71,4742,1,0,0:0:0:0:
151,312,4742,1,0,0:0:0:0:
148,310,4765,1,0,0:0:0:0:
363,73,4765,1,0,0:0:0:0:
366,75,4789,1,0,0:0:0:0:
145,308,4789,1,0,0:0:0:0:
143,306,4812,1,0,0:0:0:0:
368,77,4812,1,0,0:0:0:0:
370,79,4836,1,0,0:0:0:0:
141,304,4836,1,0,0:0:0:0:
371,81,4859,1,0,0:0:0:0:
140,302,4859,1,0,0:0:0:0:
138,300,4883,1,0,0:0:0:0:
373,83,4883,1,0,0:0:0:0:
375,85,4906,1,0,0:0:0:0:
136,298,4906,1,0,0:0:0:0:
134,296,4930,1,0,0:0:0:0:
377,87,4930,1,0,0:0:0:0:
132,294,4953,1,0,0:0:0:0:
379,89,4953,1,0,0:0:0:0:
130,292,4976,1,0,0:0:0:0:
381,91,4976,1,0,0:0:0:0:
129,290,5000,1,0,0:0:0:0:
382,93,5000,1,0,0:0:0:0:
127,287,5023,1,0,0:0:0:0:
384,96,5023,1,0,0:0:0:0:
386,98,5047,1,0,0:0:0:0:
125,285,5047,1,0,0:0:0:0:
124,283,5070,1,0,0:0:0:0:
387,100,5070,1,0,0:0:0:0:
124,283,5094,1,0,0:0:0:0:
387,100,5094,1,0,0:0:0:0:
389,102,5117,1,0,0:0:0:0:
122,281,5117,1,0,0:0:0:0:
120,278,5140,1,0,0:0:0:0:
391,105,5140,1,0,0:0:0:0:
