osu file format v14

[General]
AudioFilename: The Price is Right losing horn.mp3
AudioLeadIn: 0
PreviewTime: 266
Countdown: 0
SampleSet: None
StackLeniency: 0.2
Mode: 0
LetterboxInBreaks: 1
WidescreenStoryboard: 1

[Editor]
DistanceSpacing: 2
BeatDivisor: 16
GridSize: 4
TimelineZoom: 1.1

[Metadata]
Title:Losing Horn
TitleUnicode:Losing Horn
Artist:The Price is Right
ArtistUnicode:The Price is Right
Creator:Spaghetti
Version:Delk tries to image material
Source:
Tags:sad tuba
BeatmapID:819864
BeatmapSetID:347064

[Difficulty]
HPDrainRate:0
CircleSize:2
OverallDifficulty:0
ApproachRate:0
SliderMultiplier:0.999999904632568
SliderTickRate:4

[Events]
//Background and Video events
0,0,"tubas.jpg",0,0
//Break Periods
//Storyboard Layer 0 (Background)
//Storyboard Layer 1 (Fail)
//Storyboard Layer 2 (Pass)
//Storyboard Layer 3 (Foreground)
//Storyboard Sound Samples

[TimingPoints]
266,375,4,1,0,100,1,0
1766,-66.6666666666667,4,1,0,10000,0,0

[Colours]
Combo1 : 0,0,0
Combo2 : 0,0,0
Combo3 : 0,0,0
Combo4 : 0,0,0
Combo5 : 0,0,0
Combo6 : 0,0,0
Combo7 : 0,0,0
Combo8 : 0,0,0

[HitObjects]
256,192,266,12,0,1766,0:0:0:0:
64,128,1789,5,0,0:0:0:0:
80,120,1812,1,0,0:0:0:0:
84,120,1836,1,0,0:0:0:0:
92,128,1883,1,0,0:0:0:0:
100,144,1906,1,0,0:0:0:0:
108,152,1953,1,0,0:0:0:0:
112,152,1976,1,0,0:0:0:0:
124,152,2000,1,0,0:0:0:0:
128,152,2023,1,0,0:0:0:0:
140,152,2047,1,0,0:0:0:0:
152,156,2070,1,0,0:0:0:0:
160,156,2094,1,0,0:0:0:0:
160,172,2141,1,0,0:0:0:0:
160,184,2164,1,0,0:0:0:0:
172,192,2187,1,0,0:0:0:0:
176,196,2211,1,0,0:0:0:0:
184,200,2234,1,0,0:0:0:0:
184,200,2258,1,0,0:0:0:0:
192,200,2281,1,0,0:0:0:0:
192,200,2328,1,0,0:0:0:0:
192,200,2375,1,0,0:0:0:0:
200,196,2398,1,0,0:0:0:0:
208,196,2422,1,0,0:0:0:0:
208,196,2445,1,0,0:0:0:0:
212,196,2469,1,0,0:0:0:0:
216,208,2492,1,0,0:0:0:0:
220,216,2516,1,0,0:0:0:0:
228,224,2539,1,0,0:0:0:0:
232,224,2562,1,0,0:0:0:0:
248,228,2609,1,0,0:0:0:0:
256,228,2633,1,0,0:0:0:0:
264,228,2656,1,0,0:0:0:0:
268,228,2680,1,0,0:0:0:0:
272,228,2703,1,0,0:0:0:0:
272,228,2726,1,0,0:0:0:0:
284,224,2750,1,0,0:0:0:0:
284,224,2773,1,0,0:0:0:0:
288,224,2797,1,0,0:0:0:0:
292,224,2820,1,0,0:0:0:0:
296,216,2844,1,0,0:0:0:0:
300,216,2867,1,0,0:0:0:0:
304,216,2891,1,0,0:0:0:0:
304,216,2914,1,0,0:0:0:0:
312,212,2937,1,0,0:0:0:0:
312,208,2961,1,0,0:0:0:0:
316,208,2984,1,0,0:0:0:0:
316,208,3008,1,0,0:0:0:0:
320,208,3031,1,0,0:0:0:0:
324,204,3055,1,0,0:0:0:0:
328,200,3078,1,0,0:0:0:0:
328,200,3101,1,0,0:0:0:0:
328,192,3125,1,0,0:0:0:0:
332,188,3172,1,0,0:0:0:0:
332,188,3195,1,0,0:0:0:0:
332,180,3219,1,0,0:0:0:0:
332,180,3242,1,0,0:0:0:0:
332,180,3266,1,0,0:0:0:0:
328,176,3289,1,0,0:0:0:0:
328,172,3312,1,0,0:0:0:0:
324,168,3336,1,0,0:0:0:0:
324,168,3359,1,0,0:0:0:0:
320,168,3383,1,0,0:0:0:0:
312,164,3406,1,0,0:0:0:0:
312,164,3430,1,0,0:0:0:0:
304,160,3453,1,0,0:0:0:0:
296,160,3476,1,0,0:0:0:0:
292,160,3500,1,0,0:0:0:0:
280,160,3523,1,0,0:0:0:0:
272,160,3547,1,0,0:0:0:0:
268,164,3594,1,0,0:0:0:0:
264,164,3617,1,0,0:0:0:0:
264,164,3641,1,0,0:0:0:0:
264,164,3664,1,0,0:0:0:0:
264,168,3687,1,0,0:0:0:0:
256,172,3734,1,0,0:0:0:0:
256,176,3758,1,0,0:0:0:0:
248,184,3781,1,0,0:0:0:0:
248,188,3805,1,0,0:0:0:0:
248,192,3851,1,0,0:0:0:0:
248,196,3875,1,0,0:0:0:0:
248,200,3898,1,0,0:0:0:0:
248,200,3922,1,0,0:0:0:0:
248,208,3945,1,0,0:0:0:0:
248,208,3969,1,0,0:0:0:0:
248,212,3992,1,0,0:0:0:0:
248,216,4016,1,0,0:0:0:0:
248,216,4039,1,0,0:0:0:0:
256,224,4086,1,0,0:0:0:0:
260,228,4109,1,0,0:0:0:0:
272,232,4156,1,0,0:0:0:0:
272,232,4180,1,0,0:0:0:0:
276,236,4203,1,0,0:0:0:0:
280,236,4226,1,0,0:0:0:0:
280,236,4250,1,0,0:0:0:0:
416,296,4273,2,0,B|324:56|24:316|92:28|336:320|16:152|284:32|232:296|60:156|344:120|432:360|524:124|408:28|200:8|32:204|112:332|276:384|168:-40|460:92|-32:264|128:408|480:280|164:-28|-176:-72|560:384|44:116,1,890.624949038027
