osu file format v14

[General]
AudioFilename: audio.mp3
AudioLeadIn: 0
PreviewTime: -1
Countdown: 0
SampleSet: Soft
StackLeniency: 0
Mode: 0
LetterboxInBreaks: 0
WidescreenStoryboard: 1

[Editor]
DistanceSpacing: 1.8
BeatDivisor: 12
GridSize: 16
TimelineZoom: 1

[Metadata]
Title:Mimikyu no uta
TitleUnicode:Mimikyu no uta
Artist:The Pokemon Company
ArtistUnicode:The Pokémon Company
Creator:Nyanaro
Version:Mimikyu no old
Source:
Tags:
BeatmapID:1448660
BeatmapSetID:684521

[Difficulty]
HPDrainRate:3
CircleSize:5
OverallDifficulty:5
ApproachRate:5
SliderMultiplier:2.55
SliderTickRate:1

[Events]
//Background and Video events
0,0,"mimikyute.png",0,0
//Break Periods
//Storyboard Layer 0 (Background)
//Storyboard Layer 1 (Fail)
//Storyboard Layer 2 (Pass)
//Storyboard Layer 3 (Foreground)
//Storyboard Sound Samples

[TimingPoints]
5818,625,4,2,0,45,1,0
5818,-133.333333333333,4,2,0,45,0,0
15818,-80,4,1,0,65,0,1
45818,-100,4,1,0,50,0,0
55818,-80,4,1,0,65,0,1
75349,-100,4,2,0,70,0,0

[Colours]
Combo1 : 0,128,0
Combo2 : 255,159,159
Combo3 : 243,158,218
Combo4 : 181,172,153

[HitObjects]
160,192,5818,6,0,L|352:192,1,191.250007295609
256,272,6755,1,0,0:0:0:0:
352,96,7068,2,0,L|160:96,1,191.250007295609
160,96,8318,2,0,L|160:192,1,95.6250036478044
352,288,8943,2,0,L|352:192,1,95.6250036478044
352,96,9568,2,0,L|352:192,1,95.6250036478044
160,288,10193,2,0,L|160:192,1,95.6250036478044
256,192,10818,5,0,0:0:0:0:
160,192,11130,5,0,0:0:0:0:
352,192,11443,1,0,0:0:0:0:
256,192,12068,5,0,0:0:0:0:
256,80,12380,1,0,0:0:0:0:
256,192,12536,2,0,L|256:144,1,47.8125018239022
256,272,12849,1,0,0:0:0:0:
256,80,13318,5,0,0:0:0:0:
256,192,13474,1,0,0:0:0:0:
256,272,13630,1,0,0:0:0:0:
256,192,13786,1,0,0:0:0:0:
256,272,13943,2,0,B|208:272|208:272|304:272,1,143.437505471707
256,80,14568,5,0,0:0:0:0:
256,192,14724,12,0,15193,0:0:0:0:
256,192,15661,5,0,0:0:0:0:
256,32,15818,2,0,L|256:192,1,159.375
256,272,16286,1,0,0:0:0:0:
256,112,16443,1,0,0:0:0:0:
160,192,16755,1,0,0:0:0:0:
256,272,16911,1,0,0:0:0:0:
352,192,17068,1,0,0:0:0:0:
64,192,17380,5,0,0:0:0:0:
160,192,17536,1,0,0:0:0:0:
352,192,17693,1,0,0:0:0:0:
448,192,18318,5,0,0:0:0:0:
352,192,18474,1,0,0:0:0:0:
160,192,18630,1,0,0:0:0:0:
256,192,18786,1,0,0:0:0:0:
352,288,18943,5,0,0:0:0:0:
352,192,19099,1,0,0:0:0:0:
352,96,19255,1,0,0:0:0:0:
256,192,19411,1,0,0:0:0:0:
160,96,19568,5,0,0:0:0:0:
160,192,19880,1,0,0:0:0:0:
160,240,20036,1,0,0:0:0:0:
256,192,20193,1,0,0:0:0:0:
256,336,20818,6,0,L|144:336,1,79.6875
256,336,21130,1,0,0:0:0:0:
96,336,21286,1,0,0:0:0:0:
96,240,21443,6,0,L|208:240,1,79.6875
96,240,21755,1,0,0:0:0:0:
256,240,21911,1,0,0:0:0:0:
368,240,22068,1,0,0:0:0:0:
448,336,22380,1,0,0:0:0:0:
448,144,22536,1,0,0:0:0:0:
368,240,22693,1,0,0:0:0:0:
368,240,23239,5,0,0:0:0:0:
368,48,23474,5,0,0:0:0:0:
368,144,23630,1,0,0:0:0:0:
368,240,23786,1,0,0:0:0:0:
256,192,23943,1,0,0:0:0:0:
144,144,24099,1,0,0:0:0:0:
144,240,24255,2,0,B|192:352|64:320|64:320,1,159.375
64,240,24724,5,0,0:0:0:0:
64,320,24880,1,0,0:0:0:0:
256,192,25036,12,0,25505,0:0:0:0:
256,192,25818,6,0,L|416:192,1,159.375
336,112,26286,1,0,0:0:0:0:
336,272,26443,1,0,0:0:0:0:
256,192,26599,1,0,0:0:0:0:
336,112,26755,1,0,0:0:0:0:
416,192,26911,1,0,0:0:0:0:
256,192,27068,5,0,0:0:0:0:
160,112,27224,1,0,0:0:0:0:
152,256,27380,2,0,B|112:208|64:288|112:384|192:288,1,159.375
256,320,28161,1,0,0:0:0:0:
256,192,28318,6,0,L|416:192,1,159.375
128,192,28786,1,0,0:0:0:0:
256,192,28943,5,0,0:0:0:0:
192,96,29099,1,0,0:0:0:0:
416,192,29411,1,0,0:0:0:0:
256,320,29568,5,0,0:0:0:0:
256,192,29724,1,0,0:0:0:0:
320,96,29880,1,0,0:0:0:0:
336,192,30036,1,0,0:0:0:0:
256,320,30193,2,0,L|96:320,1,159.375
352,320,30818,5,0,0:0:0:0:
480,320,30974,2,0,L|480:160,1,159.375
480,64,31443,1,0,0:0:0:0:
352,320,31755,1,0,0:0:0:0:
336,192,31911,1,0,0:0:0:0:
208,208,32068,5,0,0:0:0:0:
224,336,32224,1,0,0:0:0:0:
64,320,32380,1,0,0:0:0:0:
80,192,32536,1,0,0:0:0:0:
80,96,32693,1,0,0:0:0:0:
80,96,33318,5,0,0:0:0:0:
160,96,33474,1,0,0:0:0:0:
240,96,33630,1,0,0:0:0:0:
160,96,33786,1,0,0:0:0:0:
320,96,33943,2,0,L|480:96,1,159.375
480,192,34568,5,0,0:0:0:0:
480,336,34724,2,0,B|400:336|400:336|400:256,1,159.375
256,192,35088,12,0,35505,0:0:0:0:
320,192,35818,5,0,0:0:0:0:
320,336,35974,1,0,0:0:0:0:
176,192,36286,1,0,0:0:0:0:
176,336,36443,5,0,0:0:0:0:
176,192,36599,1,0,0:0:0:0:
320,192,36755,1,0,0:0:0:0:
320,336,36912,1,0,0:0:0:0:
320,192,37068,1,0,0:0:0:0:
176,336,37380,1,0,0:0:0:0:
320,336,37693,1,0,0:0:0:0:
176,192,38318,5,0,0:0:0:0:
96,192,38474,1,0,0:0:0:0:
16,192,38630,1,0,0:0:0:0:
96,192,38786,1,0,0:0:0:0:
16,320,38943,1,0,0:0:0:0:
16,256,39099,1,0,0:0:0:0:
16,64,39255,1,0,0:0:0:0:
16,192,39411,1,0,0:0:0:0:
96,64,39568,6,0,L|256:64,1,159.375
255,64,40036,2,0,L|127:64,1,79.6875
256,192,40661,1,0,0:0:0:0:
176,224,40818,2,0,L|176:64,1,159.375
96,64,41286,1,0,0:0:0:0:
96,224,41443,2,0,L|96:144,1,79.6875
256,64,41755,1,0,0:0:0:0:
256,224,41911,1,0,0:0:0:0:
416,144,42068,1,0,0:0:0:0:
416,64,42380,5,0,0:0:0:0:
416,224,42536,1,0,0:0:0:0:
256,144,42693,1,0,0:0:0:0:
416,224,43318,5,0,0:0:0:0:
416,144,43474,1,0,0:0:0:0:
256,144,43630,1,0,0:0:0:0:
256,224,43786,1,0,0:0:0:0:
416,64,43943,2,0,L|256:64,1,159.375
256,144,44411,1,0,0:0:0:0:
416,224,44568,1,0,0:0:0:0:
256,224,44880,5,0,0:0:0:0:
416,144,45036,1,0,0:0:0:0:
416,304,45193,1,0,0:0:0:0:
320,304,45818,2,0,L|128:304,1,191.25
1,304,46443,2,0,L|129:304,1,127.5
128,304,47068,5,0,0:0:0:0:
128,192,47224,1,0,0:0:0:0:
16,192,47380,1,0,0:0:0:0:
128,192,47536,1,0,0:0:0:0:
16,256,47693,5,0,0:0:0:0:
16,192,47849,1,0,0:0:0:0:
16,128,48005,1,0,0:0:0:0:
128,64,48318,6,0,B|256:64|256:192|256:192,1,191.25
128,192,48943,1,0,0:0:0:0:
255,180,49099,1,0,0:0:0:0:
382,168,49255,1,0,0:0:0:0:
256,256,49411,1,0,0:0:0:0:
384,256,49568,2,0,L|384:336,1,63.75
128,336,49880,2,0,L|128:256,1,63.75
256,256,50193,1,0,0:0:0:0:
320,176,50349,1,0,0:0:0:0:
254,104,50505,1,0,0:0:0:0:
464,96,50818,6,0,L|464:288,1,191.25
464,192,51443,5,0,0:0:0:0:
384,288,51599,1,0,0:0:0:0:
272,336,51755,1,0,0:0:0:0:
160,288,51911,1,0,0:0:0:0:
80,192,52068,1,0,0:0:0:0:
384,96,52380,1,0,0:0:0:0:
272,48,52536,1,0,0:0:0:0:
160,96,52692,1,0,0:0:0:0:
256,192,53318,12,0,55193,0:0:0:0:
272,336,55661,5,0,0:0:0:0:
272,192,55818,1,0,0:0:0:0:
176,192,55974,1,0,0:0:0:0:
272,48,56130,1,0,0:0:0:0:
272,192,56286,1,0,0:0:0:0:
368,192,56443,2,0,B|368:304|144:256|144:256,1,239.0625
64,240,57068,1,0,0:0:0:0:
64,96,57380,5,0,0:0:0:0:
160,48,57536,1,0,0:0:0:0:
272,48,57693,1,0,0:0:0:0:
272,48,58161,1,0,0:0:0:0:
416,48,58318,5,0,0:0:0:0:
416,192,58474,1,0,0:0:0:0:
416,336,58630,1,0,0:0:0:0:
496,192,58786,1,0,0:0:0:0:
336,192,58943,2,0,L|268:337,1,159.375
194,302,59411,1,0,0:0:0:0:
262,157,59568,5,0,0:0:0:0:
122,268,59880,1,0,0:0:0:0:
190,123,60036,1,0,0:0:0:0:
118,89,60192,1,0,0:0:0:0:
50,234,60661,1,0,0:0:0:0:
48,64,60818,2,0,L|208:64,1,159.375
208,256,61286,1,0,0:0:0:0:
48,256,61443,1,0,0:0:0:0:
128,176,61755,5,0,0:0:0:0:
208,96,61911,1,0,0:0:0:0:
288,176,62068,1,0,0:0:0:0:
368,256,62380,1,0,0:0:0:0:
288,336,62536,1,0,0:0:0:0:
208,256,62693,1,0,0:0:0:0:
128,176,63318,5,0,0:0:0:0:
208,96,63474,1,0,0:0:0:0:
288,176,63630,1,0,0:0:0:0:
208,256,63786,1,0,0:0:0:0:
288,176,63943,1,0,0:0:0:0:
400,208,64099,1,0,0:0:0:0:
416,320,64255,1,0,0:0:0:0:
320,256,64411,1,0,0:0:0:0:
368,128,64568,1,0,0:0:0:0:
416,320,64880,5,0,0:0:0:0:
320,256,65036,1,0,0:0:0:0:
128,256,65193,1,0,0:0:0:0:
224,256,65661,5,0,0:0:0:0:
144,160,65818,2,0,B|224:152|304:160|304:160,1,159.375
224,336,66286,1,0,0:0:0:0:
224,64,66443,1,0,0:0:0:0:
400,64,66755,5,0,0:0:0:0:
400,192,66911,1,0,0:0:0:0:
256,192,67068,1,0,0:0:0:0:
400,192,67380,5,0,0:0:0:0:
400,320,67536,1,0,0:0:0:0:
256,192,67692,1,0,0:0:0:0:
336,128,68318,5,0,0:0:0:0:
256,96,68474,1,0,0:0:0:0:
176,128,68630,1,0,0:0:0:0:
128,192,68786,1,0,0:0:0:0:
384,192,68943,1,0,0:0:0:0:
176,256,69255,1,0,0:0:0:0:
256,288,69411,1,0,0:0:0:0:
336,256,69568,1,0,0:0:0:0:
256,288,69880,1,0,0:0:0:0:
256,96,70036,1,0,0:0:0:0:
256,192,70192,5,0,0:0:0:0:
160,336,70661,5,0,0:0:0:0:
48,176,70818,2,0,L|48:336,1,159.375
128,176,71286,1,0,0:0:0:0:
48,48,71443,1,0,0:0:0:0:
128,176,71755,5,0,0:0:0:0:
208,48,71911,1,0,0:0:0:0:
48,48,72068,1,0,0:0:0:0:
128,176,72380,5,0,0:0:0:0:
208,48,72536,1,0,0:0:0:0:
288,176,72693,1,0,0:0:0:0:
400,48,73083,5,0,0:0:0:0:
400,176,73318,1,0,0:0:0:0:
400,288,73474,1,0,0:0:0:0:
256,288,73630,1,0,0:0:0:0:
256,176,73786,1,0,0:0:0:0:
400,288,73943,2,0,L|480:288,1,79.6875
400,288,74411,1,0,0:0:0:0:
256,288,74568,1,0,0:0:0:0:
112,288,74880,5,0,0:0:0:0:
256,176,75036,1,0,0:0:0:0:
400,288,75193,1,0,0:0:0:0:
256,288,75505,1,0,0:0:0:0:
256,112,75661,1,0,0:0:0:0:
256,192,75818,5,0,0:0:0:0:
256,192,75870,12,0,83318,0:0:0:0:
