osu file format v14

[General]
AudioFilename: audio.mp3
AudioLeadIn: 0
PreviewTime: 99156
Countdown: 0
SampleSet: Soft
StackLeniency: 0.2
Mode: 0
LetterboxInBreaks: 0
WidescreenStoryboard: 0

[Editor]
DistanceSpacing: 1.5
BeatDivisor: 6
GridSize: 4
TimelineZoom: 1

[Metadata]
Title:Savor Time (Aero Chord Remix)
TitleUnicode:Savor Time (Aero Chord Remix)
Artist:The Pitcher
ArtistUnicode:The Pitcher
Creator:Anto
Version:Insane
Source:
Tags:
BeatmapID:1791340
BeatmapSetID:857366

[Difficulty]
HPDrainRate:6
CircleSize:5
OverallDifficulty:7
ApproachRate:8.5
SliderMultiplier:1.8
SliderTickRate:1

[Events]
//Background and Video events
0,0,"BGsavortime.jpg",0,0
//Break Periods
2,31238,44077
2,82524,98935
//Storyboard Layer 0 (Background)
//Storyboard Layer 1 (Fail)
//Storyboard Layer 2 (Pass)
//Storyboard Layer 3 (Foreground)
//Storyboard Sound Samples

[TimingPoints]
3610,428.571428571429,4,2,1,100,1,0
17324,-90.9090909090909,4,2,1,100,0,0
44752,-142.857142857143,4,2,1,100,0,0
46324,-142.857142857143,4,2,1,5,0,0
46467,-142.857142857143,4,2,1,100,0,0
47181,-142.857142857143,4,2,1,5,0,0
47324,-142.857142857143,4,2,1,100,0,0
49467,-142.857142857143,4,2,1,5,0,0
49538,-142.857142857143,4,2,1,100,0,0
51181,-142.857142857143,4,2,1,20,0,0
51610,-142.857142857143,4,2,1,100,0,0
53181,-142.857142857143,4,2,1,5,0,0
53324,-142.857142857143,4,2,1,100,0,0
54038,-142.857142857143,4,2,1,5,0,0
54181,-142.857142857143,4,2,1,100,0,0
56324,-142.857142857143,4,2,1,5,0,0
56395,-142.857142857143,4,2,1,100,0,0
58038,-142.857142857143,4,2,1,5,0,0
58467,-100,4,2,1,100,0,0
72181,-86.9565217391304,4,2,1,100,0,0
100110,-100,4,2,1,5,0,0
100181,-100,4,2,1,100,0,0
100252,-100,4,2,1,5,0,0
100324,-100,4,2,1,100,0,0
100395,-100,4,2,1,5,0,0
100467,-100,4,2,1,100,0,0

[Colours]
Combo1 : 99,140,234
Combo2 : 234,191,21
Combo3 : 115,210,135

[HitObjects]
256,24,3610,5,0,0:0:0:0:
144,116,3895,1,0,0:0:0:0:
200,160,4038,2,0,P|256:180|312:160,1,120
368,116,4467,1,0,0:0:0:0:
256,24,4752,1,0,0:0:0:0:
256,24,4895,1,0,0:0:0:0:
256,180,5181,5,0,0:0:0:0:
256,180,5324,2,0,L|256:312,1,120
308,340,5752,2,0,P|256:365|204:340,1,120
160,280,6181,1,0,0:0:0:0:
352,280,6467,1,0,0:0:0:0:
352,280,6610,1,0,0:0:0:0:
400,72,7038,6,0,B|364:20|364:20|288:20,1,120
204,20,7467,2,0,B|148:20|148:20|112:72,1,120
148,136,7895,1,0,0:0:0:0:
364,136,8181,1,0,0:0:0:0:
364,136,8324,1,0,0:0:0:0:
400,312,8610,5,0,0:0:0:0:
400,312,8752,2,0,B|364:364|364:364|307:364,1,120
204,364,9181,2,0,B|148:364|148:364|112:312,1,120
148,248,9610,1,0,0:0:0:0:
364,248,9895,1,0,0:0:0:0:
364,248,10038,1,0,0:0:0:0:
172,76,10467,6,0,P|136:32|74:31,1,120
104,96,10895,2,0,L|44:204,1,120
45,200,11324,1,0,0:0:0:0:
140,356,11610,1,0,0:0:0:0:
140,356,11752,1,0,0:0:0:0:
340,308,12038,5,0,0:0:0:0:
340,308,12181,2,0,P|376:352|438:353,1,120
408,288,12610,2,0,L|468:180,1,120
466,183,13038,1,0,0:0:0:0:
372,28,13324,1,0,0:0:0:0:
372,28,13467,1,0,0:0:0:0:
148,124,13895,6,0,B|108:124|108:124|72:144|72:144|32:144,1,120
33,240,14324,2,0,B|72:240|72:240|108:260|108:260|148:260,1,120
216,280,14752,1,0,0:0:0:0:
216,104,15038,1,0,0:0:0:0:
216,104,15181,1,0,0:0:0:0:
364,260,15467,5,0,0:0:0:0:
364,260,15610,2,0,B|404:260|404:260|440:240|440:240|480:240,1,120
478,144,16038,2,0,B|440:144|440:144|404:124|404:124|364:124,1,120
296,104,16467,1,0,0:0:0:0:
296,280,16752,1,0,0:0:0:0:
296,280,16895,1,0,0:0:0:0:
8,192,17324,6,0,L|152:192,1,132.00000402832
208,148,17752,2,0,P|164:112|88:128,1,132.00000402832
93,260,18181,2,0,P|156:274|208:236,1,132.00000402832
304,148,18610,6,0,P|348:112|424:128,1,132.00000402832
418,260,19038,2,0,P|355:274|304:236,1,132.00000402832
372,192,19467,2,0,L|504:192,1,132.00000402832
504,192,19895,5,0,0:0:0:0:
412,32,20181,1,0,0:0:0:0:
412,32,20324,1,0,0:0:0:0:
256,136,20610,1,0,0:0:0:0:
256,136,20752,6,0,B|256:192|256:192|256:236|300:248,1,132.00000402832
376,232,21181,2,0,P|360:296|280:324,1,132.00000402832
206,325,21610,2,0,P|150:294|136:232,1,132.00000402832
213,247,22038,6,0,B|256:236|256:192|256:192|256:136,1,132.00000402832
256,56,22467,2,0,B|292:48|292:48|316:92|368:100,1,132.00000402832
256,56,22895,2,0,B|220:48|220:48|196:92|144:100,1,132.00000402832
104,168,23324,5,0,0:0:0:0:
256,352,23610,1,0,0:0:0:0:
256,352,23752,1,0,0:0:0:0:
408,168,24038,1,0,0:0:0:0:
408,168,24181,6,0,L|428:32,1,132.00000402832
456,228,24610,2,0,L|436:358,1,132.00000402832
436,358,25038,1,0,0:0:0:0:
256,340,25324,6,0,L|256:376,2,33.0000010070801
308,256,25610,1,0,0:0:0:0:
204,256,25752,1,0,0:0:0:0:
256,172,25895,2,0,P|320:156|388:200,1,132.00000402832
256,172,26324,2,0,P|192:156|124:200,1,132.00000402832
56,128,26752,5,0,0:0:0:0:
116,48,26895,1,0,0:0:0:0:
208,12,27038,1,0,0:0:0:0:
304,12,27181,1,0,0:0:0:0:
396,48,27324,1,0,0:0:0:0:
456,128,27467,1,0,0:0:0:0:
424,220,27610,6,0,L|400:288,1,66.0000020141602
312,356,27895,2,0,L|332:296,2,33.0000010070801
256,272,28181,1,0,0:0:0:0:
256,272,28324,1,0,0:0:0:0:
88,220,28467,6,0,L|112:288,1,66.0000020141602
200,356,28752,2,0,L|180:296,2,33.0000010070801
256,272,29038,1,0,0:0:0:0:
256,172,29181,1,0,0:0:0:0:
188,56,29324,5,0,0:0:0:0:
324,56,29467,1,0,0:0:0:0:
256,172,29610,2,0,L|232:212,2,33.0000010070801
188,56,29895,5,0,0:0:0:0:
324,56,30038,2,0,L|368:56,2,33.0000010070801
256,172,30324,5,0,0:0:0:0:
188,56,30467,2,0,L|168:20,2,33.0000010070801
332,140,30752,5,0,0:0:0:0:
180,140,30895,1,0,0:0:0:0:
256,8,31038,5,0,0:0:0:0:
100,272,44752,6,0,B|128:240|160:240|200:260|200:304|200:304|200:360|256:392|312:360|312:304|312:304|312:260|352:240|384:240|412:272,1,461.999985900879
374,220,46467,2,0,B|349:179|349:179|390:183|439:163|453:106|439:58,1,209.999993591309
401,123,47324,2,0,B|365:88|388:42|388:42|322:61|322:61|280:32|233:53,1,251.999992309571
228,68,48895,2,0,B|128:92|164:32|60:56,1,167.999994873047
44,76,49538,2,0,B|31:122|-16:129|-16:129|52:170|49:253|49:253|111:191|187:245|168:353|63:333,1,482.99998526001
468,320,51610,6,0,B|496:312|500:280|500:280|496:248|468:240|468:240|428:236|416:192|416:192|394:200|394:200|373:192|373:192|394:184|394:184|416:192|416:192|428:148|468:144|468:144|496:136|500:104|500:104|496:72|468:64,1,461.999985900879
428,44,53324,2,0,B|384:56|384:56|396:48|396:48|364:56|364:56|308:88|312:44|252:80,1,209.999993591309
208,108,54181,2,0,P|204:52|124:128,1,251.999992309571
116,156,55752,2,0,B|116:188|84:220|84:220|124:260|92:264|116:308,1,167.999994873047
156,316,56395,2,0,B|180:288|228:288|252:312|252:312|268:356|300:380|360:368|376:336|376:336|400:268|400:268|404:308|425:362|507:367,1,482.99998526001
484,32,58467,5,0,0:0:0:0:
356,100,58752,1,0,0:0:0:0:
308,48,58895,2,0,P|256:20|204:48,1,120
156,100,59324,1,0,0:0:0:0:
28,352,59752,5,0,0:0:0:0:
156,284,60038,1,0,0:0:0:0:
204,336,60181,2,0,P|256:364|308:336,1,120
356,284,60610,1,0,0:0:0:0:
396,72,61038,6,0,B|336:72|336:72|300:20,1,120
210,22,61467,2,0,B|176:72|176:72|116:72,1,120
44,72,61895,5,0,0:0:0:0:
152,164,62181,1,0,0:0:0:0:
224,164,62324,2,0,B|256:113|256:113|288:164,1,120
360,164,62752,1,0,0:0:0:0:
468,372,63181,5,0,0:0:0:0:
360,280,63467,1,0,0:0:0:0:
288,280,63610,2,0,B|256:331|256:331|224:280,1,120
152,280,64038,1,0,0:0:0:0:
108,56,64467,6,0,P|176:72|216:28,1,120
301,42,64895,2,0,P|349:75|404:56,1,120
488,132,65324,6,0,L|504:272,1,120
428,368,65752,2,0,L|412:228,1,120
376,160,66181,2,0,P|332:200|320:260,1,120
414,248,66610,1,0,0:0:0:0:
192,257,67038,6,0,P|179:199|136:160,1,120
97,248,67467,2,0,L|84:368,1,120
10,251,67895,2,0,L|24:132,1,120
24,132,68324,1,0,0:0:0:0:
204,44,68610,5,0,0:0:0:0:
204,44,68752,2,0,B|256:12|256:12|308:44,1,120
368,84,69181,2,0,B|420:116|420:116|472:84,1,120
420,32,69610,1,0,0:0:0:0:
256,96,69895,1,0,0:0:0:0:
256,96,70038,1,0,0:0:0:0:
256,284,70324,5,0,0:0:0:0:
202,332,70467,2,0,P|256:356|309:332,1,120
308,236,70895,2,0,P|254:212|201:235,1,120
124,248,71324,6,0,B|120:204|156:172|156:172|148:112,1,120
360,138,71752,2,0,B|356:172|356:172|392:204|388:248,1,120
256,376,72181,5,0,0:0:0:0:
200,176,72467,1,0,0:0:0:0:
200,176,72610,2,0,P|156:128|168:48,1,138.000002632141
351,59,73038,2,0,P|356:125|312:176,1,138.000002632141
256,264,73467,1,0,0:0:0:0:
308,356,73610,1,0,0:0:0:0:
204,356,73752,1,0,0:0:0:0:
132,256,73895,6,0,B|92:200|92:200|92:124,1,138.000002632141
144,28,74324,2,0,B|184:84|184:84|184:153,1,138.000002632141
328,153,74752,2,0,B|328:84|328:84|368:28,1,138.000002632141
420,130,75181,2,0,B|420:200|420:200|380:256,1,138.000002632141
380,256,75610,5,0,0:0:0:0:
132,256,75895,1,0,0:0:0:0:
132,256,76038,2,0,B|92:200|92:200|92:130,1,138.000002632141
200,108,76467,2,0,B|256:144|256:144|316:104,1,138.000002632141
256,8,76895,1,0,0:0:0:0:
200,108,77038,1,0,0:0:0:0:
315,104,77181,1,0,0:0:0:0:
420,130,77324,2,0,B|420:200|420:200|380:256,1,138.000002632141
312,332,77752,5,0,0:0:0:0:
104,332,78038,1,0,0:0:0:0:
104,332,78181,2,0,B|72:300|72:260|72:260|8:260,1,138.000002632141
14,124,78610,2,0,B|72:124|72:124|72:84|104:52,1,138.000002632141
180,128,79038,5,0,0:0:0:0:
372,204,79324,1,0,0:0:0:0:
372,204,79467,2,0,P|432:236|488:204,1,138.000002632141
432,64,79895,2,0,P|374:32|316:64,1,138.000002632141
256,148,80324,1,0,0:0:0:0:
204,240,80467,1,0,0:0:0:0:
308,240,80610,1,0,0:0:0:0:
195,63,80752,6,0,P|137:32|80:64,1,138.000002632141
24,204,81181,2,0,P|82:236|140:204,1,138.000002632141
256,148,81610,1,0,0:0:0:0:
500,248,81895,1,0,0:0:0:0:
500,248,82038,1,0,0:0:0:0:
256,340,82324,1,0,0:0:0:0:
256,64,99610,5,0,0:0:0:0:
256,208,99895,1,0,0:0:0:0:
328,280,100038,2,0,L|344:308,1,30
256,300,100181,2,0,L|256:336,1,30
204,260,100324,2,0,L|188:288,1,30
256,208,100467,1,0,0:0:0:0:
