osu file format v14

[General]
AudioFilename: audio.mp3
AudioLeadIn: 0
PreviewTime: 45412
Countdown: 0
SampleSet: Soft
StackLeniency: 0.7
Mode: 0
LetterboxInBreaks: 0
WidescreenStoryboard: 0

[Editor]
Bookmarks: 17012,27212,43712,65012,65812,66012,70012,84612
DistanceSpacing: 0.6
BeatDivisor: 4
GridSize: 16
TimelineZoom: 2.6

[Metadata]
Title:Comic Sonic (TV Size)
TitleUnicode:Comic Sonic (TV Size)
Artist:The Pillows
ArtistUnicode:The Pillows
Creator:FaZZeR
Version:Insane
Source:SKET DANCE
Tags:Ranipla ending ed1 guitar drums streams bursts anime
BeatmapID:2097305
BeatmapSetID:1001940

[Difficulty]
HPDrainRate:5
CircleSize:3.6
OverallDifficulty:7
ApproachRate:8.5
SliderMultiplier:1.8
SliderTickRate:1

[Events]
//Background and Video events
0,0,"wp2149645.jpg",0,0
//Break Periods
//Storyboard Layer 0 (Background)
//Storyboard Layer 1 (Fail)
//Storyboard Layer 2 (Pass)
//Storyboard Layer 3 (Foreground)
//Storyboard Sound Samples

[TimingPoints]
612,400,4,2,1,85,1,0
7012,-100,4,2,1,75,0,0
7312,-100,4,2,1,5,0,0
7412,-100,4,2,1,75,0,0
8912,-100,4,2,1,5,0,0
9012,-100,4,2,1,75,0,0
10512,-100,4,2,1,5,0,0
10612,-100,4,2,1,75,0,0
12112,-100,4,2,1,5,0,0
12212,-100,4,2,1,75,0,0
13412,-100,4,1,0,55,0,0
13612,-100,4,2,1,75,0,0
19812,-100,4,1,0,55,0,0
20012,-100,4,2,1,75,0,0
26212,-100,4,2,1,65,0,0
32612,-100,4,1,0,55,0,0
32812,-100,4,2,1,75,0,0
39012,-100,4,1,0,55,0,0
39212,-100,4,2,1,75,0,0
42212,-100,4,1,0,55,0,0
42412,-100,4,2,1,75,0,0
45412,-100,4,1,0,80,0,1
45612,-100,4,2,1,90,0,1
57412,-100,4,2,1,90,0,0
58212,-90.9090909090909,4,2,1,90,0,1
74212,-100,4,2,1,85,0,0
80612,-100,4,2,1,90,0,0
86212,-100,4,1,1,80,0,0
86312,-100,4,2,1,80,0,0
88278,-100,4,2,1,80,0,0

[Colours]
Combo1 : 243,238,14
Combo2 : 36,251,106
Combo3 : 45,78,234
Combo4 : 255,21,21

[HitObjects]
188,155,612,5,8,0:0:0:0:
188,171,712,1,8,0:0:0:0:
188,187,812,1,8,0:0:0:0:
188,203,912,1,8,0:0:0:0:
188,219,1012,1,8,0:0:0:0:
329,226,1412,5,8,0:0:0:0:
329,210,1512,1,8,0:0:0:0:
329,194,1612,1,8,0:0:0:0:
329,178,1712,1,8,0:0:0:0:
329,162,1812,1,8,0:0:0:0:
400,97,2212,5,8,0:0:0:0:
381,79,2312,1,8,0:0:0:0:
359,65,2412,1,8,0:0:0:0:
335,54,2512,1,8,0:0:0:0:
310,46,2612,1,8,0:0:0:0:
284,41,2712,1,8,0:0:0:0:
258,40,2812,1,8,0:0:0:0:
232,43,2912,1,8,0:0:0:0:
206,49,3012,1,8,0:0:0:0:
182,58,3112,1,8,0:0:0:0:
159,71,3212,1,8,0:0:0:0:
138,87,3312,1,8,0:0:0:0:
119,105,3412,1,8,0:0:0:0:
157,240,3812,5,8,0:0:0:0:
173,264,3912,1,8,0:0:0:0:
189,288,4012,2,8,L|237:352,2,45
356,240,4612,5,8,0:0:0:0:
340,264,4712,1,8,0:0:0:0:
324,288,4812,2,8,L|276:352,2,45
256,336,5412,5,8,0:0:0:0:
256,309,5512,1,8,0:0:0:0:
256,283,5612,1,8,0:0:0:0:
256,257,5712,1,8,0:0:0:0:
256,231,5812,1,8,0:0:0:0:
256,204,5912,1,8,0:0:0:0:
256,178,6012,1,8,0:0:0:0:
256,152,6112,1,8,0:0:0:0:
256,126,6212,1,8,0:0:0:0:
256,99,6312,1,8,0:0:0:0:
256,73,6412,1,8,0:0:0:0:
256,47,6512,1,8,0:0:0:0:
256,21,6612,1,8,0:0:0:0:
432,48,7012,6,0,L|432:184,1,135,4|0,0:0|0:0,0:0:0:0:
432,216,7412,1,8,0:0:0:0:
432,316,7612,2,0,P|311:317|278:238,1,180,2|2,0:0|0:0,0:0:0:0:
192,278,8212,2,0,L|99:261,1,90,10|0,0:0|0:0,0:0:0:0:
32,192,8612,2,0,P|24:128|72:64,1,135
80,56,9012,1,8,0:0:0:0:
176,8,9212,6,0,P|256:16|288:112,1,180,2|2,0:0|0:0,0:0:0:0:
282,184,9812,2,0,L|378:200,1,90,10|0,0:0|0:0,0:0:0:0:
438,147,10212,6,0,P|486:211|470:283,1,135
408,312,10612,2,0,B|336:368,1,90,8|2,0:0|0:0,0:0:0:0:
408,312,11212,2,0,L|376:216,1,90,10|0,0:0|0:0,0:0:0:0:
344,128,11612,1,0,0:0:0:0:
254,201,11812,6,0,P|230:137|254:65,1,135
272,8,12212,2,0,L|376:16,1,90,8|2,0:0|0:0,0:0:0:0:
280,24,12812,2,0,L|384:32,1,90,2|10,0:0|0:0,0:0:0:0:
439,100,13212,1,0,0:0:0:0:
347,163,13412,1,4,0:0:0:0:
351,278,13612,1,0,0:0:0:0:
244,232,13812,2,0,L|158:207,1,90,8|2,0:0|0:0,0:0:0:0:
72,248,14212,2,0,P|28:192|66:96,2,180,0|8|0,0:0|0:0|0:0,0:0:0:0:
72,344,15212,6,0,L|168:336,1,90,0|8,0:0|0:0,0:0:0:0:
208,256,15612,2,0,P|184:296|280:352,1,180,2|2,0:0|0:0,0:0:0:0:
271,357,16212,1,8,0:0:0:0:
271,357,16412,1,0,0:0:0:0:
360,248,16612,2,0,L|430:303,1,90
472,204,17013,2,0,L|399:151,1,90,8|2,0:0|0:0,0:0:0:0:
464,64,17412,1,0,0:0:0:0:
376,0,17612,1,2,0:0:0:0:
272,32,17812,6,0,L|96:72,1,180,8|0,0:0|0:0,0:0:0:0:
96,71,18412,1,0,0:0:0:0:
41,174,18612,1,8,0:0:0:0:
144,192,18812,2,0,L|320:152,1,180,2|2,0:0|0:0,0:0:0:0:
368,56,19412,2,0,P|416:80|448:128,1,90,10|0,0:0|0:0,0:0:0:0:
456,240,19812,5,4,0:0:0:0:
368,288,20012,2,0,P|312:296|280:336,1,90,0|8,0:0|0:0,0:0:0:0:
192,360,20412,2,0,P|136:344|112:296,2,90,0|0|2,0:0|0:0|0:0,0:0:0:0:
184,256,21012,2,0,B|136:160|232:184|168:80,1,180,10|0,0:0|0:0,0:0:0:0:
171,86,21612,1,0,0:0:0:0:
264,184,21812,1,8,0:0:0:0:
96,184,22012,1,2,0:0:0:0:
96,184,22412,1,0,0:0:0:0:
48,272,22612,2,0,L|64:360,1,90,10|0,0:0|0:0,0:0:0:0:
176,320,23012,5,0,0:0:0:0:
224,240,23212,1,0,0:0:0:0:
312,208,23412,1,8,0:0:0:0:
400,224,23612,1,2,0:0:0:0:
464,296,23812,1,0,0:0:0:0:
400,224,24012,2,0,P|392:152|464:64,1,180,8|2,0:0|0:0,0:0:0:0:
328,16,24612,5,0,0:0:0:0:
328,16,24812,2,0,P|280:90|195:112,1,180,8|2,0:0|0:0,0:0:0:0:
112,136,25412,1,0,0:0:0:0:
112,224,25612,2,0,L|104:336,2,90,2|8|2,0:0|0:0|0:0,0:0:0:0:
240,296,26212,6,0,P|272:328|336:336,1,90,4|0,0:0|0:0,0:0:0:0:
320,232,26612,1,8,0:0:0:0:
416,184,26812,2,0,L|456:88,1,90,2|0,0:0|0:0,0:0:0:0:
336,40,27212,1,2,0:0:0:0:
336,40,27412,2,0,L|301:123,1,90,10|0,0:0|0:0,0:0:0:0:
208,168,27812,5,0,0:0:0:0:
120,112,28012,1,0,0:0:0:0:
32,168,28212,2,0,P|40:216|56:272,1,90,8|2,0:0|0:0,0:0:0:0:
24,360,28612,1,0,0:0:0:0:
128,336,28812,2,0,L|208:296,2,90,2|8|2,0:0|0:0|0:0,0:0:0:0:
248,224,29412,6,0,P|280:248|288:328,1,90,4|0,0:0|0:0,0:0:0:0:
392,352,29812,1,8,0:0:0:0:
464,280,30012,2,0,L|432:176,1,90,2|0,0:0|0:0,0:0:0:0:
464,88,30412,1,2,0:0:0:0:
368,112,30612,1,10,0:0:0:0:
368,112,30812,1,0,0:0:0:0:
272,50,31012,6,0,B|172:16|112:112,1,180,2|8,0:0|0:0,0:0:0:0:
160,200,31612,1,2,0:0:0:0:
112,288,31812,2,0,L|160:376,1,90,0|2,0:0|0:0,0:0:0:0:
240,304,32212,2,0,L|344:336,1,90,10|0,0:0|0:0,0:0:0:0:
408,240,32612,5,4,0:0:0:0:
368,152,32812,2,0,L|384:64,1,90,0|8,0:0|0:0,0:0:0:0:
480,152,33212,1,0,0:0:0:0:
408,240,33412,2,0,P|310:233|272:144,2,180,0|8|2,0:0|0:0|0:0,0:0:0:0:
488,320,34412,1,0,0:0:0:0:
408,240,34612,1,8,0:0:0:0:
352,336,34812,2,0,L|168:320,1,180,2|2,0:0|0:0,0:0:0:0:
112,256,35412,1,8,0:0:0:0:
112,256,35612,1,0,0:0:0:0:
96,160,35812,6,0,L|192:168,1,90
256,104,36212,2,0,P|312:136|336:176,1,90,8|2,0:0|0:0,0:0:0:0:
408,104,36612,1,0,0:0:0:0:
496,144,36812,1,2,0:0:0:0:
496,256,37012,2,0,P|368:256|336:296,1,180,10|0,0:0|0:0,0:0:0:0:
240,336,37612,1,0,0:0:0:0:
136,312,37812,1,8,0:0:0:0:
64,248,38012,2,0,P|56:184|144:104,1,180,2|2,0:0|0:0,0:0:0:0:
228,67,38612,2,0,L|325:76,1,90,10|0,0:0|0:0,0:0:0:0:
424,72,39012,5,4,0:0:0:0:
467,160,39212,2,0,P|424:151|383:167,1,90,0|8,0:0|0:0,0:0:0:0:
346,261,39612,2,0,P|389:270|431:255,2,90,0|0|2,0:0|0:0|0:0,0:0:0:0:
296,176,40212,2,0,B|216:248|288:256|208:336,1,180,10|0,0:0|0:0,0:0:0:0:
328,368,40812,1,0,0:0:0:0:
384,272,41012,1,8,0:0:0:0:
456,352,41212,1,2,0:0:0:0:
456,352,41612,1,0,0:0:0:0:
480,248,41812,2,0,L|472:152,1,90,10|0,0:0|0:0,0:0:0:0:
342,58,42212,5,4,0:0:0:0:
256,165,42412,1,0,0:0:0:0:
169,58,42612,1,8,0:0:0:0:
256,165,42812,1,2,0:0:0:0:
256,288,43012,1,0,0:0:0:0:
178,311,43212,6,0,P|146:207|170:111,1,180,8|8,0:0|0:0,0:0:0:0:
351,141,43812,2,0,P|361:230|331:314,1,180,8|4,0:0|0:0,0:0:0:0:
256,304,44612,5,8,0:0:0:0:
256,275,44712,1,8,0:0:0:0:
256,247,44812,1,8,0:0:0:0:
256,219,44912,1,8,0:0:0:0:
256,191,45012,1,8,0:0:0:0:
256,163,45112,1,8,0:0:0:0:
256,135,45212,1,8,0:0:0:0:
256,107,45312,1,8,0:0:0:0:
254,70,45412,5,4,0:0:0:0:
151,19,45612,1,0,0:0:0:0:
100,122,45812,1,8,0:0:0:0:
181,203,46012,1,0,0:0:0:0:
261,285,46212,1,0,0:0:0:0:
202,369,46412,1,0,0:0:0:0:
109,309,46612,6,0,P|67:301|41:233,2,90,8|0|0,0:0|0:0|0:0,0:0:0:0:
202,250,47212,1,0,0:0:0:0:
305,309,47412,2,0,L|399:344,1,90,8|0,0:0|0:0,0:0:0:0:
509,345,47812,2,0,L|485:277,1,45,0|8,0:0|0:0,0:0:0:0:
405,224,48112,2,0,L|419:153,1,45,0|8,0:0|0:0,0:0:0:0:
441,71,48412,1,8,0:0:0:0:
441,71,48512,1,8,0:0:0:0:
441,71,48612,6,0,P|356:37|322:37,1,90,4|0,0:0|0:0,0:0:0:0:
246,96,49012,2,0,L|153:113,1,90,8|0,0:0|0:0,0:0:0:0:
187,213,49412,2,0,L|94:230,1,90
32,309,49812,1,8,0:0:0:0:
134,361,50012,1,0,0:0:0:0:
258,340,50212,6,0,P|272:285|297:243,2,90,0|0|8,0:0|0:0|0:0,0:0:0:0:
407,351,50812,1,0,0:0:0:0:
413,179,51012,1,0,0:0:0:0:
413,179,51112,2,0,P|354:188|313:147,1,90,8|0,0:0|0:0,0:0:0:0:
302,149,51412,1,8,0:0:0:0:
194,19,51612,5,8,0:0:0:0:
168,36,51712,1,8,0:0:0:0:
143,54,51812,2,0,P|92:80|50:71,1,90,4|0,0:0|0:0,0:0:0:0:
57,181,52212,2,0,P|74:233|74:275,1,90,8|0,0:0|0:0,0:0:0:0:
151,361,52612,1,0,0:0:0:0:
211,267,52812,1,0,0:0:0:0:
151,361,53012,1,8,0:0:0:0:
271,369,53212,1,0,0:0:0:0:
271,369,53312,1,0,0:0:0:0:
271,369,53412,6,0,P|348:369|374:344,1,90
458,301,53812,2,0,L|441:208,1,90,8|0,0:0|0:0,0:0:0:0:
421,112,54212,1,0,0:0:0:0:
339,61,54412,1,8,0:0:0:0:
339,61,54512,1,0,0:0:0:0:
339,61,54612,1,8,0:0:0:0:
254,105,54812,1,8,0:0:0:0:
256,192,55012,12,0,57212,0:0:0:0:
109,243,57412,5,8,0:0:0:0:
134,268,57512,1,8,0:0:0:0:
164,287,57612,1,8,0:0:0:0:
199,299,57712,1,8,0:0:0:0:
234,304,57812,1,8,0:0:0:0:
270,301,57912,1,8,0:0:0:0:
304,290,58012,1,8,0:0:0:0:
335,272,58112,1,8,0:0:0:0:
358,252,58212,6,0,P|379:198|376:133,1,99.0000030212403,4|0,0:0|0:0,0:0:0:0:
348,61,58612,1,8,0:0:0:0:
348,61,58812,1,0,0:0:0:0:
275,148,59012,2,0,P|263:195|229:238,1,99.0000030212403
168,152,59412,1,8,0:0:0:0:
168,152,59612,1,0,0:0:0:0:
80,216,59812,2,0,P|88:280|160:352,1,148.50000453186
160,352,60212,2,0,P|208:360|264:312,1,99.0000030212403,8|0,0:0|0:0,0:0:0:0:
320,272,60612,1,0,0:0:0:0:
320,272,60712,5,8,0:0:0:0:
289,140,60912,1,0,0:0:0:0:
289,140,61012,1,8,0:0:0:0:
193,52,61212,1,8,0:0:0:0:
193,52,61312,1,8,0:0:0:0:
193,52,61412,6,0,P|164:100|126:128,1,99.0000030212403,4|0,0:0|0:0,0:0:0:0:
42,162,61812,2,0,P|20:213|24:267,1,99.0000030212403,8|0,0:0|0:0,0:0:0:0:
136,289,62212,1,0,0:0:0:0:
187,189,62412,1,0,0:0:0:0:
247,292,62612,2,0,P|289:318|318:361,2,99.0000030212403,0|0|8,0:0|0:0|0:0,0:0:0:0:
344,248,63212,2,0,L|448:240,1,99.0000030212403,0|8,0:0|0:0,0:0:0:0:
512,304,63612,5,0,0:0:0:0:
433,241,63812,1,0,0:0:0:0:
433,241,63912,1,8,0:0:0:0:
488,96,64112,1,0,0:0:0:0:
488,96,64212,1,8,0:0:0:0:
395,45,64412,1,8,0:0:0:0:
355,51,64512,1,8,0:0:0:0:
315,46,64612,5,4,0:0:0:0:
258,196,64812,1,0,0:0:0:0:
201,45,65012,1,8,0:0:0:0:
316,347,65412,5,0,0:0:0:0:
258,196,65612,1,0,0:0:0:0:
202,346,65812,1,8,0:0:0:0:
258,196,66012,1,0,0:0:0:0:
384,248,66212,6,0,B|428:268|451:323,1,99.0000030212403
384,136,66612,2,0,B|428:116|453:65,1,99.0000030212403,8|0,0:0|0:0,0:0:0:0:
488,200,67012,1,0,0:0:0:0:
351,167,67212,1,8,0:0:0:0:
327,191,67312,1,0,0:0:0:0:
319,231,67412,1,8,0:0:0:0:
159,167,67612,1,8,0:0:0:0:
183,191,67712,1,0,0:0:0:0:
191,231,67812,1,4,0:0:0:0:
256,192,68012,12,2,69412,0:0:0:0:
371,250,69612,5,2,0:0:0:0:
256,211,69812,1,8,0:0:0:0:
140,250,70012,1,8,0:0:0:0:
89,141,70212,1,8,0:0:0:0:
185,70,70412,1,2,0:0:0:0:
326,70,70612,1,8,0:0:0:0:
422,141,70812,1,8,0:0:0:0:
256,192,71012,12,2,72612,0:0:0:0:
137,107,72812,5,2,0:0:0:0:
137,206,73012,1,8,0:0:0:0:
207,276,73212,1,8,0:0:0:0:
306,276,73412,1,8,0:0:0:0:
376,205,73612,1,0,0:0:0:0:
376,106,73812,1,8,0:0:0:0:
255,96,74012,1,8,0:0:0:0:
364,248,74212,5,8,0:0:0:0:
368,212,74312,1,8,0:0:0:0:
365,176,74412,1,8,0:0:0:0:
354,142,74512,1,8,0:0:0:0:
336,112,74612,1,8,0:0:0:0:
176,112,75012,5,8,0:0:0:0:
157,142,75112,1,8,0:0:0:0:
146,176,75212,1,8,0:0:0:0:
143,212,75312,1,8,0:0:0:0:
147,248,75412,1,8,0:0:0:0:
93,87,75812,5,8,0:0:0:0:
113,62,75912,1,8,0:0:0:0:
138,41,76012,1,8,0:0:0:0:
165,25,76112,1,8,0:0:0:0:
195,13,76212,1,8,0:0:0:0:
225,6,76312,1,8,0:0:0:0:
257,5,76412,1,8,0:0:0:0:
289,6,76512,1,8,0:0:0:0:
320,13,76612,1,8,0:0:0:0:
349,24,76712,1,8,0:0:0:0:
377,40,76812,1,8,0:0:0:0:
402,60,76912,1,8,0:0:0:0:
423,83,77012,1,8,0:0:0:0:
152,280,77412,6,8,L|112:320,2,45
163,272,77712,1,8,0:0:0:0:
174,265,77812,1,8,0:0:0:0:
360,280,78212,6,8,L|400:320,2,45
349,272,78512,1,8,0:0:0:0:
338,265,78612,1,8,0:0:0:0:
182,92,79012,5,8,0:0:0:0:
197,114,79112,1,8,0:0:0:0:
212,136,79212,1,8,0:0:0:0:
227,158,79312,1,8,0:0:0:0:
241,180,79412,1,8,0:0:0:0:
255,202,79512,2,8,L|255:276,2,45
271,180,79812,1,8,0:0:0:0:
285,158,79912,1,8,0:0:0:0:
300,136,80012,1,8,0:0:0:0:
315,114,80112,1,8,0:0:0:0:
330,92,80212,1,8,0:0:0:0:
182,85,80612,5,8,0:0:0:0:
182,85,80712,1,8,0:0:0:0:
182,85,80812,1,8,0:0:0:0:
182,85,80912,1,8,0:0:0:0:
182,85,81012,1,8,0:0:0:0:
340,90,81412,5,8,0:0:0:0:
340,90,81512,1,8,0:0:0:0:
340,90,81612,1,8,0:0:0:0:
340,90,81712,1,8,0:0:0:0:
340,90,81812,1,8,0:0:0:0:
214,271,82212,5,8,0:0:0:0:
177,245,82312,1,8,0:0:0:0:
156,206,82412,1,8,0:0:0:0:
154,162,82512,1,8,0:0:0:0:
173,122,82612,1,8,0:0:0:0:
207,94,82712,1,8,0:0:0:0:
250,85,82812,1,8,0:0:0:0:
293,95,82912,1,8,0:0:0:0:
327,124,83012,1,8,0:0:0:0:
344,165,83112,1,8,0:0:0:0:
341,209,83212,1,8,0:0:0:0:
319,247,83312,1,8,0:0:0:0:
282,272,83412,1,8,0:0:0:0:
453,192,83812,5,8,0:0:0:0:
414,192,83912,1,8,0:0:0:0:
376,192,84012,1,8,0:0:0:0:
338,192,84112,1,8,0:0:0:0:
300,192,84212,1,8,0:0:0:0:
58,192,84612,5,8,0:0:0:0:
97,192,84712,1,8,0:0:0:0:
135,192,84812,1,8,0:0:0:0:
173,192,84912,1,8,0:0:0:0:
211,192,85012,1,8,0:0:0:0:
248,62,85412,5,8,0:0:0:0:
241,95,85512,1,8,0:0:0:0:
237,128,85612,1,8,0:0:0:0:
241,161,85712,1,8,0:0:0:0:
253,193,85812,1,8,0:0:0:0:
263,224,85912,1,8,0:0:0:0:
265,257,86012,1,8,0:0:0:0:
263,290,86112,1,8,0:0:0:0:
257,323,86212,5,4,0:0:0:0:
256,192,86312,12,12,88278,0:0:0:0:
