osu file format v14

[General]
AudioFilename: song.mp3
AudioLeadIn: 0
PreviewTime: 156654
Countdown: 0
SampleSet: Soft
StackLeniency: 0.2
Mode: 0
LetterboxInBreaks: 0
WidescreenStoryboard: 1

[Editor]
Bookmarks: 2638,4528
DistanceSpacing: 1.3
BeatDivisor: 4
GridSize: 4
TimelineZoom: 1.9

[Metadata]
Title:Secret (Nightcore Mix)
TitleUnicode:Secret (Nightcore Mix)
Artist:The Pierces
ArtistUnicode:The Pierces
Creator:OsuMagic360
Version:Secret
Source:
Tags:
BeatmapID:1891413
BeatmapSetID:906346

[Difficulty]
HPDrainRate:6.5
CircleSize:4
OverallDifficulty:6.5
ApproachRate:8.7
SliderMultiplier:1.6
SliderTickRate:1

[Events]
//Background and Video events
0,0,"bg.jpg",0,0
//Break Periods
2,17961,22787
2,67866,72692
2,104161,117872
//Storyboard Layer 0 (Background)
//Storyboard Layer 1 (Fail)
//Storyboard Layer 2 (Pass)
//Storyboard Layer 3 (Foreground)
//Storyboard Sound Samples

[TimingPoints]
748,378.071833648393,3,2,0,60,1,0
23054,-133.333333333333,4,2,0,60,0,0
50275,-100,4,2,0,60,0,1
67099,-100,4,2,0,60,0,0
73337,-133.333333333333,4,2,0,60,0,0
86570,-100,4,2,0,60,0,1
103394,-100,4,2,0,60,0,0
118706,-133.333333333333,4,2,0,60,0,0
135719,-181.818181818181,4,2,0,60,0,0
136853,-285.714285714284,4,2,0,60,0,0
139878,-100,4,2,0,60,0,1
140270,368.098159509202,3,2,0,60,1,1
149090,343.839541547278,3,2,0,60,1,1
155794,-100,3,2,0,60,0,0
157342,326.086956521739,3,2,0,60,1,0
161225,305.654610290372,3,2,0,60,1,0
164922,297.029702970297,3,2,0,60,1,0
168486,283.687943262411,3,2,0,60,1,0
171890,266.429840142096,3,2,0,60,1,0
178284,244.100895036615,3,2,0,60,1,0
187071,247.799744766263,3,2,0,60,1,0
187912,292.682926829268,3,2,0,60,1,0
187912,-200,4,2,0,60,0,0
190253,-100,4,2,0,60,0,0
190546,400,3,2,0,60,1,0
191872,496.894409937888,3,2,0,60,1,0
193486,-100,3,2,0,5,0,0

[HitObjects]
210,78,369,5,0,0:0:0:0:
117,210,558,1,0,0:0:0:0:
237,93,748,2,0,P|336:63|404:78,1,160
312,205,1409,5,0,0:0:0:0:
418,85,1598,1,0,0:0:0:0:
331,222,1787,2,0,P|243:275|161:290,1,160
115,197,2638,6,0,P|151:136|232:101,1,160
397,187,3394,2,0,P|361:248|280:283,1,160
249,77,4150,2,0,L|134:212,1,160
326,305,4906,5,0,0:0:0:0:
415,153,5095,1,0,0:0:0:0:
299,298,5284,2,0,B|326:210|377:145|390:136,1,160
175,95,6041,5,0,0:0:0:0:
99,224,6230,1,0,0:0:0:0:
204,111,6419,2,0,P|181:221|151:258,1,160
366,90,7175,5,0,0:0:0:0:
171,121,7364,1,0,0:0:0:0:
358,131,7553,2,0,P|239:159|189:150,1,160
156,334,8309,6,0,L|260:326,1,80
357,281,8687,2,0,L|176:248,1,160
337,202,9443,5,0,0:0:0:0:
195,159,9632,1,0,0:0:0:0:
355,240,9821,2,0,P|284:283|180:285,1,160
162,162,10577,5,0,0:0:0:0:
345,200,10766,1,0,0:0:0:0:
108,185,10955,2,0,P|84:105|139:28,1,160
380,231,11712,6,0,L|371:133,1,80
308,51,12090,2,0,L|293:213,1,160
183,123,12846,2,0,L|208:299,2,160
404,272,13980,6,0,L|324:272,1,80
223,263,14358,2,0,L|263:193,1,80
329,106,14736,2,0,L|369:175,1,80,0|0,0:3|0:3,0:3:0:0:
402,303,15114,5,0,0:0:0:0:
264,90,15303,1,0,0:0:0:0:
357,321,15492,2,0,P|290:242|243:200,1,160
81,98,16248,5,0,0:0:0:0:
97,126,16627,2,0,P|141:193|174:266,1,160
262,337,17194,2,0,P|258:282|267:241,1,80
310,188,17572,1,0,0:0:0:0:
347,290,17761,1,0,0:0:0:0:
169,112,23432,6,0,B|204:236|204:236|226:179,1,180.000006866455
257,93,24188,1,0,0:0:0:0:
298,185,24377,1,0,0:0:0:0:
351,93,24566,6,0,P|398:220|403:271,1,180.000006866455
335,330,25322,2,0,L|266:307,1,60.0000022888184
127,273,25700,2,0,L|250:223,1,120.000004577637
350,110,26267,2,0,L|288:131,1,60.0000022888184
200,156,26645,1,0,0:0:0:0:
390,124,26834,6,0,P|339:193|333:242,1,120.000004577637
187,330,27591,2,0,L|216:270,1,60.0000022888184
296,90,27969,6,0,L|252:206,1,120.000004577637
204,265,28536,1,0,0:0:0:0:
135,125,28725,2,0,L|159:210,1,60.0000022888184
148,290,29103,2,0,P|247:328|318:276,1,180.000006866455
374,230,29859,1,0,0:0:0:0:
291,223,30237,2,0,P|225:187|185:156,1,120.000004577637
392,118,30993,5,0,0:0:0:0:
213,148,31182,1,0,0:0:0:0:
418,137,31371,2,0,P|329:172|306:181,1,120.000004577637
152,121,32127,5,0,0:0:0:0:
153,153,32506,2,0,P|170:239|192:302,1,150.000005722046
328,309,33167,1,0,0:0:0:0:
156,283,33356,1,0,0:0:0:0:
361,285,33545,2,0,P|408:212|425:164,2,120.000004577637,0|0|8,0:0|0:0|0:0,0:0:0:0:
120,256,34774,6,0,L|256:200,1,120.000004577637
292,112,35341,1,0,0:0:0:0:
348,184,35530,1,0,0:0:0:0:
312,284,35719,1,0,0:0:0:0:
324,104,35908,2,0,P|388:168|416:172,2,120.000004577637,0|0|8,0:0|0:0|0:0,0:0:0:0:
104,249,37042,6,0,P|210:305|292:299,1,180.000006866455
403,235,37799,1,0,0:0:0:0:
259,324,37988,1,0,0:0:0:0:
434,217,38177,2,0,P|436:157|398:97,1,120.000004577637
218,137,38744,5,0,0:0:0:0:
335,276,38933,1,0,0:0:0:0:
387,102,39122,1,0,0:0:0:0:
191,145,39311,2,0,P|124:183|90:293,1,180.000006866455
245,197,40067,5,0,0:0:0:0:
116,304,40256,1,0,0:0:0:0:
273,200,40445,2,0,P|307:162|374:128,1,120.000004577637
79,339,41201,6,0,L|148:283,1,60.0000022888184
289,223,41579,2,0,B|202:303|202:303|217:217,1,180.000006866455
215,109,42335,1,0,0:0:0:0:
148,260,42524,1,0,0:0:0:0:
260,94,42713,2,0,P|313:51|438:59,1,180.000006866455
244,326,43470,6,0,L|293:265,1,60.0000022888184
119,295,43848,2,0,P|160:284|231:212,1,120.000004577637
329,86,44415,5,0,0:0:0:0:
159,99,44604,1,0,0:0:0:0:
227,253,44793,1,0,0:0:0:0:
365,82,44982,2,0,P|392:158|384:203,1,120.000004577637
108,332,45738,6,0,L|184:306,1,60.0000022888184
351,301,46116,2,0,L|176:246,1,180.000006866455
337,123,46872,1,0,0:0:0:0:
151,233,47061,1,0,0:0:0:0:
312,106,47250,2,0,L|144:200,1,180.000006866455
363,297,48385,6,0,L|171:317,1,180.000006866455
250,182,49141,1,0,0:0:0:0:
161,298,49330,1,0,0:0:0:0:
195,162,49519,2,0,P|146:227|82:334,1,180.000006866455
284,331,50275,5,0,0:0:0:0:
407,162,50464,1,0,0:0:0:0:
250,322,50653,2,0,P|269:256|335:173,1,160
206,71,51409,5,0,0:0:0:0:
76,243,51598,1,0,0:0:0:0:
172,59,51787,2,0,P|102:112|53:188,1,160
285,77,52543,6,0,P|358:143|380:220,1,160
227,307,53299,2,0,P|154:241|132:164,1,160
266,81,54056,2,0,L|370:241,1,160
114,302,54812,5,0,0:0:0:0:
294,276,55001,1,0,0:0:0:0:
103,334,55190,2,0,P|172:340|291:316,1,160
398,76,55946,5,0,0:0:0:0:
182,110,56135,1,0,0:0:0:0:
391,99,56324,2,0,P|271:128|230:133,1,160
100,322,57080,5,0,0:0:0:0:
233,181,57269,1,0,0:0:0:0:
117,339,57458,2,0,P|178:338|290:304,1,160
412,322,58214,5,0,0:0:0:0:
279,181,58403,1,0,0:0:0:0:
395,339,58592,2,0,P|334:338|222:304,1,160
90,66,59349,5,0,0:0:0:0:
104,97,59538,1,0,0:0:0:0:
118,133,59727,2,0,P|135:236|90:302,1,160
223,122,60483,5,0,0:0:0:0:
237,150,60672,1,0,0:0:0:0:
245,174,60861,2,0,P|266:254|250:328,1,160
185,299,61617,6,0,P|152:232|166:133,1,160
327,85,62373,2,0,P|360:152|346:251,1,160
192,306,63129,2,0,L|159:141,1,160
400,91,63885,6,0,L|377:179,1,80
304,149,64264,2,0,L|281:237,1,80
194,274,64642,1,0,0:0:0:0:
181,309,65020,5,0,0:0:0:0:
134,148,65209,1,0,0:0:0:0:
145,319,65398,2,0,P|90:263|78:180,1,160
209,93,66154,6,0,P|254:121|364:86,2,160
135,141,67099,6,0,P|166:188|209:187,1,80
269,191,67477,1,0,0:0:0:0:
356,188,67666,1,0,0:0:0:0:
70,167,73337,6,0,P|157:215|186:217,1,120.000004577637
354,207,73904,1,0,0:0:0:0:
200,244,74093,1,0,0:0:0:0:
376,205,74282,1,0,0:0:0:0:
185,300,74472,2,0,P|303:304|405:244,1,240.000009155274
354,336,75606,6,0,P|411:327|477:293,1,120.000004577637
381,235,76173,1,0,0:0:0:0:
321,125,76362,1,0,0:0:0:0:
373,259,76551,1,0,0:0:0:0:
296,141,76740,2,0,P|279:219|262:254,2,120.000004577637
54,247,77874,6,0,P|104:309|221:318,1,180.000006866455
353,276,78630,1,0,0:0:0:0:
210,346,78819,1,0,0:0:0:0:
381,295,79008,2,0,P|428:250|465:128,1,180.000006866455
412,49,79765,6,0,L|382:126,1,60.0000022888184
318,59,80143,2,0,P|320:187|366:208,1,180.000006866455
471,219,80899,1,0,0:0:0:0:
421,118,81088,1,0,0:0:0:0:
377,219,81277,2,0,P|407:264|302:310,1,180.000006866455
115,105,82411,6,0,P|188:138|242:132,1,120.000004577637
341,113,82978,1,0,0:0:0:0:
189,181,83167,1,0,0:0:0:0:
383,139,83356,1,0,0:0:0:0:
187,220,83545,2,0,P|129:248|63:247,2,120.000004577637
486,213,84679,6,0,L|373:254,1,120.000004577637
237,283,85247,1,0,0:0:0:0:
367,208,85436,1,0,0:0:0:0:
176,233,85625,1,0,0:0:0:0:
391,162,85814,2,0,P|283:168|219:134,1,180.000006866455
93,340,86570,5,0,0:0:0:0:
145,168,86759,1,0,0:0:0:0:
131,346,86948,2,0,P|181:316|229:211,1,160
419,340,87704,5,0,0:0:0:0:
367,168,87893,1,0,0:0:0:0:
381,346,88082,2,0,P|331:316|283:211,1,160
239,93,88838,6,0,P|154:157|156:204,1,160
273,291,89594,2,0,P|358:227|356:180,1,160
209,86,90351,6,0,L|128:248,1,160
446,339,91107,5,0,0:0:0:0:
367,221,91296,1,0,0:0:0:0:
288,318,91485,2,0,P|170:331|130:329,1,160
66,45,92241,5,0,0:0:0:0:
145,163,92430,1,0,0:0:0:0:
224,66,92619,2,0,P|342:53|382:55,1,160
410,316,93375,5,0,0:0:0:0:
287,194,93564,1,0,0:0:0:0:
441,319,93753,2,0,P|424:252|353:178,1,160
102,316,94509,5,0,0:0:0:0:
225,194,94698,1,0,0:0:0:0:
71,319,94887,2,0,P|88:252|159:178,1,160
420,49,95644,6,0,L|402:143,1,80
370,334,96022,2,0,L|316:155,1,160
92,49,96778,6,0,L|110:143,1,80
142,334,97156,2,0,L|196:155,1,160
278,65,97912,6,0,P|339:133|344:214,1,160
234,319,98668,2,0,P|173:251|168:170,1,160
284,76,99424,2,0,L|362:235,1,160
264,332,100180,6,0,L|207:268,1,80
130,128,100558,2,0,L|214:111,1,80,0|0,0:3|0:3,0:3:0:0:
373,115,100937,2,0,L|346:196,1,80,0|0,0:3|0:3,0:3:0:0:
237,318,101315,1,0,0:0:0:0:
111,128,101504,1,0,0:0:0:0:
354,106,101693,2,0,P|319:170|328:279,1,160
216,302,102449,6,0,P|132:298|63:261,2,160
377,208,103394,2,0,L|296:272,1,80
227,244,103772,1,0,0:0:0:0:
182,158,103961,1,0,0:0:0:0:
99,56,118517,5,0,0:0:0:0:
182,119,118706,2,0,P|230:171|214:222,1,120.000004577637
168,282,119462,1,0,0:0:0:0:
122,213,119840,2,0,P|108:143|141:87,1,120.000004577637
241,47,120596,1,0,0:0:0:0:
352,82,120974,6,0,P|495:141|416:225,1,300.000011444092
360,221,122109,1,0,0:0:0:0:
125,318,122865,5,0,0:0:0:0:
74,223,123243,2,0,P|148:168|46:167,1,240.000009155274
283,290,124377,2,0,P|209:235|311:234,1,240.000009155274
415,328,125511,2,0,B|456:281|374:254|425:210,1,120.000004577637
294,237,126267,5,0,0:0:0:0:
187,171,126645,2,0,L|293:96,1,120.000004577637
404,99,127402,5,0,0:0:0:0:
274,99,127780,2,0,P|261:202|207:139,1,240.000009155274
128,124,128914,2,0,P|47:71|60:166,1,240.000009155274
146,260,130048,6,0,B|204:278|246:319|246:319|215:191|238:184,1,240.000009155274
238,167,130899,1,0,0:0:0:0:
260,143,130993,1,0,0:0:0:0:
287,133,131088,1,0,0:0:0:0:
323,135,131182,2,0,P|346:180|347:254,1,120.000004577637
434,161,131938,5,0,0:0:0:0:
395,293,132316,2,0,L|147:283,1,240.000009155274
85,168,133451,2,0,L|329:197,1,240.000009155274
456,57,134585,6,0,L|146:119,1,300.000011444092
55,177,135719,6,0,L|268:230,1,220.000006713867
428,286,136853,6,0,L|176:325,1,251.999992309571
118,66,139878,5,0,0:0:0:0:
123,207,140067,1,0,0:0:0:0:
249,104,140270,2,0,P|320:83|428:85,1,160
394,318,141006,5,0,0:0:0:0:
309,137,141195,1,0,0:0:0:0:
180,299,141398,2,0,P|109:320|1:318,1,160
164,123,142110,5,0,0:0:0:0:
366,121,142478,1,0,0:0:0:0:
368,323,142846,1,0,0:0:0:0:
166,325,143214,1,0,0:0:0:0:
266,223,143582,1,0,0:0:0:0:
444,68,144319,5,0,0:0:0:0:
218,98,144503,1,0,0:0:0:0:
447,92,144687,2,0,P|343:138|291:139,1,160
68,316,145423,5,0,0:0:0:0:
294,286,145607,1,0,0:0:0:0:
65,292,145791,2,0,P|169:246|221:245,1,160
460,57,146527,5,0,0:0:0:0:
425,216,146711,1,0,0:0:0:0:
363,87,146895,2,0,P|275:76|188:98,1,160
83,123,147631,6,0,L|89:224,1,80
154,317,148000,2,0,L|182:145,1,160
349,74,148736,5,0,0:0:0:0:
383,305,148920,1,0,0:0:0:0:
374,87,149090,2,0,P|374:157|335:262,1,160
163,310,149777,5,0,0:0:0:0:
129,79,149949,1,0,0:0:0:0:
138,297,150121,2,0,P|138:227|177:122,1,160
344,109,150809,5,0,0:0:0:0:
363,304,151152,1,0,0:0:0:0:
168,323,151497,1,0,0:0:0:0:
149,128,151840,1,0,0:0:0:0:
256,216,152184,1,0,0:0:0:0:
116,64,152872,6,0,L|178:158,1,80
117,205,153216,2,0,L|173:300,1,80
251,306,153559,1,0,0:0:0:0:
308,57,153903,5,0,0:0:0:0:
414,203,154075,1,0,0:0:0:0:
438,65,154247,2,0,P|359:62|285:90,1,160
167,42,154935,6,0,L|153:135,1,80
72,145,155279,2,0,L|118:314,1,160
192,350,155794,2,0,L|227:269,1,80
300,178,156138,1,0,0:0:0:0:
345,293,156310,1,0,0:0:0:0:
131,48,156998,5,0,0:0:0:0:
153,191,157170,1,0,0:0:0:0:
179,47,157342,2,0,P|186:126|179:220,1,160
381,48,157994,5,0,0:0:0:0:
359,191,158157,1,0,0:0:0:0:
333,47,158320,2,0,P|326:126|333:220,1,160
229,308,158972,6,0,L|147:167,1,160
283,76,159624,2,0,L|365:217,1,160
237,297,160276,2,0,P|181:239|144:155,1,160
391,112,160928,5,0,0:0:0:0:
188,73,161092,1,0,0:0:0:0:
265,181,161225,2,0,P|288:281|277:361,1,160,0|0,0:3|0:3,0:3:0:0:
110,98,161836,5,0,0:0:0:0:
100,322,161989,1,0,0:0:0:0:
146,135,162141,2,0,P|155:213|130:299,1,160
417,346,162753,6,0,L|328:342,1,80
223,325,163058,2,0,L|388:258,2,160
80,319,163823,1,0,0:0:0:0:
209,258,163975,1,0,0:0:0:0:
482,161,164587,5,0,0:0:0:0:
358,53,164740,1,0,0:0:0:0:
379,165,164922,2,0,P|310:169|207:137,1,160
30,223,165516,5,0,0:0:0:0:
154,331,165669,1,0,0:0:0:0:
133,219,165851,2,0,P|202:215|305:247,1,160
277,122,166407,6,0,L|365:257,1,160
235,262,167001,2,0,L|147:127,1,160
281,114,167595,2,0,P|331:174|342:257,1,160
195,305,168189,5,0,0:0:0:0:
124,122,168486,1,0,0:0:0:0:
164,331,168769,1,0,0:0:0:0:
343,137,169053,5,0,0:0:0:0:
303,271,169195,1,0,0:0:0:0:
307,123,169337,2,0,L|115:73,1,160
236,273,169904,6,0,L|401:309,2,160
164,236,170613,2,0,P|136:191|134:161,1,80
156,89,170897,1,0,0:0:0:0:
244,198,171039,1,0,0:0:0:0:
72,317,171606,6,0,L|162:304,1,80
97,233,171890,2,0,L|258:217,1,160
374,301,172422,5,0,0:0:0:0:
415,128,172556,1,0,0:0:0:0:
467,229,172689,2,0,L|280:196,1,160
161,186,173222,6,0,L|232:338,1,160
351,198,173755,6,0,L|280:46,1,160
256,192,174287,5,0,0:0:0:0:
371,329,174820,5,0,0:0:0:0:
466,268,174953,1,0,0:0:0:0:
334,358,175087,2,0,L|162:330,1,160
141,55,175620,5,0,0:0:0:0:
46,116,175753,1,0,0:0:0:0:
178,26,175887,2,0,L|350:54,1,160
51,292,176419,5,0,0:0:0:0:
210,282,176552,1,0,0:0:0:0:
139,196,176685,2,0,P|141:151|226:53,1,160
461,92,177218,5,0,0:0:0:0:
302,102,177351,1,0,0:0:0:0:
373,188,177484,2,0,P|371:233|286:331,1,160
155,304,178017,5,0,0:0:0:0:
108,103,178151,1,0,0:0:0:0:
190,336,178284,2,0,L|202:236,1,80
216,81,178528,2,0,L|269:163,1,80
340,265,178772,5,0,0:0:0:0:
398,112,178894,1,0,0:0:0:0:
324,288,179016,2,0,L|224:333,1,80
95,237,179260,2,0,L|186:206,1,80
253,56,179504,6,0,L|366:219,1,160
259,328,179992,2,0,L|167:196,1,160
256,192,180480,1,0,0:0:0:0:
77,317,180969,5,0,0:0:0:0:
94,119,181213,1,0,0:0:0:0:
269,230,181457,1,0,0:0:0:0:
88,90,181701,5,0,0:0:0:0:
59,249,181823,1,0,0:0:0:0:
109,87,181945,2,0,P|159:63|276:62,1,160
418,110,182433,6,0,L|331:128,1,80
438,182,182677,2,0,P|364:254|312:261,1,160
249,326,183043,2,0,L|155:312,1,80
71,356,183288,1,0,0:0:0:0:
74,243,183410,1,0,0:0:0:0:
292,149,183898,5,0,0:0:0:0:
391,106,184142,1,0,0:0:0:0:
361,223,184386,1,0,0:0:0:0:
139,116,184630,5,0,0:0:0:0:
120,295,184752,1,0,0:0:0:0:
248,185,184874,2,0,L|411:122,1,160
353,269,185362,6,0,L|198:319,2,160
411,205,185973,2,0,P|415:165|401:108,1,80
333,254,186217,1,0,0:0:0:0:
292,80,186339,1,0,0:0:0:0:
199,279,186827,5,0,0:0:0:0:
145,95,187071,2,0,P|124:178|115:264,1,160
295,335,187566,5,0,0:0:0:0:
450,288,187690,1,0,0:0:0:0:
260,309,187814,2,0,P|187:278|127:203,1,160
195,94,188204,2,0,B|291:108|393:153|393:153|265:166|216:218,1,400
107,244,190253,6,0,L|73:331,1,80
33,203,190546,2,0,P|54:145|146:99,2,160
322,320,191872,2,0,P|243:326|171:293,1,160
252,156,193362,5,0,0:0:0:0:
