osu file format v14

[General]
AudioFilename: audio.mp3
AudioLeadIn: 0
PreviewTime: 31629
Countdown: 0
SampleSet: Soft
StackLeniency: 0.7
Mode: 0
LetterboxInBreaks: 0
WidescreenStoryboard: 1

[Editor]
Bookmarks: 4307,11165,18022,24879,31736,38593,45450,52307,59165,66022,72879,79736,86593,93450,100307,107165,114022,120879,127736,134593,141450
DistanceSpacing: 1.23
BeatDivisor: 4
GridSize: 4
TimelineZoom: 2.5

[Metadata]
Title:Koshki + Sobaki (Cut Ver.)
TitleUnicode:Кошки + Собаки (Cut Ver.)
Artist:The Paws Element
ArtistUnicode:The Paws Element
Creator:defreeyay
Version:Hard
Source:
Tags:плюс павс элемент Paw's Hewwo koshki+sobaki кошки+собаки cats plus dogs cats+dogs русский russian рок rock поп-панк панк-рок punk-rock поп панк pop-punk pop punk furries furry фурри short version aqilmanuar WashedUp Player
BeatmapID:3873749
BeatmapSetID:1860076

[Difficulty]
HPDrainRate:4.8
CircleSize:3.7
OverallDifficulty:6.5
ApproachRate:7.6
SliderMultiplier:1.6
SliderTickRate:1

[Events]
//Background and Video events
0,0,"bgdigi.jpg",0,0
//Break Periods
//Storyboard Layer 0 (Background)
//Storyboard Layer 1 (Fail)
//Storyboard Layer 2 (Pass)
//Storyboard Layer 3 (Foreground)
//Storyboard Layer 4 (Overlay)
//Storyboard Sound Samples

[TimingPoints]
879,428.571428571429,4,2,1,30,1,0
879,-100,4,2,1,55,0,0
28307,-105.263157894737,4,2,1,50,0,0
31736,-95.2380952380952,4,2,1,60,0,1
59164,-111.111111111111,4,2,1,50,0,0
72879,-105.263157894737,4,2,1,55,0,0
86593,-111.111111111111,4,2,1,50,0,0
100307,-105.263157894737,4,2,1,55,0,0
114021,-95.2380952380952,4,2,1,60,0,1
141450,-105.263157894737,4,2,1,50,0,0
143164,-105.263157894737,4,2,1,30,0,0
144879,-105.263157894737,4,2,1,10,0,0
146379,-105.263157894737,4,2,1,5,0,0

[Colours]
Combo1 : 219,85,56
Combo2 : 214,144,75
Combo3 : 218,210,165
Combo4 : 87,101,101

[HitObjects]
116,342,879,6,0,B|167:299|167:299|271:340,2,160,6|8|0,3:2|0:2|3:2,0:0:0:0:
43,278,1950,1,0,3:2:0:0:
93,196,2165,2,0,P|96:156|105:109,1,80,8|0,0:2|0:0,0:0:0:0:
172,47,2593,6,0,P|211:39|261:51,1,80,2|0,3:2|0:0,0:0:0:0:
290,133,3022,2,0,P|251:141|201:129,1,80,10|0,0:2|0:0,0:0:0:0:
175,222,3450,2,0,P|183:264|183:312,1,80,2|0,3:2|3:2,0:0:0:0:
255,365,3879,1,10,0:2:0:0:
343,329,4093,1,2,0:2:0:0:
433,288,4307,6,0,B|420:205|473:216|453:114,2,160,6|8|0,3:2|0:2|3:2,0:0:0:0:
355,345,5379,1,0,3:2:0:0:
278,287,5593,2,0,L|271:199,1,80,8|0,0:2|0:0,0:0:0:0:
202,135,6022,6,0,L|23:123,2,160,0|8|2,3:2|0:2|3:2,0:0:0:0:
287,92,7093,1,0,3:2:0:0:
210,34,7307,2,0,L|122:28,1,80,10|0,0:2|0:0,0:0:0:0:
287,92,7736,6,0,B|292:157|292:157|274:194|274:194|280:258,1,160,6|8,3:2|0:2,0:0:0:0:
265,342,8379,1,2,0:2:0:0:
265,342,8486,1,2,0:2:0:0:
265,342,8593,2,0,B|317:337|317:337|354:355|354:355|420:349,1,160,2|10,3:2|0:2,0:0:0:0:
490,283,9236,1,2,0:2:0:0:
430,203,9450,6,0,L|425:113,1,80,2|0,3:2|0:0,0:0:0:0:
363,49,9879,2,0,P|322:44|275:54,1,80,10|0,0:2|0:0,0:0:0:0:
230,130,10307,2,0,L|234:209,1,80,2|0,3:2|3:2,0:0:0:0:
289,288,10736,1,10,0:2:0:0:
232,365,10950,1,2,0:2:0:0:
142,321,11165,6,0,B|31:299|31:299|16:321|-8:339,2,160,6|8|0,3:2|0:2|3:2,0:0:0:0:
204,248,12236,1,0,3:2:0:0:
150,168,12450,2,0,P|153:121|159:77,1,80,8|0,0:2|0:0,0:0:0:0:
243,36,12879,6,0,B|354:14|354:14|369:36|393:54,2,160,2|8|2,3:2|0:2|3:2,0:0:0:0:
168,96,13950,1,0,3:2:0:0:
248,149,14165,2,0,L|331:154,1,80,10|0,0:2|0:0,0:0:0:0:
361,247,14593,6,0,L|197:235,1,160,6|8,3:2|0:2,0:0:0:0:
162,323,15236,1,2,0:2:0:0:
162,323,15343,1,2,0:2:0:0:
162,323,15450,2,0,L|321:334,1,160,2|10,3:2|0:2,0:0:0:0:
417,330,16093,1,2,0:2:0:0:
361,247,16307,6,0,L|281:241,1,80,2|0,3:2|0:0,0:0:0:0:
215,170,16736,2,0,L|132:175,1,80,10|0,0:2|0:0,0:0:0:0:
43,205,17165,2,0,L|62:41,1,160,2|8,3:2|0:2,0:0:0:0:
145,0,17807,1,2,0:2:0:0:
230,51,18022,6,0,B|324:81|293:17|402:59,2,160,6|8|0,3:2|0:2|3:2,0:0:0:0:
164,120,19093,1,0,3:2:0:0:
236,182,19307,2,0,L|316:193,1,80,8|0,0:2|0:0,0:0:0:0:
406,154,19736,6,0,B|415:184|410:221|410:221|420:244|420:244|415:277|424:313,2,160,0|8|2,3:2|0:2|3:2,0:0:0:0:
331,94,20807,1,0,3:2:0:0:
263,162,21022,2,0,P|265:201|270:252,1,80,10|0,0:2|0:0,0:0:0:0:
304,337,21450,6,0,B|231:329|231:329|192:354|139:337,1,160,6|8,3:2|0:2,0:0:0:0:
53,360,22093,1,2,0:2:0:0:
53,360,22200,1,2,0:2:0:0:
53,360,22307,2,0,B|61:287|61:287|36:248|53:195,1,160,2|10,3:2|0:2,0:0:0:0:
112,129,22950,1,2,0:2:0:0:
187,194,23165,6,0,P|266:218|338:182,1,160,2|8,3:2|0:2,0:0:0:0:
375,100,23807,1,0,0:0:0:0:
334,12,24022,2,0,P|271:58|254:135,1,160,2|10,3:2|0:2,0:0:0:0:
333,187,24665,1,2,0:2:0:0:
398,112,24879,6,0,P|460:158|477:235,2,160,6|8|0,3:2|0:2|3:2,0:0:0:0:
329,45,25950,1,0,3:2:0:0:
250,100,26165,2,0,L|163:89,1,80,8|0,0:2|0:0,0:0:0:0:
80,132,26593,6,0,B|90:190|67:236|80:319,1,160,2|10,3:2|0:2,0:0:0:0:
149,354,27236,2,0,L|228:364,1,80,2|0,0:2|3:2,0:0:0:0:
313,318,27665,1,2,3:2:0:0:
396,365,27879,2,0,L|406:285,1,80,10|2,0:2|0:2,0:0:0:0:
346,206,28307,6,0,P|272:219|196:184,2,151.999995941162,6|8|0,3:2|0:2|3:2,0:0:0:0:
434,183,29379,1,0,3:2:0:0:
479,261,29593,2,0,P|482:295|473:340,1,75.9999979705811,8|0,0:2|0:0,0:0:0:0:
380,361,30022,5,2,3:2:0:0:
380,361,30236,2,0,P|377:327|386:282,2,75.9999979705811,2|8|2,0:2|0:2|0:2,0:0:0:0:
290,340,30879,2,0,L|206:329,1,75.9999979705811,2|2,3:2|3:2,0:0:0:0:
124,339,31307,1,10,0:2:0:0:
65,268,31522,1,2,0:2:0:0:
88,170,31736,6,0,B|291:197,1,167.999994873047,6|10,3:2|0:2,0:0:0:0:
343,239,32379,1,2,3:2:0:0:
343,239,32486,1,0,3:2:0:0:
343,239,32593,1,2,3:2:0:0:
427,183,32807,2,0,P|434:138|430:97,1,83.9999974365235,2|8,3:2|0:2,0:0:0:0:
346,37,33236,6,0,L|243:41,1,83.9999974365235,2|0,3:2|3:2,0:0:0:0:
179,98,33665,1,2,0:2:0:0:
95,41,33879,1,10,0:2:0:0:
20,108,34093,2,0,P|16:149|23:191,1,83.9999974365235,2|0,0:2|3:2,0:0:0:0:
67,282,34522,2,0,L|161:269,1,83.9999974365235,2|8,3:2|0:2,0:0:0:0:
232,211,34950,1,0,0:0:0:0:
323,261,35165,6,0,P|333:167|344:86,1,167.999994873047,6|10,3:2|0:2,0:0:0:0:
425,36,35807,1,0,3:2:0:0:
494,109,36022,2,0,L|485:212,1,83.9999974365235,2|2,3:2|3:2,0:0:0:0:
418,266,36450,1,10,0:2:0:0:
464,359,36665,6,0,L|370:347,1,83.9999974365235,2|0,0:2|3:2,0:0:0:0:
300,287,37093,1,2,0:2:0:0:
213,338,37307,1,10,0:2:0:0:
139,269,37522,2,0,P|137:223|147:185,1,83.9999974365235,2|0,0:2|3:2,0:0:0:0:
206,105,37950,1,2,3:2:0:0:
129,38,38165,2,0,L|43:32,1,83.9999974365235,10|2,0:2|0:2,0:0:0:0:
206,105,38593,6,0,P|285:131|367:102,1,167.999994873047,4|8,3:2|0:2,0:0:0:0:
437,37,39236,1,2,3:2:0:0:
437,37,39343,1,0,3:2:0:0:
437,37,39450,1,0,3:2:0:0:
489,123,39665,1,0,3:2:0:0:
432,206,39879,2,0,P|435:248|441:300,1,83.9999974365235,8|0,0:2|0:0,0:0:0:0:
336,308,40307,5,2,3:2:0:0:
325,207,40522,1,2,0:2:0:0:
252,137,40736,1,10,0:2:0:0:
195,220,40951,2,0,L|204:314,1,83.9999974365235,2|0,0:2|3:2,0:0:0:0:
103,318,41379,2,0,L|85:139,1,167.999994873047,2|0,3:2|0:0,0:0:0:0:
68,49,42022,5,6,3:2:0:0:
157,95,42236,1,2,0:2:0:0:
236,33,42450,2,0,P|275:25|320:33,1,83.9999974365235,10|0,0:2|3:2,0:0:0:0:
398,93,42879,2,0,L|402:176,1,83.9999974365235,2|0,3:2|3:2,0:0:0:0:
330,247,43307,1,10,0:2:0:0:
237,195,43522,6,0,L|243:297,1,83.9999974365235,2|0,0:2|3:2,0:0:0:0:
311,351,43950,1,2,0:2:0:0:
402,307,44165,1,10,0:2:0:0:
489,356,44379,2,0,P|497:313|493:272,1,83.9999974365235,2|0,0:2|3:2,0:0:0:0:
446,184,44807,2,0,P|408:186|357:171,1,83.9999974365235,2|8,3:2|0:2,0:0:0:0:
279,118,45236,1,0,0:0:0:0:
199,182,45450,6,0,B|155:187|122:156|122:156|85:184|41:178,1,167.999994873047,2|10,3:2|0:2,0:0:0:0:
3,271,46093,1,2,3:2:0:0:
3,271,46200,1,0,3:2:0:0:
3,271,46307,1,2,3:2:0:0:
74,343,46522,2,0,P|116:349|166:334,1,83.9999974365235,2|8,3:2|0:2,0:0:0:0:
240,280,46950,6,0,L|249:372,1,83.9999974365235,2|0,0:2|3:2,0:0:0:0:
347,383,47379,1,2,0:2:0:0:
409,304,47593,1,10,0:2:0:0:
350,221,47807,2,0,L|341:137,1,83.9999974365235,2|0,0:2|3:2,0:0:0:0:
261,76,48236,2,0,P|221:71|179:85,1,83.9999974365235,2|8,3:2|0:2,0:0:0:0:
100,145,48664,1,0,0:0:0:0:
175,220,48879,5,6,3:2:0:0:
256,161,49093,1,2,0:2:0:0:
345,207,49307,2,0,L|428:216,1,83.9999974365235,10|0,0:2|3:2,0:0:0:0:
510,275,49736,1,2,3:2:0:0:
438,345,49950,2,0,L|354:354,1,83.9999974365235,2|8,3:2|0:2,0:0:0:0:
250,343,50379,6,0,B|155:307|175:374|86:348,1,167.999994873047,2|2,0:2|0:2,0:0:0:0:
9,285,51021,1,10,0:2:0:0:
60,197,51236,2,0,P|67:145|72:94,1,83.9999974365235,2|0,0:2|3:2,0:0:0:0:
134,36,51664,1,2,3:2:0:0:
215,96,51879,2,0,P|259:100|301:89,1,83.9999974365235,10|2,0:2|0:2,0:0:0:0:
395,52,52307,6,0,B|420:139|353:119|389:214,1,167.999994873047,0|8,3:2|0:2,0:0:0:0:
435,303,52950,1,2,3:2:0:0:
435,303,53057,1,0,3:2:0:0:
435,303,53164,1,0,3:2:0:0:
359,369,53379,1,0,3:2:0:0:
278,309,53593,2,0,L|271:214,1,83.9999974365235,10|2,0:2|0:2,0:0:0:0:
342,150,54022,5,2,3:2:0:0:
345,49,54236,1,2,0:2:0:0:
249,17,54450,1,10,0:2:0:0:
171,81,54665,2,0,P|160:121|165:162,1,83.9999974365235,2|0,0:2|3:2,0:0:0:0:
215,250,55093,2,0,P|292:240|386:234,1,167.999994873047,2|0,3:2|0:0,0:0:0:0:
470,289,55736,5,6,3:2:0:0:
414,373,55950,1,2,0:2:0:0:
321,333,56165,2,0,L|220:345,1,83.9999974365235,10|2,0:2|3:2,0:0:0:0:
195,347,56486,1,0,3:2:0:0:
195,347,56593,1,0,3:2:0:0:
119,280,56807,1,2,3:2:0:0:
171,193,57022,2,0,L|254:202,1,83.9999974365235,10|2,0:2|0:2,0:0:0:0:
351,241,57450,6,0,L|372:59,2,167.999994873047,0|8|0,3:2|0:2|3:2,0:0:0:0:
275,312,58522,1,8,0:2:0:0:
214,228,58736,2,0,L|226:129,1,83.9999974365235,8|0,0:2|0:0,0:0:0:0:
164,56,59165,6,0,B|75:67|75:67|66:94|42:120,1,143.999995605469,4|10,3:2|0:2,0:0:0:0:
73,195,59807,1,2,0:2:0:0:
73,195,60022,2,0,L|63:283,1,71.9999978027344,2|2,3:2|3:2,0:0:0:0:
103,343,60450,2,0,P|143:346|176:336,1,71.9999978027344,10|2,0:2|0:2,0:0:0:0:
240,279,60879,5,2,3:2:0:0:
187,210,61093,2,0,L|195:138,1,71.9999978027344,2|8,0:2|0:2,0:0:0:0:
259,80,61522,1,0,0:0:0:0:
259,80,61736,2,0,P|299:83|331:80,1,71.9999978027344,0|0,3:2|3:2,0:0:0:0:
412,52,62165,2,0,L|420:136,1,71.9999978027344,8|0,0:2|0:0,0:0:0:0:
469,196,62593,5,2,3:2:0:0:
424,269,62807,2,0,P|387:273|349:263,1,71.9999978027344,2|8,0:2|0:2,0:0:0:0:
301,195,63236,2,0,P|279:225|268:262,1,71.9999978027344,2|0,0:2|3:2,0:0:0:0:
298,339,63665,2,0,L|223:333,1,71.9999978027344,2|8,3:2|0:2,0:0:0:0:
164,272,64093,1,2,0:2:0:0:
85,314,64307,6,0,B|57:280|57:280|77:160,2,143.999995605469,0|8|0,3:2|0:2|3:2,0:0:0:0:
149,372,65379,1,0,3:2:0:0:
226,333,65593,2,0,L|297:338,1,71.9999978027344,8|0,0:2|0:0,0:0:0:0:
379,376,66022,6,0,B|407:342|407:342|387:222,1,143.999995605469,4|10,3:2|0:2,0:0:0:0:
404,157,66665,1,2,0:2:0:0:
404,157,66879,2,0,L|395:75,1,71.9999978027344,2|0,3:2|3:2,0:0:0:0:
312,63,67307,2,0,L|317:134,1,71.9999978027344,10|0,0:2|0:0,0:0:0:0:
232,165,67736,5,2,3:2:0:0:
161,115,67950,2,0,P|119:105|76:114,1,71.9999978027344,2|8,0:2|0:2,0:0:0:0:
83,195,68379,2,0,P|125:205|168:196,1,71.9999978027344,2|0,0:2|3:2,0:0:0:0:
232,165,68807,2,0,B|258:209|212:250|250:317,1,143.999995605469,2|0,3:2|0:0,0:0:0:0:
172,358,69450,6,0,P|136:361|101:351,1,71.9999978027344,2|0,3:2|0:0,0:0:0:0:
55,278,69879,2,0,P|51:242|61:207,1,71.9999978027344,10|0,0:2|0:0,0:0:0:0:
120,145,70307,2,0,L|115:61,1,71.9999978027344,2|0,3:2|3:2,0:0:0:0:
185,21,70736,1,10,0:2:0:0:
255,70,70950,1,2,0:2:0:0:
330,22,71165,6,0,B|404:12|369:139,1,143.999995605469,0|8,3:2|0:2,0:0:0:0:
319,200,71807,1,2,0:2:0:0:
367,271,72022,2,0,L|376:358,1,71.9999978027344,0|0,3:2|3:2,0:0:0:0:
298,383,72450,2,0,L|247:375,3,35.9999989013672,8|8|8|8,0:2|0:2|0:2|0:2,0:0:0:0:
227,365,72879,6,0,P|209:287|234:218,1,151.999995941162,4|10,3:2|0:2,0:0:0:0:
306,167,73522,1,2,0:2:0:0:
384,213,73736,2,0,L|466:205,1,75.9999979705811,2|2,3:2|3:2,0:0:0:0:
455,114,74165,2,0,L|379:121,1,75.9999979705811,10|2,0:2|0:2,0:0:0:0:
301,69,74593,5,2,3:2:0:0:
224,117,74807,2,0,P|184:118|148:109,1,75.9999979705811,2|8,0:2|0:2,0:0:0:0:
73,58,75236,1,0,0:0:0:0:
73,58,75450,2,0,P|61:92|62:142,1,75.9999979705811,0|0,3:2|3:2,0:0:0:0:
129,191,75879,2,0,P|128:228|116:264,1,75.9999979705811,8|0,0:2|0:0,0:0:0:0:
46,327,76307,5,6,3:2:0:0:
121,377,76521,2,0,L|221:367,1,75.9999979705811,2|8,0:2|0:2,0:0:0:0:
269,314,76950,2,0,P|256:278|256:240,1,75.9999979705811,2|0,0:2|3:2,0:0:0:0:
213,159,77379,2,0,L|313:149,1,75.9999979705811,2|8,3:2|0:2,0:0:0:0:
370,191,77807,1,2,0:2:0:0:
455,149,78022,6,0,B|449:83|449:83|441:65|441:65|435:-7,2,151.999995941162,0|8|0,3:2|0:2|3:2,0:0:0:0:
385,207,79093,1,0,3:2:0:0:
448,272,79307,2,0,P|453:312|459:357,1,75.9999979705811,8|0,0:2|0:0,0:0:0:0:
365,307,79736,6,0,B|335:305|312:299|312:299|270:314|270:314|243:304|214:306,1,151.999995941162,4|10,3:2|0:2,0:0:0:0:
137,260,80379,1,2,0:2:0:0:
58,305,80593,2,0,L|52:221,1,75.9999979705811,2|0,3:2|3:2,0:0:0:0:
103,153,81022,2,0,P|141:146|185:158,1,75.9999979705811,10|0,0:2|0:0,0:0:0:0:
251,211,81450,5,2,3:2:0:0:
330,166,81665,2,0,L|338:242,1,75.9999979705811,2|8,0:2|0:2,0:0:0:0:
428,234,82093,2,0,L|420:158,1,75.9999979705811,2|0,0:2|3:2,0:0:0:0:
438,68,82522,2,0,P|362:80|286:73,1,151.999995941162,2|0,3:2|0:0,0:0:0:0:
196,45,83165,6,0,L|190:127,1,75.9999979705811,6|0,3:2|0:0,0:0:0:0:
248,191,83593,2,0,L|242:273,1,75.9999979705811,10|0,0:2|0:0,0:0:0:0:
173,326,84022,1,2,3:2:0:0:
108,261,84236,2,0,L|102:185,1,75.9999979705811,2|8,3:2|0:2,0:0:0:0:
165,118,84665,1,2,0:2:0:0:
120,35,84879,6,0,P|195:22|271:29,1,151.999995941162,0|8,3:2|0:2,0:0:0:0:
334,93,85522,2,0,P|333:129|339:189,1,75.9999979705811,2|0,0:2|0:0,0:0:0:0:
398,237,85950,1,8,0:2:0:0:
338,309,86165,1,8,0:2:0:0:
264,248,86379,1,0,3:2:0:0:
264,248,86486,1,0,3:2:0:0:
264,248,86593,6,0,B|193:258|193:258|124:234,1,143.999995605469,4|10,3:2|0:2,0:0:0:0:
57,179,87236,1,2,0:2:0:0:
108,109,87450,2,0,L|118:23,1,71.9999978027344,2|2,3:2|3:2,0:0:0:0:
201,51,87879,2,0,L|192:122,1,71.9999978027344,10|2,0:2|0:2,0:0:0:0:
279,142,88307,6,0,L|293:32,2,107.999996704102,2|2|0,3:2|0:2|0:0,0:0:0:0:
327,214,89165,2,0,L|404:221,1,71.9999978027344,0|0,3:2|3:2,0:0:0:0:
478,254,89593,2,0,P|481:292|474:340,1,71.9999978027344,8|2,0:2|0:2,0:0:0:0:
392,355,90022,6,0,L|320:348,1,71.9999978027344,2|0,3:2|0:0,0:0:0:0:
253,293,90450,1,10,0:2:0:0:
176,334,90665,2,0,P|140:327|106:330,1,71.9999978027344,2|0,0:2|3:2,0:0:0:0:
38,275,91093,2,0,P|45:235|40:191,1,71.9999978027344,2|8,3:2|0:2,0:0:0:0:
109,148,91522,1,2,0:2:0:0:
190,186,91736,6,0,B|248:181|248:181|276:194|276:194|333:190,2,143.999995605469,0|8|0,3:2|0:2|3:2,0:0:0:0:
124,130,92807,1,0,3:2:0:0:
175,60,93022,2,0,P|214:66|247:60,1,71.9999978027344,8|0,0:2|0:0,0:0:0:0:
327,19,93450,6,0,P|401:12|456:55,1,143.999995605469,4|10,3:2|0:2,0:0:0:0:
441,137,94093,1,2,0:2:0:0:
441,137,94307,2,0,L|447:211,1,71.9999978027344,2|0,3:2|3:2,0:0:0:0:
365,238,94736,2,0,L|359:166,1,71.9999978027344,10|0,0:2|0:0,0:0:0:0:
276,130,95165,5,2,3:2:0:0:
203,176,95379,2,0,P|167:181|128:169,1,71.9999978027344,2|8,0:2|0:2,0:0:0:0:
58,215,95807,2,0,P|69:249|64:290,1,71.9999978027344,2|0,0:2|3:2,0:0:0:0:
118,353,96236,2,0,B|154:356|190:344|190:344|234:355|276:341,1,143.999995605469,2|0,3:2|0:0,0:0:0:0:
349,368,96879,6,0,L|342:288,1,71.9999978027344,2|0,3:2|0:0,0:0:0:0:
414,248,97307,2,0,L|421:168,1,71.9999978027344,10|0,0:2|0:0,0:0:0:0:
375,101,97736,1,2,3:2:0:0:
294,132,97950,2,0,P|256:135|215:120,1,71.9999978027344,2|8,3:2|0:2,0:0:0:0:
154,73,98379,1,2,0:2:0:0:
80,125,98593,6,0,B|49:173|49:173|92:276,1,143.999995605469,0|8,3:2|0:2,0:0:0:0:
144,313,99236,2,0,L|218:308,1,71.9999978027344,2|0,0:2|3:2,0:0:0:0:
285,256,99664,1,0,3:2:0:0:
249,176,99879,2,0,L|257:125,3,35.9999989013672,8|8|8|8,0:2|0:2|0:2|0:2,0:0:0:0:
267,105,100307,6,0,B|356:75|337:133|426:109,1,151.999995941162,4|10,3:2|0:2,0:0:0:0:
494,156,100950,1,2,0:2:0:0:
459,240,101165,2,0,P|423:252|385:249,1,75.9999979705811,2|2,3:2|3:2,0:0:0:0:
307,296,101593,2,0,P|303:333|313:370,1,75.9999979705811,10|2,0:2|0:2,0:0:0:0:
219,378,102022,5,2,3:2:0:0:
152,316,102236,2,0,L|71:310,1,75.9999979705811,2|8,0:2|0:2,0:0:0:0:
11,246,102665,1,0,0:0:0:0:
11,246,102879,2,0,P|9:201|22:165,1,75.9999979705811,0|0,3:2|3:2,0:0:0:0:
85,109,103307,2,0,P|125:104|162:114,1,75.9999979705811,8|0,0:2|0:0,0:0:0:0:
246,149,103736,6,0,L|252:64,1,75.9999979705811,6|0,3:2|0:0,0:0:0:0:
325,19,104165,1,10,0:2:0:0:
393,78,104379,2,0,L|387:153,1,75.9999979705811,2|0,0:2|3:2,0:0:0:0:
413,241,104807,2,0,P|370:242|338:229,1,75.9999979705811,2|8,3:2|0:2,0:0:0:0:
266,174,105236,1,2,0:2:0:0:
184,221,105450,6,0,B|117:216|117:216|108:211|108:211|21:205,2,151.999995941162,0|8|0,3:2|0:2|3:2,0:0:0:0:
233,298,106522,1,2,3:2:0:0:
163,356,106736,2,0,L|74:350,1,75.9999979705811,10|2,0:2|0:2,0:0:0:0:
233,298,107165,6,0,B|300:293|300:293|309:288|309:288|396:282,1,151.999995941162,4|8,3:2|0:2,0:0:0:0:
453,225,107807,2,0,L|457:144,1,75.9999979705811,2|0,0:2|3:2,0:0:0:0:
390,85,108236,1,2,3:2:0:0:
315,136,108450,1,10,0:2:0:0:
235,83,108665,6,0,L|148:75,1,75.9999979705811,2|0,0:2|3:2,0:0:0:0:
84,128,109093,2,0,P|105:159|114:195,1,75.9999979705811,2|8,0:2|0:2,0:0:0:0:
91,284,109522,2,0,P|128:288|164:277,1,75.9999979705811,2|0,0:2|3:2,0:0:0:0:
251,303,109950,2,0,P|261:200|275:141,1,151.999995941162,2|0,3:2|0:0,0:0:0:0:
365,128,110593,6,0,L|372:206,1,75.9999979705811,6|0,3:2|0:0,0:0:0:0:
453,244,111022,2,0,L|460:322,1,75.9999979705811,10|0,0:2|0:0,0:0:0:0:
391,379,111450,1,2,3:2:0:0:
324,310,111665,2,0,P|288:299|236:308,1,75.9999979705811,2|8,3:2|0:2,0:0:0:0:
178,358,112093,1,2,0:2:0:0:
102,299,112307,6,0,P|74:237|97:153,1,151.999995941162,0|10,3:2|0:2,0:0:0:0:
158,94,112950,2,0,L|235:102,1,75.9999979705811,2|0,0:2|0:0,0:0:0:0:
325,83,113379,1,8,0:2:0:0:
371,163,113593,1,8,0:2:0:0:
309,236,113807,1,0,3:2:0:0:
309,236,113915,1,0,3:2:0:0:
309,236,114022,6,0,P|400:255|456:207,1,167.999994873047,6|10,3:2|0:2,0:0:0:0:
444,108,114665,1,2,3:2:0:0:
444,108,114772,1,0,3:2:0:0:
444,108,114879,1,2,3:2:0:0:
347,72,115093,2,0,L|264:81,1,83.9999974365235,2|8,3:2|0:2,0:0:0:0:
160,52,115522,6,0,P|171:87|171:135,1,83.9999974365235,2|0,3:2|3:2,0:0:0:0:
119,223,115950,1,2,0:2:0:0:
38,157,116165,1,10,0:2:0:0:
1,253,116379,2,0,L|11:341,1,83.9999974365235,2|0,0:2|3:2,0:0:0:0:
102,383,116807,2,0,L|111:299,1,83.9999974365235,2|8,3:2|0:2,0:0:0:0:
194,237,117236,1,0,0:0:0:0:
273,311,117450,6,0,B|305:299|314:271|314:271|295:161,1,167.999994873047,6|10,3:2|0:2,0:0:0:0:
222,90,118093,1,0,3:2:0:0:
278,2,118308,2,0,P|322:-4|376:10,1,83.9999974365235,2|2,3:2|3:2,0:0:0:0:
429,80,118736,1,10,0:2:0:0:
379,174,118951,6,0,L|285:162,1,83.9999974365235,2|0,0:2|3:2,0:0:0:0:
215,228,119379,1,2,0:2:0:0:
128,171,119593,1,10,0:2:0:0:
55,244,119808,2,0,P|53:286|73:336,1,83.9999974365235,2|0,0:2|3:2,0:0:0:0:
152,381,120236,1,2,3:2:0:0:
229,310,120451,2,0,L|212:212,1,83.9999974365235,10|2,0:2|0:2,0:0:0:0:
226,119,120879,6,0,B|321:84|300:151|389:126,1,167.999994873047,4|8,3:2|0:2,0:0:0:0:
458,203,121522,1,2,3:2:0:0:
458,203,121629,1,0,3:2:0:0:
458,203,121736,1,0,3:2:0:0:
388,280,121951,1,0,3:2:0:0:
433,372,122165,2,0,L|341:365,1,83.9999974365235,8|0,0:2|0:0,0:0:0:0:
246,372,122593,5,2,3:2:0:0:
223,273,122807,1,2,0:2:0:0:
308,218,123022,1,10,0:2:0:0:
388,280,123236,2,0,P|393:238|396:196,1,83.9999974365235,2|0,0:2|3:2,0:0:0:0:
338,113,123665,2,0,B|242:78|263:145|174:120,1,167.999994873047,2|0,3:2|0:0,0:0:0:0:
84,172,124308,5,6,3:2:0:0:
151,249,124522,1,2,0:2:0:0:
100,339,124736,2,0,L|186:347,1,83.9999974365235,10|0,0:2|3:2,0:0:0:0:
280,382,125165,2,0,P|280:338|290:296,1,83.9999974365235,2|0,3:2|3:2,0:0:0:0:
353,218,125593,1,10,0:2:0:0:
429,295,125807,6,0,L|517:282,1,83.9999974365235,2|0,0:2|3:2,0:0:0:0:
455,196,126236,1,2,0:2:0:0:
353,218,126451,1,10,0:2:0:0:
327,318,126665,2,0,L|239:305,1,83.9999974365235,2|0,0:2|3:2,0:0:0:0:
164,240,127093,2,0,L|80:252,1,83.9999974365235,2|8,3:2|0:2,0:0:0:0:
8,177,127522,1,0,0:0:0:0:
88,106,127736,6,0,B|138:102|138:102|171:85|171:85|208:101|208:101|265:97,1,167.999994873047,2|10,3:2|0:2,0:0:0:0:
343,139,128379,1,2,3:2:0:0:
343,139,128486,1,0,3:2:0:0:
343,139,128593,1,2,3:2:0:0:
431,85,128808,2,0,P|445:125|442:168,1,83.9999974365235,2|8,3:2|0:2,0:0:0:0:
382,256,129236,6,0,L|299:246,1,83.9999974365235,2|0,0:2|3:2,0:0:0:0:
219,179,129665,1,2,0:2:0:0:
129,229,129879,1,10,0:2:0:0:
44,169,130093,2,0,P|30:209|33:252,1,83.9999974365235,2|0,0:2|3:2,0:0:0:0:
57,350,130522,2,0,L|146:360,1,83.9999974365235,2|8,3:2|0:2,0:0:0:0:
215,288,130950,1,0,0:0:0:0:
302,351,131165,5,6,3:2:0:0:
372,275,131379,1,2,0:2:0:0:
470,306,131593,2,0,L|458:220,1,83.9999974365235,10|0,0:2|3:2,0:0:0:0:
402,135,132022,1,2,3:2:0:0:
307,176,132236,2,0,P|265:179|219:161,1,83.9999974365235,2|8,3:2|0:2,0:0:0:0:
153,86,132665,6,0,B|115:139|115:139|147:239,1,167.999994873047,2|2,0:2|0:2,0:0:0:0:
224,303,133307,1,10,0:2:0:0:
315,260,133522,2,0,L|307:171,1,83.9999974365235,2|0,0:2|3:2,0:0:0:0:
252,88,133950,1,2,3:2:0:0:
328,18,134165,2,0,P|370:13|421:30,1,83.9999974365235,10|2,0:2|0:2,0:0:0:0:
477,111,134593,6,0,B|515:164|515:164|483:264,1,167.999994873047,0|8,3:2|0:2,0:0:0:0:
420,344,135236,1,2,3:2:0:0:
420,344,135343,1,0,3:2:0:0:
420,344,135450,1,0,3:2:0:0:
336,283,135665,1,0,3:2:0:0:
256,348,135879,2,0,L|155:338,1,83.9999974365235,10|2,0:2|0:2,0:0:0:0:
69,371,136307,5,2,3:2:0:0:
94,273,136522,1,2,0:2:0:0:
28,195,136736,1,10,0:2:0:0:
97,118,136950,2,0,P|142:109|179:119,1,83.9999974365235,2|0,0:2|3:2,0:0:0:0:
261,179,137379,2,0,L|274:8,1,167.999994873047,2|0,3:2|0:0,0:0:0:0:
368,69,138022,5,6,3:2:0:0:
458,18,138236,1,2,0:2:0:0:
510,107,138451,2,0,P|517:145|504:195,1,83.9999974365235,10|2,0:2|3:2,0:0:0:0:
488,226,138772,1,0,3:2:0:0:
488,226,138879,1,0,3:2:0:0:
401,170,139093,1,2,3:2:0:0:
346,258,139308,2,0,L|247:248,1,83.9999974365235,10|2,0:2|0:2,0:0:0:0:
166,200,139736,6,0,L|148:368,2,167.999994873047,0|8|0,3:2|0:2|3:2,0:0:0:0:
116,107,140807,1,8,0:2:0:0:
182,23,141022,2,0,L|85:13,1,83.9999974365235,10|0,0:2|0:0,0:0:0:0:
14,78,141450,5,2,0:2:0:0:
256,192,141557,12,0,146379,0:0:0:0:
