osu file format v14

[General]
AudioFilename: audio.ogg
AudioLeadIn: 0
PreviewTime: 73834
Countdown: 0
SampleSet: Soft
StackLeniency: 0.7
Mode: 0
LetterboxInBreaks: 0
WidescreenStoryboard: 1

[Editor]
DistanceSpacing: 1
BeatDivisor: 4
GridSize: 4
TimelineZoom: 1.16

[Metadata]
Title:Fruktovaya zhvachka (Cut Ver.)
TitleUnicode:Фруктовая жвачка (Cut Ver.)
Artist:The Paws Element
ArtistUnicode:The Paws Element
Creator:defreeyay
Version:aqilmanuar's Normal
Source:
Tags:павс элемент Paw's fruit fruity chewing gum gay lgbt pride dog doggy retrowave ретровейв retro ретро поп-панк панк pop-punk punk русский поп russian pop фурри собака собачка furries furry short version aqilmanuar
BeatmapID:3514366
BeatmapSetID:1559802

[Difficulty]
HPDrainRate:2.5
CircleSize:3.4
OverallDifficulty:3
ApproachRate:4.5
SliderMultiplier:1.6
SliderTickRate:1

[Events]
//Background and Video events
0,0,"bgpride.jpg",0,0
//Break Periods
//Storyboard Layer 0 (Background)
//Storyboard Layer 1 (Fail)
//Storyboard Layer 2 (Pass)
//Storyboard Layer 3 (Foreground)
//Storyboard Layer 4 (Overlay)
//Storyboard Sound Samples

[TimingPoints]
85,588.235294117647,4,2,1,30,1,0
18614,-100,4,2,1,5,0,0
18908,-100,4,2,1,60,0,0
23173,-100,4,2,1,35,0,0
23614,-100,4,2,1,60,0,0
32584,-100,4,2,1,35,0,0
33026,-100,4,2,1,60,0,0
37732,-100,4,2,1,65,0,0
41996,-100,4,2,1,40,0,0
42437,-100,4,2,1,65,0,0
51408,-100,4,2,1,40,0,0
51849,-100,4,2,1,65,0,0
60820,-100,4,2,1,40,0,0
61261,-100,4,2,1,65,0,0
70232,-100,4,2,1,40,0,0
70673,-100,4,2,1,65,0,0
75379,-90.9090909090909,4,2,1,70,0,1
113026,-90.9090909090909,4,2,1,30,0,0

[Colours]
Combo1 : 98,90,186
Combo2 : 120,78,178
Combo3 : 186,113,217
Combo4 : 53,46,141

[HitObjects]
18,26,18908,6,0,L|44:191,1,160,4|10,3:2|0:2,0:0:0:0:
119,208,19790,2,0,L|146:28,1,160,2|0,1:2|1:2,0:0:0:0:
217,19,20673,1,8,0:2:0:0:
327,134,21261,6,0,P|408:147|482:104,1,160,0|10,3:2|0:2,0:0:0:0:
459,33,22143,2,0,P|375:21|301:64,1,160,2|2,1:2|1:2,0:0:0:0:
250,107,23026,1,10,0:2:0:0:
175,78,23320,1,10,0:2:0:0:
107,120,23614,6,0,L|135:302,1,160,2|10,3:2|0:2,0:0:0:0:
178,342,24496,2,0,L|203:183,1,160,2|0,1:2|1:2,0:0:0:0:
255,123,25379,1,8,0:2:0:0:
410,159,25967,6,0,P|453:223|432:298,1,160,0|10,3:2|0:2,0:0:0:0:
375,355,26849,2,0,L|195:328,1,160,2|0,1:2|1:2,0:0:0:0:
145,367,27732,2,0,P|106:344|68:319,1,80,8|0,0:2|0:0,0:0:0:0:
84,245,28320,6,0,B|58:169|58:169|100:102,1,160,2|10,3:2|0:2,0:0:0:0:
164,51,29202,2,0,P|224:104|300:90,1,160,2|0,1:2|1:2,0:0:0:0:
369,55,30084,1,10,0:2:0:0:
396,130,30378,1,2,3:2:0:0:
338,185,30673,6,0,L|361:343,1,160,2|10,3:2|0:2,0:0:0:0:
439,330,31555,2,0,L|462:172,1,160,2|0,1:2|1:2,0:0:0:0:
396,130,32437,1,8,0:2:0:0:
252,203,33026,6,0,L|86:176,1,160,2|10,3:2|0:2,0:0:0:0:
29,130,33908,2,0,L|195:103,1,160,2|0,1:2|1:2,0:0:0:0:
235,40,34790,1,10,0:2:0:0:
313,53,35084,1,2,0:2:0:0:
356,120,35379,6,0,L|434:106,1,80,2|2,3:2|0:2,0:0:0:0:
462,181,35967,1,8,0:2:0:0:
399,230,36261,2,0,L|292:210,1,80,2|2,1:2|0:2,0:0:0:0:
241,204,36849,1,0,1:2:0:0:
173,247,37143,1,8,0:2:0:0:
33,179,37732,5,0,3:2:0:0:
33,179,38026,2,0,L|49:81,1,80,2|10,0:2|0:2,0:0:0:0:
89,34,38614,2,0,L|121:214,1,160,2|2,1:2|1:2,0:0:0:0:
79,262,39496,1,8,0:2:0:0:
149,299,39790,6,0,P|209:246|285:260,1,160,0|2,0:0|0:2,0:0:0:0:
327,324,40673,1,10,0:2:0:0:
403,300,40967,2,0,P|414:223|362:166,1,160,2|2,1:2|1:2,0:0:0:0:
292,126,41849,1,10,0:2:0:0:
352,73,42143,1,10,0:2:0:0:
286,37,42437,5,2,3:2:0:0:
286,37,42732,2,0,L|207:50,1,80,2|10,0:2|0:2,0:0:0:0:
135,15,43320,2,0,L|103:195,1,160,2|2,1:2|1:2,0:0:0:0:
43,221,44202,1,8,0:2:0:0:
86,289,44496,6,0,B|164:315|164:315|227:270,1,160,0|2,0:0|0:2,0:0:0:0:
183,202,45379,1,10,0:2:0:0:
252,162,45673,2,0,L|409:191,1,160,2|2,1:2|1:2,0:0:0:0:
478,231,46555,2,0,P|503:197|503:158,1,80,10|2,0:2|0:2,0:0:0:0:
445,113,47143,5,2,3:2:0:0:
445,113,47437,2,0,L|427:27,1,80,2|10,0:2|0:2,0:0:0:0:
352,10,48026,2,0,L|323:167,1,160,2|2,1:2|1:2,0:0:0:0:
284,237,48908,1,8,0:2:0:0:
215,198,49202,6,0,P|157:145|81:157,1,160,0|2,3:2|0:2,0:0:0:0:
34,221,50084,1,10,0:2:0:0:
62,295,50379,2,0,L|219:324,1,160,2|2,1:2|1:2,0:0:0:0:
262,256,51261,1,10,0:2:0:0:
321,309,51555,1,10,0:2:0:0:
356,237,51849,1,2,3:2:0:0:
507,186,52437,5,10,0:2:0:0:
471,114,52732,1,2,1:2:0:0:
391,108,53026,2,0,L|374:29,1,80,2|2,3:2|1:2,0:0:0:0:
301,63,53614,2,0,L|284:142,1,80,10|2,0:2|0:2,0:0:0:0:
238,206,54202,1,2,3:2:0:0:
172,60,54790,6,0,B|113:44|113:44|106:47|106:47|56:35,2,120,10|2|2,0:2|0:2|1:2,0:0:0:0:
160,139,55967,1,10,0:2:0:0:
63,267,56555,5,6,3:2:0:0:
63,267,56849,2,0,P|96:287|135:284,1,80,2|10,0:2|0:2,0:0:0:0:
184,222,57437,2,0,P|235:199|320:256,1,160,2|2,1:2|1:2,0:0:0:0:
354,320,58320,1,8,0:2:0:0:
429,294,58614,6,0,L|458:137,1,160,0|2,0:0|0:2,0:0:0:0:
498,67,59496,1,10,0:2:0:0:
429,25,59790,2,0,L|271:53,1,160,2|2,1:2|1:2,0:0:0:0:
192,65,60673,1,10,0:2:0:0:
122,25,60967,1,10,0:2:0:0:
81,95,61261,5,2,3:2:0:0:
81,95,61555,2,0,L|97:173,1,80,2|10,0:2|0:2,0:0:0:0:
43,232,62143,2,0,B|103:283|103:283|182:266,1,160,2|2,1:2|1:2,0:0:0:0:
212,191,63026,1,8,0:2:0:0:
270,245,63320,6,0,B|362:218|362:218|444:288,1,160,0|2,0:0|0:2,0:0:0:0:
466,317,64202,1,10,0:2:0:0:
508,252,64496,2,0,L|479:94,1,160,2|2,1:2|1:2,0:0:0:0:
406,60,65379,2,0,L|388:145,1,80,10|2,0:2|0:2,0:0:0:0:
323,181,65967,5,2,3:2:0:0:
323,181,66261,2,0,P|284:184|247:155,1,80,2|10,0:2|0:2,0:0:0:0:
206,95,66849,2,0,P|131:85|77:146,1,160,2|2,1:2|1:2,0:0:0:0:
47,217,67732,1,8,0:2:0:0:
100,276,68026,6,0,L|258:304,1,160,0|2,3:2|0:2,0:0:0:0:
335,321,68908,1,10,0:2:0:0:
392,265,69202,2,0,P|346:205|370:128,1,160,2|2,1:2|1:2,0:0:0:0:
441,96,70084,1,10,0:2:0:0:
388,35,70379,1,10,0:2:0:0:
315,68,70673,1,2,3:2:0:0:
160,26,71261,5,10,0:2:0:0:
80,30,71555,1,0,1:2:0:0:
40,100,71849,2,0,P|37:139|60:171,1,80,2|0,3:2|1:2,0:0:0:0:
134,198,72437,2,0,P|136:237|113:269,1,80,10|2,0:2|0:2,0:0:0:0:
46,314,73026,6,0,P|122:305|174:362,1,160,2|8,3:2|0:2,0:0:0:0:
329,325,74202,1,2,0:2:0:0:
277,173,74790,1,10,0:2:0:0:
218,6,75379,6,0,L|187:180,1,176.000005371094,6|10,3:2|0:2,0:0:0:0:
175,272,76261,1,2,0:2:0:0:
98,314,76555,2,0,L|67:140,1,176.000005371094,2|8,1:2|0:2,0:0:0:0:
113,65,77437,1,2,0:2:0:0:
189,108,77732,6,0,P|272:121|330:59,1,176.000005371094,2|10,3:2|0:2,0:0:0:0:
405,12,78614,1,2,0:2:0:0:
462,78,78908,2,0,L|450:165,1,88.000002685547,2|2,1:2|0:2,0:0:0:0:
383,222,79496,2,0,L|394:309,1,88.000002685547,10|2,0:2|0:2,0:0:0:0:
315,349,80084,6,0,P|231:365|173:300,1,176.000005371094,2|10,3:2|0:2,0:0:0:0:
259,280,80967,1,2,0:2:0:0:
197,216,81261,2,0,P|189:173|209:134,1,88.000002685547,2|2,1:2|0:2,0:0:0:0:
259,62,81849,1,10,0:2:0:0:
337,103,82143,1,2,0:2:0:0:
408,52,82437,6,0,L|439:226,1,176.000005371094,2|8,3:2|0:2,0:0:0:0:
457,311,83320,1,2,0:2:0:0:
373,284,83614,2,0,B|290:252|290:252|222:306,1,176.000005371094,2|10,1:2|0:2,0:0:0:0:
143,346,84496,2,0,L|100:338,1,44.0000013427735,8|8,0:2|0:2,0:0:0:0:
56,328,84790,6,0,P|117:270|104:186,1,176.000005371094,6|10,3:2|0:2,0:0:0:0:
49,116,85673,1,2,0:2:0:0:
103,46,85967,2,0,P|186:32|244:94,1,176.000005371094,2|8,1:2|0:2,0:0:0:0:
279,174,86849,1,2,0:2:0:0:
355,129,87143,6,0,P|438:115|496:177,1,176.000005371094,2|10,3:2|0:2,0:0:0:0:
485,264,88026,1,2,0:2:0:0:
400,239,88320,2,0,L|311:255,1,88.000002685547,2|2,1:2|0:2,0:0:0:0:
269,330,88908,1,10,0:2:0:0:
187,296,89202,1,2,0:2:0:0:
112,342,89496,6,0,L|81:168,1,176.000005371094,2|10,3:2|0:2,0:0:0:0:
49,86,90379,1,2,0:2:0:0:
135,102,90673,2,0,P|177:109|216:89,1,88.000002685547,2|2,1:2|0:2,0:0:0:0:
284,34,91261,2,0,P|326:26|365:46,1,88.000002685547,10|2,0:2|0:2,0:0:0:0:
411,120,91849,6,0,P|359:187|275:181,1,176.000005371094,2|8,3:2|0:2,0:0:0:0:
217,114,92732,1,2,0:2:0:0:
143,160,93026,2,0,P|123:242|181:303,1,176.000005371094,2|10,1:2|0:2,0:0:0:0:
263,334,93908,2,0,L|306:327,1,44.0000013427735,8|8,0:2|0:2,0:0:0:0:
343,350,94202,6,0,B|397:282|397:282|365:199,1,176.000005371094,6|10,3:2|0:2,0:0:0:0:
426,136,95084,1,2,0:2:0:0:
393,53,95379,2,0,B|307:26|307:26|243:85,1,176.000005371094,2|8,1:2|0:2,0:0:0:0:
288,160,96261,1,2,0:2:0:0:
227,223,96555,6,0,L|53:192,1,176.000005371094,2|10,3:2|0:2,0:0:0:0:
33,277,97437,1,2,0:2:0:0:
100,333,97732,2,0,L|186:316,1,88.000002685547,2|2,1:2|0:2,0:0:0:0:
265,353,98320,2,0,L|351:336,1,88.000002685547,10|2,0:2|0:2,0:0:0:0:
424,287,98908,6,0,P|436:203|374:146,1,176.000005371094,2|10,3:2|0:2,0:0:0:0:
322,74,99790,1,2,0:2:0:0:
250,125,100084,2,0,P|206:127|171:103,1,88.000002685547,2|2,1:2|0:2,0:0:0:0:
133,23,100673,1,10,0:2:0:0:
57,67,100967,1,2,0:2:0:0:
95,145,101261,6,0,L|125:319,1,176.000005371094,2|8,3:2|0:2,0:0:0:0:
197,368,102143,1,2,0:2:0:0:
280,340,102437,2,0,L|310:167,1,176.000005371094,2|10,1:2|0:2,0:0:0:0:
235,119,103320,2,0,L|228:75,1,44.0000013427735,8|8,0:2|0:2,0:0:0:0:
223,31,103614,6,0,B|309:4|309:4|373:63,1,176.000005371094,6|10,3:2|0:2,0:0:0:0:
420,135,104496,1,2,0:2:0:0:
378,212,104790,2,0,B|314:270|314:270|228:243,1,176.000005371094,2|8,1:2|0:2,0:0:0:0:
170,309,105673,1,2,0:2:0:0:
88,276,105967,6,0,L|58:103,1,176.000005371094,2|10,3:2|0:2,0:0:0:0:
111,32,106849,1,2,0:2:0:0:
156,107,107143,2,0,L|243:90,1,88.000002685547,2|2,1:2|0:2,0:0:0:0:
304,27,107732,1,10,0:2:0:0:
390,44,108026,1,2,0:2:0:0:
417,127,108320,6,0,P|429:210|366:266,1,176.000005371094,2|10,3:2|0:2,0:0:0:0:
348,179,109202,1,2,0:2:0:0:
278,232,109496,2,0,P|234:235|199:211,1,88.000002685547,2|2,1:2|0:2,0:0:0:0:
113,230,110084,2,0,P|109:186|133:151,1,88.000002685547,10|2,0:2|0:2,0:0:0:0:
210,108,110673,6,0,P|126:120|70:57,1,176.000005371094,2|8,3:2|0:2,0:0:0:0:
243,26,111849,2,0,L|437:58,1,176.000005371094,0|8,3:2|0:2,0:0:0:0:
469,125,112732,2,0,L|477:168,1,44.0000013427735,8|8,0:2|0:2,0:0:0:0:
