osu file format v14

[General]
AudioFilename: audio.ogg
AudioLeadIn: 0
PreviewTime: 73834
Countdown: 0
SampleSet: Soft
StackLeniency: 0.7
Mode: 0
LetterboxInBreaks: 0
WidescreenStoryboard: 1

[Editor]
Bookmarks: 56555
DistanceSpacing: 1.6
BeatDivisor: 4
GridSize: 4
TimelineZoom: 1.16

[Metadata]
Title:Fruktovaya zhvachka (Cut Ver.)
TitleUnicode:Фруктовая жвачка (Cut Ver.)
Artist:The Paws Element
ArtistUnicode:The Paws Element
Creator:defreeyay
Version:Fruity gum
Source:
Tags:павс элемент Paw's fruit fruity chewing gum gay lgbt pride dog doggy retrowave ретровейв retro ретро поп-панк панк pop-punk punk русский поп russian pop фурри собака собачка furries furry short version aqilmanuar
BeatmapID:4418725
BeatmapSetID:1559802

[Difficulty]
HPDrainRate:5
CircleSize:4.1
OverallDifficulty:7
ApproachRate:7.5
SliderMultiplier:1.7
SliderTickRate:1

[Events]
//Background and Video events
0,0,"bgpride.jpg",0,0
//Break Periods
//Storyboard Layer 0 (Background)
//Storyboard Layer 1 (Fail)
//Storyboard Layer 2 (Pass)
//Storyboard Layer 3 (Foreground)
//Storyboard Layer 4 (Overlay)
//Storyboard Sound Samples

[TimingPoints]
85,588.235294117647,4,2,1,30,1,0
18614,-105.263157894737,4,2,1,5,0,0
18908,-105.263157894737,4,2,1,60,0,0
23173,-105.263157894737,4,2,1,35,0,0
23614,-105.263157894737,4,2,1,60,0,0
32584,-105.263157894737,4,2,1,35,0,0
33026,-105.263157894737,4,2,1,60,0,0
37732,-100,4,2,1,65,0,0
41996,-100,4,2,1,40,0,0
42437,-100,4,2,1,65,0,0
51408,-100,4,2,1,40,0,0
51849,-100,4,2,1,65,0,0
60820,-100,4,2,1,40,0,0
61261,-100,4,2,1,65,0,0
70232,-100,4,2,1,40,0,0
70673,-100,4,2,1,65,0,0
75379,-90.9090909090909,4,2,1,70,0,1
113026,-90.9090909090909,4,2,1,30,0,0

[Colours]
Combo1 : 98,90,186
Combo2 : 120,78,178
Combo3 : 186,113,217
Combo4 : 53,46,141

[HitObjects]
256,192,16555,12,0,18614,0:0:0:0:
161,31,18908,6,0,P|95:19|46:59,1,121.124996765614,4|0,3:2|1:2,0:0:0:0:
31,79,19496,1,10,0:2:0:0:
127,173,19790,2,0,L|115:87,1,80.7499978437424,2|0,1:2|0:0,0:0:0:0:
115,61,20232,1,0,1:2:0:0:
115,61,20379,1,0,1:2:0:0:
234,108,20673,1,8,0:2:0:0:
188,223,20967,1,0,0:0:0:0:
144,335,21261,6,0,P|213:341|262:317,1,121.124996765614,0|0,3:2|1:2,0:0:0:0:
289,300,21849,1,10,0:2:0:0:
181,187,22143,2,0,L|194:273,1,80.7499978437424,2|0,1:2|0:0,0:0:0:0:
203,306,22585,1,0,1:2:0:0:
203,306,22732,1,2,1:2:0:0:
356,357,23026,1,10,0:2:0:0:
383,364,23173,1,8,0:2:0:0:
410,362,23320,1,10,0:2:0:0:
436,352,23467,1,8,0:2:0:0:
458,333,23614,6,0,B|445:193,1,121.124996765614,2|0,3:2|1:2,0:0:0:0:
444,176,24202,1,10,0:2:0:0:
504,48,24496,2,0,P|433:87|354:61,1,161.499995687485,2|0,1:2|1:2,0:0:0:0:
213,1,25379,1,8,0:2:0:0:
259,99,25673,1,0,0:0:0:0:
164,201,25967,6,0,P|95:207|31:222,1,121.124996765614,0|0,3:2|1:2,0:0:0:0:
10,230,26555,1,10,0:2:0:0:
48,366,26849,2,0,P|128:349|211:342,1,161.499995687485,2|0,1:2|1:2,0:0:0:0:
374,281,27732,1,8,0:2:0:0:
302,379,28026,1,0,0:0:0:0:
227,232,28320,6,0,P|217:169|208:108,1,121.124996765614,2|0,3:2|1:2,0:0:0:0:
205,76,28908,1,10,0:2:0:0:
310,185,29202,2,0,L|295:90,1,80.7499978437424,2|0,1:2|0:0,0:0:0:0:
296,72,29643,1,0,1:2:0:0:
296,72,29790,1,0,1:2:0:0:
179,158,30084,1,10,0:2:0:0:
273,277,30379,1,2,3:2:0:0:
404,180,30673,6,0,P|411:239|422:301,1,121.124996765614,2|0,3:2|1:2,0:0:0:0:
434,333,31261,1,10,0:2:0:0:
301,375,31555,2,0,P|256:379|211:356,1,80.7499978437424,2|0,1:2|0:0,0:0:0:0:
197,349,31996,1,0,1:2:0:0:
197,349,32143,1,0,1:2:0:0:
235,204,32437,1,8,0:2:0:0:
261,197,32584,1,8,0:2:0:0:
289,198,32732,1,8,0:2:0:0:
315,209,32879,1,8,0:2:0:0:
337,227,33026,6,0,B|392:220|392:220|407:225|407:225|476:216,1,121.124996765614,2|0,3:2|1:2,0:0:0:0:
492,213,33614,1,10,0:2:0:0:
441,89,33908,2,0,L|353:100,1,80.7499978437424,2|0,1:2|3:2,0:0:0:0:
328,107,34349,1,0,1:2:0:0:
328,107,34496,1,0,1:2:0:0:
239,201,34790,1,10,0:2:0:0:
343,286,35084,1,2,0:2:0:0:
214,364,35379,6,0,P|152:370|97:333,1,121.124996765614,2|0,3:2|1:2,0:0:0:0:
79,313,35967,1,8,0:2:0:0:
184,229,36261,1,2,1:2:0:0:
312,329,36555,2,0,B|420:312|420:312|437:341|454:355,1,161.499995687485,2|8,0:2|0:2,0:0:0:0:
333,115,37732,6,0,L|345:199,1,85,0|2,3:2|0:2,0:0:0:0:
355,240,38173,1,0,1:2:0:0:
355,240,38320,1,10,0:2:0:0:
242,347,38614,2,0,P|200:354|160:332,1,85,2|0,1:2|0:0,0:0:0:0:
144,308,39055,1,0,1:2:0:0:
144,308,39202,2,0,L|131:223,1,85,2|8,1:2|0:2,0:0:0:0:
104,85,39790,1,0,0:0:0:0:
251,139,40084,6,0,P|296:129|341:126,1,85,0|2,3:2|0:2,0:0:0:0:
376,124,40526,1,0,1:2:0:0:
376,124,40673,1,10,0:2:0:0:
251,18,40967,2,0,P|209:27|167:30,1,85,2|0,1:2|0:0,0:0:0:0:
132,35,41408,1,0,1:2:0:0:
132,35,41555,1,2,1:2:0:0:
37,151,41849,1,10,0:2:0:0:
22,181,41996,1,8,0:2:0:0:
23,216,42143,1,10,0:2:0:0:
36,247,42290,1,8,0:2:0:0:
62,271,42437,6,0,L|163:256,1,85,2|2,3:2|0:2,0:0:0:0:
187,256,42879,1,0,1:2:0:0:
187,256,43026,1,10,0:2:0:0:
288,355,43320,2,0,P|272:316|276:264,1,85,2|0,1:2|0:0,0:0:0:0:
286,240,43761,1,0,1:2:0:0:
286,240,43908,2,0,L|371:229,1,85,2|8,1:2|0:2,0:0:0:0:
511,212,44496,1,0,0:0:0:0:
421,76,44790,6,0,L|434:175,1,85,0|2,3:2|0:2,0:0:0:0:
440,202,45232,1,0,1:2:0:0:
440,202,45379,1,10,0:2:0:0:
264,221,45673,2,0,L|249:122,1,85,2|0,1:2|0:0,0:0:0:0:
249,102,46114,1,0,1:2:0:0:
249,102,46262,1,2,1:2:0:0:
421,76,46555,1,10,0:2:0:0:
350,191,46849,1,2,0:2:0:0:
277,25,47143,6,0,P|230:21|181:48,1,85,2|2,3:2|0:2,0:0:0:0:
164,54,47584,1,0,1:2:0:0:
164,54,47732,1,10,0:2:0:0:
219,193,48026,2,0,P|266:197|315:171,1,85,2|0,1:2|0:0,0:0:0:0:
340,174,48467,1,0,1:2:0:0:
340,174,48614,2,0,L|353:257,1,85,2|8,1:2|0:2,0:0:0:0:
274,384,49202,1,0,3:2:0:0:
146,252,49496,6,0,P|105:246|60:272,1,85,0|2,3:2|0:2,0:0:0:0:
39,290,49937,1,0,1:2:0:0:
39,290,50084,1,10,0:2:0:0:
212,306,50379,2,0,P|230:268|224:226,1,85,2|0,1:2|0:0,0:0:0:0:
219,193,50820,1,0,1:2:0:0:
219,193,50967,1,2,1:2:0:0:
167,51,51261,1,10,0:2:0:0:
137,35,51408,1,8,0:2:0:0:
102,35,51555,1,10,0:2:0:0:
71,48,51702,1,8,0:2:0:0:
46,73,51849,6,0,B|53:130|53:130|49:149|49:149|56:198,1,127.5,2|0,3:2|1:2,0:0:0:0:
72,236,52437,1,10,0:2:0:0:
235,214,52732,1,2,1:2:0:0:
170,356,53026,2,0,L|159:271,1,85,2|2,3:2|1:2,0:0:0:0:
229,105,53614,1,10,0:2:0:0:
322,176,53908,1,2,0:2:0:0:
437,88,54202,6,0,B|416:103|405:123|405:123|420:157|432:205,1,127.5,2|0,3:2|1:2,0:0:0:0:
409,236,54790,2,0,P|369:255|317:246,1,85,10|0,0:2|1:2,0:0:0:0:
287,242,55232,2,0,P|245:237|207:255,1,85,2|0,0:2|1:2,0:0:0:0:
171,276,55673,1,2,1:2:0:0:
274,349,55967,1,10,0:2:0:0:
360,257,56261,1,2,0:2:0:0:
244,143,56555,6,0,L|256:226,1,85,6|2,3:2|0:2,0:0:0:0:
267,267,56996,1,0,1:2:0:0:
267,267,57143,1,10,0:2:0:0:
426,323,57437,2,0,L|440:227,1,85,2|0,1:2|0:0,0:0:0:0:
447,204,57879,1,0,1:2:0:0:
447,204,58026,1,2,1:2:0:0:
363,67,58320,1,8,0:2:0:0:
468,104,58613,1,0,0:0:0:0:
311,189,58907,6,0,P|266:195|221:202,1,85,0|2,3:2|0:2,0:0:0:0:
192,212,59349,1,0,1:2:0:0:
192,212,59496,1,10,0:2:0:0:
74,118,59790,2,0,P|89:156|85:202,1,85,2|0,1:2|0:0,0:0:0:0:
75,237,60231,1,0,1:2:0:0:
75,237,60378,1,2,1:2:0:0:
163,350,60672,1,10,0:2:0:0:
192,366,60819,1,8,0:2:0:0:
227,366,60966,1,10,0:2:0:0:
258,354,61113,1,8,0:2:0:0:
283,329,61260,6,0,L|271:227,1,85,2|2,3:2|0:2,0:0:0:0:
272,209,61702,1,0,1:2:0:0:
272,209,61849,1,10,0:2:0:0:
324,72,62143,2,0,P|365:58|411:72,1,85,2|0,1:2|0:0,0:0:0:0:
443,85,62584,1,0,1:2:0:0:
443,85,62732,1,2,1:2:0:0:
498,219,63026,1,8,0:2:0:0:
398,168,63319,1,0,0:0:0:0:
305,301,63613,6,0,P|263:295|205:290,1,85,0|2,3:2|0:2,0:0:0:0:
186,287,64055,1,0,1:2:0:0:
186,287,64202,1,10,0:2:0:0:
315,202,64496,2,0,P|273:196|215:191,1,85,2|0,1:2|0:0,0:0:0:0:
196,188,64938,1,0,1:2:0:0:
196,188,65085,1,2,1:2:0:0:
24,217,65378,1,10,0:2:0:0:
127,303,65672,1,2,0:2:0:0:
96,136,65966,6,0,L|79:46,1,85,2|2,3:2|0:2,0:0:0:0:
77,18,66407,1,0,1:2:0:0:
77,18,66555,1,10,0:2:0:0:
246,47,66849,2,0,P|196:42|151:65,1,85,2|0,1:2|0:0,0:0:0:0:
133,75,67290,1,0,1:2:0:0:
133,75,67437,1,2,1:2:0:0:
219,186,67732,1,8,0:2:0:0:
323,60,68025,1,0,3:2:0:0:
453,184,68319,6,0,P|457:227|464:275,1,85,0|2,3:2|0:2,0:0:0:0:
471,309,68760,1,0,1:2:0:0:
471,309,68907,1,10,0:2:0:0:
327,241,69202,2,0,P|284:245|236:252,1,85,2|0,1:2|0:0,0:0:0:0:
208,259,69643,1,0,1:2:0:0:
208,259,69790,1,2,1:2:0:0:
348,321,70084,1,10,0:2:0:0:
378,305,70231,1,8,0:2:0:0:
399,277,70378,1,10,0:2:0:0:
406,244,70526,1,8,0:2:0:0:
401,210,70672,6,0,P|373:156|388:76,1,127.5,2|0,3:2|1:2,0:0:0:0:
392,55,71261,2,0,L|289:42,1,85,10|0,0:2|1:2,0:0:0:0:
273,40,71702,1,2,0:2:0:0:
273,40,71849,2,0,L|262:129,1,85,2|0,3:2|1:2,0:0:0:0:
261,165,72290,1,2,0:2:0:0:
261,165,72437,1,10,0:2:0:0:
240,309,72732,1,2,0:2:0:0:
69,288,73026,6,0,P|27:215|99:166,1,170,2|8,3:2|0:2,0:0:0:0:
261,165,73908,1,2,1:2:0:0:
177,37,74202,1,2,0:2:0:0:
177,37,74349,1,0,1:2:0:0:
177,37,74496,1,0,1:2:0:0:
175,208,74790,1,10,0:2:0:0:
175,208,75379,6,0,L|60:224,1,93.5000028533936,6|0,3:2|0:0,0:0:0:0:
23,266,75820,1,2,0:2:0:0:
76,318,75967,1,10,0:2:0:0:
244,236,76261,1,2,0:2:0:0:
60,90,76555,2,0,L|255:66,1,187.000005706787,2|8,1:2|0:2,0:0:0:0:
438,47,77437,1,2,0:2:0:0:
343,224,77732,6,0,L|330:131,1,93.5000028533936,2|0,3:2|0:0,0:0:0:0:
367,66,78173,1,2,0:2:0:0:
420,118,78320,2,0,L|432:210,1,93.5000028533936,10|2,0:2|0:2,0:0:0:0:
382,381,78908,1,2,1:2:0:0:
211,291,79202,1,2,0:2:0:0:
343,224,79496,1,10,0:2:0:0:
295,345,79790,1,2,0:2:0:0:
79,315,80084,6,0,P|59:225|33:126,1,187.000005706787,2|10,3:2|0:2,0:0:0:0:
0,0,80967,1,2,0:2:0:0:
153,104,81261,2,0,P|203:111|245:94,1,93.5000028533936,2|2,1:2|0:2,0:0:0:0:
306,58,81702,1,2,0:2:0:0:
354,114,81849,1,10,0:2:0:0:
238,242,82143,1,2,0:2:0:0:
89,60,82437,6,0,B|56:176|127:132|93:255,1,187.000005706787,2|8,3:2|0:2,0:0:0:0:
82,318,83173,1,0,1:2:0:0:
82,318,83320,1,2,0:2:0:0:
290,352,83614,2,0,P|307:308|303:262,1,93.5000028533936,2|0,1:2|0:0,0:0:0:0:
221,90,84202,1,10,0:2:0:0:
203,105,84349,1,0,0:0:0:0:
182,178,84496,1,8,0:2:0:0:
223,247,84643,1,8,0:2:0:0:
304,263,84790,6,0,L|407:248,1,93.5000028533936,6|0,3:2|0:0,0:0:0:0:
463,212,85232,1,2,0:2:0:0:
416,153,85379,1,10,0:2:0:0:
235,233,85673,1,2,0:2:0:0:
447,383,85967,2,0,B|460:354|486:333|486:333|461:200,1,187.000005706787,2|8,1:2|0:2,0:0:0:0:
429,50,86849,1,2,0:2:0:0:
281,188,87143,6,0,P|235:191|186:166,1,93.5000028533936,2|0,3:2|0:0,0:0:0:0:
161,104,87584,1,2,0:2:0:0:
213,50,87732,2,0,P|258:46|307:71,1,93.5000028533936,10|2,0:2|0:2,0:0:0:0:
461,182,88320,1,2,1:2:0:0:
260,220,88613,1,2,0:2:0:0:
402,93,88907,1,10,0:2:0:0:
274,116,89202,1,2,0:2:0:0:
467,268,89496,6,0,P|373:286|266:307,1,187.000005706787,2|10,3:2|0:2,0:0:0:0:
93,339,90378,1,2,0:2:0:0:
141,138,90672,2,0,P|149:184|157:230,1,93.5000028533936,2|2,1:2|0:2,0:0:0:0:
223,265,91113,1,2,0:2:0:0:
281,218,91260,1,10,0:2:0:0:
180,48,91554,1,2,0:2:0:0:
3,188,91849,6,0,B|15:270|15:270|4:295|4:295|19:383,1,187.000005706787,2|8,3:2|0:2,0:0:0:0:
94,367,92584,1,0,1:2:0:0:
94,367,92732,1,2,0:2:0:0:
185,203,93026,2,0,L|89:216,1,93.5000028533936,2|0,1:2|0:0,0:0:0:0:
264,340,93614,1,10,0:2:0:0:
282,354,93761,1,0,0:0:0:0:
355,367,93908,1,8,0:2:0:0:
418,317,94055,1,8,0:2:0:0:
424,233,94202,6,0,P|416:181|408:127,1,93.5000028533936,6|0,3:2|0:0,0:0:0:0:
356,87,94644,1,2,0:2:0:0:
313,147,94790,1,10,0:2:0:0:
498,235,95084,1,2,0:2:0:0:
282,354,95379,2,0,B|234:357|199:319|199:319|165:362|99:357,1,187.000005706787,2|8,1:2|0:2,0:0:0:0:
2,245,96261,1,2,0:2:0:0:
211,140,96555,6,0,P|164:147|118:151,1,93.5000028533936,2|0,3:2|0:0,0:0:0:0:
73,211,96996,1,2,0:2:0:0:
131,257,97143,2,0,P|177:252|223:245,1,93.5000028533936,10|2,0:2|0:2,0:0:0:0:
430,209,97731,1,2,1:2:0:0:
300,107,98026,1,2,0:2:0:0:
333,291,98320,1,10,0:2:0:0:
430,209,98614,1,2,0:2:0:0:
341,26,98908,6,0,B|215:13|273:77|161:67,1,187.000005706787,2|10,3:2|0:2,0:0:0:0:
0,123,99790,1,2,0:2:0:0:
127,267,100084,2,0,P|120:220|113:168,1,93.5000028533936,2|2,1:2|0:2,0:0:0:0:
159,114,100526,1,2,0:2:0:0:
221,155,100673,1,10,0:2:0:0:
345,29,100967,1,2,0:2:0:0:
498,217,101261,6,0,B|544:281|492:345|492:345|431:332,1,187.000005706787,2|8,3:2|0:2,0:0:0:0:
379,312,101996,1,0,1:2:0:0:
379,312,102143,1,2,0:2:0:0:
196,384,102437,2,0,P|188:337|180:287,1,93.5000028533936,2|0,1:2|0:0,0:0:0:0:
279,126,103026,1,10,0:2:0:0:
294,143,103173,1,0,0:0:0:0:
311,215,103320,1,8,0:2:0:0:
264,280,103467,1,8,0:2:0:0:
180,291,103614,6,0,L|71:278,1,93.5000028533936,6|0,3:2|0:0,0:0:0:0:
31,229,104055,1,2,0:2:0:0:
75,168,104201,1,10,0:2:0:0:
279,126,104497,1,2,0:2:0:0:
63,0,104790,2,0,B|33:120|33:120|75:168,1,187.000005706787,2|8,1:2|0:2,0:0:0:0:
191,285,105673,1,2,0:2:0:0:
341,134,105967,6,0,P|291:116|237:129,1,93.5000028533936,2|0,3:2|0:0,0:0:0:0:
188,162,106408,1,2,0:2:0:0:
239,216,106555,2,0,P|288:233|342:220,1,93.5000028533936,10|2,0:2|0:2,0:0:0:0:
512,157,107143,1,2,1:2:0:0:
342,79,107437,1,2,0:2:0:0:
424,245,107732,1,10,0:2:0:0:
512,157,108026,1,2,0:2:0:0:
350,322,108320,6,0,B|292:288|243:322|243:322|213:359|154:343,1,187.000005706787,2|10,3:2|0:2,0:0:0:0:
23,283,109202,1,2,0:2:0:0:
167,136,109496,2,0,P|198:180|194:225,1,93.5000028533936,2|2,1:2|0:2,0:0:0:0:
154,279,109937,1,2,0:2:0:0:
87,244,110084,1,10,0:2:0:0:
204,75,110378,1,2,0:2:0:0:
347,278,110673,6,0,B|360:295|374:315|374:315|395:162,1,187.000005706787,2|8,3:2|0:2,0:0:0:0:
406,104,111408,1,0,1:2:0:0:
406,104,111555,1,0,0:0:0:0:
216,181,111849,2,0,L|312:189,1,93.5000028533936,0|0,3:2|0:0,0:0:0:0:
193,52,112437,1,8,0:2:0:0:
171,35,112584,1,0,0:0:0:0:
96,20,112731,1,8,0:2:0:0:
32,69,112878,1,8,0:2:0:0:
